  0
SECTION
  2
HEADER
  9
$ACADVER
  1
AC1032
  9
$ACADMAINTVER
 90
      155
  9
$DWGCODEPAGE
  3
ANSI_1252
  9
$LASTSAVEDBY
  1
falinoori
  9
$REQUIREDVERSIONS
160
                 0
  9
$INSBASE
 10
0.0000000000000027
 20
0.0000000000001705
 30
0.0
  9
$EXTMIN
 10
-318.5056951083757
 20
-214.1159129690572
 30
0.0
  9
$EXTMAX
 10
345.4553969936656
 20
241.4170579771706
 30
0.0
  9
$LIMMIN
 10
0.0
 20
0.0
  9
$LIMMAX
 10
420.0
 20
297.0
  9
$ORTHOMODE
 70
     1
  9
$REGENMODE
 70
     1
  9
$FILLMODE
 70
     1
  9
$QTEXTMODE
 70
     0
  9
$MIRRTEXT
 70
     1
  9
$LTSCALE
 40
0.25
  9
$ATTMODE
 70
     1
  9
$TEXTSIZE
 40
5.0
  9
$TRACEWID
 40
10.0
  9
$TEXTSTYLE
  7
arial
  9
$CLAYER
  8
ANCON-DSD
  9
$CELTYPE
  6
ByLayer
  9
$CECOLOR
 62
     1
  9
$CELTSCALE
 40
1.0
  9
$DISPSILH
 70
     0
  9
$DIMSCALE
 40
0.0
  9
$DIMASZ
 40
4.0
  9
$DIMEXO
 40
3.0
  9
$DIMDLI
 40
10.0
  9
$DIMRND
 40
0.0
  9
$DIMDLE
 40
1.25
  9
$DIMEXE
 40
3.0
  9
$DIMTP
 40
0.0
  9
$DIMTM
 40
0.0
  9
$DIMTXT
 40
3.0
  9
$DIMCEN
 40
-3.0
  9
$DIMTSZ
 40
0.0
  9
$DIMTOL
 70
     0
  9
$DIMLIM
 70
     0
  9
$DIMTIH
 70
     0
  9
$DIMTOH
 70
     0
  9
$DIMSE1
 70
     0
  9
$DIMSE2
 70
     0
  9
$DIMTAD
 70
     1
  9
$DIMZIN
 70
    12
  9
$DIMBLK
  1

  9
$DIMASO
 70
     1
  9
$DIMSHO
 70
     0
  9
$DIMPOST
  1

  9
$DIMAPOST
  1

  9
$DIMALT
 70
     0
  9
$DIMALTD
 70
     2
  9
$DIMALTF
 40
0.04
  9
$DIMLFAC
 40
1.0
  9
$DIMTOFL
 70
     0
  9
$DIMTVP
 40
0.0
  9
$DIMTIX
 70
     0
  9
$DIMSOXD
 70
     0
  9
$DIMSAH
 70
     0
  9
$DIMBLK1
  1

  9
$DIMBLK2
  1

  9
$DIMSTYLE
  2
1-2
  9
$DIMCLRD
 70
     0
  9
$DIMCLRE
 70
     0
  9
$DIMCLRT
 70
     0
  9
$DIMTFAC
 40
0.75
  9
$DIMGAP
 40
1.5
  9
$DIMJUST
 70
     0
  9
$DIMSD1
 70
     0
  9
$DIMSD2
 70
     0
  9
$DIMTOLJ
 70
     1
  9
$DIMTZIN
 70
    12
  9
$DIMALTZ
 70
    12
  9
$DIMALTTZ
 70
    12
  9
$DIMUPT
 70
     0
  9
$DIMDEC
 70
     2
  9
$DIMTDEC
 70
     2
  9
$DIMALTU
 70
     2
  9
$DIMALTTD
 70
     2
  9
$DIMTXSTY
  7
STANDARD
  9
$DIMAUNIT
 70
     0
  9
$DIMADEC
 70
     0
  9
$DIMALTRND
 40
0.0
  9
$DIMAZIN
 70
     0
  9
$DIMDSEP
 70
    46
  9
$DIMATFIT
 70
     3
  9
$DIMFRAC
 70
     0
  9
$DIMLDRBLK
  1

  9
$DIMLUNIT
 70
     2
  9
$DIMLWD
 70
    -2
  9
$DIMLWE
 70
    -2
  9
$DIMTMOVE
 70
     2
  9
$DIMFXL
 40
1.0
  9
$DIMFXLON
 70
     0
  9
$DIMJOGANG
 40
0.7853981633974483
  9
$DIMTFILL
 70
     0
  9
$DIMTFILLCLR
 70
     0
  9
$DIMARCSYM
 70
     0
  9
$DIMLTYPE
  6

  9
$DIMLTEX1
  6

  9
$DIMLTEX2
  6

  9
$DIMTXTDIRECTION
 70
     0
  9
$LUNITS
 70
     2
  9
$LUPREC
 70
     2
  9
$SKETCHINC
 40
1.0
  9
$FILLETRAD
 40
0.0
  9
$AUNITS
 70
     0
  9
$AUPREC
 70
     4
  9
$MENU
  1
acad
  9
$ELEVATION
 40
0.0
  9
$PELEVATION
 40
0.0
  9
$THICKNESS
 40
0.0
  9
$LIMCHECK
 70
     0
  9
$CHAMFERA
 40
0.0
  9
$CHAMFERB
 40
0.0
  9
$CHAMFERC
 40
0.0
  9
$CHAMFERD
 40
0.0
  9
$SKPOLY
 70
     0
  9
$TDCREATE
 40
2450011.892708333
  9
$TDUCREATE
 40
2450011.434378357
  9
$TDUPDATE
 40
2459587.694386574
  9
$TDUUPDATE
 40
2459587.236053241
  9
$TDINDWG
 40
0.0371015394
  9
$TDUSRTIMER
 40
0.0371015394
  9
$USRTIMER
 70
     1
  9
$ANGBASE
 50
0.0
  9
$ANGDIR
 70
     0
  9
$PDMODE
 70
     0
  9
$PDSIZE
 40
0.0
  9
$PLINEWID
 40
0.0
  9
$SPLFRAME
 70
     0
  9
$SPLINETYPE
 70
     6
  9
$SPLINESEGS
 70
     8
  9
$HANDSEED
  5
21A
  9
$SURFTAB1
 70
    18
  9
$SURFTAB2
 70
    18
  9
$SURFTYPE
 70
     6
  9
$SURFU
 70
    18
  9
$SURFV
 70
    18
  9
$UCSBASE
  2

  9
$UCSNAME
  2

  9
$UCSORG
 10
0.0
 20
0.0
 30
0.0
  9
$UCSXDIR
 10
1.0
 20
0.0
 30
0.0
  9
$UCSYDIR
 10
0.0
 20
1.0
 30
0.0
  9
$UCSORTHOREF
  2

  9
$UCSORTHOVIEW
 70
     0
  9
$UCSORGTOP
 10
0.0
 20
0.0
 30
0.0
  9
$UCSORGBOTTOM
 10
0.0
 20
0.0
 30
0.0
  9
$UCSORGLEFT
 10
0.0
 20
0.0
 30
0.0
  9
$UCSORGRIGHT
 10
0.0
 20
0.0
 30
0.0
  9
$UCSORGFRONT
 10
0.0
 20
0.0
 30
0.0
  9
$UCSORGBACK
 10
0.0
 20
0.0
 30
0.0
  9
$PUCSBASE
  2

  9
$PUCSNAME
  2

  9
$PUCSORG
 10
0.0
 20
0.0
 30
0.0
  9
$PUCSXDIR
 10
1.0
 20
0.0
 30
0.0
  9
$PUCSYDIR
 10
0.0
 20
1.0
 30
0.0
  9
$PUCSORTHOREF
  2

  9
$PUCSORTHOVIEW
 70
     0
  9
$PUCSORGTOP
 10
0.0
 20
0.0
 30
0.0
  9
$PUCSORGBOTTOM
 10
0.0
 20
0.0
 30
0.0
  9
$PUCSORGLEFT
 10
0.0
 20
0.0
 30
0.0
  9
$PUCSORGRIGHT
 10
0.0
 20
0.0
 30
0.0
  9
$PUCSORGFRONT
 10
0.0
 20
0.0
 30
0.0
  9
$PUCSORGBACK
 10
0.0
 20
0.0
 30
0.0
  9
$USERI1
 70
     0
  9
$USERI2
 70
     0
  9
$USERI3
 70
     0
  9
$USERI4
 70
     0
  9
$USERI5
 70
     0
  9
$USERR1
 40
0.0
  9
$USERR2
 40
0.0
  9
$USERR3
 40
0.0
  9
$USERR4
 40
0.0
  9
$USERR5
 40
0.0
  9
$WORLDVIEW
 70
     1
  9
$SHADEDGE
 70
     3
  9
$SHADEDIF
 70
    70
  9
$TILEMODE
 70
     1
  9
$MAXACTVP
 70
    16
  9
$PINSBASE
 10
0.0
 20
0.0
 30
0.0
  9
$PLIMCHECK
 70
     0
  9
$PEXTMIN
 10
1.614583349603368
 20
1.129749872553066
 30
0.0
  9
$PEXTMAX
 10
14.5312501464303
 20
10.1677488529776
 30
0.0
  9
$PLIMMIN
 10
-0.1979161059762549
 20
-0.1979166691697489
  9
$PLIMMAX
 10
16.34375024029589
 20
11.49541603298638
  9
$UNITMODE
 70
     0
  9
$VISRETAIN
 70
     0
  9
$PLINEGEN
 70
     0
  9
$PSLTSCALE
 70
     1
  9
$TREEDEPTH
 70
  3020
  9
$CMLSTYLE
  2
Standard
  9
$CMLJUST
 70
     0
  9
$CMLSCALE
 40
1.0
  9
$PROXYGRAPHICS
 70
     1
  9
$MEASUREMENT
 70
     0
  9
$CELWEIGHT
370
    -1
  9
$ENDCAPS
280
     0
  9
$JOINSTYLE
280
     0
  9
$LWDISPLAY
290
     0
  9
$INSUNITS
 70
     0
  9
$HYPERLINKBASE
  1

  9
$STYLESHEET
  1

  9
$XEDIT
290
     1
  9
$CEPSNTYPE
380
     0
  9
$PSTYLEMODE
290
     1
  9
$FINGERPRINTGUID
  2
{2FED45AF-4E8E-45C8-9A93-958984378C52}
  9
$VERSIONGUID
  2
{698BF958-115A-C04A-A273-2C3E5B34B56A}
  9
$EXTNAMES
290
     1
  9
$PSVPSCALE
 40
0.0
  9
$OLESTARTUP
290
     0
  9
$SORTENTS
280
   127
  9
$INDEXCTL
280
     0
  9
$HIDETEXT
280
     0
  9
$XCLIPFRAME
280
     2
  9
$HALOGAP
280
     0
  9
$OBSCOLOR
 70
   257
  9
$OBSLTYPE
280
     0
  9
$INTERSECTIONDISPLAY
280
     0
  9
$INTERSECTIONCOLOR
 70
   257
  9
$DIMASSOC
280
     1
  9
$PROJECTNAME
  1

  9
$CAMERADISPLAY
290
     0
  9
$LENSLENGTH
 40
50.0
  9
$CAMERAHEIGHT
 40
0.0
  9
$STEPSPERSEC
 40
2.0
  9
$STEPSIZE
 40
6.0
  9
$3DDWFPREC
 40
2.0
  9
$PSOLWIDTH
 40
0.25
  9
$PSOLHEIGHT
 40
4.0
  9
$LOFTANG1
 40
1.570796326794896
  9
$LOFTANG2
 40
1.570796326794896
  9
$LOFTMAG1
 40
0.0
  9
$LOFTMAG2
 40
0.0
  9
$LOFTPARAM
 70
     7
  9
$LOFTNORMALS
280
     1
  9
$LATITUDE
 40
37.795
  9
$LONGITUDE
 40
-122.394
  9
$NORTHDIRECTION
 40
0.0
  9
$TIMEZONE
 70
 -8000
  9
$LIGHTGLYPHDISPLAY
280
     1
  9
$TILEMODELIGHTSYNCH
280
     1
  9
$CMATERIAL
347
128
  9
$SOLIDHIST
280
     0
  9
$SHOWHIST
280
     1
  9
$DWFFRAME
280
     2
  9
$DGNFRAME
280
     0
  9
$REALWORLDSCALE
290
     1
  9
$INTERFERECOLOR
 62
     1
  9
$INTERFEREOBJVS
345
14A
  9
$INTERFEREVPVS
346
147
  9
$CSHADOW
280
     0
  9
$SHADOWPLANELOCATION
 40
0.0
  0
ENDSEC
  0
SECTION
  2
CLASSES
  0
CLASS
  1
ACDBDICTIONARYWDFLT
  2
AcDbDictionaryWithDefault
  3
ObjectDBX Classes
 90
        0
 91
        1
280
     0
281
     0
  0
CLASS
  1
MATERIAL
  2
AcDbMaterial
  3
ObjectDBX Classes
 90
     1153
 91
        3
280
     0
281
     0
  0
CLASS
  1
VISUALSTYLE
  2
AcDbVisualStyle
  3
ObjectDBX Classes
 90
     4095
 91
       24
280
     0
281
     0
  0
CLASS
  1
TABLESTYLE
  2
AcDbTableStyle
  3
ObjectDBX Classes
 90
     4095
 91
        1
280
     0
281
     0
  0
CLASS
  1
SCALE
  2
AcDbScale
  3
ObjectDBX Classes
 90
     1153
 91
       17
280
     0
281
     0
  0
CLASS
  1
MLEADERSTYLE
  2
AcDbMLeaderStyle
  3
ACDB_MLEADERSTYLE_CLASS
 90
     4095
 91
        1
280
     0
281
     0
  0
CLASS
  1
ACDBSECTIONVIEWSTYLE
  2
AcDbSectionViewStyle
  3
ObjectDBX Classes
 90
     1025
 91
        1
280
     0
281
     0
  0
CLASS
  1
ACDBDETAILVIEWSTYLE
  2
AcDbDetailViewStyle
  3
ObjectDBX Classes
 90
     1025
 91
        1
280
     0
281
     0
  0
CLASS
  1
SORTENTSTABLE
  2
AcDbSortentsTable
  3
ObjectDBX Classes
 90
        0
 91
        1
280
     0
281
     0
  0
CLASS
  1
ACDB_TEXTOBJECTCONTEXTDATA_CLASS
  2
AcDbTextObjectContextData
  3
ObjectDBX Classes
 90
     1153
 91
       23
280
     0
281
     0
  0
CLASS
  1
DICTIONARYVAR
  2
AcDbDictionaryVar
  3
ObjectDBX Classes
 90
        0
 91
       27
280
     0
281
     0
  0
CLASS
  1
CELLSTYLEMAP
  2
AcDbCellStyleMap
  3
ObjectDBX Classes
 90
     1152
 91
        1
280
     0
281
     0
  0
ENDSEC
  0
SECTION
  2
TABLES
  0
TABLE
  2
VPORT
  5
1D
330
0
100
AcDbSymbolTable
 70
     1
  0
VPORT
  5
1E
330
1D
100
AcDbSymbolTableRecord
100
AcDbViewportTableRecord
  2
*Active
 70
     0
 10
0.0
 20
0.0
 11
1.0
 21
1.0
 12
247.0612863834732
 22
-40.62224179458638
 13
0.0
 23
0.0
 14
5.0
 24
5.0
 15
10.0
 25
10.0
 16
0.0
 26
0.0
 36
1.0
 17
0.0
 27
0.0
 37
0.0
 40
902.6459728243036
 41
1.787234042553191
 42
50.0
 43
0.0
 44
0.0
 50
0.0
 51
0.0
 71
     0
 72
   100
 73
     1
 74
     1
 75
     0
 76
     0
 77
     0
 78
     0
281
     0
 65
     1
110
0.0
120
0.0
130
0.0
111
1.0
121
0.0
131
0.0
112
0.0
122
1.0
132
0.0
 79
     0
146
0.0
348
146
 60
     3
 61
     5
292
     1
282
     1
141
0.0
142
0.0
 63
   250
421
  3355443
1001
ACAD_NAV_VCDISPLAY
1070
     3
  0
ENDTAB
  0
TABLE
  2
LTYPE
  5
18
330
0
100
AcDbSymbolTable
 70
     3
  0
LTYPE
  5
19
330
18
100
AcDbSymbolTableRecord
100
AcDbLinetypeTableRecord
  2
ByBlock
 70
     0
  3

 72
    65
 73
     0
 40
0.0
  0
LTYPE
  5
1A
330
18
100
AcDbSymbolTableRecord
100
AcDbLinetypeTableRecord
  2
ByLayer
 70
     0
  3

 72
    65
 73
     0
 40
0.0
  0
LTYPE
  5
A
330
18
100
AcDbSymbolTableRecord
100
AcDbLinetypeTableRecord
  2
CONTINUOUS
 70
     0
  3
Solid line
 72
    65
 73
     0
 40
0.0
  0
LTYPE
  5
D5
330
18
100
AcDbSymbolTableRecord
100
AcDbLinetypeTableRecord
  2
CENTER2
 70
     0
  3
___ _ ___ _ ___ _ ___ _ ___ _ ___ _ ___ _ ___ _
 72
    65
 73
     4
 40
28.575
 49
19.05
 74
     0
 49
-3.174999999999999
 74
     0
 49
3.174999999999999
 74
     0
 49
-3.174999999999999
 74
     0
  0
LTYPE
  5
3E
330
18
100
AcDbSymbolTableRecord
100
AcDbLinetypeTableRecord
  2
HIDDEN
 70
     0
  3
__ __ __ __ __ __ __ __ __ __ __ __ __ __ __ __
 72
    65
 73
     2
 40
9.524999999999998
 49
6.349999999999999
 74
     0
 49
-3.174999999999999
 74
     0
  0
ENDTAB
  0
TABLE
  2
LAYER
  5
14
102
{ACAD_XDICTIONARY
360
17B
102
}
330
0
100
AcDbSymbolTable
 70
    10
  0
LAYER
  5
6
102
{ACAD_XDICTIONARY
360
1FC
102
}
330
14
100
AcDbSymbolTableRecord
100
AcDbLayerTableRecord
  2
0
 70
     0
 62
     7
  6
CONTINUOUS
370
    -3
390
7
347
138
348
0
  0
LAYER
  5
AE
102
{ACAD_XDICTIONARY
360
1FE
102
}
330
14
100
AcDbSymbolTableRecord
100
AcDbLayerTableRecord
  2
DIMS
 70
     0
 62
     1
  6
CONTINUOUS
370
    -3
390
7
347
138
348
0
  0
LAYER
  5
26
102
{ACAD_XDICTIONARY
360
200
102
}
330
14
100
AcDbSymbolTableRecord
100
AcDbLayerTableRecord
  2
ANCON-DSD
 70
     0
 62
     3
  6
CONTINUOUS
370
    -3
390
7
347
138
348
0
  0
LAYER
  5
B9
330
14
100
AcDbSymbolTableRecord
100
AcDbLayerTableRecord
  2
DEFPOINTS
 70
     0
 62
     7
  6
CONTINUOUS
290
     0
370
    -3
390
7
347
138
348
0
  0
LAYER
  5
E6
102
{ACAD_XDICTIONARY
360
202
102
}
330
14
100
AcDbSymbolTableRecord
100
AcDbLayerTableRecord
  2
CONCRETE
 70
     0
 62
     2
  6
CONTINUOUS
370
    -3
390
7
347
138
348
0
  0
LAYER
  5
3D
102
{ACAD_XDICTIONARY
360
204
102
}
330
14
100
AcDbSymbolTableRecord
100
AcDbLayerTableRecord
  2
20MM-JOINT
 70
     0
 62
     7
  6
CONTINUOUS
370
    -3
390
7
347
138
348
0
  0
LAYER
  5
2D
102
{ACAD_XDICTIONARY
360
206
102
}
330
14
100
AcDbSymbolTableRecord
100
AcDbLayerTableRecord
  2
SPECP
 70
     0
 62
     6
  6
CONTINUOUS
370
    -3
390
7
347
138
348
0
  0
LAYER
  5
2B
102
{ACAD_XDICTIONARY
360
208
102
}
330
14
100
AcDbSymbolTableRecord
100
AcDbLayerTableRecord
  2
SPECD
 70
     0
 62
     6
  6
CONTINUOUS
370
    -3
390
7
347
138
348
0
  0
LAYER
  5
C1
102
{ACAD_XDICTIONARY
360
20A
102
}
330
14
100
AcDbSymbolTableRecord
100
AcDbLayerTableRecord
  2
20MM-DIMS
 70
     0
 62
     1
  6
CONTINUOUS
370
    -3
390
7
347
138
348
0
  0
LAYER
  5
178
102
{ACAD_XDICTIONARY
360
179
102
}
330
14
100
AcDbSymbolTableRecord
100
AcDbLayerTableRecord
  2
ANCON-TEXT
 70
     0
 62
     6
  6
CONTINUOUS
370
    -3
390
7
347
138
348
0
  0
ENDTAB
  0
TABLE
  2
STYLE
  5
15
330
0
100
AcDbSymbolTable
 70
     3
  0
STYLE
  5
16
330
15
100
AcDbSymbolTableRecord
100
AcDbTextStyleTableRecord
  2
STANDARD
 70
     0
 40
0.0
 41
1.0
 50
0.0
 71
     0
 42
6.0
  3
txt.shx
  4

  0
STYLE
  5
27
330
15
100
AcDbSymbolTableRecord
100
AcDbTextStyleTableRecord
  2
ROMANS
 70
     0
 40
0.0
 41
1.0
 50
0.0
 71
     0
 42
5.0
  3
romans
  4

  0
STYLE
  5
187
330
15
100
AcDbSymbolTableRecord
100
AcDbTextStyleTableRecord
  2
arial
 70
     0
 40
4.0
 41
1.0
 50
0.0
 71
     0
 42
5.0
  3
arial.ttf
  4

1001
AcadAnnotative
1000
AnnotativeData
1002
{
1070
     1
1070
     1
1002
}
1001
ACAD
1000
Arial
1071
       34
  0
ENDTAB
  0
TABLE
  2
VIEW
  5
1B
330
0
100
AcDbSymbolTable
 70
     0
  0
ENDTAB
  0
TABLE
  2
UCS
  5
1C
330
0
100
AcDbSymbolTable
 70
     0
  0
ENDTAB
  0
TABLE
  2
APPID
  5
1F
330
0
100
AcDbSymbolTable
 70
     4
  0
APPID
  5
20
330
1F
100
AcDbSymbolTableRecord
100
AcDbRegAppTableRecord
  2
ACAD
 70
     0
  0
APPID
  5
17A
330
1F
100
AcDbSymbolTableRecord
100
AcDbRegAppTableRecord
  2
ACAD_NAV_VCDISPLAY
 70
     0
  0
APPID
  5
188
330
1F
100
AcDbSymbolTableRecord
100
AcDbRegAppTableRecord
  2
AcadAnnoPO
 70
     0
  0
APPID
  5
18B
330
1F
100
AcDbSymbolTableRecord
100
AcDbRegAppTableRecord
  2
AcadAnnotative
 70
     0
  0
ENDTAB
  0
TABLE
  2
DIMSTYLE
  5
21
330
0
100
AcDbSymbolTable
 70
     1
100
AcDbDimStyleTable
 71
     0
  0
DIMSTYLE
105
29
102
{ACAD_REACTORS
330
106
330
AD
330
D8
330
C0
330
118
102
}
330
21
100
AcDbSymbolTableRecord
100
AcDbDimStyleTableRecord
  2
1-2
 70
     0
 40
0.0
 41
4.0
 42
3.0
 43
10.0
 44
3.0
 46
1.25
 73
     0
 74
     0
 77
     1
 78
    12
140
3.0
141
-3.0
143
0.04
146
0.75
147
1.5
271
     2
272
     2
279
     2
284
    12
285
    12
286
    12
340
16
  0
ENDTAB
  0
TABLE
  2
BLOCK_RECORD
  5
1
330
0
100
AcDbSymbolTable
 70
     8
  0
BLOCK_RECORD
  5
2
102
{ACAD_XDICTIONARY
360
3
102
}
330
1
100
AcDbSymbolTableRecord
100
AcDbBlockTableRecord
  2
*Model_Space
340
C
 70
     0
280
     1
281
     0
  0
BLOCK_RECORD
  5
E
102
{ACAD_XDICTIONARY
360
F
102
}
330
1
100
AcDbSymbolTableRecord
100
AcDbBlockTableRecord
  2
*Paper_Space
340
13
 70
     0
280
     1
281
     0
  0
BLOCK_RECORD
  5
68
330
1
100
AcDbSymbolTableRecord
100
AcDbBlockTableRecord
  2
*X0
340
0
102
{BLKREFS
331
67
331
7A
331
9B
331
9C
102
}
 70
     0
280
     1
281
     0
  0
BLOCK_RECORD
  5
E8
330
1
100
AcDbSymbolTableRecord
100
AcDbBlockTableRecord
  2
*X1
340
0
102
{BLKREFS
331
115
331
E7
102
}
 70
     0
280
     1
281
     0
  0
BLOCK_RECORD
  5
AF
330
1
100
AcDbSymbolTableRecord
100
AcDbBlockTableRecord
  2
*D2
340
0
 70
     0
280
     1
281
     0
  0
BLOCK_RECORD
  5
C2
330
1
100
AcDbSymbolTableRecord
100
AcDbBlockTableRecord
  2
*D3
340
0
 70
     0
280
     1
281
     0
  0
BLOCK_RECORD
  5
107
330
1
100
AcDbSymbolTableRecord
100
AcDbBlockTableRecord
  2
*D4
340
0
 70
     0
280
     1
281
     0
  0
BLOCK_RECORD
  5
D9
330
1
100
AcDbSymbolTableRecord
100
AcDbBlockTableRecord
  2
*D5
340
0
 70
     0
280
     1
281
     0
  0
BLOCK_RECORD
  5
119
330
1
100
AcDbSymbolTableRecord
100
AcDbBlockTableRecord
  2
*D6
340
0
 70
     0
280
     1
281
     0
  0
ENDTAB
  0
ENDSEC
  0
SECTION
  2
BLOCKS
  0
BLOCK
  5
5
330
2
100
AcDbEntity
  8
0
 62
     1
100
AcDbBlockBegin
  2
*Model_Space
 70
     0
 10
0.0
 20
0.0
 30
0.0
  3
*Model_Space
  1

  0
ENDBLK
  5
B
330
2
100
AcDbEntity
  8
0
 62
     1
100
AcDbBlockEnd
  0
BLOCK
  5
11
330
E
100
AcDbEntity
 67
     1
  8
0
 62
     1
100
AcDbBlockBegin
  2
*Paper_Space
 70
     0
 10
0.0
 20
0.0
 30
0.0
  3
*Paper_Space
  1

  0
ENDBLK
  5
12
330
E
100
AcDbEntity
 67
     1
  8
0
 62
     1
100
AcDbBlockEnd
  0
BLOCK
  5
78
330
68
100
AcDbEntity
  8
0
100
AcDbBlockBegin
  2
*X0
 70
     1
 10
0.0
 20
0.0
 30
0.0
  3
*X0
  1

  0
LINE
  5
69
330
68
100
AcDbEntity
  8
0
 62
     0
100
AcDbLine
 10
16606.69257185201
 20
6222.861333480277
 30
0.0
 11
16612.6260447593
 21
6229.045287321157
 31
0.0
  0
LINE
  5
6A
330
68
100
AcDbEntity
  8
0
 62
     0
100
AcDbLine
 10
16613.47243591316
 20
6221.793064744256
 30
0.0
 11
16612.63056471275
 21
6229.029760339063
 31
0.0
  0
LINE
  5
6B
330
68
100
AcDbEntity
  8
0
 62
     0
100
AcDbLine
 10
16606.75459926325
 20
6222.805802461711
 30
0.0
 11
16613.48381931619
 21
6221.76213988749
 31
0.0
  0
LINE
  5
6C
330
68
100
AcDbEntity
  8
0
 62
     0
100
AcDbLine
 10
16598.83254942096
 20
6235.781279095355
 30
0.0
 11
16603.81983582804
 21
6237.695718979455
 31
0.0
  0
LINE
  5
6D
330
68
100
AcDbEntity
  8
0
 62
     0
100
AcDbLine
 10
16598.95877495299
 20
6235.313052809023
 30
0.0
 11
16602.26926435686
 21
6233.080099511202
 31
0.0
  0
LINE
  5
6E
330
68
100
AcDbEntity
  8
0
 62
     0
100
AcDbLine
 10
16602.27464591158
 20
6233.087104688284
 30
0.0
 11
16603.81970102709
 21
6237.691803776179
 31
0.0
  0
LINE
  5
6F
330
68
100
AcDbEntity
  8
0
 62
     0
100
AcDbLine
 10
16631.10490220532
 20
6252.438068061223
 30
0.0
 11
16631.10490220532
 21
6252.438068061223
 31
0.0
  0
LINE
  5
70
330
68
100
AcDbEntity
  8
0
 62
     0
100
AcDbLine
 10
16630.17832123014
 20
6227.071556399278
 30
0.0
 11
16630.17832123014
 21
6227.071556399278
 31
0.0
  0
LINE
  5
71
330
68
100
AcDbEntity
  8
0
 62
     0
100
AcDbLine
 10
16616.04230734596
 20
6217.560201586398
 30
0.0
 11
16616.04230734596
 21
6217.560201586398
 31
0.0
  0
LINE
  5
72
330
68
100
AcDbEntity
  8
0
 62
     0
100
AcDbLine
 10
16607.22883249624
 20
6243.814965418216
 30
0.0
 11
16607.22883249624
 21
6243.814965418216
 31
0.0
  0
LINE
  5
73
330
68
100
AcDbEntity
  8
0
 62
     0
100
AcDbLine
 10
16636.08820609905
 20
6247.614374031834
 30
0.0
 11
16636.08820609905
 21
6247.614374031834
 31
0.0
  0
LINE
  5
74
330
68
100
AcDbEntity
  8
0
 62
     0
100
AcDbLine
 10
16615.82834361918
 20
6243.860318283187
 30
0.0
 11
16615.82834361918
 21
6243.860318283187
 31
0.0
  0
LINE
  5
75
330
68
100
AcDbEntity
  8
0
 62
     0
100
AcDbLine
 10
16631.89495066191
 20
6233.624760744181
 30
0.0
 11
16631.89495066191
 21
6233.624760744181
 31
0.0
  0
LINE
  5
76
330
68
100
AcDbEntity
  8
0
 62
     0
100
AcDbLine
 10
16603.34351944143
 20
6230.047559735862
 30
0.0
 11
16603.34351944143
 21
6230.047559735862
 31
0.0
  0
LINE
  5
77
330
68
100
AcDbEntity
  8
0
 62
     0
100
AcDbLine
 10
16647.78227385725
 20
6237.675507045864
 30
0.0
 11
16647.78227385725
 21
6237.675507045864
 31
0.0
  0
ENDBLK
  5
79
330
68
100
AcDbEntity
  8
0
100
AcDbBlockEnd
  0
BLOCK
  5
FE
330
E8
100
AcDbEntity
  8
0
100
AcDbBlockBegin
  2
*X1
 70
     1
 10
0.0
 20
0.0
 30
0.0
  3
*X1
  1
*U
  0
LINE
  5
E9
330
E8
100
AcDbEntity
  8
0
 62
     0
100
AcDbLine
 10
15332.80691922617
 20
-44932.48847188444
 30
0.0
 11
15336.48045041553
 21
-44928.11052789202
 31
0.0
  0
LINE
  5
EA
330
E8
100
AcDbEntity
  8
0
 62
     0
100
AcDbLine
 10
15387.46231992497
 20
-44937.27019754611
 30
0.0
 11
15391.13585111433
 21
-44932.89225355368
 31
0.0
  0
LINE
  5
EB
330
E8
100
AcDbEntity
  8
0
 62
     0
100
AcDbLine
 10
15332.645938767
 20
-44932.43984416161
 30
0.0
 11
15337.20054092668
 21
-44932.83832021746
 31
0.0
  0
LINE
  5
EC
330
E8
100
AcDbEntity
  8
0
 62
     0
100
AcDbLine
 10
15387.30116468311
 20
-44937.22155683173
 30
0.0
 11
15391.85576684278
 21
-44937.62003288757
 31
0.0
  0
LINE
  5
ED
330
E8
100
AcDbEntity
  8
0
 62
     0
100
AcDbLine
 10
15336.84543181317
 20
-44932.96347627347
 30
0.0
 11
15335.96439839536
 21
-44928.18705197105
 31
0.0
  0
LINE
  5
EE
330
E8
100
AcDbEntity
  8
0
 62
     0
100
AcDbLine
 10
15391.50058332661
 20
-44937.74556155637
 30
0.0
 11
15390.6195499088
 21
-44932.96913725396
 31
0.0
  0
LINE
  5
EF
330
E8
100
AcDbEntity
  8
0
 62
     0
100
AcDbLine
 10
15369.24500861571
 20
-44920.00003531436
 30
0.0
 11
15371.82338227985
 21
-44917.31281587767
 31
0.0
  0
LINE
  5
F0
330
E8
100
AcDbEntity
  8
0
 62
     0
100
AcDbLine
 10
15376.01476064486
 20
-44920.95467879014
 30
0.0
 11
15375.67599582237
 21
-44918.0426681436
 31
0.0
  0
LINE
  5
F1
330
E8
100
AcDbEntity
  8
0
 62
     0
100
AcDbLine
 10
15369.18166048556
 20
-44919.93344034319
 30
0.0
 11
15375.95863747582
 21
-44920.98450973836
 31
0.0
  0
LINE
  5
F2
330
E8
100
AcDbEntity
  8
0
 62
     0
100
AcDbLine
 10
15322.46670511942
 20
-44945.06886979667
 30
0.0
 11
15327.80211725685
 21
-44943.02079696502
 31
0.0
  0
LINE
  5
F3
330
E8
100
AcDbEntity
  8
0
 62
     0
100
AcDbLine
 10
15322.32202676532
 20
-44944.9451100819
 30
0.0
 11
15325.89109970756
 21
-44947.35248017868
 31
0.0
  0
LINE
  5
F4
330
E8
100
AcDbEntity
  8
0
 62
     0
100
AcDbLine
 10
15326.09630612562
 20
-44947.40237347595
 30
0.0
 11
15327.61322237235
 21
-44942.88153613647
 31
0.0
  0
LINE
  5
F5
330
E8
100
AcDbEntity
  8
0
 62
     0
100
AcDbLine
 10
15344.43613389468
 20
-44933.49850737506
 30
0.0
 11
15344.43613389468
 21
-44933.49850737506
 31
0.0
  0
LINE
  5
F6
330
E8
100
AcDbEntity
  8
0
 62
     0
100
AcDbLine
 10
15383.56001292075
 20
-44928.13322019708
 30
0.0
 11
15383.56001292075
 21
-44928.13322019708
 31
0.0
  0
LINE
  5
F7
330
E8
100
AcDbEntity
  8
0
 62
     0
100
AcDbLine
 10
15324.0889388341
 20
-44944.57712941013
 30
0.0
 11
15324.0889388341
 21
-44944.57712941013
 31
0.0
  0
LINE
  5
F8
330
E8
100
AcDbEntity
  8
0
 62
     0
100
AcDbLine
 10
15352.94831243691
 20
-44940.77772079651
 30
0.0
 11
15352.94831243691
 21
-44940.77772079651
 31
0.0
  0
LINE
  5
F9
330
E8
100
AcDbEntity
  8
0
 62
     0
100
AcDbLine
 10
15370.15185636104
 20
-44934.69977449441
 30
0.0
 11
15370.15185636104
 21
-44934.69977449441
 31
0.0
  0
LINE
  5
FA
330
E8
100
AcDbEntity
  8
0
 62
     0
100
AcDbLine
 10
15329.47467781097
 20
-44932.98115129659
 30
0.0
 11
15329.47467781097
 21
-44932.98115129659
 31
0.0
  0
LINE
  5
FB
330
E8
100
AcDbEntity
  8
0
 62
     0
100
AcDbLine
 10
15345.54128485371
 20
-44943.21670883561
 30
0.0
 11
15345.54128485371
 21
-44943.21670883561
 31
0.0
  0
LINE
  5
FC
330
E8
100
AcDbEntity
  8
0
 62
     0
100
AcDbLine
 10
15392.02993037373
 20
-44924.78498136955
 30
0.0
 11
15392.02993037373
 21
-44924.78498136955
 31
0.0
  0
LINE
  5
FD
330
E8
100
AcDbEntity
  8
0
 62
     0
100
AcDbLine
 10
15347.59117595792
 20
-44932.41292867955
 30
0.0
 11
15347.59117595792
 21
-44932.41292867955
 31
0.0
  0
ENDBLK
  5
FF
330
E8
100
AcDbEntity
  8
0
100
AcDbBlockEnd
  0
BLOCK
  5
BC
330
AF
100
AcDbEntity
  8
0
100
AcDbBlockBegin
  2
*D2
 70
     1
 10
0.0
 20
0.0
 30
0.0
  3
*D2
  1

  0
LINE
  5
B0
330
AF
100
AcDbEntity
  8
0
  6
ByBlock
 62
     0
440
 16777216
100
AcDbLine
 10
0.0000000000000027
 20
-41.0
 30
0.0
 11
0.0000000000000027
 21
-51.71360481256672
 31
0.0
  0
LINE
  5
B1
330
AF
100
AcDbEntity
  8
0
  6
ByBlock
 62
     0
440
 16777216
100
AcDbLine
 10
2.000000000000002
 20
-41.0
 30
0.0
 11
2.000000000000002
 21
-51.71360481256672
 31
0.0
  0
LINE
  5
B2
330
AF
100
AcDbEntity
  8
0
  6
ByBlock
 62
     0
440
 16777216
100
AcDbLine
 10
-3.999999999999997
 20
-48.71360481256672
 30
0.0
 11
-7.999999999999997
 21
-48.71360481256672
 31
0.0
  0
LINE
  5
B3
330
AF
100
AcDbEntity
  8
0
  6
ByBlock
 62
     0
440
 16777216
100
AcDbLine
 10
6.000000000000002
 20
-48.71360481256672
 30
0.0
 11
10.0
 21
-48.71360481256672
 31
0.0
  0
LINE
  5
B4
330
AF
100
AcDbEntity
  8
0
  6
ByBlock
 62
     0
440
 16777216
100
AcDbLine
 10
10.0
 20
-48.71360481256672
 30
0.0
 11
13.5
 21
-48.71360481256672
 31
0.0
  0
SOLID
  5
B5
330
AF
100
AcDbEntity
  8
0
  6
ByBlock
 62
     0
440
 16777216
100
AcDbTrace
 10
-3.999999999999997
 20
-48.04693814590006
 30
0.0
 11
-3.999999999999997
 21
-49.38027147923339
 31
0.0
 12
0.0000000000000027
 22
-48.71360481256672
 32
0.0
 13
0.0000000000000027
 23
-48.71360481256672
 33
0.0
  0
SOLID
  5
B6
330
AF
100
AcDbEntity
  8
0
  6
ByBlock
 62
     0
440
 16777216
100
AcDbTrace
 10
6.000000000000002
 20
-48.04693814590006
 30
0.0
 11
6.000000000000002
 21
-49.38027147923339
 31
0.0
 12
2.000000000000002
 22
-48.71360481256672
 32
0.0
 13
2.000000000000002
 23
-48.71360481256672
 33
0.0
  0
TEXT
  5
B7
330
AF
100
AcDbEntity
  8
0
  6
ByBlock
 62
     0
440
 16777216
100
AcDbText
 10
11.07142857142857
 20
-47.21360481256672
 30
0.0
 40
3.0
  1
2
  7
ROMANS
 72
     1
 11
12.5
 21
-45.71360481256672
 31
0.0
100
AcDbText
 73
     2
  0
POINT
  5
B8
330
AF
100
AcDbEntity
  8
DEFPOINTS
  6
ByBlock
 62
     0
440
 16777216
100
AcDbPoint
 10
0.0000000000000027
 20
-38.0
 30
0.0
  0
POINT
  5
BA
330
AF
100
AcDbEntity
  8
DEFPOINTS
  6
ByBlock
 62
     0
440
 16777216
100
AcDbPoint
 10
2.000000000000002
 20
-38.0
 30
0.0
  0
POINT
  5
BB
330
AF
100
AcDbEntity
  8
DEFPOINTS
  6
ByBlock
 62
     0
440
 16777216
100
AcDbPoint
 10
2.000000000000002
 20
-48.71360481256672
 30
0.0
  0
ENDBLK
  5
BD
330
AF
100
AcDbEntity
  8
0
100
AcDbBlockEnd
  0
BLOCK
  5
CC
330
C2
100
AcDbEntity
  8
0
100
AcDbBlockBegin
  2
*D3
 70
     1
 10
0.0
 20
0.0
 30
0.0
  3
*D3
  1

  0
LINE
  5
C3
330
C2
100
AcDbEntity
  8
0
  6
ByBlock
 62
     0
440
 16777216
100
AcDbLine
 10
-19.99999999999997
 20
-13.99999999999983
 30
0.0
 11
-19.99999999999997
 21
-75.5429452964253
 31
0.0
  0
LINE
  5
C4
330
C2
100
AcDbEntity
  8
0
  6
ByBlock
 62
     0
440
 16777216
100
AcDbLine
 10
0.0000000000000359
 20
-41.0
 30
0.0
 11
0.0000000000000359
 21
-75.5429452964253
 31
0.0
  0
LINE
  5
C5
330
C2
100
AcDbEntity
  8
0
  6
ByBlock
 62
     0
440
 16777216
100
AcDbLine
 10
-15.99999999999997
 20
-72.5429452964253
 30
0.0
 11
-3.999999999999964
 21
-72.5429452964253
 31
0.0
  0
SOLID
  5
C6
330
C2
100
AcDbEntity
  8
0
  6
ByBlock
 62
     0
440
 16777216
100
AcDbTrace
 10
-15.99999999999997
 20
-71.87627862975863
 30
0.0
 11
-15.99999999999997
 21
-73.20961196309197
 31
0.0
 12
-19.99999999999997
 22
-72.5429452964253
 32
0.0
 13
-19.99999999999997
 23
-72.5429452964253
 33
0.0
  0
SOLID
  5
C7
330
C2
100
AcDbEntity
  8
0
  6
ByBlock
 62
     0
440
 16777216
100
AcDbTrace
 10
-3.999999999999964
 20
-71.87627862975863
 30
0.0
 11
-3.999999999999964
 21
-73.20961196309197
 31
0.0
 12
0.0000000000000359
 22
-72.5429452964253
 32
0.0
 13
0.0000000000000359
 23
-72.5429452964253
 33
0.0
  0
TEXT
  5
C8
330
C2
100
AcDbEntity
  8
0
  6
ByBlock
 62
     0
440
 16777216
100
AcDbText
 10
-12.85714285714282
 20
-71.0429452964253
 30
0.0
 40
3.0
  1
20
  7
ROMANS
 72
     1
 11
-9.999999999999966
 21
-69.5429452964253
 31
0.0
100
AcDbText
 73
     2
  0
POINT
  5
C9
330
C2
100
AcDbEntity
  8
DEFPOINTS
  6
ByBlock
 62
     0
440
 16777216
100
AcDbPoint
 10
-19.99999999999997
 20
-10.99999999999982
 30
0.0
  0
POINT
  5
CA
330
C2
100
AcDbEntity
  8
DEFPOINTS
  6
ByBlock
 62
     0
440
 16777216
100
AcDbPoint
 10
0.0000000000000359
 20
-38.00000000000001
 30
0.0
  0
POINT
  5
CB
330
C2
100
AcDbEntity
  8
DEFPOINTS
  6
ByBlock
 62
     0
440
 16777216
100
AcDbPoint
 10
0.0000000000000359
 20
-72.5429452964253
 30
0.0
  0
ENDBLK
  5
CD
330
C2
100
AcDbEntity
  8
0
100
AcDbBlockEnd
  0
BLOCK
  5
111
330
107
100
AcDbEntity
  8
0
100
AcDbBlockBegin
  2
*D4
 70
     1
 10
0.0
 20
0.0
 30
0.0
  3
*D4
  1

  0
LINE
  5
108
330
107
100
AcDbEntity
  8
0
  6
ByBlock
 62
     0
440
 16777216
100
AcDbLine
 10
0.0000000000000027
 20
-41.0
 30
0.0
 11
0.0000000000000027
 21
-75.5429452964253
 31
0.0
  0
LINE
  5
109
330
107
100
AcDbEntity
  8
0
  6
ByBlock
 62
     0
440
 16777216
100
AcDbLine
 10
225.0
 20
-15.5
 30
0.0
 11
225.0
 21
-75.5429452964253
 31
0.0
  0
LINE
  5
10A
330
107
100
AcDbEntity
  8
0
  6
ByBlock
 62
     0
440
 16777216
100
AcDbLine
 10
4.000000000000002
 20
-72.5429452964253
 30
0.0
 11
221.0
 21
-72.5429452964253
 31
0.0
  0
SOLID
  5
10B
330
107
100
AcDbEntity
  8
0
  6
ByBlock
 62
     0
440
 16777216
100
AcDbTrace
 10
4.000000000000002
 20
-71.87627862975863
 30
0.0
 11
4.000000000000002
 21
-73.20961196309197
 31
0.0
 12
0.0000000000000027
 22
-72.5429452964253
 32
0.0
 13
0.0000000000000027
 23
-72.5429452964253
 33
0.0
  0
SOLID
  5
10C
330
107
100
AcDbEntity
  8
0
  6
ByBlock
 62
     0
440
 16777216
100
AcDbTrace
 10
221.0
 20
-71.87627862975863
 30
0.0
 11
221.0
 21
-73.20961196309197
 31
0.0
 12
225.0
 22
-72.5429452964253
 32
0.0
 13
225.0
 23
-72.5429452964253
 33
0.0
  0
TEXT
  5
10D
330
107
100
AcDbEntity
  8
0
  6
ByBlock
 62
     0
440
 16777216
100
AcDbText
 10
108.2142857142857
 20
-71.0429452964253
 30
0.0
 40
3.0
  1
225
  7
ROMANS
 72
     1
 11
112.5
 21
-69.5429452964253
 31
0.0
100
AcDbText
 73
     2
  0
POINT
  5
10E
330
107
100
AcDbEntity
  8
DEFPOINTS
  6
ByBlock
 62
     0
440
 16777216
100
AcDbPoint
 10
0.0000000000000027
 20
-38.0
 30
0.0
  0
POINT
  5
10F
330
107
100
AcDbEntity
  8
DEFPOINTS
  6
ByBlock
 62
     0
440
 16777216
100
AcDbPoint
 10
225.0
 20
-12.5
 30
0.0
  0
POINT
  5
110
330
107
100
AcDbEntity
  8
DEFPOINTS
  6
ByBlock
 62
     0
440
 16777216
100
AcDbPoint
 10
225.0
 20
-72.5429452964253
 30
0.0
  0
ENDBLK
  5
112
330
107
100
AcDbEntity
  8
0
100
AcDbBlockEnd
  0
BLOCK
  5
E3
330
D9
100
AcDbEntity
  8
0
100
AcDbBlockBegin
  2
*D5
 70
     1
 10
0.0
 20
0.0
 30
0.0
  3
*D5
  1

  0
LINE
  5
DA
330
D9
100
AcDbEntity
  8
0
  6
ByBlock
 62
     0
440
 16777216
100
AcDbLine
 10
-220.0
 20
-11.99999999999977
 30
0.0
 11
-220.0
 21
-75.5429452964253
 31
0.0
  0
LINE
  5
DB
330
D9
100
AcDbEntity
  8
0
  6
ByBlock
 62
     0
440
 16777216
100
AcDbLine
 10
-19.99999999999997
 20
-13.99999999999983
 30
0.0
 11
-19.99999999999997
 21
-75.5429452964253
 31
0.0
  0
LINE
  5
DC
330
D9
100
AcDbEntity
  8
0
  6
ByBlock
 62
     0
440
 16777216
100
AcDbLine
 10
-216.0
 20
-72.5429452964253
 30
0.0
 11
-23.99999999999997
 21
-72.5429452964253
 31
0.0
  0
SOLID
  5
DD
330
D9
100
AcDbEntity
  8
0
  6
ByBlock
 62
     0
440
 16777216
100
AcDbTrace
 10
-216.0
 20
-71.87627862975863
 30
0.0
 11
-216.0
 21
-73.20961196309197
 31
0.0
 12
-220.0
 22
-72.5429452964253
 32
0.0
 13
-220.0
 23
-72.5429452964253
 33
0.0
  0
SOLID
  5
DE
330
D9
100
AcDbEntity
  8
0
  6
ByBlock
 62
     0
440
 16777216
100
AcDbTrace
 10
-23.99999999999997
 20
-71.87627862975863
 30
0.0
 11
-23.99999999999997
 21
-73.20961196309197
 31
0.0
 12
-19.99999999999997
 22
-72.5429452964253
 32
0.0
 13
-19.99999999999997
 23
-72.5429452964253
 33
0.0
  0
TEXT
  5
DF
330
D9
100
AcDbEntity
  8
0
  6
ByBlock
 62
     0
440
 16777216
100
AcDbText
 10
-124.2857142857143
 20
-71.0429452964253
 30
0.0
 40
3.0
  1
200
  7
ROMANS
 72
     1
 11
-120.0
 21
-69.5429452964253
 31
0.0
100
AcDbText
 73
     2
  0
POINT
  5
E0
330
D9
100
AcDbEntity
  8
DEFPOINTS
  6
ByBlock
 62
     0
440
 16777216
100
AcDbPoint
 10
-220.0
 20
-8.999999999999772
 30
0.0
  0
POINT
  5
E1
330
D9
100
AcDbEntity
  8
DEFPOINTS
  6
ByBlock
 62
     0
440
 16777216
100
AcDbPoint
 10
-19.99999999999997
 20
-10.99999999999982
 30
0.0
  0
POINT
  5
E2
330
D9
100
AcDbEntity
  8
DEFPOINTS
  6
ByBlock
 62
     0
440
 16777216
100
AcDbPoint
 10
-19.99999999999997
 20
-72.5429452964253
 30
0.0
  0
ENDBLK
  5
E4
330
D9
100
AcDbEntity
  8
0
100
AcDbBlockEnd
  0
BLOCK
  5
123
330
119
100
AcDbEntity
  8
0
100
AcDbBlockBegin
  2
*D6
 70
     1
 10
0.0
 20
0.0
 30
0.0
  3
*D6
  1

  0
LINE
  5
11A
330
119
100
AcDbEntity
  8
0
  6
ByBlock
 62
     0
440
 16777216
100
AcDbLine
 10
0.0000000000000027
 20
-41.0
 30
0.0
 11
0.0000000000000027
 21
-62.84107725227959
 31
0.0
  0
LINE
  5
11B
330
119
100
AcDbEntity
  8
0
  6
ByBlock
 62
     0
440
 16777216
100
AcDbLine
 10
179.9962777280847
 20
-11.99999999999983
 30
0.0
 11
179.9962777280847
 21
-62.84107725227959
 31
0.0
  0
LINE
  5
11C
330
119
100
AcDbEntity
  8
0
  6
ByBlock
 62
     0
440
 16777216
100
AcDbLine
 10
4.000000000000002
 20
-59.84107725227959
 30
0.0
 11
175.9962777280847
 21
-59.84107725227959
 31
0.0
  0
SOLID
  5
11D
330
119
100
AcDbEntity
  8
0
  6
ByBlock
 62
     0
440
 16777216
100
AcDbTrace
 10
4.000000000000002
 20
-59.17441058561292
 30
0.0
 11
4.000000000000002
 21
-60.50774391894625
 31
0.0
 12
0.0000000000000027
 22
-59.84107725227959
 32
0.0
 13
0.0000000000000027
 23
-59.84107725227959
 33
0.0
  0
SOLID
  5
11E
330
119
100
AcDbEntity
  8
0
  6
ByBlock
 62
     0
440
 16777216
100
AcDbTrace
 10
175.9962777280847
 20
-59.17441058561292
 30
0.0
 11
175.9962777280847
 21
-60.50774391894625
 31
0.0
 12
179.9962777280847
 22
-59.84107725227959
 32
0.0
 13
179.9962777280847
 23
-59.84107725227959
 33
0.0
  0
TEXT
  5
11F
330
119
100
AcDbEntity
  8
0
  6
ByBlock
 62
     0
440
 16777216
100
AcDbText
 10
85.49813886404235
 20
-58.34107725227958
 30
0.0
 40
3.0
  1
180
  7
ROMANS
 72
     1
 11
89.99813886404236
 21
-56.84107725227959
 31
0.0
100
AcDbText
 73
     2
  0
POINT
  5
120
330
119
100
AcDbEntity
  8
DEFPOINTS
  6
ByBlock
 62
     0
440
 16777216
100
AcDbPoint
 10
0.0000000000000027
 20
-38.0
 30
0.0
  0
POINT
  5
121
330
119
100
AcDbEntity
  8
DEFPOINTS
  6
ByBlock
 62
     0
440
 16777216
100
AcDbPoint
 10
179.9962777280847
 20
-8.999999999999829
 30
0.0
  0
POINT
  5
122
330
119
100
AcDbEntity
  8
DEFPOINTS
  6
ByBlock
 62
     0
440
 16777216
100
AcDbPoint
 10
179.9962777280847
 20
-59.84107725227959
 30
0.0
  0
ENDBLK
  5
124
330
119
100
AcDbEntity
  8
0
100
AcDbBlockEnd
  0
ENDSEC
  0
SECTION
  2
ENTITIES
  0
LINE
  5
2A
330
2
100
AcDbEntity
  8
SPECD
 62
     6
100
AcDbLine
 10
339.4838796203883
 20
193.4013187375109
 30
0.0
 11
339.4838796203883
 21
140.3676261519606
 31
0.0
  0
LINE
  5
2C
330
2
100
AcDbEntity
  8
SPECP
 62
     6
100
AcDbLine
 10
204.5867804365098
 20
222.7678324046048
 30
0.0
 11
204.5867804365099
 21
210.8498571126035
 31
0.0
  0
LINE
  5
2E
330
2
100
AcDbEntity
  8
SPECP
 62
     6
100
AcDbLine
 10
136.9969295137479
 20
222.7678324046048
 30
0.0
 11
136.9969295137479
 21
210.8498571126035
 31
0.0
  0
TEXT
  5
2F
102
{ACAD_XDICTIONARY
360
1E4
102
}
330
2
100
AcDbEntity
  8
SPECP
 62
     6
100
AcDbText
 10
150.0530478923956
 20
214.6307222887612
 30
0.0
 40
4.0
  1
STAIFIX ESD ??
  7
arial
 72
     4
 11
171.0148487109495
 21
216.6307222887613
 31
0.0
100
AcDbText
1001
AcadAnnotative
1000
AnnotativeData
1002
{
1070
     1
1070
     1
1002
}
  0
LINE
  5
30
330
2
100
AcDbEntity
  8
SPECP
 62
     6
100
AcDbLine
 10
136.9969295137479
 20
222.7678324046048
 30
0.0
 11
204.5867804365098
 21
222.7678324046048
 31
0.0
  0
LINE
  5
31
330
2
100
AcDbEntity
  8
SPECP
 62
     6
100
AcDbLine
 10
136.9969295137479
 20
210.8498571126035
 30
0.0
 11
204.5867804365099
 21
210.8498571126036
 31
0.0
  0
LINE
  5
32
330
2
100
AcDbEntity
  8
SPECD
 62
     6
100
AcDbLine
 10
136.9969295137479
 20
193.4013187375109
 30
0.0
 11
136.9969295137479
 21
140.3676261519606
 31
0.0
  0
TEXT
  5
33
102
{ACAD_XDICTIONARY
360
1E0
102
}
330
2
100
AcDbEntity
  8
SPECD
 62
     6
100
AcDbText
 10
162.3616885250664
 20
144.569312326909
 30
0.0
 40
4.0
  1
LOAD OF ??? kN
  7
arial
 72
     4
 11
184.2552765196093
 21
146.5706765833892
 31
0.0
100
AcDbText
1001
AcadAnnotative
1000
AnnotativeData
1002
{
1070
     1
1070
     1
1002
}
  0
TEXT
  5
34
102
{ACAD_XDICTIONARY
360
1DC
102
}
330
2
100
AcDbEntity
  8
SPECD
 62
     6
100
AcDbText
 10
161.8599298209342
 20
184.6591549412607
 30
0.0
 40
4.0
  1
TWO PART STAINLESS STEEL SHEAR CONNECTOR
  7
arial
 72
     4
 11
231.5652504212071
 21
186.6605191977409
 31
0.0
100
AcDbText
1001
AcadAnnotative
1000
AnnotativeData
1002
{
1070
     1
1070
     1
1002
}
  0
TEXT
  5
35
102
{ACAD_XDICTIONARY
360
1D8
102
}
330
2
100
AcDbEntity
  8
SPECD
 62
     6
100
AcDbText
 10
162.254446414916
 20
174.5544426154701
 30
0.0
 40
4.0
  1
COMPRISING SLEEVE AND DOWEL COMPONENT
  7
arial
 72
     4
 11
228.5436687887223
 21
176.5558068719503
 31
0.0
100
AcDbText
1001
AcadAnnotative
1000
AnnotativeData
1002
{
1070
     1
1070
     1
1002
}
  0
TEXT
  5
36
102
{ACAD_XDICTIONARY
360
1D4
102
}
330
2
100
AcDbEntity
  8
SPECD
 62
     6
100
AcDbText
 10
162.1991773108125
 20
164.6532949058003
 30
0.0
 40
4.0
  1
SUITABLE FOR A DESIGN JOINT WIDTH OF ?? MM
  7
arial
 72
     4
 11
229.2605688524223
 21
166.6546591622805
 31
0.0
100
AcDbText
1001
AcadAnnotative
1000
AnnotativeData
1002
{
1070
     1
1070
     1
1002
}
  0
TEXT
  5
37
102
{ACAD_XDICTIONARY
360
1D0
102
}
330
2
100
AcDbEntity
  8
SPECD
 62
     6
100
AcDbText
 10
162.0606999137527
 20
154.6042374918712
 30
0.0
 40
4.0
  1
AND CAPABLE OF TRANSFERRING A SERVICEABILITY
  7
arial
 72
     4
 11
235.1821187404921
 21
156.6056017483515
 31
0.0
100
AcDbText
1001
AcadAnnotative
1000
AnnotativeData
1002
{
1070
     1
1070
     1
1002
}
  0
LINE
  5
38
330
2
100
AcDbEntity
  8
SPECD
 62
     6
100
AcDbLine
 10
136.9969295137479
 20
140.3676261519606
 30
0.0
 11
339.4838796203883
 21
140.3676261519606
 31
0.0
  0
LINE
  5
39
330
2
100
AcDbEntity
  8
SPECD
 62
     6
100
AcDbLine
 10
136.9969295137479
 20
193.4013187375109
 30
0.0
 11
339.4838796203883
 21
193.4013187375109
 31
0.0
  0
LINE
  5
3A
330
2
100
AcDbEntity
  8
ANCON-DSD
  6
Continuous
 62
     3
100
AcDbLine
 10
225.0
 20
-12.5
 30
0.0
 11
225.0
 21
12.5
 31
0.0
  0
ARC
  5
3B
330
2
100
AcDbEntity
  8
ANCON-DSD
100
AcDbCircle
 10
207.6484563079719
 20
0.0000000000000045
 30
0.0
 40
21.38518338701735
100
AcDbArc
 50
324.2311350894415
 51
35.76886491055848
  0
LINE
  5
3C
330
2
100
AcDbEntity
  8
20MM-JOINT
  6
HIDDEN
 62
     3
100
AcDbLine
 10
177.9962777280847
 20
11.00000000000017
 30
0.0
 11
179.9962777280847
 21
9.00000000000017
 31
0.0
  0
LINE
  5
3F
330
2
100
AcDbEntity
  8
20MM-JOINT
  6
HIDDEN
 62
     3
100
AcDbLine
 10
179.9962777280847
 20
7.000000000000113
 30
0.0
 11
179.9962777280847
 21
-6.999999999999886
 31
0.0
  0
LINE
  5
40
330
2
100
AcDbEntity
  8
20MM-JOINT
  6
HIDDEN
 62
     3
100
AcDbLine
 10
177.9962777280847
 20
-10.99999999999983
 30
0.0
 11
179.9962777280847
 21
-8.999999999999829
 31
0.0
  0
LINE
  5
41
330
2
100
AcDbEntity
  8
20MM-JOINT
  6
HIDDEN
 62
     3
100
AcDbLine
 10
179.9962777280847
 20
9.00000000000017
 30
0.0
 11
179.9962777280847
 21
-8.999999999999829
 31
0.0
  0
LINE
  5
42
330
2
100
AcDbEntity
  8
20MM-JOINT
  6
HIDDEN
 62
     3
100
AcDbLine
 10
177.9962777280847
 20
11.00000000000017
 30
0.0
 11
177.9962777280847
 21
-10.99999999999983
 31
0.0
  0
TEXT
  5
43
102
{ACAD_XDICTIONARY
360
1CC
102
}
330
2
100
AcDbEntity
  8
20MM-JOINT
 62
     6
100
AcDbText
 10
-82.39998334674316
 20
212.1285658398811
 30
0.0
 40
4.0
  1
SERVICEABILITY
  7
arial
 72
     4
 11
-59.73013341495598
 21
214.1285658398811
 31
0.0
100
AcDbText
1001
AcadAnnotative
1000
AnnotativeData
1002
{
1070
     1
1070
     1
1002
}
  0
LINE
  5
44
330
2
100
AcDbEntity
  8
ANCON-DSD
 62
     1
100
AcDbLine
 10
63.00116644601776
 20
90.03769287997124
 30
0.0
 11
63.18927450954955
 21
88.72199709316374
 31
0.0
  0
LINE
  5
45
330
2
100
AcDbEntity
  8
ANCON-DSD
 62
     1
100
AcDbLine
 10
63.18927450954955
 20
88.72199709316374
 30
0.0
 11
61.87251354631139
 21
88.53403996445299
 31
0.0
  0
LINE
  5
46
330
2
100
AcDbEntity
  8
ANCON-DSD
 62
     1
100
AcDbLine
 10
61.3081870964582
 20
89.28586573651747
 30
0.0
 11
60.93197096939462
 21
90.60156152332497
 31
0.0
  0
LINE
  5
47
330
2
100
AcDbEntity
  8
ANCON-DSD
 62
     1
100
AcDbLine
 10
60.74386064660502
 20
90.78951865203574
 30
0.0
 11
63.00116644601776
 21
90.03769287997124
 31
0.0
  0
LINE
  5
48
330
2
100
AcDbEntity
  8
ANCON-DSD
 62
     1
100
AcDbLine
 10
61.87251354631139
 20
88.53403996445299
 30
0.0
 11
61.3081870964582
 21
89.28586573651747
 31
0.0
  0
LINE
  5
49
330
2
100
AcDbEntity
  8
ANCON-DSD
 62
     1
100
AcDbLine
 10
38.54704137211921
 20
104.1344336488214
 30
0.0
 11
40.24001846242096
 21
105.8260423216611
 31
0.0
  0
LINE
  5
4A
330
2
100
AcDbEntity
  8
ANCON-DSD
 62
     1
100
AcDbLine
 10
40.24001846242096
 20
105.8260423216611
 30
0.0
 11
40.42812652595276
 21
105.4501294356289
 31
0.0
  0
LINE
  5
4B
330
2
100
AcDbEntity
  8
ANCON-DSD
 62
     1
100
AcDbLine
 10
40.42812652595276
 20
105.4501294356289
 30
0.0
 11
40.42812652595276
 21
103.7585207627891
 31
0.0
  0
LINE
  5
4C
330
2
100
AcDbEntity
  8
ANCON-DSD
 62
     1
100
AcDbLine
 10
40.42812652595276
 20
103.7585207627891
 30
0.0
 11
39.1113655627146
 21
102.8187378620139
 31
0.0
  0
LINE
  5
4D
330
2
100
AcDbEntity
  8
ANCON-DSD
 62
     1
100
AcDbLine
 10
39.1113655627146
 20
102.8187378620139
 30
0.0
 11
37.79460685873423
 21
101.8789549612386
 31
0.0
  0
LINE
  5
4E
330
2
100
AcDbEntity
  8
ANCON-DSD
 62
     1
100
AcDbLine
 10
37.79460685873423
 20
101.8789549612386
 30
0.0
 11
37.41838847241285
 21
103.1946507480461
 31
0.0
  0
LINE
  5
4F
330
2
100
AcDbEntity
  8
ANCON-DSD
 62
     1
100
AcDbLine
 10
37.41838847241285
 20
103.1946507480461
 30
0.0
 11
38.17082298579782
 21
103.3826078767569
 31
0.0
  0
LINE
  5
50
330
2
100
AcDbEntity
  8
ANCON-DSD
 62
     1
100
AcDbLine
 10
38.17082298579782
 20
103.3826078767569
 30
0.0
 11
38.54704137211921
 21
104.1344336488214
 31
0.0
  0
CIRCLE
  5
51
330
2
100
AcDbEntity
  8
ANCON-DSD
 62
     1
100
AcDbCircle
 10
46.071386505969
 20
98.11982335813768
 30
0.0
 40
0.7977544665882306
  0
LINE
  5
52
330
2
100
AcDbEntity
  8
ANCON-DSD
 62
     1
100
AcDbLine
 10
28.95349850238847
 20
106.2019552076933
 30
0.0
 11
30.45836752915843
 21
104.3223894061429
 31
0.0
  0
LINE
  5
53
330
2
100
AcDbEntity
  8
ANCON-DSD
 62
     1
100
AcDbLine
 10
30.45836752915843
 20
104.3223894061429
 30
0.0
 11
29.89404333856304
 21
103.7585207627891
 31
0.0
  0
LINE
  5
54
330
2
100
AcDbEntity
  8
ANCON-DSD
 62
     1
100
AcDbLine
 10
29.89404333856304
 20
103.7585207627891
 30
0.0
 11
28.01295592547169
 21
103.7585207627891
 31
0.0
  0
LINE
  5
55
330
2
100
AcDbEntity
  8
ANCON-DSD
 62
     1
100
AcDbLine
 10
28.01295592547169
 20
103.7585207627891
 30
0.0
 11
28.01295592547169
 21
104.3223894061429
 31
0.0
  0
LINE
  5
56
330
2
100
AcDbEntity
  8
ANCON-DSD
 62
     1
100
AcDbLine
 10
28.01295592547169
 20
104.3223894061429
 30
0.0
 11
28.95349850238847
 21
106.2019552076933
 31
0.0
  0
CIRCLE
  5
57
330
2
100
AcDbEntity
  8
ANCON-DSD
 62
     1
100
AcDbCircle
 10
70.52551157986757
 20
72.18182050802011
 30
0.0
 40
0.3762183863213835
  0
LINE
  5
58
330
2
100
AcDbEntity
  8
ANCON-DSD
 62
     1
100
AcDbLine
 10
48.51679870791675
 20
86.27856157423922
 30
0.0
 11
49.26923272877437
 21
86.27856157423922
 31
0.0
  0
LINE
  5
59
330
2
100
AcDbEntity
  8
ANCON-DSD
 62
     1
100
AcDbLine
 10
49.26923272877437
 20
86.27856157423922
 30
0.0
 11
49.26923272877437
 21
85.71469221354426
 31
0.0
  0
LINE
  5
5A
330
2
100
AcDbEntity
  8
ANCON-DSD
 62
     1
100
AcDbLine
 10
49.26923272877437
 20
85.71469221354426
 30
0.0
 11
48.51679870791675
 21
85.71469221354426
 31
0.0
  0
LINE
  5
5B
330
2
100
AcDbEntity
  8
ANCON-DSD
 62
     1
100
AcDbLine
 10
48.51679870791675
 20
85.71469221354426
 30
0.0
 11
48.51679870791675
 21
86.09060512067424
 31
0.0
  0
CIRCLE
  5
5C
330
2
100
AcDbEntity
  8
ANCON-DSD
 62
     1
100
AcDbCircle
 10
55.66492711644196
 20
75.00116921034585
 30
0.0
 40
0.2659198672028824
  0
LINE
  5
5D
330
2
100
AcDbEntity
  8
ANCON-DSD
 62
     1
100
AcDbLine
 10
30.39958505251837
 20
79.03518538670965
 30
0.0
 11
30.39958505251837
 21
79.95147484114657
 31
0.0
  0
LINE
  5
5E
330
2
100
AcDbEntity
  8
ANCON-DSD
 62
     1
100
AcDbLine
 10
30.39958505251837
 20
79.95147484114657
 30
0.0
 11
31.80569657415052
 21
79.95147484114657
 31
0.0
  0
LINE
  5
5F
330
2
100
AcDbEntity
  8
ANCON-DSD
 62
     1
100
AcDbLine
 10
24.59172842030446
 20
85.44920319989145
 30
0.0
 11
25.26421843733985
 21
86.79309254020413
 31
0.0
  0
LINE
  5
60
330
2
100
AcDbEntity
  8
ANCON-DSD
 62
     1
100
AcDbLine
 10
25.26421843733985
 20
86.79309254020413
 30
0.0
 11
25.75330020626156
 21
86.18223336879488
 31
0.0
  0
LINE
  5
61
330
2
100
AcDbEntity
  8
ANCON-DSD
 62
     1
100
AcDbLine
 10
25.75330020626156
 20
86.18223336879488
 30
0.0
 11
25.50875817301491
 21
85.63246109077883
 31
0.0
  0
LINE
  5
62
330
2
100
AcDbEntity
  8
ANCON-DSD
 62
     1
100
AcDbLine
 10
25.50875817301491
 20
85.63246109077883
 30
0.0
 11
24.95854032138864
 21
84.34965724921324
 31
0.0
  0
LINE
  5
63
330
2
100
AcDbEntity
  8
ANCON-DSD
 62
     1
100
AcDbLine
 10
24.95854032138864
 20
84.34965724921324
 30
0.0
 11
24.59172842030446
 21
85.44920319989145
 31
0.0
  0
LINE
  5
64
330
2
100
AcDbEntity
  8
ANCON-DSD
 62
     1
100
AcDbLine
 10
31.98910252469262
 20
78.42432760994651
 30
0.0
 11
31.07207277198217
 21
77.93563943603146
 31
0.0
  0
LINE
  5
65
330
2
100
AcDbEntity
  8
ANCON-DSD
 62
     1
100
AcDbLine
 10
31.80569657415052
 20
79.95147484114657
 30
0.0
 11
31.98910252469262
 21
78.42432760994651
 31
0.0
  0
LINE
  5
66
330
2
100
AcDbEntity
  8
ANCON-DSD
 62
     1
100
AcDbLine
 10
31.07207277198217
 20
77.93563943603146
 30
0.0
 11
30.39958505251837
 21
79.03518538670965
 31
0.0
  0
INSERT
  5
67
330
2
100
AcDbEntity
  8
ANCON-DSD
 62
     1
100
AcDbBlockReference
  2
*X0
 10
7068.773336716884
 20
16397.56628781302
 30
0.0
 41
-1.0
 50
87.27011424167661
1001
ACAD
1000
HATCH
1002
{
1070
    16
1000
AR-CONC
1040
0.3
1040
0.0
1002
}
  0
INSERT
  5
7A
330
2
100
AcDbEntity
  8
ANCON-DSD
 62
     1
100
AcDbBlockReference
  2
*X0
 10
16658.39032015217
 20
-6147.402386290828
 30
0.0
 41
-1.0
1001
ACAD
1000
HATCH
1002
{
1070
    16
1000
AR-CONC
1040
0.3
1040
0.0
1002
}
  0
TEXT
  5
7B
102
{ACAD_XDICTIONARY
360
1C8
102
}
330
2
100
AcDbEntity
  8
20MM-JOINT
 62
     6
100
AcDbText
 10
-65.16805974510605
 20
180.6883303412169
 30
0.0
 40
4.0
  1
11.2
  7
arial
 72
     4
 11
-59.73013341495598
 21
182.6965158800982
 31
0.0
100
AcDbText
1001
AcadAnnotative
1000
AnnotativeData
1002
{
1070
     1
1070
     1
1002
}
  0
TEXT
  5
7C
102
{ACAD_XDICTIONARY
360
1C4
102
}
330
2
100
AcDbEntity
  8
20MM-JOINT
 62
     6
100
AcDbText
 10
-128.2690147246422
 20
180.7224367532223
 30
0.0
 40
4.0
  1
20 MM
  7
arial
 72
     4
 11
-119.730133414956
 21
182.6965158800982
 31
0.0
100
AcDbText
1001
AcadAnnotative
1000
AnnotativeData
1002
{
1070
     1
1070
     1
1002
}
  0
LINE
  5
7D
330
2
100
AcDbEntity
  8
20MM-JOINT
 62
     1
100
AcDbLine
 10
-66.38102647391573
 20
99.24150880019039
 30
0.0
 11
-66.19291841038394
 21
98.86559591415812
 31
0.0
  0
LINE
  5
7E
330
2
100
AcDbEntity
  8
20MM-JOINT
 62
     1
100
AcDbLine
 10
-68.45022195053887
 20
96.79807435528619
 30
0.0
 11
-68.07400356421751
 21
97.54990012735062
 31
0.0
  0
LINE
  5
7F
330
2
100
AcDbEntity
  8
20MM-JOINT
 62
     1
100
AcDbLine
 10
-69.20265646392387
 20
96.61011722657542
 30
0.0
 11
-68.45022195053887
 21
96.79807435528619
 31
0.0
  0
LINE
  5
80
330
2
100
AcDbEntity
  8
20MM-JOINT
 62
     1
100
AcDbLine
 10
-67.50967937362209
 20
96.23420434054317
 30
0.0
 11
-68.82643807760247
 21
95.29442143976792
 31
0.0
  0
LINE
  5
81
330
2
100
AcDbEntity
  8
20MM-JOINT
 62
     1
100
AcDbLine
 10
-68.82643807760247
 20
95.29442143976792
 30
0.0
 11
-69.20265646392387
 21
96.61011722657542
 31
0.0
  0
LINE
  5
82
330
2
100
AcDbEntity
  8
20MM-JOINT
 62
     1
100
AcDbLine
 10
-66.19291841038394
 20
97.1739872413184
 30
0.0
 11
-67.50967937362209
 21
96.23420434054317
 31
0.0
  0
LINE
  5
83
330
2
100
AcDbEntity
  8
20MM-JOINT
 62
     1
100
AcDbLine
 10
-66.19291841038394
 20
98.86559591415812
 30
0.0
 11
-66.19291841038394
 21
97.1739872413184
 31
0.0
  0
LINE
  5
84
330
2
100
AcDbEntity
  8
20MM-JOINT
 62
     1
100
AcDbLine
 10
-68.07400356421751
 20
97.54990012735062
 30
0.0
 11
-66.38102647391573
 21
99.24150880019039
 31
0.0
  0
LINE
  5
85
330
2
100
AcDbEntity
  8
20MM-JOINT
 62
     1
100
AcDbLine
 10
-56.66097825559656
 20
72.96175218737983
 30
0.0
 11
-55.98848823856117
 21
74.3056415276925
 31
0.0
  0
LINE
  5
86
330
2
100
AcDbEntity
  8
20MM-JOINT
 62
     1
100
AcDbLine
 10
-55.74394850288611
 20
73.1450100782672
 30
0.0
 11
-56.29416635451237
 21
71.86220623670158
 31
0.0
  0
LINE
  5
87
330
2
100
AcDbEntity
  8
20MM-JOINT
 62
     1
100
AcDbLine
 10
-56.29416635451237
 20
71.86220623670158
 30
0.0
 11
-56.66097825559656
 21
72.96175218737983
 31
0.0
  0
LINE
  5
88
330
2
100
AcDbEntity
  8
20MM-JOINT
 62
     1
100
AcDbLine
 10
-55.49940646963945
 20
73.69478235628321
 30
0.0
 11
-55.74394850288611
 21
73.1450100782672
 31
0.0
  0
LINE
  5
89
330
2
100
AcDbEntity
  8
20MM-JOINT
 62
     1
100
AcDbLine
 10
-55.98848823856117
 20
74.3056415276925
 30
0.0
 11
-55.49940646963945
 21
73.69478235628321
 31
0.0
  0
CIRCLE
  5
8A
330
2
100
AcDbEntity
  8
20MM-JOINT
 62
     1
100
AcDbCircle
 10
-51.38603650482038
 20
56.22206533102366
 30
0.0
 40
0.3762183863213835
  0
LINE
  5
8B
330
2
100
AcDbEntity
  8
20MM-JOINT
 62
     1
100
AcDbLine
 10
-69.9501858048841
 20
81.70047350866207
 30
0.0
 11
-69.766779854342
 21
80.17332627746203
 31
0.0
  0
LINE
  5
8C
330
2
100
AcDbEntity
  8
20MM-JOINT
 62
     1
100
AcDbLine
 10
-71.35629732651624
 20
80.78418405422519
 30
0.0
 11
-71.35629732651624
 21
81.70047350866207
 31
0.0
  0
LINE
  5
8D
330
2
100
AcDbEntity
  8
20MM-JOINT
 62
     1
100
AcDbLine
 10
-71.35629732651624
 20
81.70047350866207
 30
0.0
 11
-69.9501858048841
 21
81.70047350866207
 31
0.0
  0
LINE
  5
8E
330
2
100
AcDbEntity
  8
20MM-JOINT
 62
     1
100
AcDbLine
 10
-70.68380960705245
 20
79.684638103547
 30
0.0
 11
-71.35629732651624
 21
80.78418405422519
 31
0.0
  0
LINE
  5
8F
330
2
100
AcDbEntity
  8
20MM-JOINT
 62
     1
100
AcDbLine
 10
-69.766779854342
 20
80.17332627746203
 30
0.0
 11
-70.68380960705245
 21
79.684638103547
 31
0.0
  0
CIRCLE
  5
90
330
2
100
AcDbEntity
  8
20MM-JOINT
 62
     1
100
AcDbCircle
 10
-68.33168999015892
 20
63.90264068646167
 30
0.0
 40
0.2659198672028824
  0
LINE
  5
91
330
2
100
AcDbEntity
  8
20MM-JOINT
 62
     1
100
AcDbLine
 10
-89.3161169746499
 20
99.83035729921965
 30
0.0
 11
-87.05881117523716
 21
99.07853152715517
 31
0.0
  0
LINE
  5
92
330
2
100
AcDbEntity
  8
20MM-JOINT
 62
     1
100
AcDbLine
 10
-88.75179052479671
 20
98.32670438370138
 30
0.0
 11
-89.12800665186029
 21
99.6424001705089
 31
0.0
  0
LINE
  5
93
330
2
100
AcDbEntity
  8
20MM-JOINT
 62
     1
100
AcDbLine
 10
-86.87070311170534
 20
97.76283574034767
 30
0.0
 11
-88.18746407494353
 21
97.5748786116369
 31
0.0
  0
LINE
  5
94
330
2
100
AcDbEntity
  8
20MM-JOINT
 62
     1
100
AcDbLine
 10
-88.18746407494353
 20
97.5748786116369
 30
0.0
 11
-88.75179052479671
 21
98.32670438370138
 31
0.0
  0
LINE
  5
95
330
2
100
AcDbEntity
  8
20MM-JOINT
 62
     1
100
AcDbLine
 10
-87.05881117523716
 20
99.07853152715517
 30
0.0
 11
-86.87070311170534
 21
97.76283574034767
 31
0.0
  0
LINE
  5
96
330
2
100
AcDbEntity
  8
20MM-JOINT
 62
     1
100
AcDbLine
 10
-90.1779583061681
 20
83.9920522603465
 30
0.0
 11
-88.67308927939815
 21
82.11248645879601
 31
0.0
  0
LINE
  5
97
330
2
100
AcDbEntity
  8
20MM-JOINT
 62
     1
100
AcDbLine
 10
-89.23741346999355
 20
81.5486178154423
 30
0.0
 11
-91.11850088308489
 21
81.5486178154423
 31
0.0
  0
LINE
  5
98
330
2
100
AcDbEntity
  8
20MM-JOINT
 62
     1
100
AcDbLine
 10
-91.11850088308489
 20
82.11248645879601
 30
0.0
 11
-90.1779583061681
 21
83.9920522603465
 31
0.0
  0
LINE
  5
99
330
2
100
AcDbEntity
  8
20MM-JOINT
 62
     1
100
AcDbLine
 10
-91.11850088308489
 20
81.5486178154423
 30
0.0
 11
-91.11850088308489
 21
82.11248645879601
 31
0.0
  0
LINE
  5
9A
330
2
100
AcDbEntity
  8
20MM-JOINT
 62
     1
100
AcDbLine
 10
-88.67308927939815
 20
82.11248645879601
 30
0.0
 11
-89.23741346999355
 21
81.5486178154423
 31
0.0
  0
INSERT
  5
9B
330
2
100
AcDbEntity
  8
20MM-JOINT
 62
     1
100
AcDbBlockReference
  2
*X0
 10
14630.89201739332
 20
10040.98909938927
 30
0.0
 41
-1.0
 50
54.67191047779144
1001
ACAD
1000
HATCH
1002
{
1070
    16
1000
AR-CONC
1040
0.3
1040
0.0
1002
}
  0
INSERT
  5
9C
330
2
100
AcDbEntity
  8
20MM-JOINT
 62
     1
100
AcDbBlockReference
  2
*X0
 10
10563.87477423076
 20
-14118.80678445736
 30
0.0
 41
-1.0
 50
327.4017962361148
1001
ACAD
1000
HATCH
1002
{
1070
    16
1000
AR-CONC
1040
0.3
1040
0.0
1002
}
  0
TEXT
  5
9D
102
{ACAD_XDICTIONARY
360
1C0
102
}
330
2
100
AcDbEntity
  8
20MM-JOINT
 62
     6
100
AcDbText
 10
-74.94295742587003
 20
203.573013784703
 30
0.0
 40
4.0
  1
LOAD ( kN )
  7
arial
 72
     4
 11
-59.73013341495598
 21
205.0204899102146
 31
0.0
100
AcDbText
1001
AcadAnnotative
1000
AnnotativeData
1002
{
1070
     1
1070
     1
1002
}
  0
LINE
  5
9E
330
2
100
AcDbEntity
  8
20MM-JOINT
 62
     6
100
AcDbLine
 10
-93.10750396992181
 20
222.4792049210924
 30
0.0
 11
-93.10750396992181
 21
169.3809587869996
 31
0.0
  0
LINE
  5
9F
330
2
100
AcDbEntity
  8
20MM-JOINT
 62
     6
100
AcDbLine
 10
-28.23691983512219
 20
222.4792049210924
 30
0.0
 11
-28.23691983512219
 21
169.3809587869996
 31
0.0
  0
TEXT
  5
A0
102
{ACAD_XDICTIONARY
360
1BC
102
}
330
2
100
AcDbEntity
  8
20MM-JOINT
 62
     6
100
AcDbText
 10
-131.9558695326391
 20
203.3805595731859
 30
0.0
 40
4.0
  1
WIDTH
  7
arial
 72
     4
 11
-122.8003442938942
 21
205.3805595731859
 31
0.0
100
AcDbText
1001
AcadAnnotative
1000
AnnotativeData
1002
{
1070
     1
1070
     1
1002
}
  0
TEXT
  5
A1
102
{ACAD_XDICTIONARY
360
1B8
102
}
330
2
100
AcDbEntity
  8
20MM-JOINT
 62
     6
100
AcDbText
 10
-192.7696968528823
 20
212.0724520214542
 30
0.0
 40
4.0
  1
DSD REF:
  7
arial
 72
     4
 11
-179.730133414956
 21
214.0724520214542
 31
0.0
100
AcDbText
1001
AcadAnnotative
1000
AnnotativeData
1002
{
1070
     1
1070
     1
1002
}
  0
TEXT
  5
A2
102
{ACAD_XDICTIONARY
360
1B4
102
}
330
2
100
AcDbEntity
  8
20MM-JOINT
 62
     6
100
AcDbText
 10
-190.136681846061
 20
180.6965158800982
 30
0.0
 40
4.0
  1
ESD15L
  7
arial
 72
     4
 11
-179.730133414956
 21
182.6965158800982
 31
0.0
100
AcDbText
1001
AcadAnnotative
1000
AnnotativeData
1002
{
1070
     1
1070
     1
1002
}
  0
LINE
  5
A3
330
2
100
AcDbEntity
  8
20MM-JOINT
 62
     6
100
AcDbLine
 10
-153.6155975269846
 20
222.4792049210924
 30
0.0
 11
-153.6155975269846
 21
169.3809587869996
 31
0.0
  0
LINE
  5
A4
330
2
100
AcDbEntity
  8
20MM-JOINT
 62
     6
100
AcDbLine
 10
-203.6155975269847
 20
222.4792049210924
 30
0.0
 11
-203.6155975269847
 21
169.3809587869996
 31
0.0
  0
TEXT
  5
A5
102
{ACAD_XDICTIONARY
360
1B0
102
}
330
2
100
AcDbEntity
  8
20MM-JOINT
 62
     6
100
AcDbText
 10
-142.3596894507837
 20
212.0710877649739
 30
0.0
 40
4.0
  1
DESIGN JOINT
  7
arial
 72
     4
 11
-122.8003442938942
 21
214.0724520214542
 31
0.0
100
AcDbText
1001
AcadAnnotative
1000
AnnotativeData
1002
{
1070
     1
1070
     1
1002
}
  0
LINE
  5
A6
330
2
100
AcDbEntity
  8
20MM-JOINT
 62
     6
100
AcDbLine
 10
-203.6155975269847
 20
222.4792049210924
 30
0.0
 11
-28.23691983512219
 21
222.4792049210924
 31
0.0
  0
LINE
  5
A7
330
2
100
AcDbEntity
  8
20MM-JOINT
 62
     6
100
AcDbLine
 10
-203.6155975269847
 20
169.3809587869996
 30
0.0
 11
-28.23691983512219
 21
169.3809587869996
 31
0.0
  0
LINE
  5
A8
330
2
100
AcDbEntity
  8
20MM-JOINT
 62
     6
100
AcDbLine
 10
-203.6155975269847
 20
196.4084438620467
 30
0.0
 11
-28.23691983512217
 21
196.4084438620468
 31
0.0
  0
LINE
  5
A9
330
2
100
AcDbEntity
  8
20MM-JOINT
 62
     2
100
AcDbLine
 10
-20.0
 20
125.0
 30
0.0
 11
-269.9999999999999
 21
125.0
 31
0.0
  0
LINE
  5
AA
330
2
100
AcDbEntity
  8
ANCON-DSD
100
AcDbLine
 10
0.0000000000000027
 20
38.0
 30
0.0
 11
0.0000000000000027
 21
38.01812056130581
 31
0.0
  0
LINE
  5
AB
330
2
100
AcDbEntity
  8
ANCON-DSD
100
AcDbLine
 10
0.0000000000000027
 20
38.0
 30
0.0
 11
2.000000000000002
 21
38.0
 31
0.0
  0
LINE
  5
AC
330
2
100
AcDbEntity
  8
ANCON-DSD
100
AcDbLine
 10
0.0000000000000027
 20
-38.0
 30
0.0
 11
2.000000000000002
 21
-38.0
 31
0.0
  0
DIMENSION
  5
AD
330
2
100
AcDbEntity
  8
DIMS
100
AcDbDimension
280
     0
  2
*D2
 10
2.000000000000002
 20
-48.71360481256672
 30
0.0
 11
12.5
 21
-45.71360481256672
 31
0.0
 71
     5
 42
-1.0
 73
     0
 74
     0
 75
     0
  3
1-2
100
AcDbAlignedDimension
 13
0.0000000000000027
 23
-38.0
 33
0.0
 14
2.000000000000002
 24
-38.0
 34
0.0
100
AcDbRotatedDimension
  0
LINE
  5
BE
330
2
100
AcDbEntity
  8
ANCON-DSD
100
AcDbLine
 10
0.0000000000000027
 20
38.01812056130581
 30
0.0
 11
0.0000000000000027
 21
-38.0
 31
0.0
  0
LINE
  5
BF
330
2
100
AcDbEntity
  8
ANCON-DSD
100
AcDbLine
 10
2.000000000000002
 20
38.01812056130581
 30
0.0
 11
2.000000000000002
 21
-38.0
 31
0.0
  0
DIMENSION
  5
C0
330
2
100
AcDbEntity
  8
20MM-DIMS
100
AcDbDimension
280
     0
  2
*D3
 10
0.0000000000000359
 20
-72.5429452964253
 30
0.0
 11
-9.999999999999966
 21
-69.5429452964253
 31
0.0
 71
     5
 42
-1.0
 73
     0
 74
     0
 75
     0
  3
1-2
100
AcDbAlignedDimension
 13
-19.99999999999997
 23
-10.99999999999982
 33
0.0
 14
0.0000000000000359
 24
-38.00000000000001
 34
0.0
100
AcDbRotatedDimension
  0
LINE
  5
CE
330
2
100
AcDbEntity
  8
20MM-JOINT
 62
     2
100
AcDbLine
 10
-19.99999999999994
 20
-125.0
 30
0.0
 11
-19.99999999999997
 21
-10.99999999999983
 31
0.0
  0
LINE
  5
CF
330
2
100
AcDbEntity
  8
20MM-JOINT
 62
     3
100
AcDbLine
 10
-218.0
 20
11.00000000000017
 30
0.0
 11
-220.0
 21
9.00000000000017
 31
0.0
  0
LINE
  5
D0
330
2
100
AcDbEntity
  8
20MM-JOINT
 62
     3
100
AcDbLine
 10
-220.0
 20
-8.999999999999772
 30
0.0
 11
-218.0
 21
-10.99999999999977
 31
0.0
  0
LINE
  5
D1
330
2
100
AcDbEntity
  8
20MM-JOINT
 62
     3
100
AcDbLine
 10
-219.9999999999999
 20
9.00000000000017
 30
0.0
 11
-220.0
 21
-8.999999999999772
 31
0.0
  0
LINE
  5
D2
330
2
100
AcDbEntity
  8
20MM-JOINT
 62
     3
100
AcDbLine
 10
-218.0
 20
11.00000000000017
 30
0.0
 11
-218.0
 21
-10.99999999999983
 31
0.0
  0
LINE
  5
D3
330
2
100
AcDbEntity
  8
20MM-JOINT
 62
     3
100
AcDbLine
 10
-218.0
 20
11.00000000000017
 30
0.0
 11
0.0000000000000027
 21
11.00000000000017
 31
0.0
  0
LINE
  5
D4
330
2
100
AcDbEntity
  8
20MM-JOINT
  6
CENTER2
 62
     1
100
AcDbLine
 10
-230.0
 20
0.0000000000001705
 30
0.0
 11
0.0000000000000027
 21
0.0000000000001705
 31
0.0
  0
LINE
  5
D6
330
2
100
AcDbEntity
  8
20MM-JOINT
 62
     3
100
AcDbLine
 10
-218.0
 20
-10.99999999999983
 30
0.0
 11
0.0000000000000027
 21
-10.99999999999983
 31
0.0
  0
LINE
  5
D7
330
2
100
AcDbEntity
  8
20MM-JOINT
 62
     2
100
AcDbLine
 10
-19.99999999999994
 20
-125.0
 30
0.0
 11
-269.9999999999999
 21
-125.0
 31
0.0
  0
DIMENSION
  5
D8
330
2
100
AcDbEntity
  8
20MM-DIMS
100
AcDbDimension
280
     0
  2
*D5
 10
-19.99999999999997
 20
-72.5429452964253
 30
0.0
 11
-120.0
 21
-69.5429452964253
 31
0.0
 71
     5
 42
-1.0
 73
     0
 74
     0
 75
     0
  3
1-2
100
AcDbAlignedDimension
 13
-220.0
 23
-8.999999999999772
 33
0.0
 14
-19.99999999999997
 24
-10.99999999999982
 34
0.0
100
AcDbRotatedDimension
  0
LINE
  5
E5
330
2
100
AcDbEntity
  8
CONCRETE
100
AcDbLine
 10
0.000000000000053
 20
-124.9999999999999
 30
0.0
 11
0.0000000000000039
 21
125.0
 31
0.0
  0
INSERT
  5
E7
330
2
100
AcDbEntity
  8
20MM-JOINT
 62
     1
100
AcDbBlockReference
  2
*X1
 10
37072.55049834766
 20
29657.20883171042
 30
0.0
 41
-1.0
 50
327.4017962361148
1001
ACAD
1000
HATCH
1002
{
1070
    16
1000
AR-CONC
1040
0.3
1040
0.0
1002
}
  0
LINE
  5
100
330
2
100
AcDbEntity
  8
20MM-JOINT
 62
     2
100
AcDbLine
 10
-19.99999999999997
 20
11.00000000000017
 30
0.0
 11
-20.0
 21
125.0
 31
0.0
  0
TEXT
  5
101
102
{ACAD_XDICTIONARY
360
1AC
102
}
330
2
100
AcDbEntity
  8
DIMS
 62
     1
100
AcDbText
 10
22.35988496921331
 20
214.629358032281
 30
0.0
 40
4.0
  1
SPECIFICATION BY PRODUCT
  7
arial
 72
     4
 11
62.87693817521603
 21
216.6307222887613
 31
0.0
100
AcDbText
1001
AcadAnnotative
1000
AnnotativeData
1002
{
1070
     1
1070
     1
1002
}
  0
TEXT
  5
102
102
{ACAD_XDICTIONARY
360
1A8
102
}
330
2
100
AcDbEntity
  8
DIMS
 62
     1
100
AcDbText
 10
23.41432519087103
 20
184.6949035677849
 30
0.0
 40
4.0
  1
SPECIFICATION BY DESCRIPTION
  7
arial
 72
     4
 11
69.21105097531849
 21
186.6962678242651
 31
0.0
100
AcDbText
1001
AcadAnnotative
1000
AnnotativeData
1002
{
1070
     1
1070
     1
1002
}
  0
LINE
  5
103
330
2
100
AcDbEntity
  8
ANCON-DSD
  6
CENTER2
 62
     1
100
AcDbLine
 10
-0.0000000000001141
 20
0.0000000000000028
 30
0.0
 11
234.0
 21
0.0000000000000028
 31
0.0
  0
LINE
  5
104
330
2
100
AcDbEntity
  8
ANCON-DSD
  6
Continuous
 62
     3
100
AcDbLine
 10
2.000000000000002
 20
12.5
 30
0.0
 11
225.0
 21
12.5
 31
0.0
  0
LINE
  5
105
330
2
100
AcDbEntity
  8
ANCON-DSD
  6
Continuous
 62
     3
100
AcDbLine
 10
2.000000000000002
 20
-12.5
 30
0.0
 11
225.0
 21
-12.5
 31
0.0
  0
DIMENSION
  5
106
330
2
100
AcDbEntity
  8
DIMS
100
AcDbDimension
280
     0
  2
*D4
 10
225.0
 20
-72.5429452964253
 30
0.0
 11
112.5
 21
-69.5429452964253
 31
0.0
 71
     5
 42
-1.0
 73
     0
 74
     0
 75
     0
  3
1-2
100
AcDbAlignedDimension
 13
0.0000000000000027
 23
-38.0
 33
0.0
 14
225.0
 24
-12.5
 34
0.0
100
AcDbRotatedDimension
  0
LINE
  5
113
330
2
100
AcDbEntity
  8
CONCRETE
  6
Continuous
 62
     2
100
AcDbLine
 10
-0.0000000000001141
 20
125.0
 30
0.0
 11
250.0
 21
125.0
 31
0.0
  0
LINE
  5
114
330
2
100
AcDbEntity
  8
CONCRETE
  6
Continuous
 62
     2
100
AcDbLine
 10
-0.0000000000001141
 20
-125.0
 30
0.0
 11
250.0
 21
-125.0
 31
0.0
  0
INSERT
  5
115
330
2
100
AcDbEntity
  8
ANCON-DSD
 62
     1
100
AcDbBlockReference
  2
*X1
 10
15407.05334707625
 20
45013.94618519586
 30
0.0
 41
-1.0
1001
ACAD
1000
HATCH
1002
{
1070
    16
1000
AR-CONC
1040
0.3
1040
0.0
1002
}
  0
LINE
  5
116
330
2
100
AcDbEntity
  8
20MM-JOINT
  6
HIDDEN
 62
     3
100
AcDbLine
 10
0.0000000000000027
 20
11.00000000000017
 30
0.0
 11
177.9962777280847
 21
11.00000000000017
 31
0.0
  0
LINE
  5
117
330
2
100
AcDbEntity
  8
20MM-JOINT
  6
HIDDEN
 62
     3
100
AcDbLine
 10
0.0000000000000027
 20
-10.99999999999983
 30
0.0
 11
177.9962777280847
 21
-10.99999999999983
 31
0.0
  0
DIMENSION
  5
118
330
2
100
AcDbEntity
  8
20MM-DIMS
 62
     1
100
AcDbDimension
280
     0
  2
*D6
 10
179.9962777280847
 20
-59.84107725227959
 30
0.0
 11
89.99813886404236
 21
-56.84107725227959
 31
0.0
 71
     5
 42
-1.0
 73
     0
 74
     0
 75
     0
  3
1-2
100
AcDbAlignedDimension
 13
0.0000000000000027
 23
-38.0
 33
0.0
 14
179.9962777280847
 24
-8.999999999999829
 34
0.0
100
AcDbRotatedDimension
  0
MTEXT
  5
185
330
2
100
AcDbEntity
  8
ANCON-TEXT
100
AcDbMText
 10
145.1275311354375
 20
-153.5934640299781
 30
0.0
 40
8.0
 41
191.4641976488467
 46
0.0
 71
     1
 72
     5
  1
{\fArial|b0|i0|c0|p34;Leviat \PTel:  1300 304 320\PEmail: technical.au@leviat.com\PWeb: ancon.com.au / Leviat.com}
 73
     1
 44
1.0
101
Embedded Object
 70
     1
 10
1.0
 20
0.0
 30
0.0
 11
145.1275311354375
 21
-153.5934640299781
 31
0.0
 40
191.4641976488467
 41
0.0
 42
161.8935879945429
 43
48.45293315143247
 71
     2
 72
     1
 44
191.4641976488467
 45
1.0
 73
     0
 74
     0
 46
0.0
  0
LWPOLYLINE
  5
186
330
2
100
AcDbEntity
  8
ANCON-DSD
 62
     4
100
AcDbPolyline
 90
        4
 70
     1
 43
0.0
 10
-318.5056951083757
 20
241.4170579771706
 10
345.4553969936656
 20
241.4170579771706
 10
345.4553969936656
 20
-214.1159129690572
 10
-318.5056951083757
 20
-214.1159129690572
  0
ENDSEC
  0
SECTION
  2
OBJECTS
  0
DICTIONARY
  5
9
330
0
100
AcDbDictionary
281
     1
  3
ACAD_CIP_PREVIOUS_PRODUCT_INFO
350
177
  3
ACAD_COLOR
350
159
  3
ACAD_DETAILVIEWSTYLE
350
172
  3
ACAD_GROUP
350
23
  3
ACAD_LAYOUT
350
D
  3
ACAD_MATERIAL
350
127
  3
ACAD_MLEADERSTYLE
350
16E
  3
ACAD_MLINESTYLE
350
24
  3
ACAD_PLOTSETTINGS
350
25
  3
ACAD_PLOTSTYLENAME
350
8
  3
ACAD_SCALELIST
350
15C
  3
ACAD_SECTIONVIEWSTYLE
350
170
  3
ACAD_TABLESTYLE
350
15A
  3
ACAD_VISUALSTYLE
350
140
  3
ACDB_RECOMPOSE_DATA
350
219
  3
AcDbVariableDictionary
350
20D
  0
DICTIONARY
  5
17B
330
14
100
AcDbDictionary
280
     1
281
     1
  3
ACAD_LAYERSTATES
360
17C
  0
DICTIONARY
  5
1FC
330
6
100
AcDbDictionary
280
     1
281
     1
  3
ADSK_XREC_LAYER_RECONCILED
360
1FD
  0
DICTIONARY
  5
1FE
330
AE
100
AcDbDictionary
280
     1
281
     1
  3
ADSK_XREC_LAYER_RECONCILED
360
1FF
  0
DICTIONARY
  5
200
330
26
100
AcDbDictionary
280
     1
281
     1
  3
ADSK_XREC_LAYER_RECONCILED
360
201
  0
DICTIONARY
  5
202
330
E6
100
AcDbDictionary
280
     1
281
     1
  3
ADSK_XREC_LAYER_RECONCILED
360
203
  0
DICTIONARY
  5
204
330
3D
100
AcDbDictionary
280
     1
281
     1
  3
ADSK_XREC_LAYER_RECONCILED
360
205
  0
DICTIONARY
  5
206
330
2D
100
AcDbDictionary
280
     1
281
     1
  3
ADSK_XREC_LAYER_RECONCILED
360
207
  0
DICTIONARY
  5
208
330
2B
100
AcDbDictionary
280
     1
281
     1
  3
ADSK_XREC_LAYER_RECONCILED
360
209
  0
DICTIONARY
  5
20A
330
C1
100
AcDbDictionary
280
     1
281
     1
  3
ADSK_XREC_LAYER_RECONCILED
360
20B
  0
DICTIONARY
  5
179
330
178
100
AcDbDictionary
280
     1
281
     1
  3
ADSK_XREC_LAYER_RECONCILED
360
20C
  0
DICTIONARY
  5
3
330
2
100
AcDbDictionary
280
     1
281
     1
  3
ACAD_LAYOUTSELFREF
360
4
  0
DICTIONARY
  5
F
330
E
100
AcDbDictionary
280
     1
281
     1
  3
ACAD_LAYOUTSELFREF
360
10
  0
DICTIONARY
  5
1E4
330
2F
100
AcDbDictionary
280
     1
281
     1
  3
AcDbContextDataManager
360
1E5
  0
DICTIONARY
  5
1E0
330
33
100
AcDbDictionary
280
     1
281
     1
  3
AcDbContextDataManager
360
1E1
  0
DICTIONARY
  5
1DC
330
34
100
AcDbDictionary
280
     1
281
     1
  3
AcDbContextDataManager
360
1DD
  0
DICTIONARY
  5
1D8
330
35
100
AcDbDictionary
280
     1
281
     1
  3
AcDbContextDataManager
360
1D9
  0
DICTIONARY
  5
1D4
330
36
100
AcDbDictionary
280
     1
281
     1
  3
AcDbContextDataManager
360
1D5
  0
DICTIONARY
  5
1D0
330
37
100
AcDbDictionary
280
     1
281
     1
  3
AcDbContextDataManager
360
1D1
  0
DICTIONARY
  5
1CC
330
43
100
AcDbDictionary
280
     1
281
     1
  3
AcDbContextDataManager
360
1CD
  0
DICTIONARY
  5
1C8
330
7B
100
AcDbDictionary
280
     1
281
     1
  3
AcDbContextDataManager
360
1C9
  0
DICTIONARY
  5
1C4
330
7C
100
AcDbDictionary
280
     1
281
     1
  3
AcDbContextDataManager
360
1C5
  0
DICTIONARY
  5
1C0
330
9D
100
AcDbDictionary
280
     1
281
     1
  3
AcDbContextDataManager
360
1C1
  0
DICTIONARY
  5
1BC
330
A0
100
AcDbDictionary
280
     1
281
     1
  3
AcDbContextDataManager
360
1BD
  0
DICTIONARY
  5
1B8
330
A1
100
AcDbDictionary
280
     1
281
     1
  3
AcDbContextDataManager
360
1B9
  0
DICTIONARY
  5
1B4
330
A2
100
AcDbDictionary
280
     1
281
     1
  3
AcDbContextDataManager
360
1B5
  0
DICTIONARY
  5
1B0
330
A5
100
AcDbDictionary
280
     1
281
     1
  3
AcDbContextDataManager
360
1B1
  0
DICTIONARY
  5
1AC
330
101
100
AcDbDictionary
280
     1
281
     1
  3
AcDbContextDataManager
360
1AD
  0
DICTIONARY
  5
1A8
330
102
100
AcDbDictionary
280
     1
281
     1
  3
AcDbContextDataManager
360
1A9
  0
XRECORD
  5
177
102
{ACAD_REACTORS
330
9
102
}
330
9
100
AcDbXrecord
280
     1
300
ACDLT
300
2020
300

  0
DICTIONARY
  5
159
102
{ACAD_REACTORS
330
9
102
}
330
9
100
AcDbDictionary
281
     1
  0
DICTIONARY
  5
172
102
{ACAD_REACTORS
330
9
102
}
330
9
100
AcDbDictionary
281
     1
  3
Imperial24
350
173
  0
DICTIONARY
  5
23
102
{ACAD_REACTORS
330
9
102
}
330
9
100
AcDbDictionary
281
     1
  0
DICTIONARY
  5
D
102
{ACAD_REACTORS
330
9
102
}
330
9
100
AcDbDictionary
281
     1
  3
Layout1
350
13
  3
Model
350
C
  0
DICTIONARY
  5
127
102
{ACAD_REACTORS
330
9
102
}
330
9
100
AcDbDictionary
281
     1
  3
ByBlock
350
130
  3
ByLayer
350
128
  3
Global
350
138
  0
DICTIONARY
  5
16E
102
{ACAD_REACTORS
330
9
102
}
330
9
100
AcDbDictionary
281
     1
  3
Standard
350
16F
  0
DICTIONARY
  5
24
102
{ACAD_REACTORS
330
9
102
}
330
9
100
AcDbDictionary
281
     1
  3
Standard
350
28
  0
DICTIONARY
  5
25
102
{ACAD_REACTORS
330
9
102
}
330
9
100
AcDbDictionary
281
     1
  0
ACDBDICTIONARYWDFLT
  5
8
102
{ACAD_REACTORS
330
9
102
}
330
9
100
AcDbDictionary
281
     1
  3
Normal
350
7
100
AcDbDictionaryWithDefault
340
7
  0
DICTIONARY
  5
15C
102
{ACAD_REACTORS
330
9
102
}
330
9
100
AcDbDictionary
281
     1
  3
A0
350
15D
  3
A1
350
15E
  3
A2
350
15F
  3
A3
350
160
  3
A4
350
161
  3
A5
350
162
  3
A6
350
163
  3
A7
350
164
  3
A8
350
165
  3
A9
350
166
  3
B0
350
167
  3
B1
350
168
  3
B2
350
169
  3
B3
350
16A
  3
B4
350
16B
  3
B5
350
16C
  3
B6
350
16D
  0
DICTIONARY
  5
170
102
{ACAD_REACTORS
330
9
102
}
330
9
100
AcDbDictionary
281
     1
  3
Imperial24
350
171
  0
DICTIONARY
  5
15A
102
{ACAD_REACTORS
330
9
102
}
330
9
100
AcDbDictionary
281
     1
  3
Standard
350
15B
  0
DICTIONARY
  5
140
102
{ACAD_REACTORS
330
9
102
}
330
9
100
AcDbDictionary
281
     1
  3
2dWireframe
350
146
  3
Basic
350
145
  3
Brighten
350
14C
  3
ColorChange
350
150
  3
Conceptual
350
149
  3
Dim
350
14B
  3
EdgeColorOff
350
158
  3
Facepattern
350
14F
  3
Flat
350
141
  3
FlatWithEdges
350
142
  3
Gouraud
350
143
  3
GouraudWithEdges
350
144
  3
Hidden
350
148
  3
JitterOff
350
156
  3
Linepattern
350
14E
  3
OverhangOff
350
157
  3
Realistic
350
14A
  3
Shaded
350
155
  3
Shaded with edges
350
154
  3
Shades of Gray
350
151
  3
Sketchy
350
152
  3
Thicken
350
14D
  3
Wireframe
350
147
  3
X-Ray
350
153
  0
XRECORD
  5
219
102
{ACAD_REACTORS
330
9
102
}
330
9
100
AcDbXrecord
280
     1
 90
        1
330
15B
  0
DICTIONARY
  5
20D
102
{ACAD_REACTORS
330
9
102
}
330
9
100
AcDbDictionary
281
     1
  3
CANNOSCALE
350
213
  3
CMLEADERSTYLE
350
20F
  3
CTABLESTYLE
350
20E
  3
CVIEWDETAILSTYLE
350
210
  3
CVIEWSECTIONSTYLE
350
211
  3
LAYEREVAL
350
215
  3
LAYERNOTIFY
350
216
  3
LIGHTINGUNITS
350
214
  3
MSLTSCALE
350
212
  0
DICTIONARY
  5
17C
102
{ACAD_REACTORS
330
17B
102
}
330
17B
100
AcDbDictionary
281
     1
  0
XRECORD
  5
1FD
102
{ACAD_REACTORS
330
1FC
102
}
330
1FC
100
AcDbXrecord
280
     1
290
     1
  0
XRECORD
  5
1FF
102
{ACAD_REACTORS
330
1FE
102
}
330
1FE
100
AcDbXrecord
280
     1
290
     1
  0
XRECORD
  5
201
102
{ACAD_REACTORS
330
200
102
}
330
200
100
AcDbXrecord
280
     1
290
     1
  0
XRECORD
  5
203
102
{ACAD_REACTORS
330
202
102
}
330
202
100
AcDbXrecord
280
     1
290
     1
  0
XRECORD
  5
205
102
{ACAD_REACTORS
330
204
102
}
330
204
100
AcDbXrecord
280
     1
290
     1
  0
XRECORD
  5
207
102
{ACAD_REACTORS
330
206
102
}
330
206
100
AcDbXrecord
280
     1
290
     1
  0
XRECORD
  5
209
102
{ACAD_REACTORS
330
208
102
}
330
208
100
AcDbXrecord
280
     1
290
     1
  0
XRECORD
  5
20B
102
{ACAD_REACTORS
330
20A
102
}
330
20A
100
AcDbXrecord
280
     1
290
     1
  0
XRECORD
  5
20C
102
{ACAD_REACTORS
330
179
102
}
330
179
100
AcDbXrecord
280
     1
290
     1
  0
XRECORD
  5
4
102
{ACAD_REACTORS
330
3
102
}
330
3
100
AcDbXrecord
280
     1
340
2
  0
XRECORD
  5
10
102
{ACAD_REACTORS
330
F
102
}
330
F
100
AcDbXrecord
280
     1
340
E
  0
DICTIONARY
  5
1E5
102
{ACAD_REACTORS
330
1E4
102
}
330
1E4
100
AcDbDictionary
281
     1
  3
ACDB_ANNOTATIONSCALES
350
1E6
  0
DICTIONARY
  5
1E1
102
{ACAD_REACTORS
330
1E0
102
}
330
1E0
100
AcDbDictionary
281
     1
  3
ACDB_ANNOTATIONSCALES
350
1E2
  0
DICTIONARY
  5
1DD
102
{ACAD_REACTORS
330
1DC
102
}
330
1DC
100
AcDbDictionary
281
     1
  3
ACDB_ANNOTATIONSCALES
350
1DE
  0
DICTIONARY
  5
1D9
102
{ACAD_REACTORS
330
1D8
102
}
330
1D8
100
AcDbDictionary
281
     1
  3
ACDB_ANNOTATIONSCALES
350
1DA
  0
DICTIONARY
  5
1D5
102
{ACAD_REACTORS
330
1D4
102
}
330
1D4
100
AcDbDictionary
281
     1
  3
ACDB_ANNOTATIONSCALES
350
1D6
  0
DICTIONARY
  5
1D1
102
{ACAD_REACTORS
330
1D0
102
}
330
1D0
100
AcDbDictionary
281
     1
  3
ACDB_ANNOTATIONSCALES
350
1D2
  0
DICTIONARY
  5
1CD
102
{ACAD_REACTORS
330
1CC
102
}
330
1CC
100
AcDbDictionary
281
     1
  3
ACDB_ANNOTATIONSCALES
350
1CE
  0
DICTIONARY
  5
1C9
102
{ACAD_REACTORS
330
1C8
102
}
330
1C8
100
AcDbDictionary
281
     1
  3
ACDB_ANNOTATIONSCALES
350
1CA
  0
DICTIONARY
  5
1C5
102
{ACAD_REACTORS
330
1C4
102
}
330
1C4
100
AcDbDictionary
281
     1
  3
ACDB_ANNOTATIONSCALES
350
1C6
  0
DICTIONARY
  5
1C1
102
{ACAD_REACTORS
330
1C0
102
}
330
1C0
100
AcDbDictionary
281
     1
  3
ACDB_ANNOTATIONSCALES
350
1C2
  0
DICTIONARY
  5
1BD
102
{ACAD_REACTORS
330
1BC
102
}
330
1BC
100
AcDbDictionary
281
     1
  3
ACDB_ANNOTATIONSCALES
350
1BE
  0
DICTIONARY
  5
1B9
102
{ACAD_REACTORS
330
1B8
102
}
330
1B8
100
AcDbDictionary
281
     1
  3
ACDB_ANNOTATIONSCALES
350
1BA
  0
DICTIONARY
  5
1B5
102
{ACAD_REACTORS
330
1B4
102
}
330
1B4
100
AcDbDictionary
281
     1
  3
ACDB_ANNOTATIONSCALES
350
1B6
  0
DICTIONARY
  5
1B1
102
{ACAD_REACTORS
330
1B0
102
}
330
1B0
100
AcDbDictionary
281
     1
  3
ACDB_ANNOTATIONSCALES
350
1B2
  0
DICTIONARY
  5
1AD
102
{ACAD_REACTORS
330
1AC
102
}
330
1AC
100
AcDbDictionary
281
     1
  3
ACDB_ANNOTATIONSCALES
350
1AE
  0
DICTIONARY
  5
1A9
102
{ACAD_REACTORS
330
1A8
102
}
330
1A8
100
AcDbDictionary
281
     1
  3
ACDB_ANNOTATIONSCALES
350
1AA
  0
ACDBDETAILVIEWSTYLE
  5
173
102
{ACAD_REACTORS
330
172
102
}
330
172
100
AcDbModelDocViewStyle
 70
     0
  3
Imperial24
290
     1
300
Imperial24
 90
        0
100
AcDbDetailViewStyle
 70
     0
 71
     0
 90
        3
 71
     1
340
16
 62
   256
 40
0.24
340
0
 62
   256
 40
0.24
300

 40
0.36
280
     3
 71
     2
340
A
 90
       25
 62
   256
 71
     3
340
16
 62
   256
 40
0.24
 90
        1
 40
0.75
 90
        1
300
%<\AcVar ViewType \f "%tc1">% %<\AcVar ViewDetailId>%\PSCALE %<\AcVar ViewScale \f "%sn">%
 71
     4
340
A
 90
       25
 62
   256
340
A
 90
       25
 62
   256
280
     0
  0
LAYOUT
  5
13
102
{ACAD_REACTORS
330
D
102
}
330
D
100
AcDbPlotSettings
  1

  2
None
  4

  6

 40
0.0
 41
0.0
 42
0.0
 43
0.0
 44
0.0
 45
0.0
 46
0.0
 47
0.0
 48
0.0
 49
0.0
140
0.0
141
0.0
142
1.0
143
1.0
 70
   688
 72
     0
 73
     0
 74
     5
  7
Std pen settings.ctb
 75
    16
147
1.0
 76
     0
 77
     2
 78
   300
148
0.0
149
0.0
100
AcDbLayout
  1
Layout1
 70
     1
 71
     1
 10
-0.1979161059762549
 20
-0.1979166691697489
 11
16.34375024029589
 21
11.49541603298638
 12
0.0
 22
0.0
 32
0.0
 14
1.614583349603368
 24
1.129749872553066
 34
0.0
 15
14.5312501464303
 25
10.1677488529776
 35
0.0
146
0.0
 13
0.0
 23
0.0
 33
0.0
 16
1.0
 26
0.0
 36
0.0
 17
0.0
 27
1.0
 37
0.0
 76
     0
330
E
  0
LAYOUT
  5
C
102
{ACAD_REACTORS
330
D
102
}
330
D
100
AcDbPlotSettings
  1

  2
None
  4

  6

 40
0.0
 41
0.0
 42
0.0
 43
0.0
 44
0.0
 45
0.0
 46
0.0
 47
0.0
 48
0.0
 49
0.0
140
0.0
141
0.0
142
1.0
143
1.0
 70
  1712
 72
     0
 73
     0
 74
     0
  7
Std pen settings.ctb
 75
     0
147
1.0
 76
     0
 77
     2
 78
   300
148
0.0
149
0.0
100
AcDbLayout
  1
Model
 70
     1
 71
     0
 10
0.0
 20
0.0
 11
12.0
 21
9.0
 12
0.0
 22
0.0
 32
0.0
 14
0.0
 24
0.0
 34
0.0
 15
0.0
 25
0.0
 35
0.0
146
0.0
 13
0.0
 23
0.0
 33
0.0
 16
1.0
 26
0.0
 36
0.0
 17
0.0
 27
1.0
 37
0.0
 76
     0
330
2
331
1E
  0
MATERIAL
  5
130
102
{ACAD_XDICTIONARY
360
131
102
}
102
{ACAD_REACTORS
330
127
102
}
330
127
100
AcDbMaterial
  1
ByBlock
 72
     0
 43
0.0208333333333333
 43
0.0
 43
0.0
 43
0.0
 43
0.0
 43
0.0208333333333333
 43
0.0
 43
0.0
 43
0.0
 43
0.0
 43
1.0
 43
0.0
 43
0.0
 43
0.0
 43
0.0
 43
1.0
 77
     0
 47
0.0208333333333333
 47
0.0
 47
0.0
 47
0.0
 47
0.0
 47
0.0208333333333333
 47
0.0
 47
0.0
 47
0.0
 47
0.0
 47
1.0
 47
0.0
 47
0.0
 47
0.0
 47
0.0
 47
1.0
171
     0
 49
0.0208333333333333
 49
0.0
 49
0.0
 49
0.0
 49
0.0
 49
0.0208333333333333
 49
0.0
 49
0.0
 49
0.0
 49
0.0
 49
1.0
 49
0.0
 49
0.0
 49
0.0
 49
0.0
 49
1.0
175
     0
142
0.0208333333333333
142
0.0
142
0.0
142
0.0
142
0.0
142
0.0208333333333333
142
0.0
142
0.0
142
0.0
142
0.0
142
1.0
142
0.0
142
0.0
142
0.0
142
0.0
142
1.0
179
     0
144
0.0208333333333333
144
0.0
144
0.0
144
0.0
144
0.0
144
0.0208333333333333
144
0.0
144
0.0
144
0.0
144
0.0
144
1.0
144
0.0
144
0.0
144
0.0
144
0.0
144
1.0
147
0.0208333333333333
147
0.0
147
0.0
147
0.0
147
0.0
147
0.0208333333333333
147
0.0
147
0.0
147
0.0
147
0.0
147
1.0
147
0.0
147
0.0
147
0.0
147
0.0
147
1.0
  0
MATERIAL
  5
128
102
{ACAD_XDICTIONARY
360
129
102
}
102
{ACAD_REACTORS
330
127
102
}
330
127
100
AcDbMaterial
  1
ByLayer
 72
     0
 43
0.0208333333333333
 43
0.0
 43
0.0
 43
0.0
 43
0.0
 43
0.0208333333333333
 43
0.0
 43
0.0
 43
0.0
 43
0.0
 43
1.0
 43
0.0
 43
0.0
 43
0.0
 43
0.0
 43
1.0
 77
     0
 47
0.0208333333333333
 47
0.0
 47
0.0
 47
0.0
 47
0.0
 47
0.0208333333333333
 47
0.0
 47
0.0
 47
0.0
 47
0.0
 47
1.0
 47
0.0
 47
0.0
 47
0.0
 47
0.0
 47
1.0
171
     0
 49
0.0208333333333333
 49
0.0
 49
0.0
 49
0.0
 49
0.0
 49
0.0208333333333333
 49
0.0
 49
0.0
 49
0.0
 49
0.0
 49
1.0
 49
0.0
 49
0.0
 49
0.0
 49
0.0
 49
1.0
175
     0
142
0.0208333333333333
142
0.0
142
0.0
142
0.0
142
0.0
142
0.0208333333333333
142
0.0
142
0.0
142
0.0
142
0.0
142
1.0
142
0.0
142
0.0
142
0.0
142
0.0
142
1.0
179
     0
144
0.0208333333333333
144
0.0
144
0.0
144
0.0
144
0.0
144
0.0208333333333333
144
0.0
144
0.0
144
0.0
144
0.0
144
1.0
144
0.0
144
0.0
144
0.0
144
0.0
144
1.0
147
0.0208333333333333
147
0.0
147
0.0
147
0.0
147
0.0
147
0.0208333333333333
147
0.0
147
0.0
147
0.0
147
0.0
147
1.0
147
0.0
147
0.0
147
0.0
147
0.0
147
1.0
  0
MATERIAL
  5
138
102
{ACAD_XDICTIONARY
360
139
102
}
102
{ACAD_REACTORS
330
127
102
}
330
127
100
AcDbMaterial
  1
Global
 72
     0
 43
0.0208333333333333
 43
0.0
 43
0.0
 43
0.0
 43
0.0
 43
0.0208333333333333
 43
0.0
 43
0.0
 43
0.0
 43
0.0
 43
1.0
 43
0.0
 43
0.0
 43
0.0
 43
0.0
 43
1.0
 77
     0
 47
0.0208333333333333
 47
0.0
 47
0.0
 47
0.0
 47
0.0
 47
0.0208333333333333
 47
0.0
 47
0.0
 47
0.0
 47
0.0
 47
1.0
 47
0.0
 47
0.0
 47
0.0
 47
0.0
 47
1.0
171
     0
 49
0.0208333333333333
 49
0.0
 49
0.0
 49
0.0
 49
0.0
 49
0.0208333333333333
 49
0.0
 49
0.0
 49
0.0
 49
0.0
 49
1.0
 49
0.0
 49
0.0
 49
0.0
 49
0.0
 49
1.0
175
     0
142
0.0208333333333333
142
0.0
142
0.0
142
0.0
142
0.0
142
0.0208333333333333
142
0.0
142
0.0
142
0.0
142
0.0
142
1.0
142
0.0
142
0.0
142
0.0
142
0.0
142
1.0
179
     0
144
0.0208333333333333
144
0.0
144
0.0
144
0.0
144
0.0
144
0.0208333333333333
144
0.0
144
0.0
144
0.0
144
0.0
144
1.0
144
0.0
144
0.0
144
0.0
144
0.0
144
1.0
147
0.0208333333333333
147
0.0
147
0.0
147
0.0
147
0.0
147
0.0208333333333333
147
0.0
147
0.0
147
0.0
147
0.0
147
1.0
147
0.0
147
0.0
147
0.0
147
0.0
147
1.0
  0
MLEADERSTYLE
  5
16F
102
{ACAD_REACTORS
330
16E
102
}
330
16E
100
AcDbMLeaderStyle
179
     2
170
     2
171
     1
172
     0
 90
        2
 40
0.0
 41
0.0
173
     1
 91
-1056964608
340
19
 92
       -2
290
     1
 42
0.09
291
     1
 43
0.36
  3
Standard
 44
0.18
300

342
16
174
     1
178
     6
175
     1
176
     0
 93
-1056964608
 45
0.18
292
     0
297
     0
 46
0.18
 94
-1056964608
 47
1.0
 49
1.0
140
1.0
293
     1
141
0.0
294
     1
177
     0
142
1.0
295
     1
296
     0
143
0.125
271
     0
272
     9
273
     9
298
     1
  0
MLINESTYLE
  5
28
102
{ACAD_REACTORS
330
24
102
}
330
24
100
AcDbMlineStyle
  2
STANDARD
 70
     0
  3

 62
   256
 51
90.0
 52
90.0
 71
     2
 49
0.5
 62
   256
  6
BYLAYER
 49
-0.5
 62
   256
  6
BYLAYER
  0
ACDBPLACEHOLDER
  5
7
102
{ACAD_REACTORS
330
8
102
}
330
8
  0
SCALE
  5
15D
102
{ACAD_REACTORS
330
15C
102
}
330
15C
100
AcDbScale
 70
     0
300
1:1
140
1.0
141
1.0
290
     1
  0
SCALE
  5
15E
102
{ACAD_REACTORS
330
15C
102
}
330
15C
100
AcDbScale
 70
     0
300
1/128" = 1'-0"
140
0.0078125
141
12.0
290
     0
  0
SCALE
  5
15F
102
{ACAD_REACTORS
330
15C
102
}
330
15C
100
AcDbScale
 70
     0
300
1/64" = 1'-0"
140
0.015625
141
12.0
290
     0
  0
SCALE
  5
160
102
{ACAD_REACTORS
330
15C
102
}
330
15C
100
AcDbScale
 70
     0
300
1/32" = 1'-0"
140
0.03125
141
12.0
290
     0
  0
SCALE
  5
161
102
{ACAD_REACTORS
330
15C
102
}
330
15C
100
AcDbScale
 70
     0
300
1/16" = 1'-0"
140
0.0625
141
12.0
290
     0
  0
SCALE
  5
162
102
{ACAD_REACTORS
330
15C
102
}
330
15C
100
AcDbScale
 70
     0
300
3/32" = 1'-0"
140
0.09375
141
12.0
290
     0
  0
SCALE
  5
163
102
{ACAD_REACTORS
330
15C
102
}
330
15C
100
AcDbScale
 70
     0
300
1/8" = 1'-0"
140
0.125
141
12.0
290
     0
  0
SCALE
  5
164
102
{ACAD_REACTORS
330
15C
102
}
330
15C
100
AcDbScale
 70
     0
300
3/16" = 1'-0"
140
0.1875
141
12.0
290
     0
  0
SCALE
  5
165
102
{ACAD_REACTORS
330
15C
102
}
330
15C
100
AcDbScale
 70
     0
300
1/4" = 1'-0"
140
0.25
141
12.0
290
     0
  0
SCALE
  5
166
102
{ACAD_REACTORS
330
15C
102
}
330
15C
100
AcDbScale
 70
     0
300
3/8" = 1'-0"
140
0.375
141
12.0
290
     0
  0
SCALE
  5
167
102
{ACAD_REACTORS
330
15C
102
}
330
15C
100
AcDbScale
 70
     0
300
1/2" = 1'-0"
140
0.5
141
12.0
290
     0
  0
SCALE
  5
168
102
{ACAD_REACTORS
330
15C
102
}
330
15C
100
AcDbScale
 70
     0
300
3/4" = 1'-0"
140
0.75
141
12.0
290
     0
  0
SCALE
  5
169
102
{ACAD_REACTORS
330
15C
102
}
330
15C
100
AcDbScale
 70
     0
300
1" = 1'-0"
140
1.0
141
12.0
290
     0
  0
SCALE
  5
16A
102
{ACAD_REACTORS
330
15C
102
}
330
15C
100
AcDbScale
 70
     0
300
1-1/2" = 1'-0"
140
1.5
141
12.0
290
     0
  0
SCALE
  5
16B
102
{ACAD_REACTORS
330
15C
102
}
330
15C
100
AcDbScale
 70
     0
300
3" = 1'-0"
140
3.0
141
12.0
290
     0
  0
SCALE
  5
16C
102
{ACAD_REACTORS
330
15C
102
}
330
15C
100
AcDbScale
 70
     0
300
6" = 1'-0"
140
6.0
141
12.0
290
     0
  0
SCALE
  5
16D
102
{ACAD_REACTORS
330
15C
102
}
330
15C
100
AcDbScale
 70
     0
300
1'-0" = 1'-0"
140
12.0
141
12.0
290
     0
  0
ACDBSECTIONVIEWSTYLE
  5
171
102
{ACAD_REACTORS
330
170
102
}
330
170
100
AcDbModelDocViewStyle
 70
     0
  3
Imperial24
290
     1
300
Imperial24
 90
        0
100
AcDbSectionViewStyle
 70
     0
 71
     0
 90
       78
 71
     1
340
16
 62
   256
 40
0.24
340
0
340
0
 62
   256
 40
0.24
300
I, O, Q, S, X, Z
 40
0.48
 90
        3
 40
0.18
 90
        1
 71
     2
340
A
 90
       25
 62
   256
340
A
 90
       50
 62
   256
 40
0.24
 40
0.0
 40
0.24
 71
     3
340
16
 62
   256
 40
0.24
 90
        1
 40
0.75
 90
        1
300
%<\AcVar ViewType \f "%tc1">% %<\AcVar ViewSectionStartId>%-%<\AcVar ViewSectionEndId>%\PSCALE %<\AcVar ViewScale \f "%sn">%
 71
     4
 62
   256
 62
   257
300
ANSI31
 40
1.0
 90
        0
290
     0
290
     0
 90
        6
 40
0.0
 40
1.570796326794896
 40
0.2617993877991494
 40
1.308996938995747
 40
-0.2617993877991494
 40
1.832595714594046
  0
TABLESTYLE
  5
15B
102
{ACAD_XDICTIONARY
360
217
102
}
102
{ACAD_REACTORS
330
15A
102
}
330
15A
100
AcDbTableStyle
280
     0
  3
Standard
 70
     0
 71
     0
 40
0.06
 41
0.06
280
     0
281
     0
  7
STANDARD
140
0.18
170
     2
 62
     0
 63
     7
283
     0
 90
      512
 91
        0
  1

274
    -2
284
     1
 64
     0
275
    -2
285
     1
 65
     0
276
    -2
286
     1
 66
     0
277
    -2
287
     1
 67
     0
278
    -2
288
     1
 68
     0
279
    -2
289
     1
 69
     0
  7
STANDARD
140
0.25
170
     5
 62
     0
 63
     7
283
     0
 90
      512
 91
        0
  1

274
    -2
284
     1
 64
     0
275
    -2
285
     1
 65
     0
276
    -2
286
     1
 66
     0
277
    -2
287
     1
 67
     0
278
    -2
288
     1
 68
     0
279
    -2
289
     1
 69
     0
  7
STANDARD
140
0.18
170
     5
 62
     0
 63
     7
283
     0
 90
      512
 91
        0
  1

274
    -2
284
     1
 64
     0
275
    -2
285
     1
 65
     0
276
    -2
286
     1
 66
     0
277
    -2
287
     1
 67
     0
278
    -2
288
     1
 68
     0
279
    -2
289
     1
 69
     0
  0
VISUALSTYLE
  5
146
102
{ACAD_REACTORS
330
140
102
}
330
140
100
AcDbVisualStyle
  2
2dWireframe
 70
     4
177
     3
291
     0
 70
    58
 90
        0
176
     1
 90
        2
176
     1
 90
        0
176
     1
 90
        0
176
     1
 40
0.6
176
     1
 40
30.0
176
     1
 62
     7
420
 16777215
176
     1
 90
        1
176
     1
 90
        4
176
     1
 62
     7
176
     1
 62
   257
176
     1
 90
        1
176
     1
 90
        1
176
     1
 40
1.0
176
     1
 90
        0
176
     1
 62
   257
176
     1
 40
1.0
176
     1
 90
        1
176
     1
 90
        6
176
     1
 90
        2
176
     1
 62
     7
176
     1
 90
        5
176
     1
 90
        0
176
     1
 90
        0
176
     1
290
     0
176
     1
 90
        1
176
     1
 40
0.0
176
     1
 90
        0
176
     1
290
     1
176
     1
290
     1
176
     1
290
     0
176
     1
290
     0
176
     1
290
     0
176
     1
290
     0
176
     1
290
     0
176
     1
290
     0
176
     1
290
     0
176
     1
 90
       50
176
     1
 40
0.0
176
     1
 40
1.0
176
     1
 90
        0
176
     1
 62
    18
420
        0
176
     1
 90
       50
176
     1
 90
        3
176
     1
 62
     5
420
      255
176
     1
290
     0
176
     1
 90
       50
176
     1
 90
       50
176
     1
 90
       50
176
     1
290
     0
176
     1
 90
       50
176
     1
 62
   256
176
     0
 40
1.0
176
     0
 90
        2
176
     1
  1
strokes_ogs.tif
176
     1
290
     0
176
     1
 40
1.0
176
     1
 40
1.0
176
     1
  0
VISUALSTYLE
  5
145
102
{ACAD_REACTORS
330
140
102
}
330
140
100
AcDbVisualStyle
  2
Basic
 70
     7
177
     3
291
     1
 70
    58
 90
        1
176
     1
 90
        0
176
     1
 90
        1
176
     1
 90
        0
176
     1
 40
0.6
176
     1
 40
30.0
176
     1
 62
     7
420
 16777215
176
     1
 90
        0
176
     1
 90
        4
176
     1
 62
     7
176
     1
 62
   257
176
     1
 90
        1
176
     1
 90
        1
176
     1
 40
1.0
176
     1
 90
        8
176
     1
 62
     7
176
     1
 40
1.0
176
     1
 90
        1
176
     1
 90
        6
176
     1
 90
        2
176
     1
 62
     7
176
     1
 90
        5
176
     1
 90
        0
176
     1
 90
        0
176
     1
290
     0
176
     1
 90
        1
176
     1
 40
0.0
176
     1
 90
        0
176
     1
290
     0
176
     1
290
     1
176
     1
290
     1
176
     1
290
     0
176
     1
290
     0
176
     1
290
     0
176
     1
290
     0
176
     1
290
     0
176
     1
290
     0
176
     1
 90
       50
176
     1
 40
0.0
176
     1
 40
1.0
176
     1
 90
        0
176
     1
 62
    18
420
        0
176
     1
 90
       50
176
     1
 90
        3
176
     1
 62
     5
420
      255
176
     1
290
     0
176
     1
 90
       50
176
     1
 90
       50
176
     1
 90
       50
176
     1
290
     0
176
     1
 90
       50
176
     1
 62
   256
176
     0
 40
1.0
176
     0
 90
        2
176
     1
  1
strokes_ogs.tif
176
     1
290
     0
176
     1
 40
1.0
176
     1
 40
1.0
176
     1
  0
VISUALSTYLE
  5
14C
102
{ACAD_REACTORS
330
140
102
}
330
140
100
AcDbVisualStyle
  2
Brighten
 70
    12
177
     3
291
     1
 70
    58
 90
        2
176
     1
 90
        2
176
     1
 90
        0
176
     1
 90
        0
176
     1
 40
0.6
176
     1
 40
30.0
176
     1
 62
     7
420
 16777215
176
     1
 90
        1
176
     1
 90
        4
176
     1
 62
     7
176
     1
 62
   257
176
     1
 90
        1
176
     1
 90
        1
176
     1
 40
1.0
176
     1
 90
        8
176
     1
 62
     7
176
     1
 40
1.0
176
     1
 90
        1
176
     1
 90
        6
176
     1
 90
        2
176
     1
 62
     7
176
     1
 90
        5
176
     1
 90
        0
176
     1
 90
        0
176
     1
290
     0
176
     1
 90
        1
176
     1
 40
50.0
176
     1
 90
        0
176
     1
290
     0
176
     1
290
     1
176
     1
290
     1
176
     1
290
     0
176
     1
290
     0
176
     1
290
     0
176
     1
290
     0
176
     1
290
     0
176
     1
290
     0
176
     1
 90
       50
176
     1
 40
0.0
176
     1
 40
1.0
176
     1
 90
        0
176
     1
 62
    18
420
        0
176
     1
 90
       50
176
     1
 90
        3
176
     1
 62
     5
420
      255
176
     1
290
     0
176
     1
 90
       50
176
     1
 90
       50
176
     1
 90
       50
176
     1
290
     0
176
     1
 90
       50
176
     1
 62
   256
176
     0
 40
1.0
176
     0
 90
        2
176
     1
  1
strokes_ogs.tif
176
     1
290
     0
176
     1
 40
1.0
176
     1
 40
1.0
176
     1
  0
VISUALSTYLE
  5
150
102
{ACAD_REACTORS
330
140
102
}
330
140
100
AcDbVisualStyle
  2
ColorChange
 70
    16
177
     3
291
     1
 70
    58
 90
        2
176
     1
 90
        2
176
     1
 90
        3
176
     1
 90
        0
176
     1
 40
0.6
176
     1
 40
30.0
176
     1
 62
     8
420
  8421504
176
     1
 90
        1
176
     1
 90
        4
176
     1
 62
     7
176
     1
 62
   257
176
     1
 90
        1
176
     1
 90
        1
176
     1
 40
1.0
176
     1
 90
        8
176
     1
 62
     8
420
  8421504
176
     1
 40
1.0
176
     1
 90
        1
176
     1
 90
        6
176
     1
 90
        2
176
     1
 62
     7
176
     1
 90
        5
176
     1
 90
        0
176
     1
 90
        0
176
     1
290
     0
176
     1
 90
        1
176
     1
 40
0.0
176
     1
 90
        0
176
     1
290
     0
176
     1
290
     1
176
     1
290
     1
176
     1
290
     0
176
     1
290
     0
176
     1
290
     0
176
     1
290
     0
176
     1
290
     0
176
     1
290
     0
176
     1
 90
       50
176
     1
 40
0.0
176
     1
 40
1.0
176
     1
 90
        0
176
     1
 62
    18
420
        0
176
     1
 90
       50
176
     1
 90
        3
176
     1
 62
     5
420
      255
176
     1
290
     0
176
     1
 90
       50
176
     1
 90
       50
176
     1
 90
       50
176
     1
290
     0
176
     1
 90
       50
176
     1
 62
   256
176
     0
 40
1.0
176
     0
 90
        2
176
     1
  1
strokes_ogs.tif
176
     1
290
     0
176
     1
 40
1.0
176
     1
 40
1.0
176
     1
  0
VISUALSTYLE
  5
149
102
{ACAD_REACTORS
330
140
102
}
330
140
100
AcDbVisualStyle
  2
Conceptual
 70
     9
177
     3
291
     0
 70
    58
 90
        3
176
     1
 90
        2
176
     1
 90
        0
176
     1
 90
        0
176
     1
 40
0.6
176
     1
 40
30.0
176
     1
 62
     7
420
 16777215
176
     1
 90
        2
176
     1
 90
        2
176
     1
 62
     7
176
     1
 62
   257
176
     1
 90
        1
176
     1
 90
        1
176
     1
 40
179.0
176
     1
 90
        8
176
     1
 62
     7
176
     1
 40
1.0
176
     1
 90
        1
176
     1
 90
        6
176
     1
 90
        2
176
     1
 62
     7
176
     1
 90
        3
176
     1
 90
        0
176
     1
 90
        0
176
     1
290
     0
176
     1
 90
        1
176
     1
 40
0.0
176
     1
 90
        0
176
     1
290
     0
176
     1
290
     1
176
     1
290
     1
176
     1
290
     0
176
     1
290
     0
176
     1
290
     0
176
     1
290
     0
176
     1
290
     0
176
     1
290
     0
176
     1
 90
       50
176
     1
 40
0.0
176
     1
 40
1.0
176
     1
 90
        0
176
     1
 62
    18
420
        0
176
     1
 90
       50
176
     1
 90
        3
176
     1
 62
     5
420
      255
176
     1
290
     0
176
     1
 90
       50
176
     1
 90
       50
176
     1
 90
       50
176
     1
290
     0
176
     1
 90
       50
176
     1
 62
   256
176
     0
 40
1.0
176
     0
 90
        2
176
     1
  1
strokes_ogs.tif
176
     1
290
     0
176
     1
 40
1.0
176
     1
 40
1.0
176
     1
  0
VISUALSTYLE
  5
14B
102
{ACAD_REACTORS
330
140
102
}
330
140
100
AcDbVisualStyle
  2
Dim
 70
    11
177
     3
291
     1
 70
    58
 90
        2
176
     1
 90
        2
176
     1
 90
        0
176
     1
 90
        0
176
     1
 40
0.6
176
     1
 40
30.0
176
     1
 62
     7
420
 16777215
176
     1
 90
        1
176
     1
 90
        4
176
     1
 62
     7
176
     1
 62
   257
176
     1
 90
        1
176
     1
 90
        1
176
     1
 40
1.0
176
     1
 90
        8
176
     1
 62
     7
176
     1
 40
1.0
176
     1
 90
        1
176
     1
 90
        6
176
     1
 90
        2
176
     1
 62
     7
176
     1
 90
        5
176
     1
 90
        0
176
     1
 90
        0
176
     1
290
     0
176
     1
 90
        1
176
     1
 40
-50.0
176
     1
 90
        0
176
     1
290
     0
176
     1
290
     1
176
     1
290
     1
176
     1
290
     0
176
     1
290
     0
176
     1
290
     0
176
     1
290
     0
176
     1
290
     0
176
     1
290
     0
176
     1
 90
       50
176
     1
 40
0.0
176
     1
 40
1.0
176
     1
 90
        0
176
     1
 62
    18
420
        0
176
     1
 90
       50
176
     1
 90
        3
176
     1
 62
     5
420
      255
176
     1
290
     0
176
     1
 90
       50
176
     1
 90
       50
176
     1
 90
       50
176
     1
290
     0
176
     1
 90
       50
176
     1
 62
   256
176
     0
 40
1.0
176
     0
 90
        2
176
     1
  1
strokes_ogs.tif
176
     1
290
     0
176
     1
 40
1.0
176
     1
 40
1.0
176
     1
  0
VISUALSTYLE
  5
158
102
{ACAD_REACTORS
330
140
102
}
330
140
100
AcDbVisualStyle
  2
EdgeColorOff
 70
    22
177
     3
291
     1
 70
    58
 90
        2
176
     0
 90
        2
176
     0
 90
        0
176
     0
 90
        0
176
     0
 40
0.6
176
     0
 40
30.0
176
     0
 62
     7
420
 16777215
176
     0
 90
        1
176
     0
 90
        4
176
     0
 62
     7
176
     0
 62
   257
176
     0
 90
        1
176
     0
 90
        1
176
     0
 40
1.0
176
     0
 90
        8
176
     2
 62
     7
176
     0
 40
1.0
176
     0
 90
        1
176
     0
 90
        6
176
     0
 90
        2
176
     0
 62
     7
176
     0
 90
        5
176
     0
 90
        0
176
     0
 90
        0
176
     0
290
     0
176
     0
 90
        1
176
     0
 40
0.0
176
     0
 90
        0
176
     0
290
     0
176
     0
290
     1
176
     0
290
     1
176
     0
290
     0
176
     0
290
     0
176
     0
290
     0
176
     0
290
     0
176
     0
290
     0
176
     0
290
     0
176
     0
 90
       50
176
     0
 40
0.0
176
     0
 40
1.0
176
     0
 90
        0
176
     0
 62
    18
420
        0
176
     0
 90
       50
176
     0
 90
        3
176
     0
 62
     5
420
      255
176
     0
290
     0
176
     0
 90
       50
176
     0
 90
       50
176
     0
 90
       50
176
     0
290
     0
176
     0
 90
       50
176
     0
 62
   256
176
     0
 40
1.0
176
     0
 90
        2
176
     0
  1
strokes_ogs.tif
176
     0
290
     0
176
     0
 40
1.0
176
     0
 40
1.0
176
     0
  0
VISUALSTYLE
  5
14F
102
{ACAD_REACTORS
330
140
102
}
330
140
100
AcDbVisualStyle
  2
Facepattern
 70
    15
177
     3
291
     1
 70
    58
 90
        2
176
     1
 90
        2
176
     1
 90
        0
176
     1
 90
        0
176
     1
 40
0.6
176
     1
 40
30.0
176
     1
 62
     7
420
 16777215
176
     1
 90
        1
176
     1
 90
        4
176
     1
 62
     7
176
     1
 62
   257
176
     1
 90
        1
176
     1
 90
        1
176
     1
 40
1.0
176
     1
 90
        8
176
     1
 62
     7
176
     1
 40
1.0
176
     1
 90
        1
176
     1
 90
        6
176
     1
 90
        2
176
     1
 62
     7
176
     1
 90
        5
176
     1
 90
        0
176
     1
 90
        0
176
     1
290
     0
176
     1
 90
        1
176
     1
 40
0.0
176
     1
 90
        0
176
     1
290
     0
176
     1
290
     1
176
     1
290
     1
176
     1
290
     0
176
     1
290
     0
176
     1
290
     0
176
     1
290
     0
176
     1
290
     0
176
     1
290
     0
176
     1
 90
       50
176
     1
 40
0.0
176
     1
 40
1.0
176
     1
 90
        0
176
     1
 62
    18
420
        0
176
     1
 90
       50
176
     1
 90
        3
176
     1
 62
     5
420
      255
176
     1
290
     0
176
     1
 90
       50
176
     1
 90
       50
176
     1
 90
       50
176
     1
290
     0
176
     1
 90
       50
176
     1
 62
   256
176
     0
 40
1.0
176
     0
 90
        2
176
     1
  1
strokes_ogs.tif
176
     1
290
     0
176
     1
 40
1.0
176
     1
 40
1.0
176
     1
  0
VISUALSTYLE
  5
141
102
{ACAD_REACTORS
330
140
102
}
330
140
100
AcDbVisualStyle
  2
Flat
 70
     0
177
     3
291
     1
 70
    58
 90
        2
176
     1
 90
        1
176
     1
 90
        1
176
     1
 90
        2
176
     1
 40
0.6
176
     1
 40
30.0
176
     1
 62
     7
420
 16777215
176
     1
 90
        0
176
     1
 90
        0
176
     1
 62
     7
176
     1
 62
   257
176
     1
 90
        1
176
     1
 90
        1
176
     1
 40
1.0
176
     1
 90
        8
176
     1
 62
     7
176
     1
 40
1.0
176
     1
 90
        1
176
     1
 90
        6
176
     1
 90
        2
176
     1
 62
     7
176
     1
 90
        5
176
     1
 90
        0
176
     1
 90
        0
176
     1
290
     0
176
     1
 90
       13
176
     1
 40
0.0
176
     1
 90
        0
176
     1
290
     0
176
     1
290
     1
176
     1
290
     1
176
     1
290
     0
176
     1
290
     0
176
     1
290
     0
176
     1
290
     0
176
     1
290
     0
176
     1
290
     0
176
     1
 90
       50
176
     1
 40
0.0
176
     1
 40
1.0
176
     1
 90
        0
176
     1
 62
    18
420
        0
176
     1
 90
       50
176
     1
 90
        3
176
     1
 62
     5
420
      255
176
     1
290
     0
176
     1
 90
       50
176
     1
 90
       50
176
     1
 90
       50
176
     1
290
     0
176
     1
 90
       50
176
     1
 62
   256
176
     0
 40
1.0
176
     0
 90
        2
176
     1
  1
strokes_ogs.tif
176
     1
290
     0
176
     1
 40
1.0
176
     1
 40
1.0
176
     1
  0
VISUALSTYLE
  5
142
102
{ACAD_REACTORS
330
140
102
}
330
140
100
AcDbVisualStyle
  2
FlatWithEdges
 70
     1
177
     3
291
     1
 70
    58
 90
        2
176
     1
 90
        1
176
     1
 90
        1
176
     1
 90
        2
176
     1
 40
0.6
176
     1
 40
30.0
176
     1
 62
     7
420
 16777215
176
     1
 90
        1
176
     1
 90
        0
176
     1
 62
     7
176
     1
 62
   257
176
     1
 90
        1
176
     1
 90
        1
176
     1
 40
1.0
176
     1
 90
        0
176
     1
 62
   257
176
     1
 40
1.0
176
     1
 90
        1
176
     1
 90
        6
176
     1
 90
        2
176
     1
 62
     7
176
     1
 90
        5
176
     1
 90
        0
176
     1
 90
        0
176
     1
290
     0
176
     1
 90
       13
176
     1
 40
0.0
176
     1
 90
        0
176
     1
290
     0
176
     1
290
     1
176
     1
290
     1
176
     1
290
     0
176
     1
290
     0
176
     1
290
     0
176
     1
290
     0
176
     1
290
     0
176
     1
290
     0
176
     1
 90
       50
176
     1
 40
0.0
176
     1
 40
1.0
176
     1
 90
        0
176
     1
 62
    18
420
        0
176
     1
 90
       50
176
     1
 90
        3
176
     1
 62
     5
420
      255
176
     1
290
     0
176
     1
 90
       50
176
     1
 90
       50
176
     1
 90
       50
176
     1
290
     0
176
     1
 90
       50
176
     1
 62
   256
176
     0
 40
1.0
176
     0
 90
        2
176
     1
  1
strokes_ogs.tif
176
     1
290
     0
176
     1
 40
1.0
176
     1
 40
1.0
176
     1
  0
VISUALSTYLE
  5
143
102
{ACAD_REACTORS
330
140
102
}
330
140
100
AcDbVisualStyle
  2
Gouraud
 70
     2
177
     3
291
     1
 70
    58
 90
        2
176
     1
 90
        2
176
     1
 90
        1
176
     1
 90
        2
176
     1
 40
0.6
176
     1
 40
30.0
176
     1
 62
     7
420
 16777215
176
     1
 90
        0
176
     1
 90
        0
176
     1
 62
     7
176
     1
 62
   257
176
     1
 90
        1
176
     1
 90
        1
176
     1
 40
1.0
176
     1
 90
        0
176
     1
 62
     7
176
     1
 40
1.0
176
     1
 90
        1
176
     1
 90
        6
176
     1
 90
        2
176
     1
 62
     7
176
     1
 90
        5
176
     1
 90
        0
176
     1
 90
        0
176
     1
290
     0
176
     1
 90
       13
176
     1
 40
0.0
176
     1
 90
        0
176
     1
290
     0
176
     1
290
     1
176
     1
290
     1
176
     1
290
     0
176
     1
290
     0
176
     1
290
     0
176
     1
290
     0
176
     1
290
     0
176
     1
290
     0
176
     1
 90
       50
176
     1
 40
0.0
176
     1
 40
1.0
176
     1
 90
        0
176
     1
 62
    18
420
        0
176
     1
 90
       50
176
     1
 90
        3
176
     1
 62
     5
420
      255
176
     1
290
     0
176
     1
 90
       50
176
     1
 90
       50
176
     1
 90
       50
176
     1
290
     0
176
     1
 90
       50
176
     1
 62
   256
176
     0
 40
1.0
176
     0
 90
        2
176
     1
  1
strokes_ogs.tif
176
     1
290
     0
176
     1
 40
1.0
176
     1
 40
1.0
176
     1
  0
VISUALSTYLE
  5
144
102
{ACAD_REACTORS
330
140
102
}
330
140
100
AcDbVisualStyle
  2
GouraudWithEdges
 70
     3
177
     3
291
     1
 70
    58
 90
        2
176
     1
 90
        2
176
     1
 90
        1
176
     1
 90
        2
176
     1
 40
0.6
176
     1
 40
30.0
176
     1
 62
     7
420
 16777215
176
     1
 90
        1
176
     1
 90
        0
176
     1
 62
     7
176
     1
 62
   257
176
     1
 90
        1
176
     1
 90
        1
176
     1
 40
1.0
176
     1
 90
        0
176
     1
 62
   257
176
     1
 40
1.0
176
     1
 90
        1
176
     1
 90
        6
176
     1
 90
        2
176
     1
 62
     7
176
     1
 90
        5
176
     1
 90
        0
176
     1
 90
        0
176
     1
290
     0
176
     1
 90
       13
176
     1
 40
0.0
176
     1
 90
        0
176
     1
290
     0
176
     1
290
     1
176
     1
290
     1
176
     1
290
     0
176
     1
290
     0
176
     1
290
     0
176
     1
290
     0
176
     1
290
     0
176
     1
290
     0
176
     1
 90
       50
176
     1
 40
0.0
176
     1
 40
1.0
176
     1
 90
        0
176
     1
 62
    18
420
        0
176
     1
 90
       50
176
     1
 90
        3
176
     1
 62
     5
420
      255
176
     1
290
     0
176
     1
 90
       50
176
     1
 90
       50
176
     1
 90
       50
176
     1
290
     0
176
     1
 90
       50
176
     1
 62
   256
176
     0
 40
1.0
176
     0
 90
        2
176
     1
  1
strokes_ogs.tif
176
     1
290
     0
176
     1
 40
1.0
176
     1
 40
1.0
176
     1
  0
VISUALSTYLE
  5
148
102
{ACAD_REACTORS
330
140
102
}
330
140
100
AcDbVisualStyle
  2
Hidden
 70
     6
177
     3
291
     0
 70
    58
 90
        1
176
     1
 90
        2
176
     1
 90
        2
176
     1
 90
        0
176
     1
 40
0.6
176
     1
 40
30.0
176
     1
 62
     7
420
 16777215
176
     1
 90
        2
176
     1
 90
        2
176
     1
 62
     7
176
     1
 62
   257
176
     1
 90
        2
176
     1
 90
        1
176
     1
 40
40.0
176
     1
 90
        0
176
     1
 62
   257
176
     1
 40
1.0
176
     1
 90
        1
176
     1
 90
        6
176
     1
 90
        2
176
     1
 62
     7
176
     1
 90
        3
176
     1
 90
        0
176
     1
 90
        0
176
     1
290
     0
176
     1
 90
        1
176
     1
 40
0.0
176
     1
 90
        0
176
     1
290
     0
176
     1
290
     1
176
     1
290
     1
176
     1
290
     0
176
     1
290
     0
176
     1
290
     0
176
     1
290
     0
176
     1
290
     0
176
     1
290
     0
176
     1
 90
       50
176
     1
 40
0.0
176
     1
 40
1.0
176
     1
 90
        0
176
     1
 62
    18
420
        0
176
     1
 90
       50
176
     1
 90
        3
176
     1
 62
     5
420
      255
176
     1
290
     0
176
     1
 90
       50
176
     1
 90
       50
176
     1
 90
       50
176
     1
290
     0
176
     1
 90
       50
176
     1
 62
   256
176
     0
 40
1.0
176
     0
 90
        2
176
     1
  1
strokes_ogs.tif
176
     1
290
     0
176
     1
 40
1.0
176
     1
 40
1.0
176
     1
  0
VISUALSTYLE
  5
156
102
{ACAD_REACTORS
330
140
102
}
330
140
100
AcDbVisualStyle
  2
JitterOff
 70
    20
177
     3
291
     1
 70
    58
 90
        2
176
     0
 90
        2
176
     0
 90
        0
176
     0
 90
        0
176
     0
 40
0.6
176
     0
 40
30.0
176
     0
 62
     7
420
 16777215
176
     0
 90
        1
176
     0
 90
        4
176
     0
 62
     7
176
     0
 62
   257
176
     0
 90
        1
176
     0
 90
        1
176
     0
 40
1.0
176
     0
 90
       10
176
     2
 62
     7
176
     0
 40
1.0
176
     0
 90
        1
176
     0
 90
        6
176
     0
 90
        2
176
     0
 62
     7
176
     0
 90
        5
176
     0
 90
        0
176
     0
 90
        0
176
     0
290
     0
176
     0
 90
        1
176
     0
 40
0.0
176
     0
 90
        0
176
     0
290
     0
176
     0
290
     1
176
     0
290
     1
176
     0
290
     0
176
     0
290
     0
176
     0
290
     0
176
     0
290
     0
176
     0
290
     0
176
     0
290
     0
176
     0
 90
       50
176
     0
 40
0.0
176
     0
 40
1.0
176
     0
 90
        0
176
     0
 62
    18
420
        0
176
     0
 90
       50
176
     0
 90
        3
176
     0
 62
     5
420
      255
176
     0
290
     0
176
     0
 90
       50
176
     0
 90
       50
176
     0
 90
       50
176
     0
290
     0
176
     0
 90
       50
176
     0
 62
   256
176
     0
 40
1.0
176
     0
 90
        2
176
     0
  1
strokes_ogs.tif
176
     0
290
     0
176
     0
 40
1.0
176
     0
 40
1.0
176
     0
  0
VISUALSTYLE
  5
14E
102
{ACAD_REACTORS
330
140
102
}
330
140
100
AcDbVisualStyle
  2
Linepattern
 70
    14
177
     3
291
     1
 70
    58
 90
        2
176
     1
 90
        2
176
     1
 90
        0
176
     1
 90
        0
176
     1
 40
0.6
176
     1
 40
30.0
176
     1
 62
     7
420
 16777215
176
     1
 90
        1
176
     1
 90
        4
176
     1
 62
     7
176
     1
 62
   257
176
     1
 90
        7
176
     1
 90
        7
176
     1
 40
1.0
176
     1
 90
        8
176
     1
 62
     7
176
     1
 40
1.0
176
     1
 90
        1
176
     1
 90
        6
176
     1
 90
        2
176
     1
 62
     7
176
     1
 90
        5
176
     1
 90
        0
176
     1
 90
        0
176
     1
290
     0
176
     1
 90
        1
176
     1
 40
0.0
176
     1
 90
        0
176
     1
290
     0
176
     1
290
     1
176
     1
290
     1
176
     1
290
     0
176
     1
290
     0
176
     1
290
     0
176
     1
290
     0
176
     1
290
     0
176
     1
290
     0
176
     1
 90
       50
176
     1
 40
0.0
176
     1
 40
1.0
176
     1
 90
        0
176
     1
 62
    18
420
        0
176
     1
 90
       50
176
     1
 90
        3
176
     1
 62
     5
420
      255
176
     1
290
     0
176
     1
 90
       50
176
     1
 90
       50
176
     1
 90
       50
176
     1
290
     0
176
     1
 90
       50
176
     1
 62
   256
176
     0
 40
1.0
176
     0
 90
        2
176
     1
  1
strokes_ogs.tif
176
     1
290
     0
176
     1
 40
1.0
176
     1
 40
1.0
176
     1
  0
VISUALSTYLE
  5
157
102
{ACAD_REACTORS
330
140
102
}
330
140
100
AcDbVisualStyle
  2
OverhangOff
 70
    21
177
     3
291
     1
 70
    58
 90
        2
176
     0
 90
        2
176
     0
 90
        0
176
     0
 90
        0
176
     0
 40
0.6
176
     0
 40
30.0
176
     0
 62
     7
420
 16777215
176
     0
 90
        1
176
     0
 90
        4
176
     0
 62
     7
176
     0
 62
   257
176
     0
 90
        1
176
     0
 90
        1
176
     0
 40
1.0
176
     0
 90
        9
176
     2
 62
     7
176
     0
 40
1.0
176
     0
 90
        1
176
     0
 90
        6
176
     0
 90
        2
176
     0
 62
     7
176
     0
 90
        5
176
     0
 90
        0
176
     0
 90
        0
176
     0
290
     0
176
     0
 90
        1
176
     0
 40
0.0
176
     0
 90
        0
176
     0
290
     0
176
     0
290
     1
176
     0
290
     1
176
     0
290
     0
176
     0
290
     0
176
     0
290
     0
176
     0
290
     0
176
     0
290
     0
176
     0
290
     0
176
     0
 90
       50
176
     0
 40
0.0
176
     0
 40
1.0
176
     0
 90
        0
176
     0
 62
    18
420
        0
176
     0
 90
       50
176
     0
 90
        3
176
     0
 62
     5
420
      255
176
     0
290
     0
176
     0
 90
       50
176
     0
 90
       50
176
     0
 90
       50
176
     0
290
     0
176
     0
 90
       50
176
     0
 62
   256
176
     0
 40
1.0
176
     0
 90
        2
176
     0
  1
strokes_ogs.tif
176
     0
290
     0
176
     0
 40
1.0
176
     0
 40
1.0
176
     0
  0
VISUALSTYLE
  5
14A
102
{ACAD_REACTORS
330
140
102
}
330
140
100
AcDbVisualStyle
  2
Realistic
 70
     8
177
     3
291
     0
 70
    58
 90
        2
176
     1
 90
        3
176
     1
 90
        0
176
     1
 90
        2
176
     1
 40
0.6
176
     1
 40
30.0
176
     1
 62
     7
420
 16777215
176
     1
 90
        0
176
     1
 90
        0
176
     1
 62
     7
176
     1
 62
   257
176
     1
 90
        1
176
     1
 90
        1
176
     1
 40
1.0
176
     1
 90
        8
176
     1
 62
   257
176
     1
 40
1.0
176
     1
 90
        1
176
     1
 90
        6
176
     1
 90
        2
176
     1
 62
     7
176
     1
 90
        3
176
     1
 90
        0
176
     1
 90
        0
176
     1
290
     0
176
     1
 90
       13
176
     1
 40
0.0
176
     1
 90
        0
176
     1
290
     0
176
     1
290
     1
176
     1
290
     1
176
     1
290
     0
176
     1
290
     0
176
     1
290
     0
176
     1
290
     0
176
     1
290
     0
176
     1
290
     0
176
     1
 90
       50
176
     1
 40
0.0
176
     1
 40
1.0
176
     1
 90
        0
176
     1
 62
    18
420
        0
176
     1
 90
       50
176
     1
 90
        3
176
     1
 62
     5
420
      255
176
     1
290
     0
176
     1
 90
       50
176
     1
 90
       50
176
     1
 90
       50
176
     1
290
     0
176
     1
 90
       50
176
     1
 62
   256
176
     0
 40
1.0
176
     0
 90
        2
176
     1
  1
strokes_ogs.tif
176
     1
290
     0
176
     1
 40
1.0
176
     1
 40
1.0
176
     1
  0
VISUALSTYLE
  5
155
102
{ACAD_REACTORS
330
140
102
}
330
140
100
AcDbVisualStyle
  2
Shaded
 70
    27
177
     3
291
     0
 70
    58
 90
        2
176
     1
 90
        2
176
     1
 90
        1
176
     1
 90
        2
176
     1
 40
0.6
176
     1
 40
30.0
176
     1
 62
     7
420
 16777215
176
     1
 90
        0
176
     1
 90
        4
176
     1
 62
     7
176
     1
 62
   257
176
     1
 90
        1
176
     1
 90
        1
176
     1
 40
1.0
176
     1
 90
        8
176
     1
 62
   257
176
     1
 40
1.0
176
     1
 90
        1
176
     1
 90
        6
176
     1
 90
        2
176
     1
 62
     8
420
  7895160
176
     1
 90
        3
176
     1
 90
        0
176
     1
 90
        0
176
     1
290
     0
176
     1
 90
        5
176
     1
 40
0.0
176
     1
 90
        0
176
     1
290
     0
176
     1
290
     1
176
     1
290
     1
176
     1
290
     0
176
     1
290
     0
176
     1
290
     0
176
     1
290
     0
176
     1
290
     0
176
     1
290
     0
176
     1
 90
       50
176
     1
 40
0.0
176
     1
 40
1.0
176
     1
 90
        0
176
     1
 62
    18
420
        0
176
     1
 90
       50
176
     1
 90
        3
176
     1
 62
     5
420
      255
176
     1
290
     0
176
     1
 90
       50
176
     1
 90
       50
176
     1
 90
       50
176
     1
290
     0
176
     1
 90
       50
176
     1
 62
   256
176
     0
 40
1.0
176
     0
 90
        2
176
     1
  1
strokes_ogs.tif
176
     1
290
     0
176
     1
 40
1.0
176
     1
 40
1.0
176
     1
  0
VISUALSTYLE
  5
154
102
{ACAD_REACTORS
330
140
102
}
330
140
100
AcDbVisualStyle
  2
Shaded with edges
 70
    26
177
     3
291
     0
 70
    58
 90
        2
176
     1
 90
        2
176
     1
 90
        1
176
     1
 90
        2
176
     1
 40
0.6
176
     1
 40
30.0
176
     1
 62
     7
420
 16777215
176
     1
 90
        1
176
     1
 90
        2
176
     1
 62
     7
176
     1
 62
   257
176
     1
 90
        2
176
     1
 90
        1
176
     1
 40
1.0
176
     1
 90
        8
176
     1
 62
   257
176
     1
 40
1.0
176
     1
 90
        1
176
     1
 90
        6
176
     1
 90
        2
176
     1
 62
     7
176
     1
 90
        3
176
     1
 90
        0
176
     1
 90
        0
176
     1
290
     0
176
     1
 90
        5
176
     1
 40
0.0
176
     1
 90
        0
176
     1
290
     0
176
     1
290
     1
176
     1
290
     1
176
     1
290
     0
176
     1
290
     0
176
     1
290
     0
176
     1
290
     0
176
     1
290
     0
176
     1
290
     0
176
     1
 90
       50
176
     1
 40
0.0
176
     1
 40
1.0
176
     1
 90
        0
176
     1
 62
    18
420
        0
176
     1
 90
       50
176
     1
 90
        3
176
     1
 62
     5
420
      255
176
     1
290
     0
176
     1
 90
       50
176
     1
 90
       50
176
     1
 90
       50
176
     1
290
     0
176
     1
 90
       50
176
     1
 62
   256
176
     0
 40
1.0
176
     0
 90
        2
176
     1
  1
strokes_ogs.tif
176
     1
290
     0
176
     1
 40
1.0
176
     1
 40
1.0
176
     1
  0
VISUALSTYLE
  5
151
102
{ACAD_REACTORS
330
140
102
}
330
140
100
AcDbVisualStyle
  2
Shades of Gray
 70
    23
177
     3
291
     0
 70
    58
 90
        2
176
     1
 90
        2
176
     1
 90
        3
176
     1
 90
        0
176
     1
 40
0.6
176
     1
 40
30.0
176
     1
 62
     7
420
 16777215
176
     1
 90
        2
176
     1
 90
        2
176
     1
 62
     7
176
     1
 62
     7
176
     1
 90
        1
176
     1
 90
        1
176
     1
 40
40.0
176
     1
 90
        8
176
     1
 62
     7
176
     1
 40
1.0
176
     1
 90
        1
176
     1
 90
        6
176
     1
 90
        2
176
     1
 62
     7
176
     1
 90
        3
176
     1
 90
        0
176
     1
 90
        0
176
     1
290
     0
176
     1
 90
        1
176
     1
 40
0.0
176
     1
 90
        0
176
     1
290
     0
176
     1
290
     1
176
     1
290
     1
176
     1
290
     0
176
     1
290
     0
176
     1
290
     0
176
     1
290
     0
176
     1
290
     0
176
     1
290
     0
176
     1
 90
       50
176
     1
 40
0.0
176
     1
 40
1.0
176
     1
 90
        0
176
     1
 62
    18
420
        0
176
     1
 90
       50
176
     1
 90
        3
176
     1
 62
     5
420
      255
176
     1
290
     0
176
     1
 90
       50
176
     1
 90
       50
176
     1
 90
       50
176
     1
290
     0
176
     1
 90
       50
176
     1
 62
   256
176
     0
 40
1.0
176
     0
 90
        2
176
     1
  1
strokes_ogs.tif
176
     1
290
     0
176
     1
 40
1.0
176
     1
 40
1.0
176
     1
  0
VISUALSTYLE
  5
152
102
{ACAD_REACTORS
330
140
102
}
330
140
100
AcDbVisualStyle
  2
Sketchy
 70
    24
177
     3
291
     0
 70
    58
 90
        1
176
     1
 90
        2
176
     1
 90
        2
176
     1
 90
        0
176
     1
 40
0.6
176
     1
 40
30.0
176
     1
 62
     7
420
 16777215
176
     1
 90
        2
176
     1
 90
        2
176
     1
 62
     7
176
     1
 62
     7
176
     1
 90
        1
176
     1
 90
        1
176
     1
 40
40.0
176
     1
 90
       11
176
     1
 62
     7
176
     1
 40
1.0
176
     1
 90
        1
176
     1
 90
        6
176
     1
 90
        2
176
     1
 62
     7
176
     1
 90
        6
176
     1
 90
        0
176
     1
 90
        0
176
     1
290
     0
176
     1
 90
        1
176
     1
 40
0.0
176
     1
 90
        0
176
     1
290
     0
176
     1
290
     1
176
     1
290
     1
176
     1
290
     0
176
     1
290
     0
176
     1
290
     0
176
     1
290
     0
176
     1
290
     0
176
     1
290
     0
176
     1
 90
       50
176
     1
 40
0.0
176
     1
 40
1.0
176
     1
 90
        0
176
     1
 62
    18
420
        0
176
     1
 90
       50
176
     1
 90
        3
176
     1
 62
     5
420
      255
176
     1
290
     0
176
     1
 90
       50
176
     1
 90
       50
176
     1
 90
       50
176
     1
290
     0
176
     1
 90
       50
176
     1
 62
   256
176
     0
 40
1.0
176
     0
 90
        2
176
     1
  1
strokes_ogs.tif
176
     1
290
     0
176
     1
 40
1.0
176
     1
 40
1.0
176
     1
  0
VISUALSTYLE
  5
14D
102
{ACAD_REACTORS
330
140
102
}
330
140
100
AcDbVisualStyle
  2
Thicken
 70
    13
177
     3
291
     1
 70
    58
 90
        2
176
     1
 90
        2
176
     1
 90
        0
176
     1
 90
        0
176
     1
 40
0.6
176
     1
 40
30.0
176
     1
 62
     7
420
 16777215
176
     1
 90
        1
176
     1
 90
        4
176
     1
 62
     7
176
     1
 62
   257
176
     1
 90
        1
176
     1
 90
        1
176
     1
 40
1.0
176
     1
 90
       12
176
     1
 62
     7
176
     1
 40
1.0
176
     1
 90
        1
176
     1
 90
        6
176
     1
 90
        2
176
     1
 62
     7
176
     1
 90
        5
176
     1
 90
        0
176
     1
 90
        0
176
     1
290
     0
176
     1
 90
        1
176
     1
 40
0.0
176
     1
 90
        0
176
     1
290
     0
176
     1
290
     1
176
     1
290
     1
176
     1
290
     0
176
     1
290
     0
176
     1
290
     0
176
     1
290
     0
176
     1
290
     0
176
     1
290
     0
176
     1
 90
       50
176
     1
 40
0.0
176
     1
 40
1.0
176
     1
 90
        0
176
     1
 62
    18
420
        0
176
     1
 90
       50
176
     1
 90
        3
176
     1
 62
     5
420
      255
176
     1
290
     0
176
     1
 90
       50
176
     1
 90
       50
176
     1
 90
       50
176
     1
290
     0
176
     1
 90
       50
176
     1
 62
   256
176
     0
 40
1.0
176
     0
 90
        2
176
     1
  1
strokes_ogs.tif
176
     1
290
     0
176
     1
 40
1.0
176
     1
 40
1.0
176
     1
  0
VISUALSTYLE
  5
147
102
{ACAD_REACTORS
330
140
102
}
330
140
100
AcDbVisualStyle
  2
Wireframe
 70
     5
177
     3
291
     0
 70
    58
 90
        0
176
     1
 90
        2
176
     1
 90
        0
176
     1
 90
        0
176
     1
 40
0.6
176
     1
 40
30.0
176
     1
 62
     7
420
 16777215
176
     1
 90
        1
176
     1
 90
        4
176
     1
 62
     7
176
     1
 62
   257
176
     1
 90
        1
176
     1
 90
        1
176
     1
 40
1.0
176
     1
 90
        0
176
     1
 62
   257
176
     1
 40
1.0
176
     1
 90
        1
176
     1
 90
        6
176
     1
 90
        2
176
     1
 62
     7
176
     1
 90
        3
176
     1
 90
        0
176
     1
 90
        0
176
     1
290
     0
176
     1
 90
        1
176
     1
 40
0.0
176
     1
 90
        0
176
     1
290
     0
176
     1
290
     1
176
     1
290
     1
176
     1
290
     0
176
     1
290
     0
176
     1
290
     0
176
     1
290
     0
176
     1
290
     0
176
     1
290
     0
176
     1
 90
       50
176
     1
 40
0.0
176
     1
 40
1.0
176
     1
 90
        0
176
     1
 62
    18
420
        0
176
     1
 90
       50
176
     1
 90
        3
176
     1
 62
     5
420
      255
176
     1
290
     0
176
     1
 90
       50
176
     1
 90
       50
176
     1
 90
       50
176
     1
290
     0
176
     1
 90
       50
176
     1
 62
   256
176
     0
 40
1.0
176
     0
 90
        2
176
     1
  1
strokes_ogs.tif
176
     1
290
     0
176
     1
 40
1.0
176
     1
 40
1.0
176
     1
  0
VISUALSTYLE
  5
153
102
{ACAD_REACTORS
330
140
102
}
330
140
100
AcDbVisualStyle
  2
X-Ray
 70
    25
177
     3
291
     0
 70
    58
 90
        2
176
     1
 90
        2
176
     1
 90
        1
176
     1
 90
        1
176
     1
 40
0.5
176
     1
 40
30.0
176
     1
 62
     7
420
 16777215
176
     1
 90
        1
176
     1
 90
        0
176
     1
 62
     7
176
     1
 62
   257
176
     1
 90
        1
176
     1
 90
        1
176
     1
 40
1.0
176
     1
 90
        8
176
     1
 62
     7
176
     1
 40
1.0
176
     1
 90
        1
176
     1
 90
        6
176
     1
 90
        2
176
     1
 62
     7
176
     1
 90
        3
176
     1
 90
        0
176
     1
 90
        0
176
     1
290
     0
176
     1
 90
       13
176
     1
 40
0.0
176
     1
 90
        0
176
     1
290
     0
176
     1
290
     1
176
     1
290
     1
176
     1
290
     0
176
     1
290
     0
176
     1
290
     0
176
     1
290
     0
176
     1
290
     0
176
     1
290
     0
176
     1
 90
       50
176
     1
 40
0.0
176
     1
 40
1.0
176
     1
 90
        0
176
     1
 62
    18
420
        0
176
     1
 90
       50
176
     1
 90
        3
176
     1
 62
     5
420
      255
176
     1
290
     0
176
     1
 90
       50
176
     1
 90
       50
176
     1
 90
       50
176
     1
290
     0
176
     1
 90
       50
176
     1
 62
   256
176
     0
 40
1.0
176
     0
 90
        2
176
     1
  1
strokes_ogs.tif
176
     1
290
     0
176
     1
 40
1.0
176
     1
 40
1.0
176
     1
  0
DICTIONARYVAR
  5
213
102
{ACAD_REACTORS
330
20D
102
}
330
20D
100
DictionaryVariables
280
     0
  1
1:1
  0
DICTIONARYVAR
  5
20F
102
{ACAD_REACTORS
330
20D
102
}
330
20D
100
DictionaryVariables
280
     0
  1
STANDARD
  0
DICTIONARYVAR
  5
20E
102
{ACAD_REACTORS
330
20D
102
}
330
20D
100
DictionaryVariables
280
     0
  1
STANDARD
  0
DICTIONARYVAR
  5
210
102
{ACAD_REACTORS
330
20D
102
}
330
20D
100
DictionaryVariables
280
     0
  1
Imperial24
  0
DICTIONARYVAR
  5
211
102
{ACAD_REACTORS
330
20D
102
}
330
20D
100
DictionaryVariables
280
     0
  1
Imperial24
  0
DICTIONARYVAR
  5
215
102
{ACAD_REACTORS
330
20D
102
}
330
20D
100
DictionaryVariables
280
     0
  1
1
  0
DICTIONARYVAR
  5
216
102
{ACAD_REACTORS
330
20D
102
}
330
20D
100
DictionaryVariables
280
     0
  1
15
  0
DICTIONARYVAR
  5
214
102
{ACAD_REACTORS
330
20D
102
}
330
20D
100
DictionaryVariables
280
     0
  1
0
  0
DICTIONARYVAR
  5
212
102
{ACAD_REACTORS
330
20D
102
}
330
20D
100
DictionaryVariables
280
     0
  1
0
  0
DICTIONARY
  5
1E6
102
{ACAD_REACTORS
330
1E5
102
}
330
1E5
100
AcDbDictionary
281
     1
  3
*A1
350
1E7
  0
DICTIONARY
  5
1E2
102
{ACAD_REACTORS
330
1E1
102
}
330
1E1
100
AcDbDictionary
281
     1
  3
*A1
350
1E3
  0
DICTIONARY
  5
1DE
102
{ACAD_REACTORS
330
1DD
102
}
330
1DD
100
AcDbDictionary
281
     1
  3
*A1
350
1DF
  0
DICTIONARY
  5
1DA
102
{ACAD_REACTORS
330
1D9
102
}
330
1D9
100
AcDbDictionary
281
     1
  3
*A1
350
1DB
  0
DICTIONARY
  5
1D6
102
{ACAD_REACTORS
330
1D5
102
}
330
1D5
100
AcDbDictionary
281
     1
  3
*A1
350
1D7
  0
DICTIONARY
  5
1D2
102
{ACAD_REACTORS
330
1D1
102
}
330
1D1
100
AcDbDictionary
281
     1
  3
*A1
350
1D3
  0
DICTIONARY
  5
1CE
102
{ACAD_REACTORS
330
1CD
102
}
330
1CD
100
AcDbDictionary
281
     1
  3
*A1
350
1CF
  0
DICTIONARY
  5
1CA
102
{ACAD_REACTORS
330
1C9
102
}
330
1C9
100
AcDbDictionary
281
     1
  3
*A1
350
1CB
  0
DICTIONARY
  5
1C6
102
{ACAD_REACTORS
330
1C5
102
}
330
1C5
100
AcDbDictionary
281
     1
  3
*A1
350
1C7
  0
DICTIONARY
  5
1C2
102
{ACAD_REACTORS
330
1C1
102
}
330
1C1
100
AcDbDictionary
281
     1
  3
*A1
350
1C3
  0
DICTIONARY
  5
1BE
102
{ACAD_REACTORS
330
1BD
102
}
330
1BD
100
AcDbDictionary
281
     1
  3
*A1
350
1BF
  0
DICTIONARY
  5
1BA
102
{ACAD_REACTORS
330
1B9
102
}
330
1B9
100
AcDbDictionary
281
     1
  3
*A1
350
1BB
  0
DICTIONARY
  5
1B6
102
{ACAD_REACTORS
330
1B5
102
}
330
1B5
100
AcDbDictionary
281
     1
  3
*A1
350
1B7
  0
DICTIONARY
  5
1B2
102
{ACAD_REACTORS
330
1B1
102
}
330
1B1
100
AcDbDictionary
281
     1
  3
*A1
350
1B3
  0
DICTIONARY
  5
1AE
102
{ACAD_REACTORS
330
1AD
102
}
330
1AD
100
AcDbDictionary
281
     1
  3
*A1
350
1AF
  0
DICTIONARY
  5
1AA
102
{ACAD_REACTORS
330
1A9
102
}
330
1A9
100
AcDbDictionary
281
     1
  3
*A1
350
1AB
  0
DICTIONARY
  5
131
330
130
100
AcDbDictionary
280
     1
281
     1
  3
BUMPTILE
360
133
  3
DIFFUSETILE
360
132
  3
OPACITYTILE
360
136
  3
REFLECTIONTILE
360
135
  3
REFRACTIONTILE
360
137
  3
SPECULARTILE
360
134
  0
DICTIONARY
  5
129
330
128
100
AcDbDictionary
280
     1
281
     1
  3
BUMPTILE
360
12B
  3
DIFFUSETILE
360
12A
  3
OPACITYTILE
360
12E
  3
REFLECTIONTILE
360
12D
  3
REFRACTIONTILE
360
12F
  3
SPECULARTILE
360
12C
  0
DICTIONARY
  5
139
330
138
100
AcDbDictionary
280
     1
281
     1
  3
BUMPTILE
360
13B
  3
DIFFUSETILE
360
13A
  3
OPACITYTILE
360
13E
  3
REFLECTIONTILE
360
13D
  3
REFRACTIONTILE
360
13F
  3
SPECULARTILE
360
13C
  0
DICTIONARY
  5
217
330
15B
100
AcDbDictionary
280
     1
281
     1
  3
ACAD_ROUNDTRIP_2008_TABLESTYLE_CELLSTYLEMAP
360
218
  0
ACDB_TEXTOBJECTCONTEXTDATA_CLASS
  5
1E7
102
{ACAD_REACTORS
330
1E6
102
}
330
1E6
100
AcDbObjectContextData
 70
     4
290
     1
100
AcDbAnnotScaleObjectContextData
340
15D
 70
     4
 50
0.0
 10
150.0530478923956
 20
214.6307222887612
 11
171.0148487109495
 21
216.6307222887613
  0
ACDB_TEXTOBJECTCONTEXTDATA_CLASS
  5
1E3
102
{ACAD_REACTORS
330
1E2
102
}
330
1E2
100
AcDbObjectContextData
 70
     4
290
     1
100
AcDbAnnotScaleObjectContextData
340
15D
 70
     4
 50
0.0
 10
162.3616885250664
 20
144.569312326909
 11
184.2552765196093
 21
146.5706765833892
  0
ACDB_TEXTOBJECTCONTEXTDATA_CLASS
  5
1DF
102
{ACAD_REACTORS
330
1DE
102
}
330
1DE
100
AcDbObjectContextData
 70
     4
290
     1
100
AcDbAnnotScaleObjectContextData
340
15D
 70
     4
 50
0.0
 10
161.8599298209342
 20
184.6591549412607
 11
231.5652504212071
 21
186.6605191977409
  0
ACDB_TEXTOBJECTCONTEXTDATA_CLASS
  5
1DB
102
{ACAD_REACTORS
330
1DA
102
}
330
1DA
100
AcDbObjectContextData
 70
     4
290
     1
100
AcDbAnnotScaleObjectContextData
340
15D
 70
     4
 50
0.0
 10
162.254446414916
 20
174.5544426154701
 11
228.5436687887223
 21
176.5558068719503
  0
ACDB_TEXTOBJECTCONTEXTDATA_CLASS
  5
1D7
102
{ACAD_REACTORS
330
1D6
102
}
330
1D6
100
AcDbObjectContextData
 70
     4
290
     1
100
AcDbAnnotScaleObjectContextData
340
15D
 70
     4
 50
0.0
 10
162.1991773108125
 20
164.6532949058003
 11
229.2605688524223
 21
166.6546591622805
  0
ACDB_TEXTOBJECTCONTEXTDATA_CLASS
  5
1D3
102
{ACAD_REACTORS
330
1D2
102
}
330
1D2
100
AcDbObjectContextData
 70
     4
290
     1
100
AcDbAnnotScaleObjectContextData
340
15D
 70
     4
 50
0.0
 10
162.0606999137527
 20
154.6042374918712
 11
235.1821187404921
 21
156.6056017483515
  0
ACDB_TEXTOBJECTCONTEXTDATA_CLASS
  5
1CF
102
{ACAD_REACTORS
330
1CE
102
}
330
1CE
100
AcDbObjectContextData
 70
     4
290
     1
100
AcDbAnnotScaleObjectContextData
340
15D
 70
     4
 50
0.0
 10
-82.39998334674316
 20
212.1285658398811
 11
-59.73013341495598
 21
214.1285658398811
  0
ACDB_TEXTOBJECTCONTEXTDATA_CLASS
  5
1CB
102
{ACAD_REACTORS
330
1CA
102
}
330
1CA
100
AcDbObjectContextData
 70
     4
290
     1
100
AcDbAnnotScaleObjectContextData
340
15D
 70
     4
 50
0.0
 10
-65.16805974510605
 20
180.6883303412169
 11
-59.73013341495598
 21
182.6965158800982
  0
ACDB_TEXTOBJECTCONTEXTDATA_CLASS
  5
1C7
102
{ACAD_REACTORS
330
1C6
102
}
330
1C6
100
AcDbObjectContextData
 70
     4
290
     1
100
AcDbAnnotScaleObjectContextData
340
15D
 70
     4
 50
0.0
 10
-128.2690147246422
 20
180.7224367532223
 11
-119.730133414956
 21
182.6965158800982
  0
ACDB_TEXTOBJECTCONTEXTDATA_CLASS
  5
1C3
102
{ACAD_REACTORS
330
1C2
102
}
330
1C2
100
AcDbObjectContextData
 70
     4
290
     1
100
AcDbAnnotScaleObjectContextData
340
15D
 70
     4
 50
0.0
 10
-74.94295742587003
 20
203.573013784703
 11
-59.73013341495598
 21
205.0204899102146
  0
ACDB_TEXTOBJECTCONTEXTDATA_CLASS
  5
1BF
102
{ACAD_REACTORS
330
1BE
102
}
330
1BE
100
AcDbObjectContextData
 70
     4
290
     1
100
AcDbAnnotScaleObjectContextData
340
15D
 70
     4
 50
0.0
 10
-131.9558695326391
 20
203.3805595731859
 11
-122.8003442938942
 21
205.3805595731859
  0
ACDB_TEXTOBJECTCONTEXTDATA_CLASS
  5
1BB
102
{ACAD_REACTORS
330
1BA
102
}
330
1BA
100
AcDbObjectContextData
 70
     4
290
     1
100
AcDbAnnotScaleObjectContextData
340
15D
 70
     4
 50
0.0
 10
-192.7696968528823
 20
212.0724520214542
 11
-179.730133414956
 21
214.0724520214542
  0
ACDB_TEXTOBJECTCONTEXTDATA_CLASS
  5
1B7
102
{ACAD_REACTORS
330
1B6
102
}
330
1B6
100
AcDbObjectContextData
 70
     4
290
     1
100
AcDbAnnotScaleObjectContextData
340
15D
 70
     4
 50
0.0
 10
-190.136681846061
 20
180.6965158800982
 11
-179.730133414956
 21
182.6965158800982
  0
ACDB_TEXTOBJECTCONTEXTDATA_CLASS
  5
1B3
102
{ACAD_REACTORS
330
1B2
102
}
330
1B2
100
AcDbObjectContextData
 70
     4
290
     1
100
AcDbAnnotScaleObjectContextData
340
15D
 70
     4
 50
0.0
 10
-142.3596894507837
 20
212.0710877649739
 11
-122.8003442938942
 21
214.0724520214542
  0
ACDB_TEXTOBJECTCONTEXTDATA_CLASS
  5
1AF
102
{ACAD_REACTORS
330
1AE
102
}
330
1AE
100
AcDbObjectContextData
 70
     4
290
     1
100
AcDbAnnotScaleObjectContextData
340
15D
 70
     4
 50
0.0
 10
22.35988496921331
 20
214.629358032281
 11
62.87693817521603
 21
216.6307222887613
  0
ACDB_TEXTOBJECTCONTEXTDATA_CLASS
  5
1AB
102
{ACAD_REACTORS
330
1AA
102
}
330
1AA
100
AcDbObjectContextData
 70
     4
290
     1
100
AcDbAnnotScaleObjectContextData
340
15D
 70
     4
 50
0.0
 10
23.41432519087103
 20
184.6949035677849
 11
69.21105097531849
 21
186.6962678242651
  0
XRECORD
  5
133
102
{ACAD_REACTORS
330
131
102
}
330
131
100
AcDbXrecord
280
     1
270
     1
271
     1
  0
XRECORD
  5
132
102
{ACAD_REACTORS
330
131
102
}
330
131
100
AcDbXrecord
280
     1
270
     1
271
     1
  0
XRECORD
  5
136
102
{ACAD_REACTORS
330
131
102
}
330
131
100
AcDbXrecord
280
     1
270
     1
271
     1
  0
XRECORD
  5
135
102
{ACAD_REACTORS
330
131
102
}
330
131
100
AcDbXrecord
280
     1
270
     1
271
     1
  0
XRECORD
  5
137
102
{ACAD_REACTORS
330
131
102
}
330
131
100
AcDbXrecord
280
     1
270
     1
271
     1
  0
XRECORD
  5
134
102
{ACAD_REACTORS
330
131
102
}
330
131
100
AcDbXrecord
280
     1
270
     1
271
     1
  0
XRECORD
  5
12B
102
{ACAD_REACTORS
330
129
102
}
330
129
100
AcDbXrecord
280
     1
270
     1
271
     1
  0
XRECORD
  5
12A
102
{ACAD_REACTORS
330
129
102
}
330
129
100
AcDbXrecord
280
     1
270
     1
271
     1
  0
XRECORD
  5
12E
102
{ACAD_REACTORS
330
129
102
}
330
129
100
AcDbXrecord
280
     1
270
     1
271
     1
  0
XRECORD
  5
12D
102
{ACAD_REACTORS
330
129
102
}
330
129
100
AcDbXrecord
280
     1
270
     1
271
     1
  0
XRECORD
  5
12F
102
{ACAD_REACTORS
330
129
102
}
330
129
100
AcDbXrecord
280
     1
270
     1
271
     1
  0
XRECORD
  5
12C
102
{ACAD_REACTORS
330
129
102
}
330
129
100
AcDbXrecord
280
     1
270
     1
271
     1
  0
XRECORD
  5
13B
102
{ACAD_REACTORS
330
139
102
}
330
139
100
AcDbXrecord
280
     1
270
     1
271
     1
  0
XRECORD
  5
13A
102
{ACAD_REACTORS
330
139
102
}
330
139
100
AcDbXrecord
280
     1
270
     1
271
     1
  0
XRECORD
  5
13E
102
{ACAD_REACTORS
330
139
102
}
330
139
100
AcDbXrecord
280
     1
270
     1
271
     1
  0
XRECORD
  5
13D
102
{ACAD_REACTORS
330
139
102
}
330
139
100
AcDbXrecord
280
     1
270
     1
271
     1
  0
XRECORD
  5
13F
102
{ACAD_REACTORS
330
139
102
}
330
139
100
AcDbXrecord
280
     1
270
     1
271
     1
  0
XRECORD
  5
13C
102
{ACAD_REACTORS
330
139
102
}
330
139
100
AcDbXrecord
280
     1
270
     1
271
     1
  0
CELLSTYLEMAP
  5
218
102
{ACAD_REACTORS
330
217
102
}
330
217
100
AcDbCellStyleMap
 90
        3
300
CELLSTYLE
  1
TABLEFORMAT_BEGIN
 90
        5
170
     1
 91
        0
 92
    32768
 62
   257
 93
        1
300
CONTENTFORMAT
  1
CONTENTFORMAT_BEGIN
 90
        0
 91
        0
 92
      512
 93
        0
300

 40
0.0
140
1.0
 94
        5
 62
     0
340
16
144
0.25
309
CONTENTFORMAT_END
171
     0
 94
        0
309
TABLEFORMAT_END
  1
CELLSTYLE_BEGIN
 90
        1
 91
        1
300
_TITLE
309
CELLSTYLE_END
300
CELLSTYLE
  1
TABLEFORMAT_BEGIN
 90
        5
170
     1
 91
        0
 92
        0
 62
   257
 93
        1
300
CONTENTFORMAT
  1
CONTENTFORMAT_BEGIN
 90
        0
 91
        0
 92
      512
 93
        0
300

 40
0.0
140
1.0
 94
        5
 62
     0
340
16
144
0.18
309
CONTENTFORMAT_END
171
     0
 94
        0
309
TABLEFORMAT_END
  1
CELLSTYLE_BEGIN
 90
        2
 91
        1
300
_HEADER
309
CELLSTYLE_END
300
CELLSTYLE
  1
TABLEFORMAT_BEGIN
 90
        5
170
     1
 91
        0
 92
        0
 62
   257
 93
        1
300
CONTENTFORMAT
  1
CONTENTFORMAT_BEGIN
 90
        0
 91
        0
 92
      512
 93
        0
300

 40
0.0
140
1.0
 94
        2
 62
     0
340
16
144
0.18
309
CONTENTFORMAT_END
171
     0
 94
        0
309
TABLEFORMAT_END
  1
CELLSTYLE_BEGIN
 90
        3
 91
        2
300
_DATA
309
CELLSTYLE_END
  0
ENDSEC
  0
EOF
