  0
SECTION
  2
HEADER
  9
$ACADVER
  1
AC1032
  9
$ACADMAINTVER
 90
      155
  9
$DWGCODEPAGE
  3
ANSI_1252
  9
$LASTSAVEDBY
  1
falinoori
  9
$REQUIREDVERSIONS
160
                 0
  9
$INSBASE
 10
0.0000000000000284
 20
0.0
 30
0.0
  9
$EXTMIN
 10
-229.0143701255429
 20
-237.9076962496072
 30
0.0
  9
$EXTMAX
 10
976.6955925311767
 20
215.6037401617268
 30
0.0
  9
$LIMMIN
 10
0.0
 20
0.0
  9
$LIMMAX
 10
420.0
 20
297.0
  9
$ORTHOMODE
 70
     1
  9
$REGENMODE
 70
     1
  9
$FILLMODE
 70
     1
  9
$QTEXTMODE
 70
     0
  9
$MIRRTEXT
 70
     1
  9
$LTSCALE
 40
0.25
  9
$ATTMODE
 70
     1
  9
$TEXTSIZE
 40
5.0
  9
$TRACEWID
 40
10.0
  9
$TEXTSTYLE
  7
ROMANS
  9
$CLAYER
  8
ANCON-TEXT
  9
$CELTYPE
  6
ByLayer
  9
$CECOLOR
 62
   256
  9
$CELTSCALE
 40
1.0
  9
$DISPSILH
 70
     0
  9
$DIMSCALE
 40
0.0
  9
$DIMASZ
 40
4.0
  9
$DIMEXO
 40
4.5
  9
$DIMDLI
 40
10.0
  9
$DIMRND
 40
0.0
  9
$DIMDLE
 40
1.25
  9
$DIMEXE
 40
1.5
  9
$DIMTP
 40
0.0
  9
$DIMTM
 40
0.0
  9
$DIMTXT
 40
3.0
  9
$DIMCEN
 40
-3.0
  9
$DIMTSZ
 40
0.0
  9
$DIMTOL
 70
     0
  9
$DIMLIM
 70
     0
  9
$DIMTIH
 70
     0
  9
$DIMTOH
 70
     0
  9
$DIMSE1
 70
     0
  9
$DIMSE2
 70
     0
  9
$DIMTAD
 70
     1
  9
$DIMZIN
 70
    12
  9
$DIMBLK
  1

  9
$DIMASO
 70
     1
  9
$DIMSHO
 70
     0
  9
$DIMPOST
  1

  9
$DIMAPOST
  1

  9
$DIMALT
 70
     0
  9
$DIMALTD
 70
     2
  9
$DIMALTF
 40
0.039
  9
$DIMLFAC
 40
1.0
  9
$DIMTOFL
 70
     0
  9
$DIMTVP
 40
0.0
  9
$DIMTIX
 70
     0
  9
$DIMSOXD
 70
     0
  9
$DIMSAH
 70
     0
  9
$DIMBLK1
  1

  9
$DIMBLK2
  1

  9
$DIMSTYLE
  2
1-1
  9
$DIMCLRD
 70
     0
  9
$DIMCLRE
 70
     0
  9
$DIMCLRT
 70
     0
  9
$DIMTFAC
 40
0.75
  9
$DIMGAP
 40
1.5
  9
$DIMJUST
 70
     0
  9
$DIMSD1
 70
     0
  9
$DIMSD2
 70
     0
  9
$DIMTOLJ
 70
     1
  9
$DIMTZIN
 70
    12
  9
$DIMALTZ
 70
    12
  9
$DIMALTTZ
 70
    12
  9
$DIMUPT
 70
     0
  9
$DIMDEC
 70
     2
  9
$DIMTDEC
 70
     2
  9
$DIMALTU
 70
     2
  9
$DIMALTTD
 70
     2
  9
$DIMTXSTY
  7
STANDARD
  9
$DIMAUNIT
 70
     0
  9
$DIMADEC
 70
     0
  9
$DIMALTRND
 40
0.0
  9
$DIMAZIN
 70
     0
  9
$DIMDSEP
 70
    46
  9
$DIMATFIT
 70
     3
  9
$DIMFRAC
 70
     0
  9
$DIMLDRBLK
  1

  9
$DIMLUNIT
 70
     2
  9
$DIMLWD
 70
    -2
  9
$DIMLWE
 70
    -2
  9
$DIMTMOVE
 70
     2
  9
$DIMFXL
 40
1.0
  9
$DIMFXLON
 70
     0
  9
$DIMJOGANG
 40
0.7853981633974483
  9
$DIMTFILL
 70
     0
  9
$DIMTFILLCLR
 70
     0
  9
$DIMARCSYM
 70
     0
  9
$DIMLTYPE
  6

  9
$DIMLTEX1
  6

  9
$DIMLTEX2
  6

  9
$DIMTXTDIRECTION
 70
     0
  9
$LUNITS
 70
     2
  9
$LUPREC
 70
     2
  9
$SKETCHINC
 40
1.0
  9
$FILLETRAD
 40
0.0
  9
$AUNITS
 70
     0
  9
$AUPREC
 70
     4
  9
$MENU
  1
acad
  9
$ELEVATION
 40
0.0
  9
$PELEVATION
 40
0.0
  9
$THICKNESS
 40
0.0
  9
$LIMCHECK
 70
     0
  9
$CHAMFERA
 40
0.0
  9
$CHAMFERB
 40
0.0
  9
$CHAMFERC
 40
0.0
  9
$CHAMFERD
 40
0.0
  9
$SKPOLY
 70
     0
  9
$TDCREATE
 40
2449527.946145833
  9
$TDUCREATE
 40
2449527.529488426
  9
$TDUPDATE
 40
2459590.450532408
  9
$TDUUPDATE
 40
2459589.992199074
  9
$TDINDWG
 40
0.4859630903
  9
$TDUSRTIMER
 40
0.4859630903
  9
$USRTIMER
 70
     1
  9
$ANGBASE
 50
0.0
  9
$ANGDIR
 70
     0
  9
$PDMODE
 70
     0
  9
$PDSIZE
 40
0.0
  9
$PLINEWID
 40
0.0
  9
$SPLFRAME
 70
     0
  9
$SPLINETYPE
 70
     6
  9
$SPLINESEGS
 70
     8
  9
$HANDSEED
  5
35B
  9
$SURFTAB1
 70
    18
  9
$SURFTAB2
 70
    18
  9
$SURFTYPE
 70
     6
  9
$SURFU
 70
    18
  9
$SURFV
 70
    18
  9
$UCSBASE
  2

  9
$UCSNAME
  2

  9
$UCSORG
 10
0.0
 20
0.0
 30
0.0
  9
$UCSXDIR
 10
1.0
 20
0.0
 30
0.0
  9
$UCSYDIR
 10
0.0
 20
1.0
 30
0.0
  9
$UCSORTHOREF
  2

  9
$UCSORTHOVIEW
 70
     0
  9
$UCSORGTOP
 10
0.0
 20
0.0
 30
0.0
  9
$UCSORGBOTTOM
 10
0.0
 20
0.0
 30
0.0
  9
$UCSORGLEFT
 10
0.0
 20
0.0
 30
0.0
  9
$UCSORGRIGHT
 10
0.0
 20
0.0
 30
0.0
  9
$UCSORGFRONT
 10
0.0
 20
0.0
 30
0.0
  9
$UCSORGBACK
 10
0.0
 20
0.0
 30
0.0
  9
$PUCSBASE
  2

  9
$PUCSNAME
  2

  9
$PUCSORG
 10
0.0
 20
0.0
 30
0.0
  9
$PUCSXDIR
 10
1.0
 20
0.0
 30
0.0
  9
$PUCSYDIR
 10
0.0
 20
1.0
 30
0.0
  9
$PUCSORTHOREF
  2

  9
$PUCSORTHOVIEW
 70
     0
  9
$PUCSORGTOP
 10
0.0
 20
0.0
 30
0.0
  9
$PUCSORGBOTTOM
 10
0.0
 20
0.0
 30
0.0
  9
$PUCSORGLEFT
 10
0.0
 20
0.0
 30
0.0
  9
$PUCSORGRIGHT
 10
0.0
 20
0.0
 30
0.0
  9
$PUCSORGFRONT
 10
0.0
 20
0.0
 30
0.0
  9
$PUCSORGBACK
 10
0.0
 20
0.0
 30
0.0
  9
$USERI1
 70
     0
  9
$USERI2
 70
     0
  9
$USERI3
 70
     0
  9
$USERI4
 70
     0
  9
$USERI5
 70
     0
  9
$USERR1
 40
0.0
  9
$USERR2
 40
0.0
  9
$USERR3
 40
0.0
  9
$USERR4
 40
0.0
  9
$USERR5
 40
0.0
  9
$WORLDVIEW
 70
     1
  9
$SHADEDGE
 70
     3
  9
$SHADEDIF
 70
    70
  9
$TILEMODE
 70
     1
  9
$MAXACTVP
 70
    16
  9
$PINSBASE
 10
0.0
 20
0.0
 30
0.0
  9
$PLIMCHECK
 70
     0
  9
$PEXTMIN
 10
1.614583349603368
 20
1.129749872553066
 30
0.0
  9
$PEXTMAX
 10
14.5312501464303
 20
10.1677488529776
 30
0.0
  9
$PLIMMIN
 10
-0.1979161059762549
 20
-0.1979166691697489
  9
$PLIMMAX
 10
16.34375024029589
 20
11.49541603298638
  9
$UNITMODE
 70
     0
  9
$VISRETAIN
 70
     0
  9
$PLINEGEN
 70
     0
  9
$PSLTSCALE
 70
     1
  9
$TREEDEPTH
 70
  3020
  9
$CMLSTYLE
  2
Standard
  9
$CMLJUST
 70
     0
  9
$CMLSCALE
 40
1.0
  9
$PROXYGRAPHICS
 70
     1
  9
$MEASUREMENT
 70
     0
  9
$CELWEIGHT
370
    -1
  9
$ENDCAPS
280
     0
  9
$JOINSTYLE
280
     0
  9
$LWDISPLAY
290
     0
  9
$INSUNITS
 70
     0
  9
$HYPERLINKBASE
  1

  9
$STYLESHEET
  1

  9
$XEDIT
290
     1
  9
$CEPSNTYPE
380
     0
  9
$PSTYLEMODE
290
     1
  9
$FINGERPRINTGUID
  2
{89873707-62DA-40E7-8EB5-C38DEC300CEB}
  9
$VERSIONGUID
  2
{994A5C52-F3CA-B049-A47E-0730A1F5234F}
  9
$EXTNAMES
290
     1
  9
$PSVPSCALE
 40
0.0
  9
$OLESTARTUP
290
     0
  9
$SORTENTS
280
   127
  9
$INDEXCTL
280
     0
  9
$HIDETEXT
280
     0
  9
$XCLIPFRAME
280
     2
  9
$HALOGAP
280
     0
  9
$OBSCOLOR
 70
   257
  9
$OBSLTYPE
280
     0
  9
$INTERSECTIONDISPLAY
280
     0
  9
$INTERSECTIONCOLOR
 70
   257
  9
$DIMASSOC
280
     1
  9
$PROJECTNAME
  1

  9
$CAMERADISPLAY
290
     0
  9
$LENSLENGTH
 40
50.0
  9
$CAMERAHEIGHT
 40
0.0
  9
$STEPSPERSEC
 40
2.0
  9
$STEPSIZE
 40
6.0
  9
$3DDWFPREC
 40
2.0
  9
$PSOLWIDTH
 40
0.25
  9
$PSOLHEIGHT
 40
4.0
  9
$LOFTANG1
 40
1.570796326794896
  9
$LOFTANG2
 40
1.570796326794896
  9
$LOFTMAG1
 40
0.0
  9
$LOFTMAG2
 40
0.0
  9
$LOFTPARAM
 70
     7
  9
$LOFTNORMALS
280
     1
  9
$LATITUDE
 40
37.795
  9
$LONGITUDE
 40
-122.394
  9
$NORTHDIRECTION
 40
0.0
  9
$TIMEZONE
 70
 -8000
  9
$LIGHTGLYPHDISPLAY
280
     1
  9
$TILEMODELIGHTSYNCH
280
     1
  9
$CMATERIAL
347
154
  9
$SOLIDHIST
280
     0
  9
$SHOWHIST
280
     1
  9
$DWFFRAME
280
     2
  9
$DGNFRAME
280
     0
  9
$REALWORLDSCALE
290
     1
  9
$INTERFERECOLOR
 62
     1
  9
$INTERFEREOBJVS
345
176
  9
$INTERFEREVPVS
346
173
  9
$CSHADOW
280
     0
  9
$SHADOWPLANELOCATION
 40
0.0
  0
ENDSEC
  0
SECTION
  2
CLASSES
  0
CLASS
  1
ACDBDICTIONARYWDFLT
  2
AcDbDictionaryWithDefault
  3
ObjectDBX Classes
 90
        0
 91
        1
280
     0
281
     0
  0
CLASS
  1
MATERIAL
  2
AcDbMaterial
  3
ObjectDBX Classes
 90
     1153
 91
        3
280
     0
281
     0
  0
CLASS
  1
VISUALSTYLE
  2
AcDbVisualStyle
  3
ObjectDBX Classes
 90
     4095
 91
       24
280
     0
281
     0
  0
CLASS
  1
TABLESTYLE
  2
AcDbTableStyle
  3
ObjectDBX Classes
 90
     4095
 91
        1
280
     0
281
     0
  0
CLASS
  1
SCALE
  2
AcDbScale
  3
ObjectDBX Classes
 90
     1153
 91
       17
280
     0
281
     0
  0
CLASS
  1
MLEADERSTYLE
  2
AcDbMLeaderStyle
  3
ACDB_MLEADERSTYLE_CLASS
 90
     4095
 91
        1
280
     0
281
     0
  0
CLASS
  1
ACDBSECTIONVIEWSTYLE
  2
AcDbSectionViewStyle
  3
ObjectDBX Classes
 90
     1025
 91
        1
280
     0
281
     0
  0
CLASS
  1
ACDBDETAILVIEWSTYLE
  2
AcDbDetailViewStyle
  3
ObjectDBX Classes
 90
     1025
 91
        1
280
     0
281
     0
  0
CLASS
  1
ACDB_TEXTOBJECTCONTEXTDATA_CLASS
  2
AcDbTextObjectContextData
  3
ObjectDBX Classes
 90
     1153
 91
       32
280
     0
281
     0
  0
CLASS
  1
DICTIONARYVAR
  2
AcDbDictionaryVar
  3
ObjectDBX Classes
 90
        0
 91
       27
280
     0
281
     0
  0
CLASS
  1
CELLSTYLEMAP
  2
AcDbCellStyleMap
  3
ObjectDBX Classes
 90
     1152
 91
        1
280
     0
281
     0
  0
ENDSEC
  0
SECTION
  2
TABLES
  0
TABLE
  2
VPORT
  5
1D
330
0
100
AcDbSymbolTable
 70
     1
  0
VPORT
  5
1E
330
1D
100
AcDbSymbolTableRecord
100
AcDbViewportTableRecord
  2
*Active
 70
     0
 10
0.0
 20
0.0
 11
1.0
 21
1.0
 12
232.4872819732838
 22
-5.726914425962888
 13
0.0
 23
0.0
 14
5.0
 24
5.0
 15
10.0
 25
10.0
 16
0.0
 26
0.0
 36
1.0
 17
0.0
 27
0.0
 37
0.0
 40
855.7144308701364
 41
1.787234042553191
 42
50.0
 43
0.0
 44
0.0
 50
0.0
 51
0.0
 71
     0
 72
   100
 73
     1
 74
     1
 75
     0
 76
     0
 77
     0
 78
     0
281
     0
 65
     1
110
0.0
120
0.0
130
0.0
111
1.0
121
0.0
131
0.0
112
0.0
122
1.0
132
0.0
 79
     0
146
0.0
348
172
 60
     3
 61
     5
292
     1
282
     1
141
0.0
142
0.0
 63
   250
421
  3355443
1001
ACAD_NAV_VCDISPLAY
1070
     3
  0
ENDTAB
  0
TABLE
  2
LTYPE
  5
18
330
0
100
AcDbSymbolTable
 70
     3
  0
LTYPE
  5
19
330
18
100
AcDbSymbolTableRecord
100
AcDbLinetypeTableRecord
  2
ByBlock
 70
     0
  3

 72
    65
 73
     0
 40
0.0
  0
LTYPE
  5
1A
330
18
100
AcDbSymbolTableRecord
100
AcDbLinetypeTableRecord
  2
ByLayer
 70
     0
  3

 72
    65
 73
     0
 40
0.0
  0
LTYPE
  5
A
330
18
100
AcDbSymbolTableRecord
100
AcDbLinetypeTableRecord
  2
CONTINUOUS
 70
     0
  3
Solid line
 72
    65
 73
     0
 40
0.0
  0
LTYPE
  5
E9
330
18
100
AcDbSymbolTableRecord
100
AcDbLinetypeTableRecord
  2
CENTER2
 70
     0
  3
___ _ ___ _ ___ _ ___ _ ___ _ ___ _ ___ _ ___ _
 72
    65
 73
     4
 40
28.575
 49
19.05
 74
     0
 49
-3.174999999999999
 74
     0
 49
3.174999999999999
 74
     0
 49
-3.174999999999999
 74
     0
  0
LTYPE
  5
3C
330
18
100
AcDbSymbolTableRecord
100
AcDbLinetypeTableRecord
  2
HIDDEN
 70
     0
  3
__ __ __ __ __ __ __ __ __ __ __ __ __ __ __ __
 72
    65
 73
     2
 40
9.524999999999998
 49
6.349999999999999
 74
     0
 49
-3.174999999999999
 74
     0
  0
ENDTAB
  0
TABLE
  2
LAYER
  5
14
102
{ACAD_XDICTIONARY
360
1A7
102
}
330
0
100
AcDbSymbolTable
 70
    10
  0
LAYER
  5
6
102
{ACAD_XDICTIONARY
360
33C
102
}
330
14
100
AcDbSymbolTableRecord
100
AcDbLayerTableRecord
  2
0
 70
     0
 62
     7
  6
CONTINUOUS
370
    -3
390
7
347
164
348
0
  0
LAYER
  5
6D
102
{ACAD_XDICTIONARY
360
33E
102
}
330
14
100
AcDbSymbolTableRecord
100
AcDbLayerTableRecord
  2
DIMS
 70
     0
 62
     1
  6
CONTINUOUS
370
    -3
390
7
347
164
348
0
  0
LAYER
  5
3B
102
{ACAD_XDICTIONARY
360
340
102
}
330
14
100
AcDbSymbolTableRecord
100
AcDbLayerTableRecord
  2
ANCON-DSD
 70
     0
 62
     3
  6
CONTINUOUS
370
    -3
390
7
347
164
348
0
  0
LAYER
  5
4D
330
14
100
AcDbSymbolTableRecord
100
AcDbLayerTableRecord
  2
DEFPOINTS
 70
     0
 62
     7
  6
CONTINUOUS
290
     0
370
    -3
390
7
347
164
348
0
  0
LAYER
  5
120
102
{ACAD_XDICTIONARY
360
342
102
}
330
14
100
AcDbSymbolTableRecord
100
AcDbLayerTableRecord
  2
CONCRETE
 70
     0
 62
     2
  6
CONTINUOUS
370
    -3
390
7
347
164
348
0
  0
LAYER
  5
3E
102
{ACAD_XDICTIONARY
360
344
102
}
330
14
100
AcDbSymbolTableRecord
100
AcDbLayerTableRecord
  2
20MM-JOINT
 70
     0
 62
     1
  6
CONTINUOUS
370
    -3
390
7
347
164
348
0
  0
LAYER
  5
26
102
{ACAD_XDICTIONARY
360
346
102
}
330
14
100
AcDbSymbolTableRecord
100
AcDbLayerTableRecord
  2
ANCON-TEXT
 70
     0
 62
     6
  6
CONTINUOUS
370
    -3
390
7
347
164
348
0
  0
LAYER
  5
80
102
{ACAD_XDICTIONARY
360
348
102
}
330
14
100
AcDbSymbolTableRecord
100
AcDbLayerTableRecord
  2
20MM-DIMS
 70
     0
 62
     1
  6
CONTINUOUS
370
    -3
390
7
347
164
348
0
  0
LAYER
  5
2D
102
{ACAD_XDICTIONARY
360
34A
102
}
330
14
100
AcDbSymbolTableRecord
100
AcDbLayerTableRecord
  2
SPECP
 70
     0
 62
     6
  6
CONTINUOUS
370
    -3
390
7
347
164
348
0
  0
LAYER
  5
2B
102
{ACAD_XDICTIONARY
360
34C
102
}
330
14
100
AcDbSymbolTableRecord
100
AcDbLayerTableRecord
  2
SPECD
 70
     0
 62
     6
  6
CONTINUOUS
370
    -3
390
7
347
164
348
0
  0
ENDTAB
  0
TABLE
  2
STYLE
  5
15
330
0
100
AcDbSymbolTable
 70
     3
  0
STYLE
  5
16
330
15
100
AcDbSymbolTableRecord
100
AcDbTextStyleTableRecord
  2
STANDARD
 70
     0
 40
0.0
 41
1.0
 50
0.0
 71
     0
 42
6.0
  3
txt.shx
  4

  0
STYLE
  5
27
330
15
100
AcDbSymbolTableRecord
100
AcDbTextStyleTableRecord
  2
ROMANS
 70
     0
 40
0.0
 41
1.0
 50
0.0
 71
     0
 42
5.0
  3
romans
  4

  0
STYLE
  5
1A4
330
15
100
AcDbSymbolTableRecord
100
AcDbTextStyleTableRecord
  2
ARIAL
 70
     0
 40
5.0
 41
1.0
 50
0.0
 71
     0
 42
5.0
  3
arial.ttf
  4

1001
AcadAnnotative
1000
AnnotativeData
1002
{
1070
     1
1070
     1
1002
}
1001
ACAD
1000
Arial
1071
       34
  0
ENDTAB
  0
TABLE
  2
VIEW
  5
1B
330
0
100
AcDbSymbolTable
 70
     0
  0
ENDTAB
  0
TABLE
  2
UCS
  5
1C
330
0
100
AcDbSymbolTable
 70
     0
  0
ENDTAB
  0
TABLE
  2
APPID
  5
1F
330
0
100
AcDbSymbolTable
 70
     3
  0
APPID
  5
20
330
1F
100
AcDbSymbolTableRecord
100
AcDbRegAppTableRecord
  2
ACAD
 70
     0
  0
APPID
  5
1A5
330
1F
100
AcDbSymbolTableRecord
100
AcDbRegAppTableRecord
  2
ACAD_NAV_VCDISPLAY
 70
     0
  0
APPID
  5
1A6
330
1F
100
AcDbSymbolTableRecord
100
AcDbRegAppTableRecord
  2
AcadAnnotative
 70
     0
  0
ENDTAB
  0
TABLE
  2
DIMSTYLE
  5
21
330
0
100
AcDbSymbolTable
 70
     1
100
AcDbDimStyleTable
 71
     0
  0
DIMSTYLE
105
29
102
{ACAD_REACTORS
330
B7
330
EB
330
7F
330
8D
330
F8
330
105
330
9C
330
A9
330
112
330
D4
330
45
330
6C
330
C6
330
137
330
144
102
}
330
21
100
AcDbSymbolTableRecord
100
AcDbDimStyleTableRecord
  2
1-1
 70
     0
 40
0.0
 41
4.0
 42
4.5
 43
10.0
 44
1.5
 46
1.25
 73
     0
 74
     0
 77
     1
 78
    12
140
3.0
141
-3.0
143
0.039
146
0.75
147
1.5
271
     2
272
     2
279
     2
284
    12
285
    12
286
    12
340
16
  0
ENDTAB
  0
TABLE
  2
BLOCK_RECORD
  5
1
330
0
100
AcDbSymbolTable
 70
    31
  0
BLOCK_RECORD
  5
2
102
{ACAD_XDICTIONARY
360
3
102
}
330
1
100
AcDbSymbolTableRecord
100
AcDbBlockTableRecord
  2
*Model_Space
340
C
 70
     0
280
     1
281
     0
  0
BLOCK_RECORD
  5
E
102
{ACAD_XDICTIONARY
360
F
102
}
330
1
100
AcDbSymbolTableRecord
100
AcDbBlockTableRecord
  2
*Paper_Space
340
13
 70
     0
280
     1
281
     0
  0
BLOCK_RECORD
  5
EC
330
1
100
AcDbSymbolTableRecord
100
AcDbBlockTableRecord
  2
*D0
340
0
 70
     0
280
     1
281
     0
  0
BLOCK_RECORD
  5
81
330
1
100
AcDbSymbolTableRecord
100
AcDbBlockTableRecord
  2
*D1
340
0
 70
     0
280
     1
281
     0
  0
BLOCK_RECORD
  5
8E
330
1
100
AcDbSymbolTableRecord
100
AcDbBlockTableRecord
  2
*D2
340
0
 70
     0
280
     1
281
     0
  0
BLOCK_RECORD
  5
106
330
1
100
AcDbSymbolTableRecord
100
AcDbBlockTableRecord
  2
*D3
340
0
 70
     0
280
     1
281
     0
  0
BLOCK_RECORD
  5
9D
330
1
100
AcDbSymbolTableRecord
100
AcDbBlockTableRecord
  2
*D4
340
0
 70
     0
280
     1
281
     0
  0
BLOCK_RECORD
  5
AA
330
1
100
AcDbSymbolTableRecord
100
AcDbBlockTableRecord
  2
*D5
340
0
 70
     0
280
     1
281
     0
  0
BLOCK_RECORD
  5
46
330
1
100
AcDbSymbolTableRecord
100
AcDbBlockTableRecord
  2
*D6
340
0
 70
     0
280
     1
281
     0
  0
BLOCK_RECORD
  5
6E
330
1
100
AcDbSymbolTableRecord
100
AcDbBlockTableRecord
  2
*D7
340
0
 70
     0
280
     1
281
     0
  0
BLOCK_RECORD
  5
C7
330
1
100
AcDbSymbolTableRecord
100
AcDbBlockTableRecord
  2
*D8
340
0
 70
     0
280
     1
281
     0
  0
BLOCK_RECORD
  5
138
330
1
100
AcDbSymbolTableRecord
100
AcDbBlockTableRecord
  2
*D9
340
0
 70
     0
280
     1
281
     0
  0
BLOCK_RECORD
  5
145
330
1
100
AcDbSymbolTableRecord
100
AcDbBlockTableRecord
  2
*D10
340
0
 70
     0
280
     1
281
     0
  0
BLOCK_RECORD
  5
113
330
1
100
AcDbSymbolTableRecord
100
AcDbBlockTableRecord
  2
*D11
340
0
 70
     0
280
     1
281
     0
  0
BLOCK_RECORD
  5
F9
330
1
100
AcDbSymbolTableRecord
100
AcDbBlockTableRecord
  2
*D12
340
0
 70
     0
280
     1
281
     0
  0
BLOCK_RECORD
  5
D5
330
1
100
AcDbSymbolTableRecord
100
AcDbBlockTableRecord
  2
*D13
340
0
 70
     0
280
     1
281
     0
  0
BLOCK_RECORD
  5
B8
330
1
100
AcDbSymbolTableRecord
100
AcDbBlockTableRecord
  2
*D14
340
0
 70
     0
280
     1
281
     0
  0
BLOCK_RECORD
  5
272
330
1
100
AcDbSymbolTableRecord
100
AcDbBlockTableRecord
  2
*D16
340
0
 70
     0
280
     1
281
     0
  0
BLOCK_RECORD
  5
27D
330
1
100
AcDbSymbolTableRecord
100
AcDbBlockTableRecord
  2
*D17
340
0
 70
     0
280
     1
281
     0
  0
BLOCK_RECORD
  5
289
330
1
100
AcDbSymbolTableRecord
100
AcDbBlockTableRecord
  2
*D18
340
0
 70
     0
280
     1
281
     0
  0
BLOCK_RECORD
  5
295
330
1
100
AcDbSymbolTableRecord
100
AcDbBlockTableRecord
  2
*D19
340
0
 70
     0
280
     1
281
     0
  0
BLOCK_RECORD
  5
2A2
330
1
100
AcDbSymbolTableRecord
100
AcDbBlockTableRecord
  2
*D20
340
0
 70
     0
280
     1
281
     0
  0
BLOCK_RECORD
  5
2AE
330
1
100
AcDbSymbolTableRecord
100
AcDbBlockTableRecord
  2
*D21
340
0
 70
     0
280
     1
281
     0
  0
BLOCK_RECORD
  5
2BB
330
1
100
AcDbSymbolTableRecord
100
AcDbBlockTableRecord
  2
*D22
340
0
 70
     0
280
     1
281
     0
  0
BLOCK_RECORD
  5
2C7
330
1
100
AcDbSymbolTableRecord
100
AcDbBlockTableRecord
  2
*D23
340
0
 70
     0
280
     1
281
     0
  0
BLOCK_RECORD
  5
2D4
330
1
100
AcDbSymbolTableRecord
100
AcDbBlockTableRecord
  2
*D24
340
0
 70
     0
280
     1
281
     0
  0
BLOCK_RECORD
  5
2E0
330
1
100
AcDbSymbolTableRecord
100
AcDbBlockTableRecord
  2
*D25
340
0
 70
     0
280
     1
281
     0
  0
BLOCK_RECORD
  5
2EC
330
1
100
AcDbSymbolTableRecord
100
AcDbBlockTableRecord
  2
*D26
340
0
 70
     0
280
     1
281
     0
  0
BLOCK_RECORD
  5
2F8
330
1
100
AcDbSymbolTableRecord
100
AcDbBlockTableRecord
  2
*D27
340
0
 70
     0
280
     1
281
     0
  0
BLOCK_RECORD
  5
304
330
1
100
AcDbSymbolTableRecord
100
AcDbBlockTableRecord
  2
*D28
340
0
 70
     0
280
     1
281
     0
  0
BLOCK_RECORD
  5
310
330
1
100
AcDbSymbolTableRecord
100
AcDbBlockTableRecord
  2
*D29
340
0
 70
     0
280
     1
281
     0
  0
BLOCK_RECORD
  5
31C
330
1
100
AcDbSymbolTableRecord
100
AcDbBlockTableRecord
  2
*D30
340
0
 70
     0
280
     1
281
     0
  0
ENDTAB
  0
ENDSEC
  0
SECTION
  2
BLOCKS
  0
BLOCK
  5
5
330
2
100
AcDbEntity
  8
0
100
AcDbBlockBegin
  2
*Model_Space
 70
     0
 10
0.0
 20
0.0
 30
0.0
  3
*Model_Space
  1

  0
ENDBLK
  5
B
330
2
100
AcDbEntity
  8
0
100
AcDbBlockEnd
  0
BLOCK
  5
11
330
E
100
AcDbEntity
 67
     1
  8
0
100
AcDbBlockBegin
  2
*Paper_Space
 70
     0
 10
0.0
 20
0.0
 30
0.0
  3
*Paper_Space
  1

  0
ENDBLK
  5
12
330
E
100
AcDbEntity
 67
     1
  8
0
100
AcDbBlockEnd
  0
BLOCK
  5
F6
330
EC
100
AcDbEntity
  8
0
100
AcDbBlockBegin
  2
*D0
 70
     1
 10
0.0
 20
0.0
 30
0.0
  3
*D0
  1

  0
LINE
  5
ED
330
EC
100
AcDbEntity
  8
0
  6
ByBlock
 62
     0
440
 16777216
100
AcDbLine
 10
-109.0
 20
-109.5
 30
0.0
 11
-109.0
 21
-130.0584405018526
 31
0.0
  0
LINE
  5
EE
330
EC
100
AcDbEntity
  8
0
  6
ByBlock
 62
     0
440
 16777216
100
AcDbLine
 10
-54.0
 20
-59.50000000000017
 30
0.0
 11
-54.0
 21
-130.0584405018526
 31
0.0
  0
LINE
  5
EF
330
EC
100
AcDbEntity
  8
0
  6
ByBlock
 62
     0
440
 16777216
100
AcDbLine
 10
-105.0
 20
-128.5584405018526
 30
0.0
 11
-58.0
 21
-128.5584405018526
 31
0.0
  0
SOLID
  5
F0
330
EC
100
AcDbEntity
  8
0
  6
ByBlock
 62
     0
440
 16777216
100
AcDbTrace
 10
-105.0
 20
-127.891773835186
 30
0.0
 11
-105.0
 21
-129.2251071685193
 31
0.0
 12
-109.0
 22
-128.5584405018526
 32
0.0
 13
-109.0
 23
-128.5584405018526
 33
0.0
  0
SOLID
  5
F1
330
EC
100
AcDbEntity
  8
0
  6
ByBlock
 62
     0
440
 16777216
100
AcDbTrace
 10
-58.0
 20
-127.891773835186
 30
0.0
 11
-58.0
 21
-129.2251071685193
 31
0.0
 12
-54.0
 22
-128.5584405018526
 32
0.0
 13
-54.0
 23
-128.5584405018526
 33
0.0
  0
TEXT
  5
F2
330
EC
100
AcDbEntity
  8
0
  6
ByBlock
 62
     0
440
 16777216
100
AcDbText
 10
-84.35714285714288
 20
-127.0584405018526
 30
0.0
 40
3.0
  1
55
  7
ROMANS
 72
     1
 11
-81.50000000000003
 21
-125.5584405018526
 31
0.0
100
AcDbText
 73
     2
  0
POINT
  5
F3
330
EC
100
AcDbEntity
  8
DEFPOINTS
  6
ByBlock
 62
     0
440
 16777216
100
AcDbPoint
 10
-109.0
 20
-105.0
 30
0.0
  0
POINT
  5
F4
330
EC
100
AcDbEntity
  8
DEFPOINTS
  6
ByBlock
 62
     0
440
 16777216
100
AcDbPoint
 10
-54.0
 20
-55.00000000000017
 30
0.0
  0
POINT
  5
F5
330
EC
100
AcDbEntity
  8
DEFPOINTS
  6
ByBlock
 62
     0
440
 16777216
100
AcDbPoint
 10
-54.0
 20
-128.5584405018526
 30
0.0
  0
ENDBLK
  5
F7
330
EC
100
AcDbEntity
  8
0
100
AcDbBlockEnd
  0
BLOCK
  5
8B
330
81
100
AcDbEntity
  8
0
100
AcDbBlockBegin
  2
*D1
 70
     1
 10
0.0
 20
0.0
 30
0.0
  3
*D1
  1

  0
LINE
  5
82
330
81
100
AcDbEntity
  8
0
  6
ByBlock
 62
     0
440
 16777216
100
AcDbLine
 10
-54.0
 20
-59.50000000000017
 30
0.0
 11
-54.0
 21
-130.0584405018526
 31
0.0
  0
LINE
  5
83
330
81
100
AcDbEntity
  8
0
  6
ByBlock
 62
     0
440
 16777216
100
AcDbLine
 10
-28.0
 20
-39.5
 30
0.0
 11
-28.0
 21
-130.0584405018526
 31
0.0
  0
LINE
  5
84
330
81
100
AcDbEntity
  8
0
  6
ByBlock
 62
     0
440
 16777216
100
AcDbLine
 10
-50.0
 20
-128.5584405018526
 30
0.0
 11
-32.0
 21
-128.5584405018526
 31
0.0
  0
SOLID
  5
85
330
81
100
AcDbEntity
  8
0
  6
ByBlock
 62
     0
440
 16777216
100
AcDbTrace
 10
-50.0
 20
-127.891773835186
 30
0.0
 11
-50.0
 21
-129.2251071685193
 31
0.0
 12
-54.0
 22
-128.5584405018526
 32
0.0
 13
-54.0
 23
-128.5584405018526
 33
0.0
  0
SOLID
  5
86
330
81
100
AcDbEntity
  8
0
  6
ByBlock
 62
     0
440
 16777216
100
AcDbTrace
 10
-32.0
 20
-127.891773835186
 30
0.0
 11
-32.0
 21
-129.2251071685193
 31
0.0
 12
-28.0
 22
-128.5584405018526
 32
0.0
 13
-28.0
 23
-128.5584405018526
 33
0.0
  0
TEXT
  5
87
330
81
100
AcDbEntity
  8
0
  6
ByBlock
 62
     0
440
 16777216
100
AcDbText
 10
-43.85714285714285
 20
-127.0584405018526
 30
0.0
 40
3.0
  1
26
  7
ROMANS
 72
     1
 11
-41.0
 21
-125.5584405018526
 31
0.0
100
AcDbText
 73
     2
  0
POINT
  5
88
330
81
100
AcDbEntity
  8
DEFPOINTS
  6
ByBlock
 62
     0
440
 16777216
100
AcDbPoint
 10
-54.0
 20
-55.00000000000017
 30
0.0
  0
POINT
  5
89
330
81
100
AcDbEntity
  8
DEFPOINTS
  6
ByBlock
 62
     0
440
 16777216
100
AcDbPoint
 10
-28.0
 20
-35.0
 30
0.0
  0
POINT
  5
8A
330
81
100
AcDbEntity
  8
DEFPOINTS
  6
ByBlock
 62
     0
440
 16777216
100
AcDbPoint
 10
-28.0
 20
-128.5584405018526
 30
0.0
  0
ENDBLK
  5
8C
330
81
100
AcDbEntity
  8
0
100
AcDbBlockEnd
  0
BLOCK
  5
9A
330
8E
100
AcDbEntity
  8
0
100
AcDbBlockBegin
  2
*D2
 70
     1
 10
0.0
 20
0.0
 30
0.0
  3
*D2
  1

  0
LINE
  5
8F
330
8E
100
AcDbEntity
  8
0
  6
ByBlock
 62
     0
440
 16777216
100
AcDbLine
 10
-28.0
 20
-39.5
 30
0.0
 11
-28.0
 21
-130.0584405018526
 31
0.0
  0
LINE
  5
90
330
8E
100
AcDbEntity
  8
0
  6
ByBlock
 62
     0
440
 16777216
100
AcDbLine
 10
-19.99999999999997
 20
-39.5
 30
0.0
 11
-19.99999999999997
 21
-130.0584405018526
 31
0.0
  0
LINE
  5
91
330
8E
100
AcDbEntity
  8
0
  6
ByBlock
 62
     0
440
 16777216
100
AcDbLine
 10
-32.0
 20
-128.5584405018526
 30
0.0
 11
-36.0
 21
-128.5584405018526
 31
0.0
  0
LINE
  5
92
330
8E
100
AcDbEntity
  8
0
  6
ByBlock
 62
     0
440
 16777216
100
AcDbLine
 10
-15.99999999999997
 20
-128.5584405018526
 30
0.0
 11
-11.99999999999997
 21
-128.5584405018526
 31
0.0
  0
LINE
  5
93
330
8E
100
AcDbEntity
  8
0
  6
ByBlock
 62
     0
440
 16777216
100
AcDbLine
 10
-11.99999999999997
 20
-128.5584405018526
 30
0.0
 11
-8.499999999999968
 21
-128.5584405018526
 31
0.0
  0
SOLID
  5
94
330
8E
100
AcDbEntity
  8
0
  6
ByBlock
 62
     0
440
 16777216
100
AcDbTrace
 10
-32.0
 20
-127.891773835186
 30
0.0
 11
-32.0
 21
-129.2251071685193
 31
0.0
 12
-28.0
 22
-128.5584405018526
 32
0.0
 13
-28.0
 23
-128.5584405018526
 33
0.0
  0
SOLID
  5
95
330
8E
100
AcDbEntity
  8
0
  6
ByBlock
 62
     0
440
 16777216
100
AcDbTrace
 10
-15.99999999999997
 20
-127.891773835186
 30
0.0
 11
-15.99999999999997
 21
-129.2251071685193
 31
0.0
 12
-19.99999999999997
 22
-128.5584405018526
 32
0.0
 13
-19.99999999999997
 23
-128.5584405018526
 33
0.0
  0
TEXT
  5
96
330
8E
100
AcDbEntity
  8
0
  6
ByBlock
 62
     0
440
 16777216
100
AcDbText
 10
-10.92857142857139
 20
-127.0584405018526
 30
0.0
 40
3.0
  1
8
  7
ROMANS
 72
     1
 11
-9.499999999999968
 21
-125.5584405018526
 31
0.0
100
AcDbText
 73
     2
  0
POINT
  5
97
330
8E
100
AcDbEntity
  8
DEFPOINTS
  6
ByBlock
 62
     0
440
 16777216
100
AcDbPoint
 10
-28.0
 20
-35.0
 30
0.0
  0
POINT
  5
98
330
8E
100
AcDbEntity
  8
DEFPOINTS
  6
ByBlock
 62
     0
440
 16777216
100
AcDbPoint
 10
-19.99999999999997
 20
-35.0
 30
0.0
  0
POINT
  5
99
330
8E
100
AcDbEntity
  8
DEFPOINTS
  6
ByBlock
 62
     0
440
 16777216
100
AcDbPoint
 10
-19.99999999999997
 20
-128.5584405018526
 30
0.0
  0
ENDBLK
  5
9B
330
8E
100
AcDbEntity
  8
0
100
AcDbBlockEnd
  0
BLOCK
  5
110
330
106
100
AcDbEntity
  8
0
100
AcDbBlockBegin
  2
*D3
 70
     1
 10
0.0
 20
0.0
 30
0.0
  3
*D3
  1

  0
LINE
  5
107
330
106
100
AcDbEntity
  8
0
  6
ByBlock
 62
     0
440
 16777216
100
AcDbLine
 10
-109.0
 20
-109.5
 30
0.0
 11
-109.0
 21
-130.0584405018526
 31
0.0
  0
LINE
  5
108
330
106
100
AcDbEntity
  8
0
  6
ByBlock
 62
     0
440
 16777216
100
AcDbLine
 10
-54.0
 20
-59.50000000000017
 30
0.0
 11
-54.0
 21
-130.0584405018526
 31
0.0
  0
LINE
  5
109
330
106
100
AcDbEntity
  8
0
  6
ByBlock
 62
     0
440
 16777216
100
AcDbLine
 10
-105.0
 20
-128.5584405018526
 30
0.0
 11
-58.0
 21
-128.5584405018526
 31
0.0
  0
SOLID
  5
10A
330
106
100
AcDbEntity
  8
0
  6
ByBlock
 62
     0
440
 16777216
100
AcDbTrace
 10
-105.0
 20
-127.891773835186
 30
0.0
 11
-105.0
 21
-129.2251071685193
 31
0.0
 12
-109.0
 22
-128.5584405018526
 32
0.0
 13
-109.0
 23
-128.5584405018526
 33
0.0
  0
SOLID
  5
10B
330
106
100
AcDbEntity
  8
0
  6
ByBlock
 62
     0
440
 16777216
100
AcDbTrace
 10
-58.0
 20
-127.891773835186
 30
0.0
 11
-58.0
 21
-129.2251071685193
 31
0.0
 12
-54.0
 22
-128.5584405018526
 32
0.0
 13
-54.0
 23
-128.5584405018526
 33
0.0
  0
TEXT
  5
10C
330
106
100
AcDbEntity
  8
0
  6
ByBlock
 62
     0
440
 16777216
100
AcDbText
 10
-84.35714285714288
 20
-127.0584405018526
 30
0.0
 40
3.0
  1
55
  7
ROMANS
 72
     1
 11
-81.50000000000003
 21
-125.5584405018526
 31
0.0
100
AcDbText
 73
     2
  0
POINT
  5
10D
330
106
100
AcDbEntity
  8
DEFPOINTS
  6
ByBlock
 62
     0
440
 16777216
100
AcDbPoint
 10
-109.0
 20
-105.0
 30
0.0
  0
POINT
  5
10E
330
106
100
AcDbEntity
  8
DEFPOINTS
  6
ByBlock
 62
     0
440
 16777216
100
AcDbPoint
 10
-54.0
 20
-55.00000000000017
 30
0.0
  0
POINT
  5
10F
330
106
100
AcDbEntity
  8
DEFPOINTS
  6
ByBlock
 62
     0
440
 16777216
100
AcDbPoint
 10
-54.0
 20
-128.5584405018526
 30
0.0
  0
ENDBLK
  5
111
330
106
100
AcDbEntity
  8
0
100
AcDbBlockEnd
  0
BLOCK
  5
A7
330
9D
100
AcDbEntity
  8
0
100
AcDbBlockBegin
  2
*D4
 70
     1
 10
0.0
 20
0.0
 30
0.0
  3
*D4
  1

  0
LINE
  5
9E
330
9D
100
AcDbEntity
  8
0
  6
ByBlock
 62
     0
440
 16777216
100
AcDbLine
 10
-54.0
 20
-59.50000000000017
 30
0.0
 11
-54.0
 21
-130.0584405018526
 31
0.0
  0
LINE
  5
9F
330
9D
100
AcDbEntity
  8
0
  6
ByBlock
 62
     0
440
 16777216
100
AcDbLine
 10
-28.0
 20
-39.5
 30
0.0
 11
-28.0
 21
-130.0584405018526
 31
0.0
  0
LINE
  5
A0
330
9D
100
AcDbEntity
  8
0
  6
ByBlock
 62
     0
440
 16777216
100
AcDbLine
 10
-50.0
 20
-128.5584405018526
 30
0.0
 11
-32.0
 21
-128.5584405018526
 31
0.0
  0
SOLID
  5
A1
330
9D
100
AcDbEntity
  8
0
  6
ByBlock
 62
     0
440
 16777216
100
AcDbTrace
 10
-50.0
 20
-127.891773835186
 30
0.0
 11
-50.0
 21
-129.2251071685193
 31
0.0
 12
-54.0
 22
-128.5584405018526
 32
0.0
 13
-54.0
 23
-128.5584405018526
 33
0.0
  0
SOLID
  5
A2
330
9D
100
AcDbEntity
  8
0
  6
ByBlock
 62
     0
440
 16777216
100
AcDbTrace
 10
-32.0
 20
-127.891773835186
 30
0.0
 11
-32.0
 21
-129.2251071685193
 31
0.0
 12
-28.0
 22
-128.5584405018526
 32
0.0
 13
-28.0
 23
-128.5584405018526
 33
0.0
  0
TEXT
  5
A3
330
9D
100
AcDbEntity
  8
0
  6
ByBlock
 62
     0
440
 16777216
100
AcDbText
 10
-43.85714285714285
 20
-127.0584405018526
 30
0.0
 40
3.0
  1
26
  7
ROMANS
 72
     1
 11
-41.0
 21
-125.5584405018526
 31
0.0
100
AcDbText
 73
     2
  0
POINT
  5
A4
330
9D
100
AcDbEntity
  8
DEFPOINTS
  6
ByBlock
 62
     0
440
 16777216
100
AcDbPoint
 10
-54.0
 20
-55.00000000000017
 30
0.0
  0
POINT
  5
A5
330
9D
100
AcDbEntity
  8
DEFPOINTS
  6
ByBlock
 62
     0
440
 16777216
100
AcDbPoint
 10
-28.0
 20
-35.0
 30
0.0
  0
POINT
  5
A6
330
9D
100
AcDbEntity
  8
DEFPOINTS
  6
ByBlock
 62
     0
440
 16777216
100
AcDbPoint
 10
-28.0
 20
-128.5584405018526
 30
0.0
  0
ENDBLK
  5
A8
330
9D
100
AcDbEntity
  8
0
100
AcDbBlockEnd
  0
BLOCK
  5
B5
330
AA
100
AcDbEntity
  8
0
100
AcDbBlockBegin
  2
*D5
 70
     1
 10
0.0
 20
0.0
 30
0.0
  3
*D5
  1

  0
LINE
  5
AB
330
AA
100
AcDbEntity
  8
0
  6
ByBlock
 62
     0
440
 16777216
100
AcDbLine
 10
-28.0
 20
-39.5
 30
0.0
 11
-28.0
 21
-130.0584405018526
 31
0.0
  0
LINE
  5
AC
330
AA
100
AcDbEntity
  8
0
  6
ByBlock
 62
     0
440
 16777216
100
AcDbLine
 10
-19.99999999999997
 20
-39.5
 30
0.0
 11
-19.99999999999997
 21
-130.0584405018526
 31
0.0
  0
LINE
  5
AD
330
AA
100
AcDbEntity
  8
0
  6
ByBlock
 62
     0
440
 16777216
100
AcDbLine
 10
-32.0
 20
-128.5584405018526
 30
0.0
 11
-36.0
 21
-128.5584405018526
 31
0.0
  0
LINE
  5
AE
330
AA
100
AcDbEntity
  8
0
  6
ByBlock
 62
     0
440
 16777216
100
AcDbLine
 10
-15.99999999999997
 20
-128.5584405018526
 30
0.0
 11
-11.99999999999997
 21
-128.5584405018526
 31
0.0
  0
SOLID
  5
AF
330
AA
100
AcDbEntity
  8
0
  6
ByBlock
 62
     0
440
 16777216
100
AcDbTrace
 10
-32.0
 20
-127.891773835186
 30
0.0
 11
-32.0
 21
-129.2251071685193
 31
0.0
 12
-28.0
 22
-128.5584405018526
 32
0.0
 13
-28.0
 23
-128.5584405018526
 33
0.0
  0
SOLID
  5
B0
330
AA
100
AcDbEntity
  8
0
  6
ByBlock
 62
     0
440
 16777216
100
AcDbTrace
 10
-15.99999999999997
 20
-127.891773835186
 30
0.0
 11
-15.99999999999997
 21
-129.2251071685193
 31
0.0
 12
-19.99999999999997
 22
-128.5584405018526
 32
0.0
 13
-19.99999999999997
 23
-128.5584405018526
 33
0.0
  0
TEXT
  5
B1
330
AA
100
AcDbEntity
  8
0
  6
ByBlock
 62
     0
440
 16777216
100
AcDbText
 10
-15.39370290040097
 20
-127.0584405018526
 30
0.0
 40
3.0
  1
8
  7
ROMANS
 72
     1
 11
-13.96513147182954
 21
-125.5584405018526
 31
0.0
100
AcDbText
 73
     2
  0
POINT
  5
B2
330
AA
100
AcDbEntity
  8
DEFPOINTS
  6
ByBlock
 62
     0
440
 16777216
100
AcDbPoint
 10
-28.0
 20
-35.0
 30
0.0
  0
POINT
  5
B3
330
AA
100
AcDbEntity
  8
DEFPOINTS
  6
ByBlock
 62
     0
440
 16777216
100
AcDbPoint
 10
-19.99999999999997
 20
-35.0
 30
0.0
  0
POINT
  5
B4
330
AA
100
AcDbEntity
  8
DEFPOINTS
  6
ByBlock
 62
     0
440
 16777216
100
AcDbPoint
 10
-19.99999999999997
 20
-128.5584405018526
 30
0.0
  0
ENDBLK
  5
B6
330
AA
100
AcDbEntity
  8
0
100
AcDbBlockEnd
  0
BLOCK
  5
50
330
46
100
AcDbEntity
  8
0
100
AcDbBlockBegin
  2
*D6
 70
     1
 10
0.0
 20
0.0
 30
0.0
  3
*D6
  1

  0
LINE
  5
47
330
46
100
AcDbEntity
  8
0
  6
ByBlock
 62
     0
440
 16777216
100
AcDbLine
 10
249.5
 20
-40.0
 30
0.0
 11
271.0067902786747
 21
-40.0
 31
0.0
  0
LINE
  5
48
330
46
100
AcDbEntity
  8
0
  6
ByBlock
 62
     0
440
 16777216
100
AcDbLine
 10
249.5
 20
40.0
 30
0.0
 11
271.0067902786747
 21
40.0
 31
0.0
  0
LINE
  5
49
330
46
100
AcDbEntity
  8
0
  6
ByBlock
 62
     0
440
 16777216
100
AcDbLine
 10
269.5067902786747
 20
-36.0
 30
0.0
 11
269.5067902786747
 21
36.0
 31
0.0
  0
SOLID
  5
4A
330
46
100
AcDbEntity
  8
0
  6
ByBlock
 62
     0
440
 16777216
100
AcDbTrace
 10
268.840123612008
 20
-36.0
 30
0.0
 11
270.1734569453414
 21
-36.0
 31
0.0
 12
269.5067902786747
 22
-40.0
 32
0.0
 13
269.5067902786747
 23
-40.0
 33
0.0
  0
SOLID
  5
4B
330
46
100
AcDbEntity
  8
0
  6
ByBlock
 62
     0
440
 16777216
100
AcDbTrace
 10
268.840123612008
 20
36.0
 30
0.0
 11
270.1734569453414
 21
36.0
 31
0.0
 12
269.5067902786747
 22
40.0
 32
0.0
 13
269.5067902786747
 23
40.0
 33
0.0
  0
POINT
  5
4C
330
46
100
AcDbEntity
  8
DEFPOINTS
  6
ByBlock
 62
     0
440
 16777216
100
AcDbPoint
 10
245.0
 20
-40.0
 30
0.0
  0
POINT
  5
4E
330
46
100
AcDbEntity
  8
DEFPOINTS
  6
ByBlock
 62
     0
440
 16777216
100
AcDbPoint
 10
245.0
 20
40.0
 30
0.0
  0
POINT
  5
4F
330
46
100
AcDbEntity
  8
DEFPOINTS
  6
ByBlock
 62
     0
440
 16777216
100
AcDbPoint
 10
269.5067902786747
 20
40.0
 30
0.0
  0
ENDBLK
  5
51
330
46
100
AcDbEntity
  8
0
100
AcDbBlockEnd
  0
BLOCK
  5
78
330
6E
100
AcDbEntity
  8
0
100
AcDbBlockBegin
  2
*D7
 70
     1
 10
0.0
 20
0.0
 30
0.0
  3
*D7
  1

  0
LINE
  5
6F
330
6E
100
AcDbEntity
  8
0
  6
ByBlock
 62
     0
440
 16777216
100
AcDbLine
 10
4.0
 20
-59.5
 30
0.0
 11
4.0
 21
-117.9243820862713
 31
0.0
  0
LINE
  5
70
330
6E
100
AcDbEntity
  8
0
  6
ByBlock
 62
     0
440
 16777216
100
AcDbLine
 10
54.00000000000001
 20
-109.5
 30
0.0
 11
54.00000000000001
 21
-117.9243820862713
 31
0.0
  0
LINE
  5
71
330
6E
100
AcDbEntity
  8
0
  6
ByBlock
 62
     0
440
 16777216
100
AcDbLine
 10
8.0
 20
-116.4243820862713
 30
0.0
 11
50.0
 21
-116.4243820862713
 31
0.0
  0
SOLID
  5
72
330
6E
100
AcDbEntity
  8
0
  6
ByBlock
 62
     0
440
 16777216
100
AcDbTrace
 10
8.0
 20
-115.7577154196046
 30
0.0
 11
8.0
 21
-117.0910487529379
 31
0.0
 12
4.0
 22
-116.4243820862713
 32
0.0
 13
4.0
 23
-116.4243820862713
 33
0.0
  0
SOLID
  5
73
330
6E
100
AcDbEntity
  8
0
  6
ByBlock
 62
     0
440
 16777216
100
AcDbTrace
 10
50.0
 20
-115.7577154196046
 30
0.0
 11
50.0
 21
-117.0910487529379
 31
0.0
 12
54.00000000000001
 22
-116.4243820862713
 32
0.0
 13
54.00000000000001
 23
-116.4243820862713
 33
0.0
  0
TEXT
  5
74
330
6E
100
AcDbEntity
  8
0
  6
ByBlock
 62
     0
440
 16777216
100
AcDbText
 10
26.14285714285715
 20
-114.9243820862713
 30
0.0
 40
3.0
  1
50
  7
ROMANS
 72
     1
 11
29.0
 21
-113.4243820862713
 31
0.0
100
AcDbText
 73
     2
  0
POINT
  5
75
330
6E
100
AcDbEntity
  8
DEFPOINTS
  6
ByBlock
 62
     0
440
 16777216
100
AcDbPoint
 10
4.0
 20
-55.0
 30
0.0
  0
POINT
  5
76
330
6E
100
AcDbEntity
  8
DEFPOINTS
  6
ByBlock
 62
     0
440
 16777216
100
AcDbPoint
 10
54.00000000000001
 20
-105.0
 30
0.0
  0
POINT
  5
77
330
6E
100
AcDbEntity
  8
DEFPOINTS
  6
ByBlock
 62
     0
440
 16777216
100
AcDbPoint
 10
54.00000000000001
 20
-116.4243820862713
 30
0.0
  0
ENDBLK
  5
79
330
6E
100
AcDbEntity
  8
0
100
AcDbBlockEnd
  0
BLOCK
  5
D2
330
C7
100
AcDbEntity
  8
0
100
AcDbBlockBegin
  2
*D8
 70
     1
 10
0.0
 20
0.0
 30
0.0
  3
*D8
  1

  0
LINE
  5
C8
330
C7
100
AcDbEntity
  8
0
  6
ByBlock
 62
     0
440
 16777216
100
AcDbLine
 10
4.0
 20
-59.5
 30
0.0
 11
4.0
 21
-117.9243820862713
 31
0.0
  0
LINE
  5
C9
330
C7
100
AcDbEntity
  8
0
  6
ByBlock
 62
     0
440
 16777216
100
AcDbLine
 10
0.0000000000000346
 20
-59.5
 30
0.0
 11
0.0000000000000346
 21
-117.9243820862713
 31
0.0
  0
LINE
  5
CA
330
C7
100
AcDbEntity
  8
0
  6
ByBlock
 62
     0
440
 16777216
100
AcDbLine
 10
8.0
 20
-116.4243820862713
 30
0.0
 11
12.0
 21
-116.4243820862713
 31
0.0
  0
LINE
  5
CB
330
C7
100
AcDbEntity
  8
0
  6
ByBlock
 62
     0
440
 16777216
100
AcDbLine
 10
-3.999999999999965
 20
-116.4243820862713
 30
0.0
 11
-7.999999999999965
 21
-116.4243820862713
 31
0.0
  0
SOLID
  5
CC
330
C7
100
AcDbEntity
  8
0
  6
ByBlock
 62
     0
440
 16777216
100
AcDbTrace
 10
8.0
 20
-115.7577154196046
 30
0.0
 11
8.0
 21
-117.0910487529379
 31
0.0
 12
4.0
 22
-116.4243820862713
 32
0.0
 13
4.0
 23
-116.4243820862713
 33
0.0
  0
SOLID
  5
CD
330
C7
100
AcDbEntity
  8
0
  6
ByBlock
 62
     0
440
 16777216
100
AcDbTrace
 10
-3.999999999999965
 20
-115.7577154196046
 30
0.0
 11
-3.999999999999965
 21
-117.0910487529379
 31
0.0
 12
0.0000000000000346
 22
-116.4243820862713
 32
0.0
 13
0.0000000000000346
 23
-116.4243820862713
 33
0.0
  0
TEXT
  5
CE
330
C7
100
AcDbEntity
  8
0
  6
ByBlock
 62
     0
440
 16777216
100
AcDbText
 10
-7.271971752698577
 20
-114.9243820862713
 30
0.0
 40
3.0
  1
4
  7
ROMANS
 72
     1
 11
-5.771971752698577
 21
-113.4243820862713
 31
0.0
100
AcDbText
 73
     2
  0
POINT
  5
CF
330
C7
100
AcDbEntity
  8
DEFPOINTS
  6
ByBlock
 62
     0
440
 16777216
100
AcDbPoint
 10
4.0
 20
-55.0
 30
0.0
  0
POINT
  5
D0
330
C7
100
AcDbEntity
  8
DEFPOINTS
  6
ByBlock
 62
     0
440
 16777216
100
AcDbPoint
 10
0.0000000000000346
 20
-55.0
 30
0.0
  0
POINT
  5
D1
330
C7
100
AcDbEntity
  8
DEFPOINTS
  6
ByBlock
 62
     0
440
 16777216
100
AcDbPoint
 10
0.0000000000000346
 20
-116.4243820862713
 30
0.0
  0
ENDBLK
  5
D3
330
C7
100
AcDbEntity
  8
0
100
AcDbBlockEnd
  0
BLOCK
  5
142
330
138
100
AcDbEntity
  8
0
100
AcDbBlockBegin
  2
*D9
 70
     1
 10
0.0
 20
0.0
 30
0.0
  3
*D9
  1

  0
LINE
  5
139
330
138
100
AcDbEntity
  8
0
  6
ByBlock
 62
     0
440
 16777216
100
AcDbLine
 10
0.0
 20
-59.5
 30
0.0
 11
0.0
 21
-129.9243820862713
 31
0.0
  0
LINE
  5
13A
330
138
100
AcDbEntity
  8
0
  6
ByBlock
 62
     0
440
 16777216
100
AcDbLine
 10
210.0000000000001
 20
-21.99999999999989
 30
0.0
 11
210.0000000000001
 21
-129.9243820862713
 31
0.0
  0
LINE
  5
13B
330
138
100
AcDbEntity
  8
0
  6
ByBlock
 62
     0
440
 16777216
100
AcDbLine
 10
4.0
 20
-128.4243820862713
 30
0.0
 11
206.0000000000001
 21
-128.4243820862713
 31
0.0
  0
SOLID
  5
13C
330
138
100
AcDbEntity
  8
0
  6
ByBlock
 62
     0
440
 16777216
100
AcDbTrace
 10
4.0
 20
-127.7577154196046
 30
0.0
 11
4.0
 21
-129.0910487529379
 31
0.0
 12
0.0
 22
-128.4243820862713
 32
0.0
 13
0.0
 23
-128.4243820862713
 33
0.0
  0
SOLID
  5
13D
330
138
100
AcDbEntity
  8
0
  6
ByBlock
 62
     0
440
 16777216
100
AcDbTrace
 10
206.0000000000001
 20
-127.7577154196046
 30
0.0
 11
206.0000000000001
 21
-129.0910487529379
 31
0.0
 12
210.0000000000001
 22
-128.4243820862713
 32
0.0
 13
210.0000000000001
 23
-128.4243820862713
 33
0.0
  0
TEXT
  5
13E
330
138
100
AcDbEntity
  8
0
  6
ByBlock
 62
     0
440
 16777216
100
AcDbText
 10
100.7142857142857
 20
-126.9243820862713
 30
0.0
 40
3.0
  1
210
  7
ROMANS
 72
     1
 11
105.0
 21
-125.4243820862713
 31
0.0
100
AcDbText
 73
     2
  0
POINT
  5
13F
330
138
100
AcDbEntity
  8
DEFPOINTS
  6
ByBlock
 62
     0
440
 16777216
100
AcDbPoint
 10
0.0
 20
-55.0
 30
0.0
  0
POINT
  5
140
330
138
100
AcDbEntity
  8
DEFPOINTS
  6
ByBlock
 62
     0
440
 16777216
100
AcDbPoint
 10
210.0000000000001
 20
-17.49999999999988
 30
0.0
  0
POINT
  5
141
330
138
100
AcDbEntity
  8
DEFPOINTS
  6
ByBlock
 62
     0
440
 16777216
100
AcDbPoint
 10
210.0000000000001
 20
-128.4243820862713
 30
0.0
  0
ENDBLK
  5
143
330
138
100
AcDbEntity
  8
0
100
AcDbBlockEnd
  0
BLOCK
  5
14F
330
145
100
AcDbEntity
  8
0
100
AcDbBlockBegin
  2
*D10
 70
     1
 10
0.0
 20
0.0
 30
0.0
  3
*D10
  1

  0
LINE
  5
146
330
145
100
AcDbEntity
  8
0
  6
ByBlock
 62
     0
440
 16777216
100
AcDbLine
 10
0.0
 20
-59.5
 30
0.0
 11
0.0
 21
-141.9243820862713
 31
0.0
  0
LINE
  5
147
330
145
100
AcDbEntity
  8
0
  6
ByBlock
 62
     0
440
 16777216
100
AcDbLine
 10
240.0
 20
-44.5
 30
0.0
 11
240.0
 21
-141.9243820862713
 31
0.0
  0
LINE
  5
148
330
145
100
AcDbEntity
  8
0
  6
ByBlock
 62
     0
440
 16777216
100
AcDbLine
 10
4.0
 20
-140.4243820862713
 30
0.0
 11
236.0
 21
-140.4243820862713
 31
0.0
  0
SOLID
  5
149
330
145
100
AcDbEntity
  8
0
  6
ByBlock
 62
     0
440
 16777216
100
AcDbTrace
 10
4.0
 20
-139.7577154196046
 30
0.0
 11
4.0
 21
-141.0910487529379
 31
0.0
 12
0.0
 22
-140.4243820862713
 32
0.0
 13
0.0
 23
-140.4243820862713
 33
0.0
  0
SOLID
  5
14A
330
145
100
AcDbEntity
  8
0
  6
ByBlock
 62
     0
440
 16777216
100
AcDbTrace
 10
236.0
 20
-139.7577154196046
 30
0.0
 11
236.0
 21
-141.0910487529379
 31
0.0
 12
240.0
 22
-140.4243820862713
 32
0.0
 13
240.0
 23
-140.4243820862713
 33
0.0
  0
TEXT
  5
14B
330
145
100
AcDbEntity
  8
0
  6
ByBlock
 62
     0
440
 16777216
100
AcDbText
 10
115.7142857142857
 20
-138.9243820862713
 30
0.0
 40
3.0
  1
240
  7
ROMANS
 72
     1
 11
120.0
 21
-137.4243820862713
 31
0.0
100
AcDbText
 73
     2
  0
POINT
  5
14C
330
145
100
AcDbEntity
  8
DEFPOINTS
  6
ByBlock
 62
     0
440
 16777216
100
AcDbPoint
 10
0.0
 20
-55.0
 30
0.0
  0
POINT
  5
14D
330
145
100
AcDbEntity
  8
DEFPOINTS
  6
ByBlock
 62
     0
440
 16777216
100
AcDbPoint
 10
240.0
 20
-40.0
 30
0.0
  0
POINT
  5
14E
330
145
100
AcDbEntity
  8
DEFPOINTS
  6
ByBlock
 62
     0
440
 16777216
100
AcDbPoint
 10
240.0
 20
-140.4243820862713
 30
0.0
  0
ENDBLK
  5
150
330
145
100
AcDbEntity
  8
0
100
AcDbBlockEnd
  0
BLOCK
  5
11D
330
113
100
AcDbEntity
  8
0
100
AcDbBlockBegin
  2
*D11
 70
     1
 10
0.0
 20
0.0
 30
0.0
  3
*D11
  1

  0
LINE
  5
114
330
113
100
AcDbEntity
  8
0
  6
ByBlock
 62
     0
440
 16777216
100
AcDbLine
 10
-210.0
 20
-17.50000000000028
 30
0.0
 11
-210.0
 21
-142.0069171404075
 31
0.0
  0
LINE
  5
115
330
113
100
AcDbEntity
  8
0
  6
ByBlock
 62
     0
440
 16777216
100
AcDbLine
 10
-19.99999999999997
 20
-39.5
 30
0.0
 11
-19.99999999999997
 21
-142.0069171404075
 31
0.0
  0
LINE
  5
116
330
113
100
AcDbEntity
  8
0
  6
ByBlock
 62
     0
440
 16777216
100
AcDbLine
 10
-206.0
 20
-140.5069171404075
 30
0.0
 11
-23.99999999999997
 21
-140.5069171404075
 31
0.0
  0
SOLID
  5
117
330
113
100
AcDbEntity
  8
0
  6
ByBlock
 62
     0
440
 16777216
100
AcDbTrace
 10
-206.0
 20
-139.8402504737408
 30
0.0
 11
-206.0
 21
-141.1735838070742
 31
0.0
 12
-210.0
 22
-140.5069171404075
 32
0.0
 13
-210.0
 23
-140.5069171404075
 33
0.0
  0
SOLID
  5
118
330
113
100
AcDbEntity
  8
0
  6
ByBlock
 62
     0
440
 16777216
100
AcDbTrace
 10
-23.99999999999997
 20
-139.8402504737408
 30
0.0
 11
-23.99999999999997
 21
-141.1735838070742
 31
0.0
 12
-19.99999999999997
 22
-140.5069171404075
 32
0.0
 13
-19.99999999999997
 23
-140.5069171404075
 33
0.0
  0
TEXT
  5
119
330
113
100
AcDbEntity
  8
0
  6
ByBlock
 62
     0
440
 16777216
100
AcDbText
 10
-119.5
 20
-139.0069171404075
 30
0.0
 40
3.0
  1
190
  7
ROMANS
 72
     1
 11
-115.0
 21
-137.5069171404075
 31
0.0
100
AcDbText
 73
     2
  0
POINT
  5
11A
330
113
100
AcDbEntity
  8
DEFPOINTS
  6
ByBlock
 62
     0
440
 16777216
100
AcDbPoint
 10
-210.0
 20
-13.00000000000028
 30
0.0
  0
POINT
  5
11B
330
113
100
AcDbEntity
  8
DEFPOINTS
  6
ByBlock
 62
     0
440
 16777216
100
AcDbPoint
 10
-19.99999999999997
 20
-35.0
 30
0.0
  0
POINT
  5
11C
330
113
100
AcDbEntity
  8
DEFPOINTS
  6
ByBlock
 62
     0
440
 16777216
100
AcDbPoint
 10
-19.99999999999997
 20
-140.5069171404075
 30
0.0
  0
ENDBLK
  5
11E
330
113
100
AcDbEntity
  8
0
100
AcDbBlockEnd
  0
BLOCK
  5
103
330
F9
100
AcDbEntity
  8
0
100
AcDbBlockBegin
  2
*D12
 70
     1
 10
0.0
 20
0.0
 30
0.0
  3
*D12
  1

  0
LINE
  5
FA
330
F9
100
AcDbEntity
  8
0
  6
ByBlock
 62
     0
440
 16777216
100
AcDbLine
 10
-210.0
 20
-17.50000000000028
 30
0.0
 11
-210.0
 21
-142.0069171404075
 31
0.0
  0
LINE
  5
FB
330
F9
100
AcDbEntity
  8
0
  6
ByBlock
 62
     0
440
 16777216
100
AcDbLine
 10
-19.99999999999997
 20
-39.5
 30
0.0
 11
-19.99999999999997
 21
-142.0069171404075
 31
0.0
  0
LINE
  5
FC
330
F9
100
AcDbEntity
  8
0
  6
ByBlock
 62
     0
440
 16777216
100
AcDbLine
 10
-206.0
 20
-140.5069171404075
 30
0.0
 11
-23.99999999999997
 21
-140.5069171404075
 31
0.0
  0
SOLID
  5
FD
330
F9
100
AcDbEntity
  8
0
  6
ByBlock
 62
     0
440
 16777216
100
AcDbTrace
 10
-206.0
 20
-139.8402504737408
 30
0.0
 11
-206.0
 21
-141.1735838070742
 31
0.0
 12
-210.0
 22
-140.5069171404075
 32
0.0
 13
-210.0
 23
-140.5069171404075
 33
0.0
  0
SOLID
  5
FE
330
F9
100
AcDbEntity
  8
0
  6
ByBlock
 62
     0
440
 16777216
100
AcDbTrace
 10
-23.99999999999997
 20
-139.8402504737408
 30
0.0
 11
-23.99999999999997
 21
-141.1735838070742
 31
0.0
 12
-19.99999999999997
 22
-140.5069171404075
 32
0.0
 13
-19.99999999999997
 23
-140.5069171404075
 33
0.0
  0
TEXT
  5
FF
330
F9
100
AcDbEntity
  8
0
  6
ByBlock
 62
     0
440
 16777216
100
AcDbText
 10
-119.5
 20
-139.0069171404075
 30
0.0
 40
3.0
  1
190
  7
ROMANS
 72
     1
 11
-115.0
 21
-137.5069171404075
 31
0.0
100
AcDbText
 73
     2
  0
POINT
  5
100
330
F9
100
AcDbEntity
  8
DEFPOINTS
  6
ByBlock
 62
     0
440
 16777216
100
AcDbPoint
 10
-210.0
 20
-13.00000000000028
 30
0.0
  0
POINT
  5
101
330
F9
100
AcDbEntity
  8
DEFPOINTS
  6
ByBlock
 62
     0
440
 16777216
100
AcDbPoint
 10
-19.99999999999997
 20
-35.0
 30
0.0
  0
POINT
  5
102
330
F9
100
AcDbEntity
  8
DEFPOINTS
  6
ByBlock
 62
     0
440
 16777216
100
AcDbPoint
 10
-19.99999999999997
 20
-140.5069171404075
 30
0.0
  0
ENDBLK
  5
104
330
F9
100
AcDbEntity
  8
0
100
AcDbBlockEnd
  0
BLOCK
  5
DF
330
D5
100
AcDbEntity
  8
0
100
AcDbBlockBegin
  2
*D13
 70
     1
 10
0.0
 20
0.0
 30
0.0
  3
*D13
  1

  0
LINE
  5
D6
330
D5
100
AcDbEntity
  8
0
  6
ByBlock
 62
     0
440
 16777216
100
AcDbLine
 10
-19.99999999999997
 20
-39.5
 30
0.0
 11
-19.99999999999997
 21
-142.0069171404075
 31
0.0
  0
LINE
  5
D7
330
D5
100
AcDbEntity
  8
0
  6
ByBlock
 62
     0
440
 16777216
100
AcDbLine
 10
0.0000000000000346
 20
-54.49999999999999
 30
0.0
 11
0.0000000000000346
 21
-142.0069171404075
 31
0.0
  0
LINE
  5
D8
330
D5
100
AcDbEntity
  8
0
  6
ByBlock
 62
     0
440
 16777216
100
AcDbLine
 10
-15.99999999999997
 20
-140.5069171404075
 30
0.0
 11
-3.999999999999965
 21
-140.5069171404075
 31
0.0
  0
SOLID
  5
D9
330
D5
100
AcDbEntity
  8
0
  6
ByBlock
 62
     0
440
 16777216
100
AcDbTrace
 10
-15.99999999999997
 20
-139.8402504737408
 30
0.0
 11
-15.99999999999997
 21
-141.1735838070742
 31
0.0
 12
-19.99999999999997
 22
-140.5069171404075
 32
0.0
 13
-19.99999999999997
 23
-140.5069171404075
 33
0.0
  0
SOLID
  5
DA
330
D5
100
AcDbEntity
  8
0
  6
ByBlock
 62
     0
440
 16777216
100
AcDbTrace
 10
-3.999999999999965
 20
-139.8402504737408
 30
0.0
 11
-3.999999999999965
 21
-141.1735838070742
 31
0.0
 12
0.0000000000000346
 22
-140.5069171404075
 32
0.0
 13
0.0000000000000346
 23
-140.5069171404075
 33
0.0
  0
TEXT
  5
DB
330
D5
100
AcDbEntity
  8
0
  6
ByBlock
 62
     0
440
 16777216
100
AcDbText
 10
-12.85714285714282
 20
-139.0069171404075
 30
0.0
 40
3.0
  1
20
  7
ROMANS
 72
     1
 11
-9.999999999999966
 21
-137.5069171404075
 31
0.0
100
AcDbText
 73
     2
  0
POINT
  5
DC
330
D5
100
AcDbEntity
  8
DEFPOINTS
  6
ByBlock
 62
     0
440
 16777216
100
AcDbPoint
 10
-19.99999999999997
 20
-35.0
 30
0.0
  0
POINT
  5
DD
330
D5
100
AcDbEntity
  8
DEFPOINTS
  6
ByBlock
 62
     0
440
 16777216
100
AcDbPoint
 10
0.0000000000000346
 20
-50.0
 30
0.0
  0
POINT
  5
DE
330
D5
100
AcDbEntity
  8
DEFPOINTS
  6
ByBlock
 62
     0
440
 16777216
100
AcDbPoint
 10
0.0000000000000346
 20
-140.5069171404075
 30
0.0
  0
ENDBLK
  5
E0
330
D5
100
AcDbEntity
  8
0
100
AcDbBlockEnd
  0
BLOCK
  5
C2
330
B8
100
AcDbEntity
  8
0
100
AcDbBlockBegin
  2
*D14
 70
     1
 10
0.0
 20
0.0
 30
0.0
  3
*D14
  1

  0
LINE
  5
B9
330
B8
100
AcDbEntity
  8
0
  6
ByBlock
 62
     0
440
 16777216
100
AcDbLine
 10
-20.0
 20
-86.90057580687776
 30
0.0
 11
-20.0
 21
-141.9243820862713
 31
0.0
  0
LINE
  5
BA
330
B8
100
AcDbEntity
  8
0
  6
ByBlock
 62
     0
440
 16777216
100
AcDbLine
 10
0.0
 20
-106.9005758068776
 30
0.0
 11
0.0
 21
-141.9243820862713
 31
0.0
  0
LINE
  5
BB
330
B8
100
AcDbEntity
  8
0
  6
ByBlock
 62
     0
440
 16777216
100
AcDbLine
 10
-16.0
 20
-140.4243820862713
 30
0.0
 11
-4.0
 21
-140.4243820862713
 31
0.0
  0
SOLID
  5
BC
330
B8
100
AcDbEntity
  8
0
  6
ByBlock
 62
     0
440
 16777216
100
AcDbTrace
 10
-16.0
 20
-139.7577154196046
 30
0.0
 11
-16.0
 21
-141.0910487529379
 31
0.0
 12
-20.0
 22
-140.4243820862713
 32
0.0
 13
-20.0
 23
-140.4243820862713
 33
0.0
  0
SOLID
  5
BD
330
B8
100
AcDbEntity
  8
0
  6
ByBlock
 62
     0
440
 16777216
100
AcDbTrace
 10
-4.0
 20
-139.7577154196046
 30
0.0
 11
-4.0
 21
-141.0910487529379
 31
0.0
 12
0.0
 22
-140.4243820862713
 32
0.0
 13
0.0
 23
-140.4243820862713
 33
0.0
  0
TEXT
  5
BE
330
B8
100
AcDbEntity
  8
0
  6
ByBlock
 62
     0
440
 16777216
100
AcDbText
 10
-12.85714285714286
 20
-138.9243820862713
 30
0.0
 40
3.0
  1
20
  7
ROMANS
 72
     1
 11
-10.0
 21
-137.4243820862713
 31
0.0
100
AcDbText
 73
     2
  0
POINT
  5
BF
330
B8
100
AcDbEntity
  8
DEFPOINTS
  6
ByBlock
 62
     0
440
 16777216
100
AcDbPoint
 10
-20.0
 20
-82.40057580687775
 30
0.0
  0
POINT
  5
C0
330
B8
100
AcDbEntity
  8
DEFPOINTS
  6
ByBlock
 62
     0
440
 16777216
100
AcDbPoint
 10
0.0
 20
-102.4005758068776
 30
0.0
  0
POINT
  5
C1
330
B8
100
AcDbEntity
  8
DEFPOINTS
  6
ByBlock
 62
     0
440
 16777216
100
AcDbPoint
 10
0.0
 20
-140.4243820862713
 30
0.0
  0
ENDBLK
  5
C3
330
B8
100
AcDbEntity
  8
0
100
AcDbBlockEnd
  0
BLOCK
  5
273
330
272
100
AcDbEntity
  8
0
100
AcDbBlockBegin
  2
*D16
 70
     1
 10
0.0
 20
0.0
 30
0.0
  3
*D16
  1

  0
LINE
  5
275
330
272
100
AcDbEntity
  8
ANCON-TEXT
 62
     0
440
 16777216
370
    -2
100
AcDbLine
 10
870.6806207633976
 20
-40.00000000000001
 30
0.0
 11
892.1874110420723
 21
-40.0
 31
0.0
  0
LINE
  5
276
330
272
100
AcDbEntity
  8
ANCON-TEXT
 62
     0
440
 16777216
370
    -2
100
AcDbLine
 10
870.6806207633976
 20
40.00000000000001
 30
0.0
 11
892.1874110420723
 21
40.00000000000002
 31
0.0
  0
LINE
  5
277
330
272
100
AcDbEntity
  8
ANCON-TEXT
 62
     0
440
 16777216
370
    -2
100
AcDbLine
 10
890.6874110420725
 20
-36.00000000000001
 30
0.0
 11
890.6874110420725
 21
36.00000000000002
 31
0.0
  0
SOLID
  5
278
330
272
100
AcDbEntity
  8
ANCON-TEXT
 62
     0
440
 16777216
100
AcDbTrace
 10
890.0207443754057
 20
-36.00000000000001
 30
0.0
 11
891.3540777087391
 21
-36.00000000000001
 31
0.0
 12
890.6874110420725
 22
-40.0
 32
0.0
 13
890.6874110420725
 23
-40.0
 33
0.0
  0
SOLID
  5
279
330
272
100
AcDbEntity
  8
ANCON-TEXT
 62
     0
440
 16777216
100
AcDbTrace
 10
890.0207443754057
 20
36.00000000000002
 30
0.0
 11
891.3540777087391
 21
36.00000000000002
 31
0.0
 12
890.6874110420725
 22
40.00000000000002
 32
0.0
 13
890.6874110420725
 23
40.00000000000002
 33
0.0
  0
POINT
  5
27A
330
272
100
AcDbEntity
  8
DEFPOINTS
 62
     0
440
 16777216
100
AcDbPoint
 10
866.1806207633976
 20
-40.00000000000001
 30
0.0
  0
POINT
  5
27B
330
272
100
AcDbEntity
  8
DEFPOINTS
 62
     0
440
 16777216
100
AcDbPoint
 10
866.1806207633976
 20
40.00000000000001
 30
0.0
  0
POINT
  5
27C
330
272
100
AcDbEntity
  8
DEFPOINTS
 62
     0
440
 16777216
100
AcDbPoint
 10
890.6874110420725
 20
40.00000000000002
 30
0.0
  0
ENDBLK
  5
274
330
272
100
AcDbEntity
  8
0
100
AcDbBlockEnd
  0
BLOCK
  5
27E
330
27D
100
AcDbEntity
  8
0
100
AcDbBlockBegin
  2
*D17
 70
     1
 10
0.0
 20
0.0
 30
0.0
  3
*D17
  1

  0
LINE
  5
280
330
27D
100
AcDbEntity
  8
DIMS
 62
     0
440
 16777216
370
    -2
100
AcDbLine
 10
625.1806207633972
 20
-59.5
 30
0.0
 11
625.1806207633972
 21
-117.9243820862713
 31
0.0
  0
LINE
  5
281
330
27D
100
AcDbEntity
  8
DIMS
 62
     0
440
 16777216
370
    -2
100
AcDbLine
 10
675.1806207633972
 20
-109.5
 30
0.0
 11
675.1806207633972
 21
-117.9243820862713
 31
0.0
  0
LINE
  5
282
330
27D
100
AcDbEntity
  8
DIMS
 62
     0
440
 16777216
370
    -2
100
AcDbLine
 10
629.1806207633972
 20
-116.4243820862713
 30
0.0
 11
671.1806207633972
 21
-116.4243820862713
 31
0.0
  0
SOLID
  5
283
330
27D
100
AcDbEntity
  8
DIMS
 62
     0
440
 16777216
100
AcDbTrace
 10
629.1806207633972
 20
-115.7577154196046
 30
0.0
 11
629.1806207633972
 21
-117.0910487529379
 31
0.0
 12
625.1806207633972
 22
-116.4243820862713
 32
0.0
 13
625.1806207633972
 23
-116.4243820862713
 33
0.0
  0
SOLID
  5
284
330
27D
100
AcDbEntity
  8
DIMS
 62
     0
440
 16777216
100
AcDbTrace
 10
671.1806207633972
 20
-115.7577154196046
 30
0.0
 11
671.1806207633972
 21
-117.0910487529379
 31
0.0
 12
675.1806207633972
 22
-116.4243820862713
 32
0.0
 13
675.1806207633972
 23
-116.4243820862713
 33
0.0
  0
MTEXT
  5
285
330
27D
100
AcDbEntity
  8
DIMS
 62
     0
440
 16777216
100
AcDbMText
 10
650.1806207633972
 20
-113.4243820862713
 30
0.0
 40
3.0
 41
0.0
 46
0.0
 71
     5
 72
     1
  1
\A1;50
 73
     1
 44
1.0
  0
POINT
  5
286
330
27D
100
AcDbEntity
  8
DEFPOINTS
 62
     0
440
 16777216
100
AcDbPoint
 10
625.1806207633972
 20
-55.0
 30
0.0
  0
POINT
  5
287
330
27D
100
AcDbEntity
  8
DEFPOINTS
 62
     0
440
 16777216
100
AcDbPoint
 10
675.1806207633972
 20
-105.0
 30
0.0
  0
POINT
  5
288
330
27D
100
AcDbEntity
  8
DEFPOINTS
 62
     0
440
 16777216
100
AcDbPoint
 10
675.1806207633972
 20
-116.4243820862713
 30
0.0
  0
ENDBLK
  5
27F
330
27D
100
AcDbEntity
  8
0
100
AcDbBlockEnd
  0
BLOCK
  5
28A
330
289
100
AcDbEntity
  8
0
100
AcDbBlockBegin
  2
*D18
 70
     1
 10
0.0
 20
0.0
 30
0.0
  3
*D18
  1

  0
LINE
  5
28C
330
289
100
AcDbEntity
  8
20MM-DIMS
 62
     0
440
 16777216
370
    -2
100
AcDbLine
 10
567.1806207633972
 20
-59.50000000000017
 30
0.0
 11
567.1806207633972
 21
-130.0584405018526
 31
0.0
  0
LINE
  5
28D
330
289
100
AcDbEntity
  8
20MM-DIMS
 62
     0
440
 16777216
370
    -2
100
AcDbLine
 10
593.1806207633972
 20
-39.5
 30
0.0
 11
593.1806207633972
 21
-130.0584405018526
 31
0.0
  0
LINE
  5
28E
330
289
100
AcDbEntity
  8
20MM-DIMS
 62
     0
440
 16777216
370
    -2
100
AcDbLine
 10
571.1806207633972
 20
-128.5584405018526
 30
0.0
 11
589.1806207633972
 21
-128.5584405018526
 31
0.0
  0
SOLID
  5
28F
330
289
100
AcDbEntity
  8
20MM-DIMS
 62
     0
440
 16777216
100
AcDbTrace
 10
571.1806207633972
 20
-127.891773835186
 30
0.0
 11
571.1806207633972
 21
-129.2251071685193
 31
0.0
 12
567.1806207633972
 22
-128.5584405018526
 32
0.0
 13
567.1806207633972
 23
-128.5584405018526
 33
0.0
  0
SOLID
  5
290
330
289
100
AcDbEntity
  8
20MM-DIMS
 62
     0
440
 16777216
100
AcDbTrace
 10
589.1806207633972
 20
-127.891773835186
 30
0.0
 11
589.1806207633972
 21
-129.2251071685193
 31
0.0
 12
593.1806207633972
 22
-128.5584405018526
 32
0.0
 13
593.1806207633972
 23
-128.5584405018526
 33
0.0
  0
MTEXT
  5
291
330
289
100
AcDbEntity
  8
20MM-DIMS
 62
     0
440
 16777216
100
AcDbMText
 10
580.1806207633972
 20
-125.5584405018526
 30
0.0
 40
3.0
 41
0.0
 46
0.0
 71
     5
 72
     1
  1
\A1;26
 73
     1
 44
1.0
  0
POINT
  5
292
330
289
100
AcDbEntity
  8
DEFPOINTS
 62
     0
440
 16777216
100
AcDbPoint
 10
567.1806207633972
 20
-55.00000000000017
 30
0.0
  0
POINT
  5
293
330
289
100
AcDbEntity
  8
DEFPOINTS
 62
     0
440
 16777216
100
AcDbPoint
 10
593.1806207633972
 20
-35.0
 30
0.0
  0
POINT
  5
294
330
289
100
AcDbEntity
  8
DEFPOINTS
 62
     0
440
 16777216
100
AcDbPoint
 10
593.1806207633972
 20
-128.5584405018526
 30
0.0
  0
ENDBLK
  5
28B
330
289
100
AcDbEntity
  8
0
100
AcDbBlockEnd
  0
BLOCK
  5
296
330
295
100
AcDbEntity
  8
0
100
AcDbBlockBegin
  2
*D19
 70
     1
 10
0.0
 20
0.0
 30
0.0
  3
*D19
  1

  0
LINE
  5
298
330
295
100
AcDbEntity
  8
20MM-DIMS
 62
     0
440
 16777216
370
    -2
100
AcDbLine
 10
593.1806207633972
 20
-39.5
 30
0.0
 11
593.1806207633972
 21
-130.0584405018526
 31
0.0
  0
LINE
  5
299
330
295
100
AcDbEntity
  8
20MM-DIMS
 62
     0
440
 16777216
370
    -2
100
AcDbLine
 10
601.1806207633972
 20
-39.5
 30
0.0
 11
601.1806207633972
 21
-130.0584405018526
 31
0.0
  0
LINE
  5
29A
330
295
100
AcDbEntity
  8
20MM-DIMS
 62
     0
440
 16777216
370
    -2
100
AcDbLine
 10
589.1806207633972
 20
-128.5584405018526
 30
0.0
 11
585.1806207633972
 21
-128.5584405018526
 31
0.0
  0
LINE
  5
29B
330
295
100
AcDbEntity
  8
20MM-DIMS
 62
     0
440
 16777216
370
    -2
100
AcDbLine
 10
605.1806207633972
 20
-128.5584405018526
 30
0.0
 11
609.1806207633972
 21
-128.5584405018526
 31
0.0
  0
SOLID
  5
29C
330
295
100
AcDbEntity
  8
20MM-DIMS
 62
     0
440
 16777216
100
AcDbTrace
 10
589.1806207633972
 20
-127.891773835186
 30
0.0
 11
589.1806207633972
 21
-129.2251071685193
 31
0.0
 12
593.1806207633972
 22
-128.5584405018526
 32
0.0
 13
593.1806207633972
 23
-128.5584405018526
 33
0.0
  0
SOLID
  5
29D
330
295
100
AcDbEntity
  8
20MM-DIMS
 62
     0
440
 16777216
100
AcDbTrace
 10
605.1806207633972
 20
-127.891773835186
 30
0.0
 11
605.1806207633972
 21
-129.2251071685193
 31
0.0
 12
601.1806207633972
 22
-128.5584405018526
 32
0.0
 13
601.1806207633972
 23
-128.5584405018526
 33
0.0
  0
MTEXT
  5
29E
330
295
100
AcDbEntity
  8
20MM-DIMS
 62
     0
440
 16777216
100
AcDbMText
 10
597.1806207633972
 20
-125.5584405018526
 30
0.0
 40
3.0
 41
0.0
 46
0.0
 71
     5
 72
     1
  1
\A1;8
 73
     1
 44
1.0
  0
POINT
  5
29F
330
295
100
AcDbEntity
  8
DEFPOINTS
 62
     0
440
 16777216
100
AcDbPoint
 10
593.1806207633972
 20
-35.0
 30
0.0
  0
POINT
  5
2A0
330
295
100
AcDbEntity
  8
DEFPOINTS
 62
     0
440
 16777216
100
AcDbPoint
 10
601.1806207633972
 20
-35.0
 30
0.0
  0
POINT
  5
2A1
330
295
100
AcDbEntity
  8
DEFPOINTS
 62
     0
440
 16777216
100
AcDbPoint
 10
601.1806207633972
 20
-128.5584405018526
 30
0.0
  0
ENDBLK
  5
297
330
295
100
AcDbEntity
  8
0
100
AcDbBlockEnd
  0
BLOCK
  5
2A3
330
2A2
100
AcDbEntity
  8
0
100
AcDbBlockBegin
  2
*D20
 70
     1
 10
0.0
 20
0.0
 30
0.0
  3
*D20
  1

  0
LINE
  5
2A5
330
2A2
100
AcDbEntity
  8
20MM-JOINT
 62
     0
440
 16777216
370
    -2
100
AcDbLine
 10
567.1806207633972
 20
-59.50000000000017
 30
0.0
 11
567.1806207633972
 21
-130.0584405018526
 31
0.0
  0
LINE
  5
2A6
330
2A2
100
AcDbEntity
  8
20MM-JOINT
 62
     0
440
 16777216
370
    -2
100
AcDbLine
 10
593.1806207633972
 20
-39.5
 30
0.0
 11
593.1806207633972
 21
-130.0584405018526
 31
0.0
  0
LINE
  5
2A7
330
2A2
100
AcDbEntity
  8
20MM-JOINT
 62
     0
440
 16777216
370
    -2
100
AcDbLine
 10
571.1806207633972
 20
-128.5584405018526
 30
0.0
 11
589.1806207633972
 21
-128.5584405018526
 31
0.0
  0
SOLID
  5
2A8
330
2A2
100
AcDbEntity
  8
20MM-JOINT
 62
     0
440
 16777216
100
AcDbTrace
 10
571.1806207633972
 20
-127.891773835186
 30
0.0
 11
571.1806207633972
 21
-129.2251071685193
 31
0.0
 12
567.1806207633972
 22
-128.5584405018526
 32
0.0
 13
567.1806207633972
 23
-128.5584405018526
 33
0.0
  0
SOLID
  5
2A9
330
2A2
100
AcDbEntity
  8
20MM-JOINT
 62
     0
440
 16777216
100
AcDbTrace
 10
589.1806207633972
 20
-127.891773835186
 30
0.0
 11
589.1806207633972
 21
-129.2251071685193
 31
0.0
 12
593.1806207633972
 22
-128.5584405018526
 32
0.0
 13
593.1806207633972
 23
-128.5584405018526
 33
0.0
  0
MTEXT
  5
2AA
330
2A2
100
AcDbEntity
  8
20MM-JOINT
 62
     0
440
 16777216
100
AcDbMText
 10
580.1806207633972
 20
-125.5584405018526
 30
0.0
 40
3.0
 41
0.0
 46
0.0
 71
     5
 72
     1
  1
\A1;26
 73
     1
 44
1.0
  0
POINT
  5
2AB
330
2A2
100
AcDbEntity
  8
DEFPOINTS
 62
     0
440
 16777216
100
AcDbPoint
 10
567.1806207633972
 20
-55.00000000000017
 30
0.0
  0
POINT
  5
2AC
330
2A2
100
AcDbEntity
  8
DEFPOINTS
 62
     0
440
 16777216
100
AcDbPoint
 10
593.1806207633972
 20
-35.0
 30
0.0
  0
POINT
  5
2AD
330
2A2
100
AcDbEntity
  8
DEFPOINTS
 62
     0
440
 16777216
100
AcDbPoint
 10
593.1806207633972
 20
-128.5584405018526
 30
0.0
  0
ENDBLK
  5
2A4
330
2A2
100
AcDbEntity
  8
0
100
AcDbBlockEnd
  0
BLOCK
  5
2AF
330
2AE
100
AcDbEntity
  8
0
100
AcDbBlockBegin
  2
*D21
 70
     1
 10
0.0
 20
0.0
 30
0.0
  3
*D21
  1

  0
LINE
  5
2B1
330
2AE
100
AcDbEntity
  8
20MM-JOINT
 62
     0
440
 16777216
370
    -2
100
AcDbLine
 10
593.1806207633972
 20
-39.5
 30
0.0
 11
593.1806207633972
 21
-130.0584405018526
 31
0.0
  0
LINE
  5
2B2
330
2AE
100
AcDbEntity
  8
20MM-JOINT
 62
     0
440
 16777216
370
    -2
100
AcDbLine
 10
601.1806207633972
 20
-39.5
 30
0.0
 11
601.1806207633972
 21
-130.0584405018526
 31
0.0
  0
LINE
  5
2B3
330
2AE
100
AcDbEntity
  8
20MM-JOINT
 62
     0
440
 16777216
370
    -2
100
AcDbLine
 10
589.1806207633972
 20
-128.5584405018526
 30
0.0
 11
585.1806207633972
 21
-128.5584405018526
 31
0.0
  0
LINE
  5
2B4
330
2AE
100
AcDbEntity
  8
20MM-JOINT
 62
     0
440
 16777216
370
    -2
100
AcDbLine
 10
605.1806207633972
 20
-128.5584405018526
 30
0.0
 11
609.1806207633972
 21
-128.5584405018526
 31
0.0
  0
MTEXT
  5
2B5
330
2AE
100
AcDbEntity
  8
20MM-JOINT
 62
     0
440
 16777216
100
AcDbMText
 10
607.2154892915676
 20
-125.5584405018526
 30
0.0
 40
3.0
 41
0.0
 46
0.0
 71
     5
 72
     1
  1
\A1;8
 73
     1
 44
1.0
  0
SOLID
  5
2B6
330
2AE
100
AcDbEntity
  8
20MM-JOINT
 62
     0
440
 16777216
100
AcDbTrace
 10
589.1806207633972
 20
-127.891773835186
 30
0.0
 11
589.1806207633972
 21
-129.2251071685193
 31
0.0
 12
593.1806207633972
 22
-128.5584405018526
 32
0.0
 13
593.1806207633972
 23
-128.5584405018526
 33
0.0
  0
SOLID
  5
2B7
330
2AE
100
AcDbEntity
  8
20MM-JOINT
 62
     0
440
 16777216
100
AcDbTrace
 10
605.1806207633972
 20
-127.891773835186
 30
0.0
 11
605.1806207633972
 21
-129.2251071685193
 31
0.0
 12
601.1806207633972
 22
-128.5584405018526
 32
0.0
 13
601.1806207633972
 23
-128.5584405018526
 33
0.0
  0
POINT
  5
2B8
330
2AE
100
AcDbEntity
  8
DEFPOINTS
 62
     0
440
 16777216
100
AcDbPoint
 10
593.1806207633972
 20
-35.0
 30
0.0
  0
POINT
  5
2B9
330
2AE
100
AcDbEntity
  8
DEFPOINTS
 62
     0
440
 16777216
100
AcDbPoint
 10
601.1806207633972
 20
-35.0
 30
0.0
  0
POINT
  5
2BA
330
2AE
100
AcDbEntity
  8
DEFPOINTS
 62
     0
440
 16777216
100
AcDbPoint
 10
601.1806207633972
 20
-128.5584405018526
 30
0.0
  0
ENDBLK
  5
2B0
330
2AE
100
AcDbEntity
  8
0
100
AcDbBlockEnd
  0
BLOCK
  5
2BC
330
2BB
100
AcDbEntity
  8
0
100
AcDbBlockBegin
  2
*D22
 70
     1
 10
0.0
 20
0.0
 30
0.0
  3
*D22
  1

  0
LINE
  5
2BE
330
2BB
100
AcDbEntity
  8
20MM-DIMS
 62
     0
440
 16777216
370
    -2
100
AcDbLine
 10
601.1806207633972
 20
-86.90057580687776
 30
0.0
 11
601.1806207633972
 21
-141.9243820862713
 31
0.0
  0
LINE
  5
2BF
330
2BB
100
AcDbEntity
  8
20MM-DIMS
 62
     0
440
 16777216
370
    -2
100
AcDbLine
 10
621.1806207633972
 20
-106.9005758068776
 30
0.0
 11
621.1806207633972
 21
-141.9243820862713
 31
0.0
  0
LINE
  5
2C0
330
2BB
100
AcDbEntity
  8
20MM-DIMS
 62
     0
440
 16777216
370
    -2
100
AcDbLine
 10
605.1806207633972
 20
-140.4243820862713
 30
0.0
 11
617.1806207633972
 21
-140.4243820862713
 31
0.0
  0
SOLID
  5
2C1
330
2BB
100
AcDbEntity
  8
20MM-DIMS
 62
     0
440
 16777216
100
AcDbTrace
 10
605.1806207633972
 20
-139.7577154196046
 30
0.0
 11
605.1806207633972
 21
-141.0910487529379
 31
0.0
 12
601.1806207633972
 22
-140.4243820862713
 32
0.0
 13
601.1806207633972
 23
-140.4243820862713
 33
0.0
  0
SOLID
  5
2C2
330
2BB
100
AcDbEntity
  8
20MM-DIMS
 62
     0
440
 16777216
100
AcDbTrace
 10
617.1806207633972
 20
-139.7577154196046
 30
0.0
 11
617.1806207633972
 21
-141.0910487529379
 31
0.0
 12
621.1806207633972
 22
-140.4243820862713
 32
0.0
 13
621.1806207633972
 23
-140.4243820862713
 33
0.0
  0
MTEXT
  5
2C3
330
2BB
100
AcDbEntity
  8
20MM-DIMS
 62
     0
440
 16777216
100
AcDbMText
 10
611.1806207633971
 20
-137.4243820862713
 30
0.0
 40
3.0
 41
0.0
 46
0.0
 71
     5
 72
     1
  1
\A1;20
 73
     1
 44
1.0
  0
POINT
  5
2C4
330
2BB
100
AcDbEntity
  8
DEFPOINTS
 62
     0
440
 16777216
100
AcDbPoint
 10
601.1806207633972
 20
-82.40057580687775
 30
0.0
  0
POINT
  5
2C5
330
2BB
100
AcDbEntity
  8
DEFPOINTS
 62
     0
440
 16777216
100
AcDbPoint
 10
621.1806207633972
 20
-102.4005758068776
 30
0.0
  0
POINT
  5
2C6
330
2BB
100
AcDbEntity
  8
DEFPOINTS
 62
     0
440
 16777216
100
AcDbPoint
 10
621.1806207633972
 20
-140.4243820862713
 30
0.0
  0
ENDBLK
  5
2BD
330
2BB
100
AcDbEntity
  8
0
100
AcDbBlockEnd
  0
BLOCK
  5
2C8
330
2C7
100
AcDbEntity
  8
0
100
AcDbBlockBegin
  2
*D23
 70
     1
 10
0.0
 20
0.0
 30
0.0
  3
*D23
  1

  0
LINE
  5
2CA
330
2C7
100
AcDbEntity
  8
DIMS
 62
     0
440
 16777216
370
    -2
100
AcDbLine
 10
625.1806207633972
 20
-59.5
 30
0.0
 11
625.1806207633972
 21
-117.9243820862713
 31
0.0
  0
LINE
  5
2CB
330
2C7
100
AcDbEntity
  8
DIMS
 62
     0
440
 16777216
370
    -2
100
AcDbLine
 10
621.1806207633972
 20
-59.5
 30
0.0
 11
621.1806207633972
 21
-117.9243820862713
 31
0.0
  0
LINE
  5
2CC
330
2C7
100
AcDbEntity
  8
DIMS
 62
     0
440
 16777216
370
    -2
100
AcDbLine
 10
629.1806207633972
 20
-116.4243820862713
 30
0.0
 11
633.1806207633972
 21
-116.4243820862713
 31
0.0
  0
LINE
  5
2CD
330
2C7
100
AcDbEntity
  8
DIMS
 62
     0
440
 16777216
370
    -2
100
AcDbLine
 10
617.1806207633972
 20
-116.4243820862713
 30
0.0
 11
613.1806207633972
 21
-116.4243820862713
 31
0.0
  0
MTEXT
  5
2CE
330
2C7
100
AcDbEntity
  8
DIMS
 62
     0
440
 16777216
100
AcDbMText
 10
615.4086490106985
 20
-113.4243820862713
 30
0.0
 40
3.0
 41
0.0
 46
0.0
 71
     5
 72
     1
  1
\A1;4
 73
     1
 44
1.0
  0
SOLID
  5
2CF
330
2C7
100
AcDbEntity
  8
DIMS
 62
     0
440
 16777216
100
AcDbTrace
 10
629.1806207633972
 20
-115.7577154196046
 30
0.0
 11
629.1806207633972
 21
-117.0910487529379
 31
0.0
 12
625.1806207633972
 22
-116.4243820862713
 32
0.0
 13
625.1806207633972
 23
-116.4243820862713
 33
0.0
  0
SOLID
  5
2D0
330
2C7
100
AcDbEntity
  8
DIMS
 62
     0
440
 16777216
100
AcDbTrace
 10
617.1806207633972
 20
-115.7577154196046
 30
0.0
 11
617.1806207633972
 21
-117.0910487529379
 31
0.0
 12
621.1806207633972
 22
-116.4243820862713
 32
0.0
 13
621.1806207633972
 23
-116.4243820862713
 33
0.0
  0
POINT
  5
2D1
330
2C7
100
AcDbEntity
  8
DEFPOINTS
 62
     0
440
 16777216
100
AcDbPoint
 10
625.1806207633972
 20
-55.0
 30
0.0
  0
POINT
  5
2D2
330
2C7
100
AcDbEntity
  8
DEFPOINTS
 62
     0
440
 16777216
100
AcDbPoint
 10
621.1806207633972
 20
-55.0
 30
0.0
  0
POINT
  5
2D3
330
2C7
100
AcDbEntity
  8
DEFPOINTS
 62
     0
440
 16777216
100
AcDbPoint
 10
621.1806207633972
 20
-116.4243820862713
 30
0.0
  0
ENDBLK
  5
2C9
330
2C7
100
AcDbEntity
  8
0
100
AcDbBlockEnd
  0
BLOCK
  5
2D5
330
2D4
100
AcDbEntity
  8
0
100
AcDbBlockBegin
  2
*D24
 70
     1
 10
0.0
 20
0.0
 30
0.0
  3
*D24
  1

  0
LINE
  5
2D7
330
2D4
100
AcDbEntity
  8
20MM-JOINT
 62
     0
440
 16777216
370
    -2
100
AcDbLine
 10
601.1806207633972
 20
-39.5
 30
0.0
 11
601.1806207633972
 21
-142.0069171404075
 31
0.0
  0
LINE
  5
2D8
330
2D4
100
AcDbEntity
  8
20MM-JOINT
 62
     0
440
 16777216
370
    -2
100
AcDbLine
 10
621.1806207633972
 20
-54.49999999999999
 30
0.0
 11
621.1806207633972
 21
-142.0069171404075
 31
0.0
  0
LINE
  5
2D9
330
2D4
100
AcDbEntity
  8
20MM-JOINT
 62
     0
440
 16777216
370
    -2
100
AcDbLine
 10
605.1806207633972
 20
-140.5069171404075
 30
0.0
 11
617.1806207633972
 21
-140.5069171404075
 31
0.0
  0
SOLID
  5
2DA
330
2D4
100
AcDbEntity
  8
20MM-JOINT
 62
     0
440
 16777216
100
AcDbTrace
 10
605.1806207633972
 20
-139.8402504737408
 30
0.0
 11
605.1806207633972
 21
-141.1735838070742
 31
0.0
 12
601.1806207633972
 22
-140.5069171404075
 32
0.0
 13
601.1806207633972
 23
-140.5069171404075
 33
0.0
  0
SOLID
  5
2DB
330
2D4
100
AcDbEntity
  8
20MM-JOINT
 62
     0
440
 16777216
100
AcDbTrace
 10
617.1806207633972
 20
-139.8402504737408
 30
0.0
 11
617.1806207633972
 21
-141.1735838070742
 31
0.0
 12
621.1806207633972
 22
-140.5069171404075
 32
0.0
 13
621.1806207633972
 23
-140.5069171404075
 33
0.0
  0
MTEXT
  5
2DC
330
2D4
100
AcDbEntity
  8
20MM-JOINT
 62
     0
440
 16777216
100
AcDbMText
 10
611.1806207633971
 20
-137.5069171404075
 30
0.0
 40
3.0
 41
0.0
 46
0.0
 71
     5
 72
     1
  1
\A1;20
 73
     1
 44
1.0
  0
POINT
  5
2DD
330
2D4
100
AcDbEntity
  8
DEFPOINTS
 62
     0
440
 16777216
100
AcDbPoint
 10
601.1806207633972
 20
-35.0
 30
0.0
  0
POINT
  5
2DE
330
2D4
100
AcDbEntity
  8
DEFPOINTS
 62
     0
440
 16777216
100
AcDbPoint
 10
621.1806207633972
 20
-50.0
 30
0.0
  0
POINT
  5
2DF
330
2D4
100
AcDbEntity
  8
DEFPOINTS
 62
     0
440
 16777216
100
AcDbPoint
 10
621.1806207633972
 20
-140.5069171404075
 30
0.0
  0
ENDBLK
  5
2D6
330
2D4
100
AcDbEntity
  8
0
100
AcDbBlockEnd
  0
BLOCK
  5
2E1
330
2E0
100
AcDbEntity
  8
0
100
AcDbBlockBegin
  2
*D25
 70
     1
 10
0.0
 20
0.0
 30
0.0
  3
*D25
  1

  0
LINE
  5
2E3
330
2E0
100
AcDbEntity
  8
20MM-DIMS
 62
     0
440
 16777216
370
    -2
100
AcDbLine
 10
512.1806207633972
 20
-109.5
 30
0.0
 11
512.1806207633972
 21
-130.0584405018526
 31
0.0
  0
LINE
  5
2E4
330
2E0
100
AcDbEntity
  8
20MM-DIMS
 62
     0
440
 16777216
370
    -2
100
AcDbLine
 10
567.1806207633972
 20
-59.50000000000017
 30
0.0
 11
567.1806207633972
 21
-130.0584405018526
 31
0.0
  0
LINE
  5
2E5
330
2E0
100
AcDbEntity
  8
20MM-DIMS
 62
     0
440
 16777216
370
    -2
100
AcDbLine
 10
516.1806207633971
 20
-128.5584405018526
 30
0.0
 11
563.1806207633972
 21
-128.5584405018526
 31
0.0
  0
SOLID
  5
2E6
330
2E0
100
AcDbEntity
  8
20MM-DIMS
 62
     0
440
 16777216
100
AcDbTrace
 10
516.1806207633971
 20
-127.891773835186
 30
0.0
 11
516.1806207633971
 21
-129.2251071685193
 31
0.0
 12
512.1806207633972
 22
-128.5584405018526
 32
0.0
 13
512.1806207633972
 23
-128.5584405018526
 33
0.0
  0
SOLID
  5
2E7
330
2E0
100
AcDbEntity
  8
20MM-DIMS
 62
     0
440
 16777216
100
AcDbTrace
 10
563.1806207633972
 20
-127.891773835186
 30
0.0
 11
563.1806207633972
 21
-129.2251071685193
 31
0.0
 12
567.1806207633972
 22
-128.5584405018526
 32
0.0
 13
567.1806207633972
 23
-128.5584405018526
 33
0.0
  0
MTEXT
  5
2E8
330
2E0
100
AcDbEntity
  8
20MM-DIMS
 62
     0
440
 16777216
100
AcDbMText
 10
539.6806207633972
 20
-125.5584405018526
 30
0.0
 40
3.0
 41
0.0
 46
0.0
 71
     5
 72
     1
  1
\A1;55
 73
     1
 44
1.0
  0
POINT
  5
2E9
330
2E0
100
AcDbEntity
  8
DEFPOINTS
 62
     0
440
 16777216
100
AcDbPoint
 10
512.1806207633972
 20
-105.0
 30
0.0
  0
POINT
  5
2EA
330
2E0
100
AcDbEntity
  8
DEFPOINTS
 62
     0
440
 16777216
100
AcDbPoint
 10
567.1806207633972
 20
-55.00000000000017
 30
0.0
  0
POINT
  5
2EB
330
2E0
100
AcDbEntity
  8
DEFPOINTS
 62
     0
440
 16777216
100
AcDbPoint
 10
567.1806207633972
 20
-128.5584405018526
 30
0.0
  0
ENDBLK
  5
2E2
330
2E0
100
AcDbEntity
  8
0
100
AcDbBlockEnd
  0
BLOCK
  5
2ED
330
2EC
100
AcDbEntity
  8
0
100
AcDbBlockBegin
  2
*D26
 70
     1
 10
0.0
 20
0.0
 30
0.0
  3
*D26
  1

  0
LINE
  5
2EF
330
2EC
100
AcDbEntity
  8
20MM-DIMS
 62
     0
440
 16777216
370
    -2
100
AcDbLine
 10
411.1806207633971
 20
-17.50000000000028
 30
0.0
 11
411.1806207633971
 21
-142.0069171404075
 31
0.0
  0
LINE
  5
2F0
330
2EC
100
AcDbEntity
  8
20MM-DIMS
 62
     0
440
 16777216
370
    -2
100
AcDbLine
 10
601.1806207633972
 20
-39.5
 30
0.0
 11
601.1806207633972
 21
-142.0069171404075
 31
0.0
  0
LINE
  5
2F1
330
2EC
100
AcDbEntity
  8
20MM-DIMS
 62
     0
440
 16777216
370
    -2
100
AcDbLine
 10
415.1806207633971
 20
-140.5069171404075
 30
0.0
 11
597.1806207633972
 21
-140.5069171404075
 31
0.0
  0
SOLID
  5
2F2
330
2EC
100
AcDbEntity
  8
20MM-DIMS
 62
     0
440
 16777216
100
AcDbTrace
 10
415.1806207633971
 20
-139.8402504737408
 30
0.0
 11
415.1806207633971
 21
-141.1735838070742
 31
0.0
 12
411.1806207633971
 22
-140.5069171404075
 32
0.0
 13
411.1806207633971
 23
-140.5069171404075
 33
0.0
  0
SOLID
  5
2F3
330
2EC
100
AcDbEntity
  8
20MM-DIMS
 62
     0
440
 16777216
100
AcDbTrace
 10
597.1806207633972
 20
-139.8402504737408
 30
0.0
 11
597.1806207633972
 21
-141.1735838070742
 31
0.0
 12
601.1806207633972
 22
-140.5069171404075
 32
0.0
 13
601.1806207633972
 23
-140.5069171404075
 33
0.0
  0
MTEXT
  5
2F4
330
2EC
100
AcDbEntity
  8
20MM-DIMS
 62
     0
440
 16777216
100
AcDbMText
 10
506.1806207633972
 20
-137.5069171404075
 30
0.0
 40
3.0
 41
0.0
 46
0.0
 71
     5
 72
     1
  1
\A1;190
 73
     1
 44
1.0
  0
POINT
  5
2F5
330
2EC
100
AcDbEntity
  8
DEFPOINTS
 62
     0
440
 16777216
100
AcDbPoint
 10
411.1806207633971
 20
-13.00000000000028
 30
0.0
  0
POINT
  5
2F6
330
2EC
100
AcDbEntity
  8
DEFPOINTS
 62
     0
440
 16777216
100
AcDbPoint
 10
601.1806207633972
 20
-35.0
 30
0.0
  0
POINT
  5
2F7
330
2EC
100
AcDbEntity
  8
DEFPOINTS
 62
     0
440
 16777216
100
AcDbPoint
 10
601.1806207633972
 20
-140.5069171404075
 30
0.0
  0
ENDBLK
  5
2EE
330
2EC
100
AcDbEntity
  8
0
100
AcDbBlockEnd
  0
BLOCK
  5
2F9
330
2F8
100
AcDbEntity
  8
0
100
AcDbBlockBegin
  2
*D27
 70
     1
 10
0.0
 20
0.0
 30
0.0
  3
*D27
  1

  0
LINE
  5
2FB
330
2F8
100
AcDbEntity
  8
20MM-JOINT
 62
     0
440
 16777216
370
    -2
100
AcDbLine
 10
512.1806207633972
 20
-109.5
 30
0.0
 11
512.1806207633972
 21
-130.0584405018526
 31
0.0
  0
LINE
  5
2FC
330
2F8
100
AcDbEntity
  8
20MM-JOINT
 62
     0
440
 16777216
370
    -2
100
AcDbLine
 10
567.1806207633972
 20
-59.50000000000017
 30
0.0
 11
567.1806207633972
 21
-130.0584405018526
 31
0.0
  0
LINE
  5
2FD
330
2F8
100
AcDbEntity
  8
20MM-JOINT
 62
     0
440
 16777216
370
    -2
100
AcDbLine
 10
516.1806207633971
 20
-128.5584405018526
 30
0.0
 11
563.1806207633972
 21
-128.5584405018526
 31
0.0
  0
SOLID
  5
2FE
330
2F8
100
AcDbEntity
  8
20MM-JOINT
 62
     0
440
 16777216
100
AcDbTrace
 10
516.1806207633971
 20
-127.891773835186
 30
0.0
 11
516.1806207633971
 21
-129.2251071685193
 31
0.0
 12
512.1806207633972
 22
-128.5584405018526
 32
0.0
 13
512.1806207633972
 23
-128.5584405018526
 33
0.0
  0
SOLID
  5
2FF
330
2F8
100
AcDbEntity
  8
20MM-JOINT
 62
     0
440
 16777216
100
AcDbTrace
 10
563.1806207633972
 20
-127.891773835186
 30
0.0
 11
563.1806207633972
 21
-129.2251071685193
 31
0.0
 12
567.1806207633972
 22
-128.5584405018526
 32
0.0
 13
567.1806207633972
 23
-128.5584405018526
 33
0.0
  0
MTEXT
  5
300
330
2F8
100
AcDbEntity
  8
20MM-JOINT
 62
     0
440
 16777216
100
AcDbMText
 10
539.6806207633972
 20
-125.5584405018526
 30
0.0
 40
3.0
 41
0.0
 46
0.0
 71
     5
 72
     1
  1
\A1;55
 73
     1
 44
1.0
  0
POINT
  5
301
330
2F8
100
AcDbEntity
  8
DEFPOINTS
 62
     0
440
 16777216
100
AcDbPoint
 10
512.1806207633972
 20
-105.0
 30
0.0
  0
POINT
  5
302
330
2F8
100
AcDbEntity
  8
DEFPOINTS
 62
     0
440
 16777216
100
AcDbPoint
 10
567.1806207633972
 20
-55.00000000000017
 30
0.0
  0
POINT
  5
303
330
2F8
100
AcDbEntity
  8
DEFPOINTS
 62
     0
440
 16777216
100
AcDbPoint
 10
567.1806207633972
 20
-128.5584405018526
 30
0.0
  0
ENDBLK
  5
2FA
330
2F8
100
AcDbEntity
  8
0
100
AcDbBlockEnd
  0
BLOCK
  5
305
330
304
100
AcDbEntity
  8
0
100
AcDbBlockBegin
  2
*D28
 70
     1
 10
0.0
 20
0.0
 30
0.0
  3
*D28
  1

  0
LINE
  5
307
330
304
100
AcDbEntity
  8
20MM-JOINT
 62
     0
440
 16777216
370
    -2
100
AcDbLine
 10
411.1806207633971
 20
-17.50000000000028
 30
0.0
 11
411.1806207633971
 21
-142.0069171404075
 31
0.0
  0
LINE
  5
308
330
304
100
AcDbEntity
  8
20MM-JOINT
 62
     0
440
 16777216
370
    -2
100
AcDbLine
 10
601.1806207633972
 20
-39.5
 30
0.0
 11
601.1806207633972
 21
-142.0069171404075
 31
0.0
  0
LINE
  5
309
330
304
100
AcDbEntity
  8
20MM-JOINT
 62
     0
440
 16777216
370
    -2
100
AcDbLine
 10
415.1806207633971
 20
-140.5069171404075
 30
0.0
 11
597.1806207633972
 21
-140.5069171404075
 31
0.0
  0
SOLID
  5
30A
330
304
100
AcDbEntity
  8
20MM-JOINT
 62
     0
440
 16777216
100
AcDbTrace
 10
415.1806207633971
 20
-139.8402504737408
 30
0.0
 11
415.1806207633971
 21
-141.1735838070742
 31
0.0
 12
411.1806207633971
 22
-140.5069171404075
 32
0.0
 13
411.1806207633971
 23
-140.5069171404075
 33
0.0
  0
SOLID
  5
30B
330
304
100
AcDbEntity
  8
20MM-JOINT
 62
     0
440
 16777216
100
AcDbTrace
 10
597.1806207633972
 20
-139.8402504737408
 30
0.0
 11
597.1806207633972
 21
-141.1735838070742
 31
0.0
 12
601.1806207633972
 22
-140.5069171404075
 32
0.0
 13
601.1806207633972
 23
-140.5069171404075
 33
0.0
  0
MTEXT
  5
30C
330
304
100
AcDbEntity
  8
20MM-JOINT
 62
     0
440
 16777216
100
AcDbMText
 10
506.1806207633972
 20
-137.5069171404075
 30
0.0
 40
3.0
 41
0.0
 46
0.0
 71
     5
 72
     1
  1
\A1;190
 73
     1
 44
1.0
  0
POINT
  5
30D
330
304
100
AcDbEntity
  8
DEFPOINTS
 62
     0
440
 16777216
100
AcDbPoint
 10
411.1806207633971
 20
-13.00000000000028
 30
0.0
  0
POINT
  5
30E
330
304
100
AcDbEntity
  8
DEFPOINTS
 62
     0
440
 16777216
100
AcDbPoint
 10
601.1806207633972
 20
-35.0
 30
0.0
  0
POINT
  5
30F
330
304
100
AcDbEntity
  8
DEFPOINTS
 62
     0
440
 16777216
100
AcDbPoint
 10
601.1806207633972
 20
-140.5069171404075
 30
0.0
  0
ENDBLK
  5
306
330
304
100
AcDbEntity
  8
0
100
AcDbBlockEnd
  0
BLOCK
  5
311
330
310
100
AcDbEntity
  8
0
100
AcDbBlockBegin
  2
*D29
 70
     1
 10
0.0
 20
0.0
 30
0.0
  3
*D29
  1

  0
LINE
  5
313
330
310
100
AcDbEntity
  8
DIMS
 62
     0
440
 16777216
370
    -2
100
AcDbLine
 10
621.1806207633972
 20
-59.5
 30
0.0
 11
621.1806207633972
 21
-129.9243820862713
 31
0.0
  0
LINE
  5
314
330
310
100
AcDbEntity
  8
DIMS
 62
     0
440
 16777216
370
    -2
100
AcDbLine
 10
831.1806207633972
 20
-21.99999999999989
 30
0.0
 11
831.1806207633972
 21
-129.9243820862713
 31
0.0
  0
LINE
  5
315
330
310
100
AcDbEntity
  8
DIMS
 62
     0
440
 16777216
370
    -2
100
AcDbLine
 10
625.1806207633972
 20
-128.4243820862713
 30
0.0
 11
827.1806207633973
 21
-128.4243820862713
 31
0.0
  0
SOLID
  5
316
330
310
100
AcDbEntity
  8
DIMS
 62
     0
440
 16777216
100
AcDbTrace
 10
625.1806207633972
 20
-127.7577154196046
 30
0.0
 11
625.1806207633972
 21
-129.0910487529379
 31
0.0
 12
621.1806207633972
 22
-128.4243820862713
 32
0.0
 13
621.1806207633972
 23
-128.4243820862713
 33
0.0
  0
SOLID
  5
317
330
310
100
AcDbEntity
  8
DIMS
 62
     0
440
 16777216
100
AcDbTrace
 10
827.1806207633973
 20
-127.7577154196046
 30
0.0
 11
827.1806207633973
 21
-129.0910487529379
 31
0.0
 12
831.1806207633972
 22
-128.4243820862713
 32
0.0
 13
831.1806207633972
 23
-128.4243820862713
 33
0.0
  0
MTEXT
  5
318
330
310
100
AcDbEntity
  8
DIMS
 62
     0
440
 16777216
100
AcDbMText
 10
726.1806207633972
 20
-125.4243820862713
 30
0.0
 40
3.0
 41
0.0
 46
0.0
 71
     5
 72
     1
  1
\A1;210
 73
     1
 44
1.0
  0
POINT
  5
319
330
310
100
AcDbEntity
  8
DEFPOINTS
 62
     0
440
 16777216
100
AcDbPoint
 10
621.1806207633972
 20
-55.0
 30
0.0
  0
POINT
  5
31A
330
310
100
AcDbEntity
  8
DEFPOINTS
 62
     0
440
 16777216
100
AcDbPoint
 10
831.1806207633972
 20
-17.49999999999988
 30
0.0
  0
POINT
  5
31B
330
310
100
AcDbEntity
  8
DEFPOINTS
 62
     0
440
 16777216
100
AcDbPoint
 10
831.1806207633972
 20
-128.4243820862713
 30
0.0
  0
ENDBLK
  5
312
330
310
100
AcDbEntity
  8
0
100
AcDbBlockEnd
  0
BLOCK
  5
31D
330
31C
100
AcDbEntity
  8
0
100
AcDbBlockBegin
  2
*D30
 70
     1
 10
0.0
 20
0.0
 30
0.0
  3
*D30
  1

  0
LINE
  5
31F
330
31C
100
AcDbEntity
  8
DIMS
 62
     0
440
 16777216
370
    -2
100
AcDbLine
 10
621.1806207633972
 20
-59.5
 30
0.0
 11
621.1806207633972
 21
-141.9243820862713
 31
0.0
  0
LINE
  5
320
330
31C
100
AcDbEntity
  8
DIMS
 62
     0
440
 16777216
370
    -2
100
AcDbLine
 10
861.1806207633971
 20
-44.5
 30
0.0
 11
861.1806207633971
 21
-141.9243820862713
 31
0.0
  0
LINE
  5
321
330
31C
100
AcDbEntity
  8
DIMS
 62
     0
440
 16777216
370
    -2
100
AcDbLine
 10
625.1806207633972
 20
-140.4243820862713
 30
0.0
 11
857.1806207633972
 21
-140.4243820862713
 31
0.0
  0
SOLID
  5
322
330
31C
100
AcDbEntity
  8
DIMS
 62
     0
440
 16777216
100
AcDbTrace
 10
625.1806207633972
 20
-139.7577154196046
 30
0.0
 11
625.1806207633972
 21
-141.0910487529379
 31
0.0
 12
621.1806207633972
 22
-140.4243820862713
 32
0.0
 13
621.1806207633972
 23
-140.4243820862713
 33
0.0
  0
SOLID
  5
323
330
31C
100
AcDbEntity
  8
DIMS
 62
     0
440
 16777216
100
AcDbTrace
 10
857.1806207633972
 20
-139.7577154196046
 30
0.0
 11
857.1806207633972
 21
-141.0910487529379
 31
0.0
 12
861.1806207633971
 22
-140.4243820862713
 32
0.0
 13
861.1806207633971
 23
-140.4243820862713
 33
0.0
  0
MTEXT
  5
324
330
31C
100
AcDbEntity
  8
DIMS
 62
     0
440
 16777216
100
AcDbMText
 10
741.1806207633972
 20
-137.4243820862713
 30
0.0
 40
3.0
 41
0.0
 46
0.0
 71
     5
 72
     1
  1
\A1;240
 73
     1
 44
1.0
  0
POINT
  5
325
330
31C
100
AcDbEntity
  8
DEFPOINTS
 62
     0
440
 16777216
100
AcDbPoint
 10
621.1806207633972
 20
-55.0
 30
0.0
  0
POINT
  5
326
330
31C
100
AcDbEntity
  8
DEFPOINTS
 62
     0
440
 16777216
100
AcDbPoint
 10
861.1806207633971
 20
-40.0
 30
0.0
  0
POINT
  5
327
330
31C
100
AcDbEntity
  8
DEFPOINTS
 62
     0
440
 16777216
100
AcDbPoint
 10
861.1806207633971
 20
-140.4243820862713
 30
0.0
  0
ENDBLK
  5
31E
330
31C
100
AcDbEntity
  8
0
100
AcDbBlockEnd
  0
ENDSEC
  0
SECTION
  2
ENTITIES
  0
TEXT
  5
39
330
2
100
AcDbEntity
  8
SPECD
 62
     6
100
AcDbText
 10
926.7989161214266
 20
-3.486450435728292
 30
0.0
 40
3.0
  1
41 MM
  7
ROMANS
 72
     4
 11
934.5132018357123
 21
-1.986450435728292
 31
0.0
100
AcDbText
  0
LINE
  5
3A
330
2
100
AcDbEntity
  8
ANCON-DSD
  6
HIDDEN
100
AcDbLine
 10
831.1806207633972
 20
-17.49999999999988
 30
0.0
 11
831.1806207633972
 21
17.50000000000011
 31
0.0
  0
LINE
  5
3D
330
2
100
AcDbEntity
  8
20MM-JOINT
  6
HIDDEN
 62
     3
100
AcDbLine
 10
809.1806207633972
 20
14.99999999999971
 30
0.0
 11
811.1806207633971
 21
12.99999999999971
 31
0.0
  0
LINE
  5
3F
330
2
100
AcDbEntity
  8
20MM-JOINT
  6
HIDDEN
 62
     3
100
AcDbLine
 10
809.1806207633972
 20
-15.00000000000028
 30
0.0
 11
811.1806207633971
 21
-13.00000000000028
 31
0.0
  0
LINE
  5
40
330
2
100
AcDbEntity
  8
20MM-JOINT
  6
HIDDEN
 62
     3
100
AcDbLine
 10
809.1806207633972
 20
14.9999999999996
 30
0.0
 11
809.1806207633972
 21
-15.00000000000028
 31
0.0
  0
LINE
  5
41
330
2
100
AcDbEntity
  8
20MM-JOINT
  6
HIDDEN
 62
     3
100
AcDbLine
 10
811.1806207633971
 20
12.99999999999971
 30
0.0
 11
811.1806207633971
 21
-13.00000000000028
 31
0.0
  0
TEXT
  5
42
330
2
100
AcDbEntity
  8
SPECD
 62
     6
100
AcDbText
 10
902.4606418177397
 20
2.85042638469561
 30
0.0
 40
3.0
  1
MAX. LATERAL MOVEMENT
  7
ROMANS
 72
     4
 11
931.5320703891682
 21
4.350426384695611
 31
0.0
100
AcDbText
  0
LINE
  5
43
330
2
100
AcDbEntity
  8
ANCON-DSD
  6
Continuous
100
AcDbLine
 10
861.1806207633971
 20
-40.0
 30
0.0
 11
861.1806207633971
 21
40.0
 31
0.0
  0
LINE
  5
44
330
2
100
AcDbEntity
  8
ANCON-DSD
  6
Continuous
100
AcDbLine
 10
866.1806207633972
 20
-40.0
 30
0.0
 11
866.1806207633972
 21
40.0
 31
0.0
  0
DIMENSION
  5
45
330
2
100
AcDbEntity
  8
ANCON-TEXT
100
AcDbDimension
280
     0
  2
*D16
 10
890.6874110420725
 20
40.00000000000002
 30
0.0
 11
890.6874110420721
 21
-0.0000000000002464
 31
0.0
 70
    32
  1
 
 71
     5
 42
80.00000000000001
 73
     0
 74
     0
 75
     0
  3
1-1
100
AcDbAlignedDimension
 13
866.1806207633972
 23
-40.0
 33
0.0
 14
866.1806207633972
 24
40.0
 34
0.0
 50
90.0
100
AcDbRotatedDimension
1001
ACAD
1000
DSTYLE
1002
{
1070
    40
1040
1.0
1002
}
  0
LINE
  5
52
330
2
100
AcDbEntity
  8
ANCON-DSD
  6
Continuous
100
AcDbLine
 10
683.1806207633972
 20
100.0
 30
0.0
 11
667.1806207633972
 21
100.0
 31
0.0
  0
LINE
  5
53
330
2
100
AcDbEntity
  8
ANCON-DSD
  6
Continuous
100
AcDbLine
 10
683.1806207633972
 20
100.0
 30
0.0
 11
683.1806207633972
 21
40.0
 31
0.0
  0
LINE
  5
54
330
2
100
AcDbEntity
  8
ANCON-DSD
  6
Continuous
100
AcDbLine
 10
667.1806207633972
 20
100.0
 30
0.0
 11
667.1806207633972
 21
40.0
 31
0.0
  0
LINE
  5
55
330
2
100
AcDbEntity
  8
ANCON-DSD
100
AcDbLine
 10
625.1806207633972
 20
55.0
 30
0.0
 11
621.1806207633972
 21
55.0
 31
0.0
  0
LINE
  5
57
330
2
100
AcDbEntity
  8
20MM-JOINT
  6
Continuous
 62
     3
100
AcDbLine
 10
601.1806207633972
 20
35.0
 30
0.0
 11
593.1806207633972
 21
35.0
 31
0.0
  0
LINE
  5
58
330
2
100
AcDbEntity
  8
20MM-JOINT
  6
Continuous
 62
     3
100
AcDbLine
 10
575.1806207633972
 20
49.99999999999989
 30
0.0
 11
559.1806207633972
 21
49.99999999999983
 31
0.0
  0
LINE
  5
67
330
2
100
AcDbEntity
  8
20MM-JOINT
  6
Continuous
 62
     3
100
AcDbLine
 10
520.1806207633973
 20
100.0
 30
0.0
 11
504.1806207633972
 21
100.0
 31
0.0
  0
LINE
  5
68
330
2
100
AcDbEntity
  8
ANCON-DSD
100
AcDbLine
 10
625.1806207633972
 20
-55.0
 30
0.0
 11
621.1806207633972
 21
-55.0
 31
0.0
  0
LINE
  5
69
330
2
100
AcDbEntity
  8
ANCON-DSD
  6
Continuous
100
AcDbLine
 10
683.1806207633972
 20
-100.0
 30
0.0
 11
667.1806207633972
 21
-100.0
 31
0.0
  0
LINE
  5
6A
330
2
100
AcDbEntity
  8
ANCON-DSD
  6
Continuous
100
AcDbLine
 10
683.1806207633972
 20
-40.0
 30
0.0
 11
683.1806207633972
 21
-100.0
 31
0.0
  0
LINE
  5
6B
330
2
100
AcDbEntity
  8
ANCON-DSD
  6
Continuous
100
AcDbLine
 10
667.1806207633972
 20
-40.0
 30
0.0
 11
667.1806207633972
 21
-100.0
 31
0.0
  0
DIMENSION
  5
6C
330
2
100
AcDbEntity
  8
DIMS
100
AcDbDimension
280
     0
  2
*D17
 10
675.1806207633972
 20
-116.4243820862713
 30
0.0
 11
650.1806207633972
 21
-113.4243820862713
 31
0.0
 70
    32
 71
     5
 42
50.0
 73
     0
 74
     0
 75
     0
  3
1-1
100
AcDbAlignedDimension
 13
625.1806207633972
 23
-55.0
 33
0.0
 14
675.1806207633972
 24
-105.0
 34
0.0
100
AcDbRotatedDimension
1001
ACAD
1000
DSTYLE
1002
{
1070
    40
1040
1.0
1002
}
  0
LINE
  5
7A
330
2
100
AcDbEntity
  8
20MM-JOINT
  6
Continuous
 62
     3
100
AcDbLine
 10
601.1806207633972
 20
-35.0
 30
0.0
 11
593.1806207633972
 21
-35.0
 31
0.0
  0
LINE
  5
7B
330
2
100
AcDbEntity
  8
20MM-JOINT
  6
Continuous
 62
     3
100
AcDbLine
 10
575.1806207633972
 20
-15.00000000000028
 30
0.0
 11
575.1806207633972
 21
-50.00000000000017
 31
0.0
  0
LINE
  5
7C
330
2
100
AcDbEntity
  8
20MM-JOINT
  6
Continuous
 62
     3
100
AcDbLine
 10
559.1806207633972
 20
-15.00000000000028
 30
0.0
 11
559.1806207633972
 21
-50.00000000000017
 31
0.0
  0
LINE
  5
7D
330
2
100
AcDbEntity
  8
20MM-JOINT
  6
Continuous
 62
     3
100
AcDbLine
 10
575.1806207633972
 20
-50.00000000000017
 30
0.0
 11
559.1806207633972
 21
-50.00000000000017
 31
0.0
  0
LINE
  5
7E
330
2
100
AcDbEntity
  8
20MM-JOINT
  6
Continuous
 62
     3
100
AcDbLine
 10
520.1806207633971
 20
-15.00000000000023
 30
0.0
 11
520.1806207633971
 21
-100.0
 31
0.0
  0
DIMENSION
  5
7F
330
2
100
AcDbEntity
  8
20MM-DIMS
100
AcDbDimension
280
     0
  2
*D18
 10
593.1806207633972
 20
-128.5584405018526
 30
0.0
 11
580.1806207633972
 21
-125.5584405018526
 31
0.0
 70
    32
 71
     5
 42
26.0
 73
     0
 74
     0
 75
     0
  3
1-1
100
AcDbAlignedDimension
 13
567.1806207633972
 23
-55.00000000000017
 33
0.0
 14
593.1806207633972
 24
-35.0
 34
0.0
100
AcDbRotatedDimension
1001
ACAD
1000
DSTYLE
1002
{
1070
    40
1040
1.0
1002
}
  0
DIMENSION
  5
8D
330
2
100
AcDbEntity
  8
20MM-DIMS
100
AcDbDimension
280
     0
  2
*D19
 10
601.1806207633972
 20
-128.5584405018526
 30
0.0
 11
597.1806207633972
 21
-125.5584405018526
 31
0.0
 70
    32
 71
     5
 42
8.0
 73
     0
 74
     0
 75
     0
  3
1-1
100
AcDbAlignedDimension
 13
593.1806207633972
 23
-35.0
 33
0.0
 14
601.1806207633972
 24
-35.0
 34
0.0
100
AcDbRotatedDimension
1001
ACAD
1000
DSTYLE
1002
{
1070
    40
1040
1.0
1002
}
  0
DIMENSION
  5
9C
330
2
100
AcDbEntity
  8
20MM-JOINT
100
AcDbDimension
280
     0
  2
*D20
 10
593.1806207633972
 20
-128.5584405018526
 30
0.0
 11
580.1806207633972
 21
-125.5584405018526
 31
0.0
 70
    32
 71
     5
 42
26.0
 73
     0
 74
     0
 75
     0
  3
1-1
100
AcDbAlignedDimension
 13
567.1806207633972
 23
-55.00000000000017
 33
0.0
 14
593.1806207633972
 24
-35.0
 34
0.0
100
AcDbRotatedDimension
1001
ACAD
1000
DSTYLE
1002
{
1070
    40
1040
1.0
1002
}
  0
DIMENSION
  5
A9
330
2
100
AcDbEntity
  8
20MM-JOINT
100
AcDbDimension
280
     0
  2
*D21
 10
601.1806207633972
 20
-128.5584405018526
 30
0.0
 11
607.2154892915676
 21
-125.5584405018526
 31
0.0
 70
   160
 71
     5
 42
8.0
 73
     0
 74
     0
 75
     0
  3
1-1
100
AcDbAlignedDimension
 13
593.1806207633972
 23
-35.0
 33
0.0
 14
601.1806207633972
 24
-35.0
 34
0.0
100
AcDbRotatedDimension
1001
ACAD
1000
DSTYLE
1002
{
1070
    40
1040
1.0
1002
}
  0
DIMENSION
  5
B7
330
2
100
AcDbEntity
  8
20MM-DIMS
100
AcDbDimension
280
     0
  2
*D22
 10
621.1806207633972
 20
-140.4243820862713
 30
0.0
 11
611.1806207633971
 21
-137.4243820862713
 31
0.0
 70
    32
 71
     5
 42
20.0
 73
     0
 74
     0
 75
     0
  3
1-1
100
AcDbAlignedDimension
 13
601.1806207633972
 23
-82.40057580687775
 33
0.0
 14
621.1806207633972
 24
-102.4005758068776
 34
0.0
100
AcDbRotatedDimension
1001
ACAD
1000
DSTYLE
1002
{
1070
    40
1040
1.0
1002
}
  0
LINE
  5
C4
330
2
100
AcDbEntity
  8
20MM-JOINT
  6
Continuous
 62
     3
100
AcDbLine
 10
601.1806207633972
 20
14.99999999999971
 30
0.0
 11
621.1806207633972
 21
14.99999999999972
 31
0.0
  0
LINE
  5
C5
330
2
100
AcDbEntity
  8
20MM-JOINT
  6
Continuous
 62
     3
100
AcDbLine
 10
601.1806207633972
 20
-15.00000000000028
 30
0.0
 11
621.1806207633972
 21
-15.00000000000028
 31
0.0
  0
DIMENSION
  5
C6
330
2
100
AcDbEntity
  8
DIMS
100
AcDbDimension
280
     0
  2
*D23
 10
621.1806207633972
 20
-116.4243820862713
 30
0.0
 11
615.4086490106985
 21
-113.4243820862713
 31
0.0
 70
   160
 71
     5
 42
4.0
 73
     0
 74
     0
 75
     0
  3
1-1
100
AcDbAlignedDimension
 13
625.1806207633972
 23
-55.0
 33
0.0
 14
621.1806207633972
 24
-55.0
 34
0.0
100
AcDbRotatedDimension
1001
ACAD
1000
DSTYLE
1002
{
1070
    40
1040
1.0
1002
}
  0
DIMENSION
  5
D4
330
2
100
AcDbEntity
  8
20MM-JOINT
100
AcDbDimension
280
     0
  2
*D24
 10
621.1806207633972
 20
-140.5069171404075
 30
0.0
 11
611.1806207633971
 21
-137.5069171404075
 31
0.0
 70
    32
 71
     5
 42
20.0
 73
     0
 74
     0
 75
     0
  3
1-1
100
AcDbAlignedDimension
 13
601.1806207633972
 23
-35.0
 33
0.0
 14
621.1806207633972
 24
-50.0
 34
0.0
100
AcDbRotatedDimension
1001
ACAD
1000
DSTYLE
1002
{
1070
    40
1040
1.0
1002
}
  0
LINE
  5
E1
330
2
100
AcDbEntity
  8
20MM-JOINT
 62
     3
100
AcDbLine
 10
413.1806207633972
 20
14.99999999999971
 30
0.0
 11
413.1806207633972
 21
-15.00000000000028
 31
0.0
  0
LINE
  5
E2
330
2
100
AcDbEntity
  8
20MM-JOINT
  6
Continuous
 62
     3
100
AcDbLine
 10
504.1806207633972
 20
-15.00000000000023
 30
0.0
 11
504.1806207633971
 21
-100.0
 31
0.0
  0
LINE
  5
E3
330
2
100
AcDbEntity
  8
20MM-JOINT
 62
     3
100
AcDbLine
 10
411.1806207633971
 20
12.99999999999971
 30
0.0
 11
411.1806207633971
 21
-13.00000000000028
 31
0.0
  0
LINE
  5
E4
330
2
100
AcDbEntity
  8
20MM-JOINT
 62
     3
100
AcDbLine
 10
411.1806207633971
 20
12.99999999999971
 30
0.0
 11
413.1806207633972
 21
14.99999999999971
 31
0.0
  0
LINE
  5
E5
330
2
100
AcDbEntity
  8
20MM-JOINT
 62
     3
100
AcDbLine
 10
413.1806207633972
 20
-15.00000000000028
 30
0.0
 11
411.1806207633971
 21
-13.00000000000028
 31
0.0
  0
LINE
  5
E6
330
2
100
AcDbEntity
  8
20MM-JOINT
  6
Continuous
 62
     3
100
AcDbLine
 10
413.1806207633972
 20
14.99999999999971
 30
0.0
 11
593.1806207633972
 21
14.99999999999971
 31
0.0
  0
LINE
  5
E7
330
2
100
AcDbEntity
  8
20MM-JOINT
  6
Continuous
 62
     3
100
AcDbLine
 10
413.1806207633972
 20
-15.00000000000028
 30
0.0
 11
593.1806207633972
 21
-15.00000000000028
 31
0.0
  0
LINE
  5
E8
330
2
100
AcDbEntity
  8
20MM-JOINT
  6
CENTER2
 62
     1
100
AcDbLine
 10
621.1806207633972
 20
0.0
 30
0.0
 11
401.1806207633972
 21
0.0
 31
0.0
  0
LINE
  5
EA
330
2
100
AcDbEntity
  8
20MM-JOINT
  6
Continuous
 62
     3
100
AcDbLine
 10
520.1806207633971
 20
-100.0
 30
0.0
 11
504.180620763397
 21
-100.0
 31
0.0
  0
DIMENSION
  5
EB
330
2
100
AcDbEntity
  8
20MM-DIMS
100
AcDbDimension
280
     0
  2
*D25
 10
567.1806207633972
 20
-128.5584405018526
 30
0.0
 11
539.6806207633972
 21
-125.5584405018526
 31
0.0
 70
    32
 71
     5
 42
55.0
 73
     0
 74
     0
 75
     0
  3
1-1
100
AcDbAlignedDimension
 13
512.1806207633972
 23
-105.0
 33
0.0
 14
567.1806207633972
 24
-55.00000000000017
 34
0.0
100
AcDbRotatedDimension
1001
ACAD
1000
DSTYLE
1002
{
1070
    40
1040
1.0
1002
}
  0
DIMENSION
  5
F8
330
2
100
AcDbEntity
  8
20MM-DIMS
100
AcDbDimension
280
     0
  2
*D26
 10
601.1806207633972
 20
-140.5069171404075
 30
0.0
 11
506.1806207633972
 21
-137.5069171404075
 31
0.0
 70
    32
 71
     5
 42
190.0
 73
     0
 74
     0
 75
     0
  3
1-1
100
AcDbAlignedDimension
 13
411.1806207633971
 23
-13.00000000000028
 33
0.0
 14
601.1806207633972
 24
-35.0
 34
0.0
100
AcDbRotatedDimension
1001
ACAD
1000
DSTYLE
1002
{
1070
    40
1040
1.0
1002
}
  0
DIMENSION
  5
105
330
2
100
AcDbEntity
  8
20MM-JOINT
100
AcDbDimension
280
     0
  2
*D27
 10
567.1806207633972
 20
-128.5584405018526
 30
0.0
 11
539.6806207633972
 21
-125.5584405018526
 31
0.0
 70
    32
 71
     5
 42
55.0
 73
     0
 74
     0
 75
     0
  3
1-1
100
AcDbAlignedDimension
 13
512.1806207633972
 23
-105.0
 33
0.0
 14
567.1806207633972
 24
-55.00000000000017
 34
0.0
100
AcDbRotatedDimension
1001
ACAD
1000
DSTYLE
1002
{
1070
    40
1040
1.0
1002
}
  0
DIMENSION
  5
112
330
2
100
AcDbEntity
  8
20MM-JOINT
100
AcDbDimension
280
     0
  2
*D28
 10
601.1806207633972
 20
-140.5069171404075
 30
0.0
 11
506.1806207633972
 21
-137.5069171404075
 31
0.0
 70
    32
 71
     5
 42
190.0
 73
     0
 74
     0
 75
     0
  3
1-1
100
AcDbAlignedDimension
 13
411.1806207633971
 23
-13.00000000000028
 33
0.0
 14
601.1806207633972
 24
-35.0
 34
0.0
100
AcDbRotatedDimension
1001
ACAD
1000
DSTYLE
1002
{
1070
    40
1040
1.0
1002
}
  0
LINE
  5
11F
330
2
100
AcDbEntity
  8
CONCRETE
100
AcDbLine
 10
621.1806207633972
 20
-175.5940902136362
 30
0.0
 11
621.1806207633972
 21
144.8780445225097
 31
0.0
  0
LINE
  5
121
330
2
100
AcDbEntity
  8
20MM-JOINT
 62
     2
100
AcDbLine
 10
601.1806207633972
 20
-175.6031504942892
 30
0.0
 11
601.1806207633972
 21
144.8689842418569
 31
0.0
  0
LINE
  5
122
330
2
100
AcDbEntity
  8
ANCON-DSD
100
AcDbLine
 10
625.1806207633972
 20
55.0
 30
0.0
 11
625.1806207633972
 21
-55.0
 31
0.0
  0
LINE
  5
123
330
2
100
AcDbEntity
  8
ANCON-DSD
100
AcDbLine
 10
621.1806207633972
 20
55.0
 30
0.0
 11
621.1806207633972
 21
-55.0
 31
0.0
  0
LINE
  5
124
330
2
100
AcDbEntity
  8
20MM-JOINT
 62
     3
100
AcDbLine
 10
601.1806207633972
 20
35.0
 30
0.0
 11
601.1806207633972
 21
-35.0
 31
0.0
  0
LINE
  5
125
330
2
100
AcDbEntity
  8
20MM-JOINT
 62
     3
100
AcDbLine
 10
593.1806207633972
 20
35.0
 30
0.0
 11
593.1806207633972
 21
-35.0
 31
0.0
  0
LINE
  5
126
330
2
100
AcDbEntity
  8
20MM-JOINT
  6
CENTER2
 62
     1
100
AcDbLine
 10
567.1806207633972
 20
54.99999999999983
 30
0.0
 11
567.1806207633972
 21
-55.00000000000017
 31
0.0
  0
LINE
  5
127
330
2
100
AcDbEntity
  8
20MM-JOINT
  6
Continuous
 62
     3
100
AcDbLine
 10
559.1806207633972
 20
49.99999999999989
 30
0.0
 11
559.1806207633972
 21
14.99999999999971
 31
0.0
  0
LINE
  5
128
330
2
100
AcDbEntity
  8
20MM-JOINT
  6
Continuous
 62
     3
100
AcDbLine
 10
575.1806207633972
 20
49.99999999999989
 30
0.0
 11
575.1806207633972
 21
14.99999999999971
 31
0.0
  0
LINE
  5
129
330
2
100
AcDbEntity
  8
20MM-JOINT
  6
CENTER2
 62
     1
100
AcDbLine
 10
512.1806207633972
 20
105.0
 30
0.0
 11
512.1806207633972
 21
-105.0
 31
0.0
  0
LINE
  5
12A
330
2
100
AcDbEntity
  8
20MM-JOINT
  6
Continuous
 62
     3
100
AcDbLine
 10
504.1806207633972
 20
100.0
 30
0.0
 11
504.1806207633972
 21
14.99999999999977
 31
0.0
  0
LINE
  5
12B
330
2
100
AcDbEntity
  8
20MM-JOINT
  6
Continuous
 62
     3
100
AcDbLine
 10
520.1806207633971
 20
100.0
 30
0.0
 11
520.1806207633971
 21
14.99999999999977
 31
0.0
  0
LINE
  5
12C
330
2
100
AcDbEntity
  8
20MM-JOINT
 62
     3
100
AcDbLine
 10
621.1806207633972
 20
35.0
 30
0.0
 11
621.1806207633972
 21
-35.0
 31
0.0
  0
LINE
  5
12D
330
2
100
AcDbEntity
  8
ANCON-DSD
  6
CENTER2
 62
     1
100
AcDbLine
 10
675.1806207633972
 20
105.0
 30
0.0
 11
675.1806207633972
 21
-105.0
 31
0.0
  0
LINE
  5
12E
330
2
100
AcDbEntity
  8
ANCON-DSD
  6
HIDDEN
100
AcDbLine
 10
831.1806207633972
 20
-17.49999999999988
 30
0.0
 11
625.1806207633973
 21
-17.49999999999988
 31
0.0
  0
LINE
  5
12F
330
2
100
AcDbEntity
  8
ANCON-DSD
  6
HIDDEN
100
AcDbLine
 10
831.1806207633972
 20
17.50000000000011
 30
0.0
 11
625.1806207633973
 21
17.50000000000011
 31
0.0
  0
LINE
  5
130
330
2
100
AcDbEntity
  8
ANCON-DSD
  6
CENTER2
 62
     1
100
AcDbLine
 10
871.1806207633971
 20
0.0
 30
0.0
 11
621.1806207633972
 21
0.0
 31
0.0
  0
LINE
  5
133
330
2
100
AcDbEntity
  8
20MM-JOINT
  6
HIDDEN
 62
     3
100
AcDbLine
 10
621.1806207633972
 20
14.99999999999971
 30
0.0
 11
809.1806207633972
 21
14.99999999999971
 31
0.0
  0
LINE
  5
134
330
2
100
AcDbEntity
  8
20MM-JOINT
  6
HIDDEN
 62
     3
100
AcDbLine
 10
621.1806207633972
 20
-15.00000000000028
 30
0.0
 11
809.1806207633972
 21
-15.00000000000028
 31
0.0
  0
LINE
  5
135
330
2
100
AcDbEntity
  8
ANCON-DSD
  6
Continuous
100
AcDbLine
 10
866.1806207633972
 20
40.0
 30
0.0
 11
625.1806207633972
 21
40.0
 31
0.0
  0
LINE
  5
136
330
2
100
AcDbEntity
  8
ANCON-DSD
  6
Continuous
100
AcDbLine
 10
866.1806207633972
 20
-40.0
 30
0.0
 11
625.1806207633972
 21
-40.0
 31
0.0
  0
DIMENSION
  5
137
330
2
100
AcDbEntity
  8
DIMS
100
AcDbDimension
280
     0
  2
*D29
 10
831.1806207633972
 20
-128.4243820862713
 30
0.0
 11
726.1806207633972
 21
-125.4243820862713
 31
0.0
 70
    32
 71
     5
 42
210.0000000000001
 73
     0
 74
     0
 75
     0
  3
1-1
100
AcDbAlignedDimension
 13
621.1806207633972
 23
-55.0
 33
0.0
 14
831.1806207633972
 24
-17.49999999999988
 34
0.0
100
AcDbRotatedDimension
1001
ACAD
1000
DSTYLE
1002
{
1070
    40
1040
1.0
1002
}
  0
DIMENSION
  5
144
330
2
100
AcDbEntity
  8
DIMS
100
AcDbDimension
280
     0
  2
*D30
 10
861.1806207633971
 20
-140.4243820862713
 30
0.0
 11
741.1806207633972
 21
-137.4243820862713
 31
0.0
 70
    32
 71
     5
 42
240.0
 73
     0
 74
     0
 75
     0
  3
1-1
100
AcDbAlignedDimension
 13
621.1806207633972
 23
-55.0
 33
0.0
 14
861.1806207633971
 24
-40.0
 34
0.0
100
AcDbRotatedDimension
1001
ACAD
1000
DSTYLE
1002
{
1070
    40
1040
1.0
1002
}
  0
LINE
  5
211
330
2
100
AcDbEntity
  8
SPECD
  6
Continuous
 62
     6
100
AcDbLine
 10
966.6126417522947
 20
165.3543115927632
 30
0.0
 11
966.6126417522947
 21
112.3206190072129
 31
0.0
  0
LINE
  5
212
330
2
100
AcDbEntity
  8
SPECP
  6
Continuous
 62
     6
100
AcDbLine
 10
764.1256916456544
 20
194.7208252598571
 30
0.0
 11
831.7155425684163
 21
194.7208252598571
 31
0.0
  0
LINE
  5
213
330
2
100
AcDbEntity
  8
SPECD
  6
Continuous
 62
     6
100
AcDbLine
 10
764.1256916456544
 20
165.3543115927632
 30
0.0
 11
764.1256916456544
 21
112.3206190072129
 31
0.0
  0
TEXT
  5
214
102
{ACAD_XDICTIONARY
360
215
102
}
330
2
100
AcDbEntity
  8
SPECP
  6
Continuous
 62
     6
100
AcDbText
 10
771.7486585918329
 20
186.0837151440135
 30
0.0
 40
5.0
  1
STAIFIX DSD ??
  7
ARIAL
 72
     4
 11
798.1436108428559
 21
188.5837151440135
 31
0.0
100
AcDbText
1001
AcadAnnotative
1000
AnnotativeData
1002
{
1070
     1
1070
     1
1002
}
  0
LINE
  5
219
330
2
100
AcDbEntity
  8
SPECP
  6
Continuous
 62
     6
100
AcDbLine
 10
764.1256916456544
 20
182.8028499678557
 30
0.0
 11
831.7155425684163
 21
182.8028499678557
 31
0.0
  0
TEXT
  5
21A
102
{ACAD_XDICTIONARY
360
21B
102
}
330
2
100
AcDbEntity
  8
SPECD
  6
Continuous
 62
     6
100
AcDbText
 10
774.647215756658
 20
116.0219641180411
 30
0.0
 40
5.0
  1
LOAD OF ??? kN
  7
ARIAL
 72
     4
 11
802.0142007498366
 21
118.5236694386414
 31
0.0
100
AcDbText
1001
AcadAnnotative
1000
AnnotativeData
1002
{
1070
     1
1070
     1
1002
}
  0
LINE
  5
21F
330
2
100
AcDbEntity
  8
SPECP
  6
Continuous
 62
     6
100
AcDbLine
 10
764.1256916456544
 20
194.7208252598571
 30
0.0
 11
764.1256916456544
 21
182.8028499678557
 31
0.0
  0
LINE
  5
220
330
2
100
AcDbEntity
  8
SPECP
  6
Continuous
 62
     6
100
AcDbLine
 10
831.7155425684163
 20
194.7208252598571
 30
0.0
 11
831.7155425684163
 21
182.8028499678557
 31
0.0
  0
TEXT
  5
221
102
{ACAD_XDICTIONARY
360
222
102
}
330
2
100
AcDbEntity
  8
SPECD
  6
Continuous
 62
     6
100
AcDbText
 10
772.6676375908015
 20
136.1059466969325
 30
0.0
 40
5.0
  1
SUITABLE FOR A DESIGN JOINT WIDTH OF ?? MM
  7
ARIAL
 72
     4
 11
856.4943770178137
 21
138.6076520175328
 31
0.0
100
AcDbText
1001
AcadAnnotative
1000
AnnotativeData
1002
{
1070
     1
1070
     1
1002
}
  0
LINE
  5
226
330
2
100
AcDbEntity
  8
SPECD
  6
Continuous
 62
     6
100
AcDbLine
 10
764.1256916456544
 20
165.3543115927632
 30
0.0
 11
966.6126417522947
 21
165.3543115927632
 31
0.0
  0
LINE
  5
227
330
2
100
AcDbEntity
  8
SPECD
  6
Continuous
 62
     6
100
AcDbLine
 10
764.1256916456544
 20
112.3206190072129
 30
0.0
 11
966.6126417522947
 21
112.3206190072129
 31
0.0
  0
TEXT
  5
228
102
{ACAD_XDICTIONARY
360
229
102
}
330
2
100
AcDbEntity
  8
SPECD
  6
Continuous
 62
     6
100
AcDbText
 10
774.1885512219741
 20
126.0568892830034
 30
0.0
 40
5.0
  1
AND CAPABLE OF TRANSFERRING A SERVICEABILITY
  7
ARIAL
 72
     4
 11
865.5903247553982
 21
128.5585946036037
 31
0.0
100
AcDbText
1001
AcadAnnotative
1000
AnnotativeData
1002
{
1070
     1
1070
     1
1002
}
  0
TEXT
  5
22D
102
{ACAD_XDICTIONARY
360
22E
102
}
330
2
100
AcDbEntity
  8
SPECD
  6
Continuous
 62
     6
100
AcDbText
 10
772.8109029533709
 20
146.0070944066023
 30
0.0
 40
5.0
  1
COMPRISING SLEEVE AND DOWEL COMPONENT
  7
ARIAL
 72
     4
 11
855.6724309206288
 21
148.5087997272026
 31
0.0
100
AcDbText
1001
AcadAnnotative
1000
AnnotativeData
1002
{
1070
     1
1070
     1
1002
}
  0
TEXT
  5
232
102
{ACAD_XDICTIONARY
360
233
102
}
330
2
100
AcDbEntity
  8
SPECD
  6
Continuous
 62
     6
100
AcDbText
 10
773.9048217192007
 20
156.1118067323929
 30
0.0
 40
5.0
  1
TWO PART STAINLESS STEEL SHEAR CONNECTOR
  7
ARIAL
 72
     4
 11
861.0364724695417
 21
158.6135120529932
 31
0.0
100
AcDbText
1001
AcadAnnotative
1000
AnnotativeData
1002
{
1070
     1
1070
     1
1002
}
  0
TEXT
  5
237
102
{ACAD_XDICTIONARY
360
238
102
}
330
2
100
AcDbEntity
  8
20MM-JOINT
  6
Continuous
 62
     6
100
AcDbText
 10
537.5232539354197
 20
152.5922192969964
 30
0.0
 40
5.0
  1
115.5
  7
ARIAL
 72
     4
 11
546.263022011818
 21
155.0598182055912
 31
0.0
100
AcDbText
1001
AcadAnnotative
1000
AnnotativeData
1002
{
1070
     1
1070
     1
1002
}
  0
LINE
  5
23C
330
2
100
AcDbEntity
  8
20MM-JOINT
  6
Continuous
 62
     6
100
AcDbLine
 10
577.7562355916518
 20
194.8425072465854
 30
0.0
 11
577.7562355916518
 21
141.7442611124926
 31
0.0
  0
TEXT
  5
23D
102
{ACAD_XDICTIONARY
360
23E
102
}
330
2
100
AcDbEntity
  8
20MM-JOINT
  6
Continuous
 62
     6
100
AcDbText
 10
472.1082482876757
 20
173.6791676994248
 30
0.0
 40
5.0
  1
WIDTH
  7
ARIAL
 72
     4
 11
483.5526548361068
 21
176.1791676994248
 31
0.0
100
AcDbText
1001
AcadAnnotative
1000
AnnotativeData
1002
{
1070
     1
1070
     1
1002
}
  0
TEXT
  5
242
102
{ACAD_XDICTIONARY
360
243
102
}
330
2
100
AcDbEntity
  8
20MM-JOINT
  6
Continuous
 62
     6
100
AcDbText
 10
475.5894203747103
 20
152.5922192969964
 30
0.0
 40
5.0
  1
20 MM
  7
ARIAL
 72
     4
 11
486.263022011818
 21
155.0598182055912
 31
0.0
100
AcDbText
1001
AcadAnnotative
1000
AnnotativeData
1002
{
1070
     1
1070
     1
1002
}
  0
TEXT
  5
247
102
{ACAD_XDICTIONARY
360
248
102
}
330
2
100
AcDbEntity
  8
20MM-JOINT
  6
Continuous
 62
     6
100
AcDbText
 10
459.103473389995
 20
184.5750857664435
 30
0.0
 40
5.0
  1
DESIGN JOINT
  7
ARIAL
 72
     4
 11
483.5526548361068
 21
187.0767910870438
 31
0.0
100
AcDbText
1001
AcadAnnotative
1000
AnnotativeData
1002
{
1070
     1
1070
     1
1002
}
  0
TEXT
  5
24C
102
{ACAD_XDICTIONARY
360
24D
102
}
330
2
100
AcDbEntity
  8
20MM-JOINT
  6
Continuous
 62
     6
100
AcDbText
 10
411.2466782276433
 20
184.5767910870438
 30
0.0
 40
5.0
  1
DSD REF:
  7
ARIAL
 72
     4
 11
427.5461325250512
 21
187.0767910870438
 31
0.0
100
AcDbText
1001
AcadAnnotative
1000
AnnotativeData
1002
{
1070
     1
1070
     1
1002
}
  0
TEXT
  5
251
102
{ACAD_XDICTIONARY
360
252
102
}
330
2
100
AcDbEntity
  8
20MM-JOINT
  6
Continuous
 62
     6
100
AcDbText
 10
410.3455595288712
 20
152.7098864184152
 30
0.0
 40
5.0
  1
DSDQ100
  7
ARIAL
 72
     4
 11
426.2630220118181
 21
155.0598182055912
 31
0.0
100
AcDbText
1001
AcadAnnotative
1000
AnnotativeData
1002
{
1070
     1
1070
     1
1002
}
  0
LINE
  5
256
330
2
100
AcDbEntity
  8
20MM-JOINT
  6
Continuous
 62
     6
100
AcDbLine
 10
402.3775578997893
 20
194.8425072465854
 30
0.0
 11
402.3775578997893
 21
141.7442611124926
 31
0.0
  0
LINE
  5
257
330
2
100
AcDbEntity
  8
20MM-JOINT
  6
Continuous
 62
     6
100
AcDbLine
 10
452.3775578997893
 20
194.8425072465854
 30
0.0
 11
452.3775578997893
 21
141.7442611124926
 31
0.0
  0
LINE
  5
258
330
2
100
AcDbEntity
  8
20MM-JOINT
  6
Continuous
 62
     6
100
AcDbLine
 10
512.8856514568521
 20
194.8425072465854
 30
0.0
 11
512.8856514568521
 21
141.7442611124926
 31
0.0
  0
TEXT
  5
259
102
{ACAD_XDICTIONARY
360
25A
102
}
330
2
100
AcDbEntity
  8
20MM-JOINT
  6
Continuous
 62
     6
100
AcDbText
 10
527.2469919981755
 20
173.9718546315646
 30
0.0
 40
5.0
  1
LOAD ( kN )
  7
ARIAL
 72
     4
 11
546.263022011818
 21
175.7811997884541
 31
0.0
100
AcDbText
1001
AcadAnnotative
1000
AnnotativeData
1002
{
1070
     1
1070
     1
1002
}
  0
TEXT
  5
25E
102
{ACAD_XDICTIONARY
360
25F
102
}
330
2
100
AcDbEntity
  8
20MM-JOINT
  6
Continuous
 62
     6
100
AcDbText
 10
517.925709597084
 20
184.5816215841754
 30
0.0
 40
5.0
  1
SERVICEABILITY
  7
ARIAL
 72
     4
 11
546.263022011818
 21
187.0816215841754
 31
0.0
100
AcDbText
1001
AcadAnnotative
1000
AnnotativeData
1002
{
1070
     1
1070
     1
1002
}
  0
LINE
  5
263
330
2
100
AcDbEntity
  8
20MM-JOINT
  6
Continuous
 62
     6
100
AcDbLine
 10
402.3775578997893
 20
194.8425072465854
 30
0.0
 11
577.7562355916518
 21
194.8425072465854
 31
0.0
  0
LINE
  5
264
330
2
100
AcDbEntity
  8
20MM-JOINT
  6
Continuous
 62
     6
100
AcDbLine
 10
402.3775578997893
 20
168.7717461875397
 30
0.0
 11
577.7562355916518
 21
168.7717461875397
 31
0.0
  0
LINE
  5
265
330
2
100
AcDbEntity
  8
20MM-JOINT
  6
Continuous
 62
     6
100
AcDbLine
 10
402.3775578997893
 20
141.7442611124927
 30
0.0
 11
577.7562355916518
 21
141.7442611124926
 31
0.0
  0
TEXT
  5
266
102
{ACAD_XDICTIONARY
360
267
102
}
330
2
100
AcDbEntity
  8
SPECP
  6
Continuous
 62
     1
100
AcDbText
 10
639.359383799619
 20
186.0820098234132
 30
0.0
 40
5.0
  1
SPECIFICATION BY PRODUCT
  7
ARIAL
 72
     4
 11
690.0057003071225
 21
188.5837151440135
 31
0.0
100
AcDbText
1001
AcadAnnotative
1000
AnnotativeData
1002
{
1070
     1
1070
     1
1002
}
  0
TEXT
  5
26B
102
{ACAD_XDICTIONARY
360
26C
102
}
330
2
100
AcDbEntity
  8
SPECD
  6
Continuous
 62
     1
100
AcDbText
 10
639.0939058766655
 20
156.1475553589171
 30
0.0
 40
5.0
  1
SPECIFICATION BY DESCRIPTION
  7
ARIAL
 72
     4
 11
696.3398131072249
 21
158.6492606795174
 31
0.0
100
AcDbText
1001
AcadAnnotative
1000
AnnotativeData
1002
{
1070
     1
1070
     1
1002
}
  0
MTEXT
  5
270
330
2
100
AcDbEntity
  8
ANCON-TEXT
100
AcDbMText
 10
823.2241822184702
 20
-188.6440071307372
 30
0.0
 40
6.695252439800889
 41
160.2376420553701
 46
0.0
 71
     1
 72
     5
  1
{\fArial|b0|i0|c0|p34;Leviat \PTel:  1300 304 320\PEmail: technical.au@leviat.com\PWeb: ancon.com.au / Leviat.com}
 73
     1
 44
1.0
101
Embedded Object
 70
     1
 10
1.0
 20
0.0
 30
0.0
 11
823.2241822184702
 21
-188.6440071307372
 31
0.0
 40
160.2376420553701
 41
0.0
 42
135.4898050010729
 43
40.5505773622047
 71
     2
 72
     1
 44
160.2376420553701
 45
0.8369065549751111
 73
     0
 74
     0
 46
0.0
  0
LWPOLYLINE
  5
271
330
2
100
AcDbEntity
  8
DIMS
 62
     0
100
AcDbPolyline
 90
        4
 70
     1
 43
0.0
 10
380.5594476300748
 20
215.6037401617268
 10
976.6955925311767
 20
215.6037401617268
 10
976.6955925311767
 20
-237.9076962496072
 10
380.5594476300748
 20
-237.9076962496072
  0
ENDSEC
  0
SECTION
  2
OBJECTS
  0
DICTIONARY
  5
9
330
0
100
AcDbDictionary
281
     1
  3
ACAD_CIP_PREVIOUS_PRODUCT_INFO
350
1A3
  3
ACAD_COLOR
350
185
  3
ACAD_DETAILVIEWSTYLE
350
19E
  3
ACAD_GROUP
350
23
  3
ACAD_LAYOUT
350
D
  3
ACAD_MATERIAL
350
153
  3
ACAD_MLEADERSTYLE
350
19A
  3
ACAD_MLINESTYLE
350
24
  3
ACAD_PLOTSETTINGS
350
25
  3
ACAD_PLOTSTYLENAME
350
8
  3
ACAD_SCALELIST
350
188
  3
ACAD_SECTIONVIEWSTYLE
350
19C
  3
ACAD_TABLESTYLE
350
186
  3
ACAD_VISUALSTYLE
350
16C
  3
ACDB_RECOMPOSE_DATA
350
35A
  3
AcDbVariableDictionary
350
34E
  0
DICTIONARY
  5
1A7
330
14
100
AcDbDictionary
280
     1
281
     1
  3
ACAD_LAYERSTATES
360
1A8
  0
DICTIONARY
  5
33C
330
6
100
AcDbDictionary
280
     1
281
     1
  3
ADSK_XREC_LAYER_RECONCILED
360
33D
  0
DICTIONARY
  5
33E
330
6D
100
AcDbDictionary
280
     1
281
     1
  3
ADSK_XREC_LAYER_RECONCILED
360
33F
  0
DICTIONARY
  5
340
330
3B
100
AcDbDictionary
280
     1
281
     1
  3
ADSK_XREC_LAYER_RECONCILED
360
341
  0
DICTIONARY
  5
342
330
120
100
AcDbDictionary
280
     1
281
     1
  3
ADSK_XREC_LAYER_RECONCILED
360
343
  0
DICTIONARY
  5
344
330
3E
100
AcDbDictionary
280
     1
281
     1
  3
ADSK_XREC_LAYER_RECONCILED
360
345
  0
DICTIONARY
  5
346
330
26
100
AcDbDictionary
280
     1
281
     1
  3
ADSK_XREC_LAYER_RECONCILED
360
347
  0
DICTIONARY
  5
348
330
80
100
AcDbDictionary
280
     1
281
     1
  3
ADSK_XREC_LAYER_RECONCILED
360
349
  0
DICTIONARY
  5
34A
330
2D
100
AcDbDictionary
280
     1
281
     1
  3
ADSK_XREC_LAYER_RECONCILED
360
34B
  0
DICTIONARY
  5
34C
330
2B
100
AcDbDictionary
280
     1
281
     1
  3
ADSK_XREC_LAYER_RECONCILED
360
34D
  0
DICTIONARY
  5
3
330
2
100
AcDbDictionary
280
     1
281
     1
  3
ACAD_LAYOUTSELFREF
360
4
  0
DICTIONARY
  5
F
330
E
100
AcDbDictionary
280
     1
281
     1
  3
ACAD_LAYOUTSELFREF
360
10
  0
DICTIONARY
  5
215
330
214
100
AcDbDictionary
280
     1
281
     1
  3
AcDbContextDataManager
360
216
  0
DICTIONARY
  5
21B
330
21A
100
AcDbDictionary
280
     1
281
     1
  3
AcDbContextDataManager
360
21C
  0
DICTIONARY
  5
222
330
221
100
AcDbDictionary
280
     1
281
     1
  3
AcDbContextDataManager
360
223
  0
DICTIONARY
  5
229
330
228
100
AcDbDictionary
280
     1
281
     1
  3
AcDbContextDataManager
360
22A
  0
DICTIONARY
  5
22E
330
22D
100
AcDbDictionary
280
     1
281
     1
  3
AcDbContextDataManager
360
22F
  0
DICTIONARY
  5
233
330
232
100
AcDbDictionary
280
     1
281
     1
  3
AcDbContextDataManager
360
234
  0
DICTIONARY
  5
238
330
237
100
AcDbDictionary
280
     1
281
     1
  3
AcDbContextDataManager
360
239
  0
DICTIONARY
  5
23E
330
23D
100
AcDbDictionary
280
     1
281
     1
  3
AcDbContextDataManager
360
23F
  0
DICTIONARY
  5
243
330
242
100
AcDbDictionary
280
     1
281
     1
  3
AcDbContextDataManager
360
244
  0
DICTIONARY
  5
248
330
247
100
AcDbDictionary
280
     1
281
     1
  3
AcDbContextDataManager
360
249
  0
DICTIONARY
  5
24D
330
24C
100
AcDbDictionary
280
     1
281
     1
  3
AcDbContextDataManager
360
24E
  0
DICTIONARY
  5
252
330
251
100
AcDbDictionary
280
     1
281
     1
  3
AcDbContextDataManager
360
253
  0
DICTIONARY
  5
25A
330
259
100
AcDbDictionary
280
     1
281
     1
  3
AcDbContextDataManager
360
25B
  0
DICTIONARY
  5
25F
330
25E
100
AcDbDictionary
280
     1
281
     1
  3
AcDbContextDataManager
360
260
  0
DICTIONARY
  5
267
330
266
100
AcDbDictionary
280
     1
281
     1
  3
AcDbContextDataManager
360
268
  0
DICTIONARY
  5
26C
330
26B
100
AcDbDictionary
280
     1
281
     1
  3
AcDbContextDataManager
360
26D
  0
XRECORD
  5
1A3
102
{ACAD_REACTORS
330
9
102
}
330
9
100
AcDbXrecord
280
     1
300
ACDLT
300
2020
300

  0
DICTIONARY
  5
185
102
{ACAD_REACTORS
330
9
102
}
330
9
100
AcDbDictionary
281
     1
  0
DICTIONARY
  5
19E
102
{ACAD_REACTORS
330
9
102
}
330
9
100
AcDbDictionary
281
     1
  3
Imperial24
350
19F
  0
DICTIONARY
  5
23
102
{ACAD_REACTORS
330
9
102
}
330
9
100
AcDbDictionary
281
     1
  0
DICTIONARY
  5
D
102
{ACAD_REACTORS
330
9
102
}
330
9
100
AcDbDictionary
281
     1
  3
Layout1
350
13
  3
Model
350
C
  0
DICTIONARY
  5
153
102
{ACAD_REACTORS
330
9
102
}
330
9
100
AcDbDictionary
281
     1
  3
ByBlock
350
15C
  3
ByLayer
350
154
  3
Global
350
164
  0
DICTIONARY
  5
19A
102
{ACAD_REACTORS
330
9
102
}
330
9
100
AcDbDictionary
281
     1
  3
Standard
350
19B
  0
DICTIONARY
  5
24
102
{ACAD_REACTORS
330
9
102
}
330
9
100
AcDbDictionary
281
     1
  3
Standard
350
28
  0
DICTIONARY
  5
25
102
{ACAD_REACTORS
330
9
102
}
330
9
100
AcDbDictionary
281
     1
  0
ACDBDICTIONARYWDFLT
  5
8
102
{ACAD_REACTORS
330
9
102
}
330
9
100
AcDbDictionary
281
     1
  3
Normal
350
7
100
AcDbDictionaryWithDefault
340
7
  0
DICTIONARY
  5
188
102
{ACAD_REACTORS
330
9
102
}
330
9
100
AcDbDictionary
281
     1
  3
A0
350
189
  3
A1
350
18A
  3
A2
350
18B
  3
A3
350
18C
  3
A4
350
18D
  3
A5
350
18E
  3
A6
350
18F
  3
A7
350
190
  3
A8
350
191
  3
A9
350
192
  3
B0
350
193
  3
B1
350
194
  3
B2
350
195
  3
B3
350
196
  3
B4
350
197
  3
B5
350
198
  3
B6
350
199
  0
DICTIONARY
  5
19C
102
{ACAD_REACTORS
330
9
102
}
330
9
100
AcDbDictionary
281
     1
  3
Imperial24
350
19D
  0
DICTIONARY
  5
186
102
{ACAD_REACTORS
330
9
102
}
330
9
100
AcDbDictionary
281
     1
  3
Standard
350
187
  0
DICTIONARY
  5
16C
102
{ACAD_REACTORS
330
9
102
}
330
9
100
AcDbDictionary
281
     1
  3
2dWireframe
350
172
  3
Basic
350
171
  3
Brighten
350
178
  3
ColorChange
350
17C
  3
Conceptual
350
175
  3
Dim
350
177
  3
EdgeColorOff
350
184
  3
Facepattern
350
17B
  3
Flat
350
16D
  3
FlatWithEdges
350
16E
  3
Gouraud
350
16F
  3
GouraudWithEdges
350
170
  3
Hidden
350
174
  3
JitterOff
350
182
  3
Linepattern
350
17A
  3
OverhangOff
350
183
  3
Realistic
350
176
  3
Shaded
350
181
  3
Shaded with edges
350
180
  3
Shades of Gray
350
17D
  3
Sketchy
350
17E
  3
Thicken
350
179
  3
Wireframe
350
173
  3
X-Ray
350
17F
  0
XRECORD
  5
35A
102
{ACAD_REACTORS
330
9
102
}
330
9
100
AcDbXrecord
280
     1
 90
        1
330
187
  0
DICTIONARY
  5
34E
102
{ACAD_REACTORS
330
9
102
}
330
9
100
AcDbDictionary
281
     1
  3
CANNOSCALE
350
354
  3
CMLEADERSTYLE
350
350
  3
CTABLESTYLE
350
34F
  3
CVIEWDETAILSTYLE
350
351
  3
CVIEWSECTIONSTYLE
350
352
  3
LAYEREVAL
350
356
  3
LAYERNOTIFY
350
357
  3
LIGHTINGUNITS
350
355
  3
MSLTSCALE
350
353
  0
DICTIONARY
  5
1A8
102
{ACAD_REACTORS
330
1A7
102
}
330
1A7
100
AcDbDictionary
281
     1
  0
XRECORD
  5
33D
102
{ACAD_REACTORS
330
33C
102
}
330
33C
100
AcDbXrecord
280
     1
290
     1
  0
XRECORD
  5
33F
102
{ACAD_REACTORS
330
33E
102
}
330
33E
100
AcDbXrecord
280
     1
290
     1
  0
XRECORD
  5
341
102
{ACAD_REACTORS
330
340
102
}
330
340
100
AcDbXrecord
280
     1
290
     1
  0
XRECORD
  5
343
102
{ACAD_REACTORS
330
342
102
}
330
342
100
AcDbXrecord
280
     1
290
     1
  0
XRECORD
  5
345
102
{ACAD_REACTORS
330
344
102
}
330
344
100
AcDbXrecord
280
     1
290
     1
  0
XRECORD
  5
347
102
{ACAD_REACTORS
330
346
102
}
330
346
100
AcDbXrecord
280
     1
290
     1
  0
XRECORD
  5
349
102
{ACAD_REACTORS
330
348
102
}
330
348
100
AcDbXrecord
280
     1
290
     1
  0
XRECORD
  5
34B
102
{ACAD_REACTORS
330
34A
102
}
330
34A
100
AcDbXrecord
280
     1
290
     1
  0
XRECORD
  5
34D
102
{ACAD_REACTORS
330
34C
102
}
330
34C
100
AcDbXrecord
280
     1
290
     1
  0
XRECORD
  5
4
102
{ACAD_REACTORS
330
3
102
}
330
3
100
AcDbXrecord
280
     1
340
2
  0
XRECORD
  5
10
102
{ACAD_REACTORS
330
F
102
}
330
F
100
AcDbXrecord
280
     1
340
E
  0
DICTIONARY
  5
216
102
{ACAD_REACTORS
330
215
102
}
330
215
100
AcDbDictionary
281
     1
  3
ACDB_ANNOTATIONSCALES
350
217
  0
DICTIONARY
  5
21C
102
{ACAD_REACTORS
330
21B
102
}
330
21B
100
AcDbDictionary
281
     1
  3
ACDB_ANNOTATIONSCALES
350
21D
  0
DICTIONARY
  5
223
102
{ACAD_REACTORS
330
222
102
}
330
222
100
AcDbDictionary
281
     1
  3
ACDB_ANNOTATIONSCALES
350
224
  0
DICTIONARY
  5
22A
102
{ACAD_REACTORS
330
229
102
}
330
229
100
AcDbDictionary
281
     1
  3
ACDB_ANNOTATIONSCALES
350
22B
  0
DICTIONARY
  5
22F
102
{ACAD_REACTORS
330
22E
102
}
330
22E
100
AcDbDictionary
281
     1
  3
ACDB_ANNOTATIONSCALES
350
230
  0
DICTIONARY
  5
234
102
{ACAD_REACTORS
330
233
102
}
330
233
100
AcDbDictionary
281
     1
  3
ACDB_ANNOTATIONSCALES
350
235
  0
DICTIONARY
  5
239
102
{ACAD_REACTORS
330
238
102
}
330
238
100
AcDbDictionary
281
     1
  3
ACDB_ANNOTATIONSCALES
350
23A
  0
DICTIONARY
  5
23F
102
{ACAD_REACTORS
330
23E
102
}
330
23E
100
AcDbDictionary
281
     1
  3
ACDB_ANNOTATIONSCALES
350
240
  0
DICTIONARY
  5
244
102
{ACAD_REACTORS
330
243
102
}
330
243
100
AcDbDictionary
281
     1
  3
ACDB_ANNOTATIONSCALES
350
245
  0
DICTIONARY
  5
249
102
{ACAD_REACTORS
330
248
102
}
330
248
100
AcDbDictionary
281
     1
  3
ACDB_ANNOTATIONSCALES
350
24A
  0
DICTIONARY
  5
24E
102
{ACAD_REACTORS
330
24D
102
}
330
24D
100
AcDbDictionary
281
     1
  3
ACDB_ANNOTATIONSCALES
350
24F
  0
DICTIONARY
  5
253
102
{ACAD_REACTORS
330
252
102
}
330
252
100
AcDbDictionary
281
     1
  3
ACDB_ANNOTATIONSCALES
350
254
  0
DICTIONARY
  5
25B
102
{ACAD_REACTORS
330
25A
102
}
330
25A
100
AcDbDictionary
281
     1
  3
ACDB_ANNOTATIONSCALES
350
25C
  0
DICTIONARY
  5
260
102
{ACAD_REACTORS
330
25F
102
}
330
25F
100
AcDbDictionary
281
     1
  3
ACDB_ANNOTATIONSCALES
350
261
  0
DICTIONARY
  5
268
102
{ACAD_REACTORS
330
267
102
}
330
267
100
AcDbDictionary
281
     1
  3
ACDB_ANNOTATIONSCALES
350
269
  0
DICTIONARY
  5
26D
102
{ACAD_REACTORS
330
26C
102
}
330
26C
100
AcDbDictionary
281
     1
  3
ACDB_ANNOTATIONSCALES
350
26E
  0
ACDBDETAILVIEWSTYLE
  5
19F
102
{ACAD_REACTORS
330
19E
102
}
330
19E
100
AcDbModelDocViewStyle
 70
     0
  3
Imperial24
290
     1
300
Imperial24
 90
        0
100
AcDbDetailViewStyle
 70
     0
 71
     0
 90
        3
 71
     1
340
16
 62
   256
 40
0.24
340
0
 62
   256
 40
0.24
300

 40
0.36
280
     3
 71
     2
340
A
 90
       25
 62
   256
 71
     3
340
16
 62
   256
 40
0.24
 90
        1
 40
0.75
 90
        1
300
%<\AcVar ViewType \f "%tc1">% %<\AcVar ViewDetailId>%\PSCALE %<\AcVar ViewScale \f "%sn">%
 71
     4
340
A
 90
       25
 62
   256
340
A
 90
       25
 62
   256
280
     0
  0
LAYOUT
  5
13
102
{ACAD_REACTORS
330
D
102
}
330
D
100
AcDbPlotSettings
  1

  2
None
  4

  6

 40
0.0
 41
0.0
 42
0.0
 43
0.0
 44
0.0
 45
0.0
 46
0.0
 47
0.0
 48
0.0
 49
0.0
140
0.0
141
0.0
142
1.0
143
1.0
 70
   688
 72
     0
 73
     0
 74
     5
  7
Std pen settings.ctb
 75
    16
147
1.0
 76
     0
 77
     2
 78
   300
148
0.0
149
0.0
100
AcDbLayout
  1
Layout1
 70
     1
 71
     1
 10
-0.1979161059762549
 20
-0.1979166691697489
 11
16.34375024029589
 21
11.49541603298638
 12
0.0
 22
0.0
 32
0.0
 14
1.614583349603368
 24
1.129749872553066
 34
0.0
 15
14.5312501464303
 25
10.1677488529776
 35
0.0
146
0.0
 13
0.0
 23
0.0
 33
0.0
 16
1.0
 26
0.0
 36
0.0
 17
0.0
 27
1.0
 37
0.0
 76
     0
330
E
  0
LAYOUT
  5
C
102
{ACAD_REACTORS
330
D
102
}
330
D
100
AcDbPlotSettings
  1

  2
None
  4

  6

 40
0.0
 41
0.0
 42
0.0
 43
0.0
 44
0.0
 45
0.0
 46
0.0
 47
0.0
 48
0.0
 49
0.0
140
0.0
141
0.0
142
1.0
143
1.0
 70
  1712
 72
     0
 73
     0
 74
     0
  7
Std pen settings.ctb
 75
     0
147
1.0
 76
     0
 77
     2
 78
   300
148
0.0
149
0.0
100
AcDbLayout
  1
Model
 70
     1
 71
     0
 10
0.0
 20
0.0
 11
12.0
 21
9.0
 12
0.0
 22
0.0
 32
0.0
 14
0.0
 24
0.0
 34
0.0
 15
0.0
 25
0.0
 35
0.0
146
0.0
 13
0.0
 23
0.0
 33
0.0
 16
1.0
 26
0.0
 36
0.0
 17
0.0
 27
1.0
 37
0.0
 76
     0
330
2
331
1E
  0
MATERIAL
  5
15C
102
{ACAD_XDICTIONARY
360
15D
102
}
102
{ACAD_REACTORS
330
153
102
}
330
153
100
AcDbMaterial
  1
ByBlock
 72
     0
 43
0.0208333333333333
 43
0.0
 43
0.0
 43
0.0
 43
0.0
 43
0.0208333333333333
 43
0.0
 43
0.0
 43
0.0
 43
0.0
 43
1.0
 43
0.0
 43
0.0
 43
0.0
 43
0.0
 43
1.0
 77
     0
 47
0.0208333333333333
 47
0.0
 47
0.0
 47
0.0
 47
0.0
 47
0.0208333333333333
 47
0.0
 47
0.0
 47
0.0
 47
0.0
 47
1.0
 47
0.0
 47
0.0
 47
0.0
 47
0.0
 47
1.0
171
     0
 49
0.0208333333333333
 49
0.0
 49
0.0
 49
0.0
 49
0.0
 49
0.0208333333333333
 49
0.0
 49
0.0
 49
0.0
 49
0.0
 49
1.0
 49
0.0
 49
0.0
 49
0.0
 49
0.0
 49
1.0
175
     0
142
0.0208333333333333
142
0.0
142
0.0
142
0.0
142
0.0
142
0.0208333333333333
142
0.0
142
0.0
142
0.0
142
0.0
142
1.0
142
0.0
142
0.0
142
0.0
142
0.0
142
1.0
179
     0
144
0.0208333333333333
144
0.0
144
0.0
144
0.0
144
0.0
144
0.0208333333333333
144
0.0
144
0.0
144
0.0
144
0.0
144
1.0
144
0.0
144
0.0
144
0.0
144
0.0
144
1.0
147
0.0208333333333333
147
0.0
147
0.0
147
0.0
147
0.0
147
0.0208333333333333
147
0.0
147
0.0
147
0.0
147
0.0
147
1.0
147
0.0
147
0.0
147
0.0
147
0.0
147
1.0
  0
MATERIAL
  5
154
102
{ACAD_XDICTIONARY
360
155
102
}
102
{ACAD_REACTORS
330
153
102
}
330
153
100
AcDbMaterial
  1
ByLayer
 72
     0
 43
0.0208333333333333
 43
0.0
 43
0.0
 43
0.0
 43
0.0
 43
0.0208333333333333
 43
0.0
 43
0.0
 43
0.0
 43
0.0
 43
1.0
 43
0.0
 43
0.0
 43
0.0
 43
0.0
 43
1.0
 77
     0
 47
0.0208333333333333
 47
0.0
 47
0.0
 47
0.0
 47
0.0
 47
0.0208333333333333
 47
0.0
 47
0.0
 47
0.0
 47
0.0
 47
1.0
 47
0.0
 47
0.0
 47
0.0
 47
0.0
 47
1.0
171
     0
 49
0.0208333333333333
 49
0.0
 49
0.0
 49
0.0
 49
0.0
 49
0.0208333333333333
 49
0.0
 49
0.0
 49
0.0
 49
0.0
 49
1.0
 49
0.0
 49
0.0
 49
0.0
 49
0.0
 49
1.0
175
     0
142
0.0208333333333333
142
0.0
142
0.0
142
0.0
142
0.0
142
0.0208333333333333
142
0.0
142
0.0
142
0.0
142
0.0
142
1.0
142
0.0
142
0.0
142
0.0
142
0.0
142
1.0
179
     0
144
0.0208333333333333
144
0.0
144
0.0
144
0.0
144
0.0
144
0.0208333333333333
144
0.0
144
0.0
144
0.0
144
0.0
144
1.0
144
0.0
144
0.0
144
0.0
144
0.0
144
1.0
147
0.0208333333333333
147
0.0
147
0.0
147
0.0
147
0.0
147
0.0208333333333333
147
0.0
147
0.0
147
0.0
147
0.0
147
1.0
147
0.0
147
0.0
147
0.0
147
0.0
147
1.0
  0
MATERIAL
  5
164
102
{ACAD_XDICTIONARY
360
165
102
}
102
{ACAD_REACTORS
330
153
102
}
330
153
100
AcDbMaterial
  1
Global
 72
     0
 43
0.0208333333333333
 43
0.0
 43
0.0
 43
0.0
 43
0.0
 43
0.0208333333333333
 43
0.0
 43
0.0
 43
0.0
 43
0.0
 43
1.0
 43
0.0
 43
0.0
 43
0.0
 43
0.0
 43
1.0
 77
     0
 47
0.0208333333333333
 47
0.0
 47
0.0
 47
0.0
 47
0.0
 47
0.0208333333333333
 47
0.0
 47
0.0
 47
0.0
 47
0.0
 47
1.0
 47
0.0
 47
0.0
 47
0.0
 47
0.0
 47
1.0
171
     0
 49
0.0208333333333333
 49
0.0
 49
0.0
 49
0.0
 49
0.0
 49
0.0208333333333333
 49
0.0
 49
0.0
 49
0.0
 49
0.0
 49
1.0
 49
0.0
 49
0.0
 49
0.0
 49
0.0
 49
1.0
175
     0
142
0.0208333333333333
142
0.0
142
0.0
142
0.0
142
0.0
142
0.0208333333333333
142
0.0
142
0.0
142
0.0
142
0.0
142
1.0
142
0.0
142
0.0
142
0.0
142
0.0
142
1.0
179
     0
144
0.0208333333333333
144
0.0
144
0.0
144
0.0
144
0.0
144
0.0208333333333333
144
0.0
144
0.0
144
0.0
144
0.0
144
1.0
144
0.0
144
0.0
144
0.0
144
0.0
144
1.0
147
0.0208333333333333
147
0.0
147
0.0
147
0.0
147
0.0
147
0.0208333333333333
147
0.0
147
0.0
147
0.0
147
0.0
147
1.0
147
0.0
147
0.0
147
0.0
147
0.0
147
1.0
  0
MLEADERSTYLE
  5
19B
102
{ACAD_REACTORS
330
19A
102
}
330
19A
100
AcDbMLeaderStyle
179
     2
170
     2
171
     1
172
     0
 90
        2
 40
0.0
 41
0.0
173
     1
 91
-1056964608
340
19
 92
       -2
290
     1
 42
0.09
291
     1
 43
0.36
  3
Standard
 44
0.18
300

342
16
174
     1
178
     6
175
     1
176
     0
 93
-1056964608
 45
0.18
292
     0
297
     0
 46
0.18
 94
-1056964608
 47
1.0
 49
1.0
140
1.0
293
     1
141
0.0
294
     1
177
     0
142
1.0
295
     1
296
     0
143
0.125
271
     0
272
     9
273
     9
298
     1
  0
MLINESTYLE
  5
28
102
{ACAD_REACTORS
330
24
102
}
330
24
100
AcDbMlineStyle
  2
STANDARD
 70
     0
  3

 62
   256
 51
90.0
 52
90.0
 71
     2
 49
0.5
 62
   256
  6
BYLAYER
 49
-0.5
 62
   256
  6
BYLAYER
  0
ACDBPLACEHOLDER
  5
7
102
{ACAD_REACTORS
330
8
102
}
330
8
  0
SCALE
  5
189
102
{ACAD_REACTORS
330
188
102
}
330
188
100
AcDbScale
 70
     0
300
1:1
140
1.0
141
1.0
290
     1
  0
SCALE
  5
18A
102
{ACAD_REACTORS
330
188
102
}
330
188
100
AcDbScale
 70
     0
300
1/128" = 1'-0"
140
0.0078125
141
12.0
290
     0
  0
SCALE
  5
18B
102
{ACAD_REACTORS
330
188
102
}
330
188
100
AcDbScale
 70
     0
300
1/64" = 1'-0"
140
0.015625
141
12.0
290
     0
  0
SCALE
  5
18C
102
{ACAD_REACTORS
330
188
102
}
330
188
100
AcDbScale
 70
     0
300
1/32" = 1'-0"
140
0.03125
141
12.0
290
     0
  0
SCALE
  5
18D
102
{ACAD_REACTORS
330
188
102
}
330
188
100
AcDbScale
 70
     0
300
1/16" = 1'-0"
140
0.0625
141
12.0
290
     0
  0
SCALE
  5
18E
102
{ACAD_REACTORS
330
188
102
}
330
188
100
AcDbScale
 70
     0
300
3/32" = 1'-0"
140
0.09375
141
12.0
290
     0
  0
SCALE
  5
18F
102
{ACAD_REACTORS
330
188
102
}
330
188
100
AcDbScale
 70
     0
300
1/8" = 1'-0"
140
0.125
141
12.0
290
     0
  0
SCALE
  5
190
102
{ACAD_REACTORS
330
188
102
}
330
188
100
AcDbScale
 70
     0
300
3/16" = 1'-0"
140
0.1875
141
12.0
290
     0
  0
SCALE
  5
191
102
{ACAD_REACTORS
330
188
102
}
330
188
100
AcDbScale
 70
     0
300
1/4" = 1'-0"
140
0.25
141
12.0
290
     0
  0
SCALE
  5
192
102
{ACAD_REACTORS
330
188
102
}
330
188
100
AcDbScale
 70
     0
300
3/8" = 1'-0"
140
0.375
141
12.0
290
     0
  0
SCALE
  5
193
102
{ACAD_REACTORS
330
188
102
}
330
188
100
AcDbScale
 70
     0
300
1/2" = 1'-0"
140
0.5
141
12.0
290
     0
  0
SCALE
  5
194
102
{ACAD_REACTORS
330
188
102
}
330
188
100
AcDbScale
 70
     0
300
3/4" = 1'-0"
140
0.75
141
12.0
290
     0
  0
SCALE
  5
195
102
{ACAD_REACTORS
330
188
102
}
330
188
100
AcDbScale
 70
     0
300
1" = 1'-0"
140
1.0
141
12.0
290
     0
  0
SCALE
  5
196
102
{ACAD_REACTORS
330
188
102
}
330
188
100
AcDbScale
 70
     0
300
1-1/2" = 1'-0"
140
1.5
141
12.0
290
     0
  0
SCALE
  5
197
102
{ACAD_REACTORS
330
188
102
}
330
188
100
AcDbScale
 70
     0
300
3" = 1'-0"
140
3.0
141
12.0
290
     0
  0
SCALE
  5
198
102
{ACAD_REACTORS
330
188
102
}
330
188
100
AcDbScale
 70
     0
300
6" = 1'-0"
140
6.0
141
12.0
290
     0
  0
SCALE
  5
199
102
{ACAD_REACTORS
330
188
102
}
330
188
100
AcDbScale
 70
     0
300
1'-0" = 1'-0"
140
12.0
141
12.0
290
     0
  0
ACDBSECTIONVIEWSTYLE
  5
19D
102
{ACAD_REACTORS
330
19C
102
}
330
19C
100
AcDbModelDocViewStyle
 70
     0
  3
Imperial24
290
     1
300
Imperial24
 90
        0
100
AcDbSectionViewStyle
 70
     0
 71
     0
 90
       78
 71
     1
340
16
 62
   256
 40
0.24
340
0
340
0
 62
   256
 40
0.24
300
I, O, Q, S, X, Z
 40
0.48
 90
        3
 40
0.18
 90
        1
 71
     2
340
A
 90
       25
 62
   256
340
A
 90
       50
 62
   256
 40
0.24
 40
0.0
 40
0.24
 71
     3
340
16
 62
   256
 40
0.24
 90
        1
 40
0.75
 90
        1
300
%<\AcVar ViewType \f "%tc1">% %<\AcVar ViewSectionStartId>%-%<\AcVar ViewSectionEndId>%\PSCALE %<\AcVar ViewScale \f "%sn">%
 71
     4
 62
   256
 62
   257
300
ANSI31
 40
1.0
 90
        0
290
     0
290
     0
 90
        6
 40
0.0
 40
1.570796326794896
 40
0.2617993877991494
 40
1.308996938995747
 40
-0.2617993877991494
 40
1.832595714594046
  0
TABLESTYLE
  5
187
102
{ACAD_XDICTIONARY
360
358
102
}
102
{ACAD_REACTORS
330
186
102
}
330
186
100
AcDbTableStyle
280
     0
  3
Standard
 70
     0
 71
     0
 40
0.06
 41
0.06
280
     0
281
     0
  7
STANDARD
140
0.18
170
     2
 62
     0
 63
     7
283
     0
 90
      512
 91
        0
  1

274
    -2
284
     1
 64
     0
275
    -2
285
     1
 65
     0
276
    -2
286
     1
 66
     0
277
    -2
287
     1
 67
     0
278
    -2
288
     1
 68
     0
279
    -2
289
     1
 69
     0
  7
STANDARD
140
0.25
170
     5
 62
     0
 63
     7
283
     0
 90
      512
 91
        0
  1

274
    -2
284
     1
 64
     0
275
    -2
285
     1
 65
     0
276
    -2
286
     1
 66
     0
277
    -2
287
     1
 67
     0
278
    -2
288
     1
 68
     0
279
    -2
289
     1
 69
     0
  7
STANDARD
140
0.18
170
     5
 62
     0
 63
     7
283
     0
 90
      512
 91
        0
  1

274
    -2
284
     1
 64
     0
275
    -2
285
     1
 65
     0
276
    -2
286
     1
 66
     0
277
    -2
287
     1
 67
     0
278
    -2
288
     1
 68
     0
279
    -2
289
     1
 69
     0
  0
VISUALSTYLE
  5
172
102
{ACAD_REACTORS
330
16C
102
}
330
16C
100
AcDbVisualStyle
  2
2dWireframe
 70
     4
177
     3
291
     0
 70
    58
 90
        0
176
     1
 90
        2
176
     1
 90
        0
176
     1
 90
        0
176
     1
 40
0.6
176
     1
 40
30.0
176
     1
 62
     7
420
 16777215
176
     1
 90
        1
176
     1
 90
        4
176
     1
 62
     7
176
     1
 62
   257
176
     1
 90
        1
176
     1
 90
        1
176
     1
 40
1.0
176
     1
 90
        0
176
     1
 62
   257
176
     1
 40
1.0
176
     1
 90
        1
176
     1
 90
        6
176
     1
 90
        2
176
     1
 62
     7
176
     1
 90
        5
176
     1
 90
        0
176
     1
 90
        0
176
     1
290
     0
176
     1
 90
        1
176
     1
 40
0.0
176
     1
 90
        0
176
     1
290
     1
176
     1
290
     1
176
     1
290
     0
176
     1
290
     0
176
     1
290
     0
176
     1
290
     0
176
     1
290
     0
176
     1
290
     0
176
     1
290
     0
176
     1
 90
       50
176
     1
 40
0.0
176
     1
 40
1.0
176
     1
 90
        0
176
     1
 62
    18
420
        0
176
     1
 90
       50
176
     1
 90
        3
176
     1
 62
     5
420
      255
176
     1
290
     0
176
     1
 90
       50
176
     1
 90
       50
176
     1
 90
       50
176
     1
290
     0
176
     1
 90
       50
176
     1
 62
   256
176
     0
 40
1.0
176
     0
 90
        2
176
     1
  1
strokes_ogs.tif
176
     1
290
     0
176
     1
 40
1.0
176
     1
 40
1.0
176
     1
  0
VISUALSTYLE
  5
171
102
{ACAD_REACTORS
330
16C
102
}
330
16C
100
AcDbVisualStyle
  2
Basic
 70
     7
177
     3
291
     1
 70
    58
 90
        1
176
     1
 90
        0
176
     1
 90
        1
176
     1
 90
        0
176
     1
 40
0.6
176
     1
 40
30.0
176
     1
 62
     7
420
 16777215
176
     1
 90
        0
176
     1
 90
        4
176
     1
 62
     7
176
     1
 62
   257
176
     1
 90
        1
176
     1
 90
        1
176
     1
 40
1.0
176
     1
 90
        8
176
     1
 62
     7
176
     1
 40
1.0
176
     1
 90
        1
176
     1
 90
        6
176
     1
 90
        2
176
     1
 62
     7
176
     1
 90
        5
176
     1
 90
        0
176
     1
 90
        0
176
     1
290
     0
176
     1
 90
        1
176
     1
 40
0.0
176
     1
 90
        0
176
     1
290
     0
176
     1
290
     1
176
     1
290
     1
176
     1
290
     0
176
     1
290
     0
176
     1
290
     0
176
     1
290
     0
176
     1
290
     0
176
     1
290
     0
176
     1
 90
       50
176
     1
 40
0.0
176
     1
 40
1.0
176
     1
 90
        0
176
     1
 62
    18
420
        0
176
     1
 90
       50
176
     1
 90
        3
176
     1
 62
     5
420
      255
176
     1
290
     0
176
     1
 90
       50
176
     1
 90
       50
176
     1
 90
       50
176
     1
290
     0
176
     1
 90
       50
176
     1
 62
   256
176
     0
 40
1.0
176
     0
 90
        2
176
     1
  1
strokes_ogs.tif
176
     1
290
     0
176
     1
 40
1.0
176
     1
 40
1.0
176
     1
  0
VISUALSTYLE
  5
178
102
{ACAD_REACTORS
330
16C
102
}
330
16C
100
AcDbVisualStyle
  2
Brighten
 70
    12
177
     3
291
     1
 70
    58
 90
        2
176
     1
 90
        2
176
     1
 90
        0
176
     1
 90
        0
176
     1
 40
0.6
176
     1
 40
30.0
176
     1
 62
     7
420
 16777215
176
     1
 90
        1
176
     1
 90
        4
176
     1
 62
     7
176
     1
 62
   257
176
     1
 90
        1
176
     1
 90
        1
176
     1
 40
1.0
176
     1
 90
        8
176
     1
 62
     7
176
     1
 40
1.0
176
     1
 90
        1
176
     1
 90
        6
176
     1
 90
        2
176
     1
 62
     7
176
     1
 90
        5
176
     1
 90
        0
176
     1
 90
        0
176
     1
290
     0
176
     1
 90
        1
176
     1
 40
50.0
176
     1
 90
        0
176
     1
290
     0
176
     1
290
     1
176
     1
290
     1
176
     1
290
     0
176
     1
290
     0
176
     1
290
     0
176
     1
290
     0
176
     1
290
     0
176
     1
290
     0
176
     1
 90
       50
176
     1
 40
0.0
176
     1
 40
1.0
176
     1
 90
        0
176
     1
 62
    18
420
        0
176
     1
 90
       50
176
     1
 90
        3
176
     1
 62
     5
420
      255
176
     1
290
     0
176
     1
 90
       50
176
     1
 90
       50
176
     1
 90
       50
176
     1
290
     0
176
     1
 90
       50
176
     1
 62
   256
176
     0
 40
1.0
176
     0
 90
        2
176
     1
  1
strokes_ogs.tif
176
     1
290
     0
176
     1
 40
1.0
176
     1
 40
1.0
176
     1
  0
VISUALSTYLE
  5
17C
102
{ACAD_REACTORS
330
16C
102
}
330
16C
100
AcDbVisualStyle
  2
ColorChange
 70
    16
177
     3
291
     1
 70
    58
 90
        2
176
     1
 90
        2
176
     1
 90
        3
176
     1
 90
        0
176
     1
 40
0.6
176
     1
 40
30.0
176
     1
 62
     8
420
  8421504
176
     1
 90
        1
176
     1
 90
        4
176
     1
 62
     7
176
     1
 62
   257
176
     1
 90
        1
176
     1
 90
        1
176
     1
 40
1.0
176
     1
 90
        8
176
     1
 62
     8
420
  8421504
176
     1
 40
1.0
176
     1
 90
        1
176
     1
 90
        6
176
     1
 90
        2
176
     1
 62
     7
176
     1
 90
        5
176
     1
 90
        0
176
     1
 90
        0
176
     1
290
     0
176
     1
 90
        1
176
     1
 40
0.0
176
     1
 90
        0
176
     1
290
     0
176
     1
290
     1
176
     1
290
     1
176
     1
290
     0
176
     1
290
     0
176
     1
290
     0
176
     1
290
     0
176
     1
290
     0
176
     1
290
     0
176
     1
 90
       50
176
     1
 40
0.0
176
     1
 40
1.0
176
     1
 90
        0
176
     1
 62
    18
420
        0
176
     1
 90
       50
176
     1
 90
        3
176
     1
 62
     5
420
      255
176
     1
290
     0
176
     1
 90
       50
176
     1
 90
       50
176
     1
 90
       50
176
     1
290
     0
176
     1
 90
       50
176
     1
 62
   256
176
     0
 40
1.0
176
     0
 90
        2
176
     1
  1
strokes_ogs.tif
176
     1
290
     0
176
     1
 40
1.0
176
     1
 40
1.0
176
     1
  0
VISUALSTYLE
  5
175
102
{ACAD_REACTORS
330
16C
102
}
330
16C
100
AcDbVisualStyle
  2
Conceptual
 70
     9
177
     3
291
     0
 70
    58
 90
        3
176
     1
 90
        2
176
     1
 90
        0
176
     1
 90
        0
176
     1
 40
0.6
176
     1
 40
30.0
176
     1
 62
     7
420
 16777215
176
     1
 90
        2
176
     1
 90
        2
176
     1
 62
     7
176
     1
 62
   257
176
     1
 90
        1
176
     1
 90
        1
176
     1
 40
179.0
176
     1
 90
        8
176
     1
 62
     7
176
     1
 40
1.0
176
     1
 90
        1
176
     1
 90
        6
176
     1
 90
        2
176
     1
 62
     7
176
     1
 90
        3
176
     1
 90
        0
176
     1
 90
        0
176
     1
290
     0
176
     1
 90
        1
176
     1
 40
0.0
176
     1
 90
        0
176
     1
290
     0
176
     1
290
     1
176
     1
290
     1
176
     1
290
     0
176
     1
290
     0
176
     1
290
     0
176
     1
290
     0
176
     1
290
     0
176
     1
290
     0
176
     1
 90
       50
176
     1
 40
0.0
176
     1
 40
1.0
176
     1
 90
        0
176
     1
 62
    18
420
        0
176
     1
 90
       50
176
     1
 90
        3
176
     1
 62
     5
420
      255
176
     1
290
     0
176
     1
 90
       50
176
     1
 90
       50
176
     1
 90
       50
176
     1
290
     0
176
     1
 90
       50
176
     1
 62
   256
176
     0
 40
1.0
176
     0
 90
        2
176
     1
  1
strokes_ogs.tif
176
     1
290
     0
176
     1
 40
1.0
176
     1
 40
1.0
176
     1
  0
VISUALSTYLE
  5
177
102
{ACAD_REACTORS
330
16C
102
}
330
16C
100
AcDbVisualStyle
  2
Dim
 70
    11
177
     3
291
     1
 70
    58
 90
        2
176
     1
 90
        2
176
     1
 90
        0
176
     1
 90
        0
176
     1
 40
0.6
176
     1
 40
30.0
176
     1
 62
     7
420
 16777215
176
     1
 90
        1
176
     1
 90
        4
176
     1
 62
     7
176
     1
 62
   257
176
     1
 90
        1
176
     1
 90
        1
176
     1
 40
1.0
176
     1
 90
        8
176
     1
 62
     7
176
     1
 40
1.0
176
     1
 90
        1
176
     1
 90
        6
176
     1
 90
        2
176
     1
 62
     7
176
     1
 90
        5
176
     1
 90
        0
176
     1
 90
        0
176
     1
290
     0
176
     1
 90
        1
176
     1
 40
-50.0
176
     1
 90
        0
176
     1
290
     0
176
     1
290
     1
176
     1
290
     1
176
     1
290
     0
176
     1
290
     0
176
     1
290
     0
176
     1
290
     0
176
     1
290
     0
176
     1
290
     0
176
     1
 90
       50
176
     1
 40
0.0
176
     1
 40
1.0
176
     1
 90
        0
176
     1
 62
    18
420
        0
176
     1
 90
       50
176
     1
 90
        3
176
     1
 62
     5
420
      255
176
     1
290
     0
176
     1
 90
       50
176
     1
 90
       50
176
     1
 90
       50
176
     1
290
     0
176
     1
 90
       50
176
     1
 62
   256
176
     0
 40
1.0
176
     0
 90
        2
176
     1
  1
strokes_ogs.tif
176
     1
290
     0
176
     1
 40
1.0
176
     1
 40
1.0
176
     1
  0
VISUALSTYLE
  5
184
102
{ACAD_REACTORS
330
16C
102
}
330
16C
100
AcDbVisualStyle
  2
EdgeColorOff
 70
    22
177
     3
291
     1
 70
    58
 90
        2
176
     0
 90
        2
176
     0
 90
        0
176
     0
 90
        0
176
     0
 40
0.6
176
     0
 40
30.0
176
     0
 62
     7
420
 16777215
176
     0
 90
        1
176
     0
 90
        4
176
     0
 62
     7
176
     0
 62
   257
176
     0
 90
        1
176
     0
 90
        1
176
     0
 40
1.0
176
     0
 90
        8
176
     2
 62
     7
176
     0
 40
1.0
176
     0
 90
        1
176
     0
 90
        6
176
     0
 90
        2
176
     0
 62
     7
176
     0
 90
        5
176
     0
 90
        0
176
     0
 90
        0
176
     0
290
     0
176
     0
 90
        1
176
     0
 40
0.0
176
     0
 90
        0
176
     0
290
     0
176
     0
290
     1
176
     0
290
     1
176
     0
290
     0
176
     0
290
     0
176
     0
290
     0
176
     0
290
     0
176
     0
290
     0
176
     0
290
     0
176
     0
 90
       50
176
     0
 40
0.0
176
     0
 40
1.0
176
     0
 90
        0
176
     0
 62
    18
420
        0
176
     0
 90
       50
176
     0
 90
        3
176
     0
 62
     5
420
      255
176
     0
290
     0
176
     0
 90
       50
176
     0
 90
       50
176
     0
 90
       50
176
     0
290
     0
176
     0
 90
       50
176
     0
 62
   256
176
     0
 40
1.0
176
     0
 90
        2
176
     0
  1
strokes_ogs.tif
176
     0
290
     0
176
     0
 40
1.0
176
     0
 40
1.0
176
     0
  0
VISUALSTYLE
  5
17B
102
{ACAD_REACTORS
330
16C
102
}
330
16C
100
AcDbVisualStyle
  2
Facepattern
 70
    15
177
     3
291
     1
 70
    58
 90
        2
176
     1
 90
        2
176
     1
 90
        0
176
     1
 90
        0
176
     1
 40
0.6
176
     1
 40
30.0
176
     1
 62
     7
420
 16777215
176
     1
 90
        1
176
     1
 90
        4
176
     1
 62
     7
176
     1
 62
   257
176
     1
 90
        1
176
     1
 90
        1
176
     1
 40
1.0
176
     1
 90
        8
176
     1
 62
     7
176
     1
 40
1.0
176
     1
 90
        1
176
     1
 90
        6
176
     1
 90
        2
176
     1
 62
     7
176
     1
 90
        5
176
     1
 90
        0
176
     1
 90
        0
176
     1
290
     0
176
     1
 90
        1
176
     1
 40
0.0
176
     1
 90
        0
176
     1
290
     0
176
     1
290
     1
176
     1
290
     1
176
     1
290
     0
176
     1
290
     0
176
     1
290
     0
176
     1
290
     0
176
     1
290
     0
176
     1
290
     0
176
     1
 90
       50
176
     1
 40
0.0
176
     1
 40
1.0
176
     1
 90
        0
176
     1
 62
    18
420
        0
176
     1
 90
       50
176
     1
 90
        3
176
     1
 62
     5
420
      255
176
     1
290
     0
176
     1
 90
       50
176
     1
 90
       50
176
     1
 90
       50
176
     1
290
     0
176
     1
 90
       50
176
     1
 62
   256
176
     0
 40
1.0
176
     0
 90
        2
176
     1
  1
strokes_ogs.tif
176
     1
290
     0
176
     1
 40
1.0
176
     1
 40
1.0
176
     1
  0
VISUALSTYLE
  5
16D
102
{ACAD_REACTORS
330
16C
102
}
330
16C
100
AcDbVisualStyle
  2
Flat
 70
     0
177
     3
291
     1
 70
    58
 90
        2
176
     1
 90
        1
176
     1
 90
        1
176
     1
 90
        2
176
     1
 40
0.6
176
     1
 40
30.0
176
     1
 62
     7
420
 16777215
176
     1
 90
        0
176
     1
 90
        0
176
     1
 62
     7
176
     1
 62
   257
176
     1
 90
        1
176
     1
 90
        1
176
     1
 40
1.0
176
     1
 90
        8
176
     1
 62
     7
176
     1
 40
1.0
176
     1
 90
        1
176
     1
 90
        6
176
     1
 90
        2
176
     1
 62
     7
176
     1
 90
        5
176
     1
 90
        0
176
     1
 90
        0
176
     1
290
     0
176
     1
 90
       13
176
     1
 40
0.0
176
     1
 90
        0
176
     1
290
     0
176
     1
290
     1
176
     1
290
     1
176
     1
290
     0
176
     1
290
     0
176
     1
290
     0
176
     1
290
     0
176
     1
290
     0
176
     1
290
     0
176
     1
 90
       50
176
     1
 40
0.0
176
     1
 40
1.0
176
     1
 90
        0
176
     1
 62
    18
420
        0
176
     1
 90
       50
176
     1
 90
        3
176
     1
 62
     5
420
      255
176
     1
290
     0
176
     1
 90
       50
176
     1
 90
       50
176
     1
 90
       50
176
     1
290
     0
176
     1
 90
       50
176
     1
 62
   256
176
     0
 40
1.0
176
     0
 90
        2
176
     1
  1
strokes_ogs.tif
176
     1
290
     0
176
     1
 40
1.0
176
     1
 40
1.0
176
     1
  0
VISUALSTYLE
  5
16E
102
{ACAD_REACTORS
330
16C
102
}
330
16C
100
AcDbVisualStyle
  2
FlatWithEdges
 70
     1
177
     3
291
     1
 70
    58
 90
        2
176
     1
 90
        1
176
     1
 90
        1
176
     1
 90
        2
176
     1
 40
0.6
176
     1
 40
30.0
176
     1
 62
     7
420
 16777215
176
     1
 90
        1
176
     1
 90
        0
176
     1
 62
     7
176
     1
 62
   257
176
     1
 90
        1
176
     1
 90
        1
176
     1
 40
1.0
176
     1
 90
        0
176
     1
 62
   257
176
     1
 40
1.0
176
     1
 90
        1
176
     1
 90
        6
176
     1
 90
        2
176
     1
 62
     7
176
     1
 90
        5
176
     1
 90
        0
176
     1
 90
        0
176
     1
290
     0
176
     1
 90
       13
176
     1
 40
0.0
176
     1
 90
        0
176
     1
290
     0
176
     1
290
     1
176
     1
290
     1
176
     1
290
     0
176
     1
290
     0
176
     1
290
     0
176
     1
290
     0
176
     1
290
     0
176
     1
290
     0
176
     1
 90
       50
176
     1
 40
0.0
176
     1
 40
1.0
176
     1
 90
        0
176
     1
 62
    18
420
        0
176
     1
 90
       50
176
     1
 90
        3
176
     1
 62
     5
420
      255
176
     1
290
     0
176
     1
 90
       50
176
     1
 90
       50
176
     1
 90
       50
176
     1
290
     0
176
     1
 90
       50
176
     1
 62
   256
176
     0
 40
1.0
176
     0
 90
        2
176
     1
  1
strokes_ogs.tif
176
     1
290
     0
176
     1
 40
1.0
176
     1
 40
1.0
176
     1
  0
VISUALSTYLE
  5
16F
102
{ACAD_REACTORS
330
16C
102
}
330
16C
100
AcDbVisualStyle
  2
Gouraud
 70
     2
177
     3
291
     1
 70
    58
 90
        2
176
     1
 90
        2
176
     1
 90
        1
176
     1
 90
        2
176
     1
 40
0.6
176
     1
 40
30.0
176
     1
 62
     7
420
 16777215
176
     1
 90
        0
176
     1
 90
        0
176
     1
 62
     7
176
     1
 62
   257
176
     1
 90
        1
176
     1
 90
        1
176
     1
 40
1.0
176
     1
 90
        0
176
     1
 62
     7
176
     1
 40
1.0
176
     1
 90
        1
176
     1
 90
        6
176
     1
 90
        2
176
     1
 62
     7
176
     1
 90
        5
176
     1
 90
        0
176
     1
 90
        0
176
     1
290
     0
176
     1
 90
       13
176
     1
 40
0.0
176
     1
 90
        0
176
     1
290
     0
176
     1
290
     1
176
     1
290
     1
176
     1
290
     0
176
     1
290
     0
176
     1
290
     0
176
     1
290
     0
176
     1
290
     0
176
     1
290
     0
176
     1
 90
       50
176
     1
 40
0.0
176
     1
 40
1.0
176
     1
 90
        0
176
     1
 62
    18
420
        0
176
     1
 90
       50
176
     1
 90
        3
176
     1
 62
     5
420
      255
176
     1
290
     0
176
     1
 90
       50
176
     1
 90
       50
176
     1
 90
       50
176
     1
290
     0
176
     1
 90
       50
176
     1
 62
   256
176
     0
 40
1.0
176
     0
 90
        2
176
     1
  1
strokes_ogs.tif
176
     1
290
     0
176
     1
 40
1.0
176
     1
 40
1.0
176
     1
  0
VISUALSTYLE
  5
170
102
{ACAD_REACTORS
330
16C
102
}
330
16C
100
AcDbVisualStyle
  2
GouraudWithEdges
 70
     3
177
     3
291
     1
 70
    58
 90
        2
176
     1
 90
        2
176
     1
 90
        1
176
     1
 90
        2
176
     1
 40
0.6
176
     1
 40
30.0
176
     1
 62
     7
420
 16777215
176
     1
 90
        1
176
     1
 90
        0
176
     1
 62
     7
176
     1
 62
   257
176
     1
 90
        1
176
     1
 90
        1
176
     1
 40
1.0
176
     1
 90
        0
176
     1
 62
   257
176
     1
 40
1.0
176
     1
 90
        1
176
     1
 90
        6
176
     1
 90
        2
176
     1
 62
     7
176
     1
 90
        5
176
     1
 90
        0
176
     1
 90
        0
176
     1
290
     0
176
     1
 90
       13
176
     1
 40
0.0
176
     1
 90
        0
176
     1
290
     0
176
     1
290
     1
176
     1
290
     1
176
     1
290
     0
176
     1
290
     0
176
     1
290
     0
176
     1
290
     0
176
     1
290
     0
176
     1
290
     0
176
     1
 90
       50
176
     1
 40
0.0
176
     1
 40
1.0
176
     1
 90
        0
176
     1
 62
    18
420
        0
176
     1
 90
       50
176
     1
 90
        3
176
     1
 62
     5
420
      255
176
     1
290
     0
176
     1
 90
       50
176
     1
 90
       50
176
     1
 90
       50
176
     1
290
     0
176
     1
 90
       50
176
     1
 62
   256
176
     0
 40
1.0
176
     0
 90
        2
176
     1
  1
strokes_ogs.tif
176
     1
290
     0
176
     1
 40
1.0
176
     1
 40
1.0
176
     1
  0
VISUALSTYLE
  5
174
102
{ACAD_REACTORS
330
16C
102
}
330
16C
100
AcDbVisualStyle
  2
Hidden
 70
     6
177
     3
291
     0
 70
    58
 90
        1
176
     1
 90
        2
176
     1
 90
        2
176
     1
 90
        0
176
     1
 40
0.6
176
     1
 40
30.0
176
     1
 62
     7
420
 16777215
176
     1
 90
        2
176
     1
 90
        2
176
     1
 62
     7
176
     1
 62
   257
176
     1
 90
        2
176
     1
 90
        1
176
     1
 40
40.0
176
     1
 90
        0
176
     1
 62
   257
176
     1
 40
1.0
176
     1
 90
        1
176
     1
 90
        6
176
     1
 90
        2
176
     1
 62
     7
176
     1
 90
        3
176
     1
 90
        0
176
     1
 90
        0
176
     1
290
     0
176
     1
 90
        1
176
     1
 40
0.0
176
     1
 90
        0
176
     1
290
     0
176
     1
290
     1
176
     1
290
     1
176
     1
290
     0
176
     1
290
     0
176
     1
290
     0
176
     1
290
     0
176
     1
290
     0
176
     1
290
     0
176
     1
 90
       50
176
     1
 40
0.0
176
     1
 40
1.0
176
     1
 90
        0
176
     1
 62
    18
420
        0
176
     1
 90
       50
176
     1
 90
        3
176
     1
 62
     5
420
      255
176
     1
290
     0
176
     1
 90
       50
176
     1
 90
       50
176
     1
 90
       50
176
     1
290
     0
176
     1
 90
       50
176
     1
 62
   256
176
     0
 40
1.0
176
     0
 90
        2
176
     1
  1
strokes_ogs.tif
176
     1
290
     0
176
     1
 40
1.0
176
     1
 40
1.0
176
     1
  0
VISUALSTYLE
  5
182
102
{ACAD_REACTORS
330
16C
102
}
330
16C
100
AcDbVisualStyle
  2
JitterOff
 70
    20
177
     3
291
     1
 70
    58
 90
        2
176
     0
 90
        2
176
     0
 90
        0
176
     0
 90
        0
176
     0
 40
0.6
176
     0
 40
30.0
176
     0
 62
     7
420
 16777215
176
     0
 90
        1
176
     0
 90
        4
176
     0
 62
     7
176
     0
 62
   257
176
     0
 90
        1
176
     0
 90
        1
176
     0
 40
1.0
176
     0
 90
       10
176
     2
 62
     7
176
     0
 40
1.0
176
     0
 90
        1
176
     0
 90
        6
176
     0
 90
        2
176
     0
 62
     7
176
     0
 90
        5
176
     0
 90
        0
176
     0
 90
        0
176
     0
290
     0
176
     0
 90
        1
176
     0
 40
0.0
176
     0
 90
        0
176
     0
290
     0
176
     0
290
     1
176
     0
290
     1
176
     0
290
     0
176
     0
290
     0
176
     0
290
     0
176
     0
290
     0
176
     0
290
     0
176
     0
290
     0
176
     0
 90
       50
176
     0
 40
0.0
176
     0
 40
1.0
176
     0
 90
        0
176
     0
 62
    18
420
        0
176
     0
 90
       50
176
     0
 90
        3
176
     0
 62
     5
420
      255
176
     0
290
     0
176
     0
 90
       50
176
     0
 90
       50
176
     0
 90
       50
176
     0
290
     0
176
     0
 90
       50
176
     0
 62
   256
176
     0
 40
1.0
176
     0
 90
        2
176
     0
  1
strokes_ogs.tif
176
     0
290
     0
176
     0
 40
1.0
176
     0
 40
1.0
176
     0
  0
VISUALSTYLE
  5
17A
102
{ACAD_REACTORS
330
16C
102
}
330
16C
100
AcDbVisualStyle
  2
Linepattern
 70
    14
177
     3
291
     1
 70
    58
 90
        2
176
     1
 90
        2
176
     1
 90
        0
176
     1
 90
        0
176
     1
 40
0.6
176
     1
 40
30.0
176
     1
 62
     7
420
 16777215
176
     1
 90
        1
176
     1
 90
        4
176
     1
 62
     7
176
     1
 62
   257
176
     1
 90
        7
176
     1
 90
        7
176
     1
 40
1.0
176
     1
 90
        8
176
     1
 62
     7
176
     1
 40
1.0
176
     1
 90
        1
176
     1
 90
        6
176
     1
 90
        2
176
     1
 62
     7
176
     1
 90
        5
176
     1
 90
        0
176
     1
 90
        0
176
     1
290
     0
176
     1
 90
        1
176
     1
 40
0.0
176
     1
 90
        0
176
     1
290
     0
176
     1
290
     1
176
     1
290
     1
176
     1
290
     0
176
     1
290
     0
176
     1
290
     0
176
     1
290
     0
176
     1
290
     0
176
     1
290
     0
176
     1
 90
       50
176
     1
 40
0.0
176
     1
 40
1.0
176
     1
 90
        0
176
     1
 62
    18
420
        0
176
     1
 90
       50
176
     1
 90
        3
176
     1
 62
     5
420
      255
176
     1
290
     0
176
     1
 90
       50
176
     1
 90
       50
176
     1
 90
       50
176
     1
290
     0
176
     1
 90
       50
176
     1
 62
   256
176
     0
 40
1.0
176
     0
 90
        2
176
     1
  1
strokes_ogs.tif
176
     1
290
     0
176
     1
 40
1.0
176
     1
 40
1.0
176
     1
  0
VISUALSTYLE
  5
183
102
{ACAD_REACTORS
330
16C
102
}
330
16C
100
AcDbVisualStyle
  2
OverhangOff
 70
    21
177
     3
291
     1
 70
    58
 90
        2
176
     0
 90
        2
176
     0
 90
        0
176
     0
 90
        0
176
     0
 40
0.6
176
     0
 40
30.0
176
     0
 62
     7
420
 16777215
176
     0
 90
        1
176
     0
 90
        4
176
     0
 62
     7
176
     0
 62
   257
176
     0
 90
        1
176
     0
 90
        1
176
     0
 40
1.0
176
     0
 90
        9
176
     2
 62
     7
176
     0
 40
1.0
176
     0
 90
        1
176
     0
 90
        6
176
     0
 90
        2
176
     0
 62
     7
176
     0
 90
        5
176
     0
 90
        0
176
     0
 90
        0
176
     0
290
     0
176
     0
 90
        1
176
     0
 40
0.0
176
     0
 90
        0
176
     0
290
     0
176
     0
290
     1
176
     0
290
     1
176
     0
290
     0
176
     0
290
     0
176
     0
290
     0
176
     0
290
     0
176
     0
290
     0
176
     0
290
     0
176
     0
 90
       50
176
     0
 40
0.0
176
     0
 40
1.0
176
     0
 90
        0
176
     0
 62
    18
420
        0
176
     0
 90
       50
176
     0
 90
        3
176
     0
 62
     5
420
      255
176
     0
290
     0
176
     0
 90
       50
176
     0
 90
       50
176
     0
 90
       50
176
     0
290
     0
176
     0
 90
       50
176
     0
 62
   256
176
     0
 40
1.0
176
     0
 90
        2
176
     0
  1
strokes_ogs.tif
176
     0
290
     0
176
     0
 40
1.0
176
     0
 40
1.0
176
     0
  0
VISUALSTYLE
  5
176
102
{ACAD_REACTORS
330
16C
102
}
330
16C
100
AcDbVisualStyle
  2
Realistic
 70
     8
177
     3
291
     0
 70
    58
 90
        2
176
     1
 90
        3
176
     1
 90
        0
176
     1
 90
        2
176
     1
 40
0.6
176
     1
 40
30.0
176
     1
 62
     7
420
 16777215
176
     1
 90
        0
176
     1
 90
        0
176
     1
 62
     7
176
     1
 62
   257
176
     1
 90
        1
176
     1
 90
        1
176
     1
 40
1.0
176
     1
 90
        8
176
     1
 62
   257
176
     1
 40
1.0
176
     1
 90
        1
176
     1
 90
        6
176
     1
 90
        2
176
     1
 62
     7
176
     1
 90
        3
176
     1
 90
        0
176
     1
 90
        0
176
     1
290
     0
176
     1
 90
       13
176
     1
 40
0.0
176
     1
 90
        0
176
     1
290
     0
176
     1
290
     1
176
     1
290
     1
176
     1
290
     0
176
     1
290
     0
176
     1
290
     0
176
     1
290
     0
176
     1
290
     0
176
     1
290
     0
176
     1
 90
       50
176
     1
 40
0.0
176
     1
 40
1.0
176
     1
 90
        0
176
     1
 62
    18
420
        0
176
     1
 90
       50
176
     1
 90
        3
176
     1
 62
     5
420
      255
176
     1
290
     0
176
     1
 90
       50
176
     1
 90
       50
176
     1
 90
       50
176
     1
290
     0
176
     1
 90
       50
176
     1
 62
   256
176
     0
 40
1.0
176
     0
 90
        2
176
     1
  1
strokes_ogs.tif
176
     1
290
     0
176
     1
 40
1.0
176
     1
 40
1.0
176
     1
  0
VISUALSTYLE
  5
181
102
{ACAD_REACTORS
330
16C
102
}
330
16C
100
AcDbVisualStyle
  2
Shaded
 70
    27
177
     3
291
     0
 70
    58
 90
        2
176
     1
 90
        2
176
     1
 90
        1
176
     1
 90
        2
176
     1
 40
0.6
176
     1
 40
30.0
176
     1
 62
     7
420
 16777215
176
     1
 90
        0
176
     1
 90
        4
176
     1
 62
     7
176
     1
 62
   257
176
     1
 90
        1
176
     1
 90
        1
176
     1
 40
1.0
176
     1
 90
        8
176
     1
 62
   257
176
     1
 40
1.0
176
     1
 90
        1
176
     1
 90
        6
176
     1
 90
        2
176
     1
 62
     8
420
  7895160
176
     1
 90
        3
176
     1
 90
        0
176
     1
 90
        0
176
     1
290
     0
176
     1
 90
        5
176
     1
 40
0.0
176
     1
 90
        0
176
     1
290
     0
176
     1
290
     1
176
     1
290
     1
176
     1
290
     0
176
     1
290
     0
176
     1
290
     0
176
     1
290
     0
176
     1
290
     0
176
     1
290
     0
176
     1
 90
       50
176
     1
 40
0.0
176
     1
 40
1.0
176
     1
 90
        0
176
     1
 62
    18
420
        0
176
     1
 90
       50
176
     1
 90
        3
176
     1
 62
     5
420
      255
176
     1
290
     0
176
     1
 90
       50
176
     1
 90
       50
176
     1
 90
       50
176
     1
290
     0
176
     1
 90
       50
176
     1
 62
   256
176
     0
 40
1.0
176
     0
 90
        2
176
     1
  1
strokes_ogs.tif
176
     1
290
     0
176
     1
 40
1.0
176
     1
 40
1.0
176
     1
  0
VISUALSTYLE
  5
180
102
{ACAD_REACTORS
330
16C
102
}
330
16C
100
AcDbVisualStyle
  2
Shaded with edges
 70
    26
177
     3
291
     0
 70
    58
 90
        2
176
     1
 90
        2
176
     1
 90
        1
176
     1
 90
        2
176
     1
 40
0.6
176
     1
 40
30.0
176
     1
 62
     7
420
 16777215
176
     1
 90
        1
176
     1
 90
        2
176
     1
 62
     7
176
     1
 62
   257
176
     1
 90
        2
176
     1
 90
        1
176
     1
 40
1.0
176
     1
 90
        8
176
     1
 62
   257
176
     1
 40
1.0
176
     1
 90
        1
176
     1
 90
        6
176
     1
 90
        2
176
     1
 62
     7
176
     1
 90
        3
176
     1
 90
        0
176
     1
 90
        0
176
     1
290
     0
176
     1
 90
        5
176
     1
 40
0.0
176
     1
 90
        0
176
     1
290
     0
176
     1
290
     1
176
     1
290
     1
176
     1
290
     0
176
     1
290
     0
176
     1
290
     0
176
     1
290
     0
176
     1
290
     0
176
     1
290
     0
176
     1
 90
       50
176
     1
 40
0.0
176
     1
 40
1.0
176
     1
 90
        0
176
     1
 62
    18
420
        0
176
     1
 90
       50
176
     1
 90
        3
176
     1
 62
     5
420
      255
176
     1
290
     0
176
     1
 90
       50
176
     1
 90
       50
176
     1
 90
       50
176
     1
290
     0
176
     1
 90
       50
176
     1
 62
   256
176
     0
 40
1.0
176
     0
 90
        2
176
     1
  1
strokes_ogs.tif
176
     1
290
     0
176
     1
 40
1.0
176
     1
 40
1.0
176
     1
  0
VISUALSTYLE
  5
17D
102
{ACAD_REACTORS
330
16C
102
}
330
16C
100
AcDbVisualStyle
  2
Shades of Gray
 70
    23
177
     3
291
     0
 70
    58
 90
        2
176
     1
 90
        2
176
     1
 90
        3
176
     1
 90
        0
176
     1
 40
0.6
176
     1
 40
30.0
176
     1
 62
     7
420
 16777215
176
     1
 90
        2
176
     1
 90
        2
176
     1
 62
     7
176
     1
 62
     7
176
     1
 90
        1
176
     1
 90
        1
176
     1
 40
40.0
176
     1
 90
        8
176
     1
 62
     7
176
     1
 40
1.0
176
     1
 90
        1
176
     1
 90
        6
176
     1
 90
        2
176
     1
 62
     7
176
     1
 90
        3
176
     1
 90
        0
176
     1
 90
        0
176
     1
290
     0
176
     1
 90
        1
176
     1
 40
0.0
176
     1
 90
        0
176
     1
290
     0
176
     1
290
     1
176
     1
290
     1
176
     1
290
     0
176
     1
290
     0
176
     1
290
     0
176
     1
290
     0
176
     1
290
     0
176
     1
290
     0
176
     1
 90
       50
176
     1
 40
0.0
176
     1
 40
1.0
176
     1
 90
        0
176
     1
 62
    18
420
        0
176
     1
 90
       50
176
     1
 90
        3
176
     1
 62
     5
420
      255
176
     1
290
     0
176
     1
 90
       50
176
     1
 90
       50
176
     1
 90
       50
176
     1
290
     0
176
     1
 90
       50
176
     1
 62
   256
176
     0
 40
1.0
176
     0
 90
        2
176
     1
  1
strokes_ogs.tif
176
     1
290
     0
176
     1
 40
1.0
176
     1
 40
1.0
176
     1
  0
VISUALSTYLE
  5
17E
102
{ACAD_REACTORS
330
16C
102
}
330
16C
100
AcDbVisualStyle
  2
Sketchy
 70
    24
177
     3
291
     0
 70
    58
 90
        1
176
     1
 90
        2
176
     1
 90
        2
176
     1
 90
        0
176
     1
 40
0.6
176
     1
 40
30.0
176
     1
 62
     7
420
 16777215
176
     1
 90
        2
176
     1
 90
        2
176
     1
 62
     7
176
     1
 62
     7
176
     1
 90
        1
176
     1
 90
        1
176
     1
 40
40.0
176
     1
 90
       11
176
     1
 62
     7
176
     1
 40
1.0
176
     1
 90
        1
176
     1
 90
        6
176
     1
 90
        2
176
     1
 62
     7
176
     1
 90
        6
176
     1
 90
        0
176
     1
 90
        0
176
     1
290
     0
176
     1
 90
        1
176
     1
 40
0.0
176
     1
 90
        0
176
     1
290
     0
176
     1
290
     1
176
     1
290
     1
176
     1
290
     0
176
     1
290
     0
176
     1
290
     0
176
     1
290
     0
176
     1
290
     0
176
     1
290
     0
176
     1
 90
       50
176
     1
 40
0.0
176
     1
 40
1.0
176
     1
 90
        0
176
     1
 62
    18
420
        0
176
     1
 90
       50
176
     1
 90
        3
176
     1
 62
     5
420
      255
176
     1
290
     0
176
     1
 90
       50
176
     1
 90
       50
176
     1
 90
       50
176
     1
290
     0
176
     1
 90
       50
176
     1
 62
   256
176
     0
 40
1.0
176
     0
 90
        2
176
     1
  1
strokes_ogs.tif
176
     1
290
     0
176
     1
 40
1.0
176
     1
 40
1.0
176
     1
  0
VISUALSTYLE
  5
179
102
{ACAD_REACTORS
330
16C
102
}
330
16C
100
AcDbVisualStyle
  2
Thicken
 70
    13
177
     3
291
     1
 70
    58
 90
        2
176
     1
 90
        2
176
     1
 90
        0
176
     1
 90
        0
176
     1
 40
0.6
176
     1
 40
30.0
176
     1
 62
     7
420
 16777215
176
     1
 90
        1
176
     1
 90
        4
176
     1
 62
     7
176
     1
 62
   257
176
     1
 90
        1
176
     1
 90
        1
176
     1
 40
1.0
176
     1
 90
       12
176
     1
 62
     7
176
     1
 40
1.0
176
     1
 90
        1
176
     1
 90
        6
176
     1
 90
        2
176
     1
 62
     7
176
     1
 90
        5
176
     1
 90
        0
176
     1
 90
        0
176
     1
290
     0
176
     1
 90
        1
176
     1
 40
0.0
176
     1
 90
        0
176
     1
290
     0
176
     1
290
     1
176
     1
290
     1
176
     1
290
     0
176
     1
290
     0
176
     1
290
     0
176
     1
290
     0
176
     1
290
     0
176
     1
290
     0
176
     1
 90
       50
176
     1
 40
0.0
176
     1
 40
1.0
176
     1
 90
        0
176
     1
 62
    18
420
        0
176
     1
 90
       50
176
     1
 90
        3
176
     1
 62
     5
420
      255
176
     1
290
     0
176
     1
 90
       50
176
     1
 90
       50
176
     1
 90
       50
176
     1
290
     0
176
     1
 90
       50
176
     1
 62
   256
176
     0
 40
1.0
176
     0
 90
        2
176
     1
  1
strokes_ogs.tif
176
     1
290
     0
176
     1
 40
1.0
176
     1
 40
1.0
176
     1
  0
VISUALSTYLE
  5
173
102
{ACAD_REACTORS
330
16C
102
}
330
16C
100
AcDbVisualStyle
  2
Wireframe
 70
     5
177
     3
291
     0
 70
    58
 90
        0
176
     1
 90
        2
176
     1
 90
        0
176
     1
 90
        0
176
     1
 40
0.6
176
     1
 40
30.0
176
     1
 62
     7
420
 16777215
176
     1
 90
        1
176
     1
 90
        4
176
     1
 62
     7
176
     1
 62
   257
176
     1
 90
        1
176
     1
 90
        1
176
     1
 40
1.0
176
     1
 90
        0
176
     1
 62
   257
176
     1
 40
1.0
176
     1
 90
        1
176
     1
 90
        6
176
     1
 90
        2
176
     1
 62
     7
176
     1
 90
        3
176
     1
 90
        0
176
     1
 90
        0
176
     1
290
     0
176
     1
 90
        1
176
     1
 40
0.0
176
     1
 90
        0
176
     1
290
     0
176
     1
290
     1
176
     1
290
     1
176
     1
290
     0
176
     1
290
     0
176
     1
290
     0
176
     1
290
     0
176
     1
290
     0
176
     1
290
     0
176
     1
 90
       50
176
     1
 40
0.0
176
     1
 40
1.0
176
     1
 90
        0
176
     1
 62
    18
420
        0
176
     1
 90
       50
176
     1
 90
        3
176
     1
 62
     5
420
      255
176
     1
290
     0
176
     1
 90
       50
176
     1
 90
       50
176
     1
 90
       50
176
     1
290
     0
176
     1
 90
       50
176
     1
 62
   256
176
     0
 40
1.0
176
     0
 90
        2
176
     1
  1
strokes_ogs.tif
176
     1
290
     0
176
     1
 40
1.0
176
     1
 40
1.0
176
     1
  0
VISUALSTYLE
  5
17F
102
{ACAD_REACTORS
330
16C
102
}
330
16C
100
AcDbVisualStyle
  2
X-Ray
 70
    25
177
     3
291
     0
 70
    58
 90
        2
176
     1
 90
        2
176
     1
 90
        1
176
     1
 90
        1
176
     1
 40
0.5
176
     1
 40
30.0
176
     1
 62
     7
420
 16777215
176
     1
 90
        1
176
     1
 90
        0
176
     1
 62
     7
176
     1
 62
   257
176
     1
 90
        1
176
     1
 90
        1
176
     1
 40
1.0
176
     1
 90
        8
176
     1
 62
     7
176
     1
 40
1.0
176
     1
 90
        1
176
     1
 90
        6
176
     1
 90
        2
176
     1
 62
     7
176
     1
 90
        3
176
     1
 90
        0
176
     1
 90
        0
176
     1
290
     0
176
     1
 90
       13
176
     1
 40
0.0
176
     1
 90
        0
176
     1
290
     0
176
     1
290
     1
176
     1
290
     1
176
     1
290
     0
176
     1
290
     0
176
     1
290
     0
176
     1
290
     0
176
     1
290
     0
176
     1
290
     0
176
     1
 90
       50
176
     1
 40
0.0
176
     1
 40
1.0
176
     1
 90
        0
176
     1
 62
    18
420
        0
176
     1
 90
       50
176
     1
 90
        3
176
     1
 62
     5
420
      255
176
     1
290
     0
176
     1
 90
       50
176
     1
 90
       50
176
     1
 90
       50
176
     1
290
     0
176
     1
 90
       50
176
     1
 62
   256
176
     0
 40
1.0
176
     0
 90
        2
176
     1
  1
strokes_ogs.tif
176
     1
290
     0
176
     1
 40
1.0
176
     1
 40
1.0
176
     1
  0
DICTIONARYVAR
  5
354
102
{ACAD_REACTORS
330
34E
102
}
330
34E
100
DictionaryVariables
280
     0
  1
1:1
  0
DICTIONARYVAR
  5
350
102
{ACAD_REACTORS
330
34E
102
}
330
34E
100
DictionaryVariables
280
     0
  1
STANDARD
  0
DICTIONARYVAR
  5
34F
102
{ACAD_REACTORS
330
34E
102
}
330
34E
100
DictionaryVariables
280
     0
  1
STANDARD
  0
DICTIONARYVAR
  5
351
102
{ACAD_REACTORS
330
34E
102
}
330
34E
100
DictionaryVariables
280
     0
  1
Imperial24
  0
DICTIONARYVAR
  5
352
102
{ACAD_REACTORS
330
34E
102
}
330
34E
100
DictionaryVariables
280
     0
  1
Imperial24
  0
DICTIONARYVAR
  5
356
102
{ACAD_REACTORS
330
34E
102
}
330
34E
100
DictionaryVariables
280
     0
  1
1
  0
DICTIONARYVAR
  5
357
102
{ACAD_REACTORS
330
34E
102
}
330
34E
100
DictionaryVariables
280
     0
  1
15
  0
DICTIONARYVAR
  5
355
102
{ACAD_REACTORS
330
34E
102
}
330
34E
100
DictionaryVariables
280
     0
  1
0
  0
DICTIONARYVAR
  5
353
102
{ACAD_REACTORS
330
34E
102
}
330
34E
100
DictionaryVariables
280
     0
  1
0
  0
DICTIONARY
  5
217
102
{ACAD_REACTORS
330
216
102
}
330
216
100
AcDbDictionary
281
     1
  3
*A1
350
218
  0
DICTIONARY
  5
21D
102
{ACAD_REACTORS
330
21C
102
}
330
21C
100
AcDbDictionary
281
     1
  3
*A1
350
21E
  0
DICTIONARY
  5
224
102
{ACAD_REACTORS
330
223
102
}
330
223
100
AcDbDictionary
281
     1
  3
*A1
350
225
  0
DICTIONARY
  5
22B
102
{ACAD_REACTORS
330
22A
102
}
330
22A
100
AcDbDictionary
281
     1
  3
*A1
350
22C
  0
DICTIONARY
  5
230
102
{ACAD_REACTORS
330
22F
102
}
330
22F
100
AcDbDictionary
281
     1
  3
*A1
350
231
  0
DICTIONARY
  5
235
102
{ACAD_REACTORS
330
234
102
}
330
234
100
AcDbDictionary
281
     1
  3
*A1
350
236
  0
DICTIONARY
  5
23A
102
{ACAD_REACTORS
330
239
102
}
330
239
100
AcDbDictionary
281
     1
  3
*A1
350
23B
  0
DICTIONARY
  5
240
102
{ACAD_REACTORS
330
23F
102
}
330
23F
100
AcDbDictionary
281
     1
  3
*A1
350
241
  0
DICTIONARY
  5
245
102
{ACAD_REACTORS
330
244
102
}
330
244
100
AcDbDictionary
281
     1
  3
*A1
350
246
  0
DICTIONARY
  5
24A
102
{ACAD_REACTORS
330
249
102
}
330
249
100
AcDbDictionary
281
     1
  3
*A1
350
24B
  0
DICTIONARY
  5
24F
102
{ACAD_REACTORS
330
24E
102
}
330
24E
100
AcDbDictionary
281
     1
  3
*A1
350
250
  0
DICTIONARY
  5
254
102
{ACAD_REACTORS
330
253
102
}
330
253
100
AcDbDictionary
281
     1
  3
*A1
350
255
  0
DICTIONARY
  5
25C
102
{ACAD_REACTORS
330
25B
102
}
330
25B
100
AcDbDictionary
281
     1
  3
*A1
350
25D
  0
DICTIONARY
  5
261
102
{ACAD_REACTORS
330
260
102
}
330
260
100
AcDbDictionary
281
     1
  3
*A1
350
262
  0
DICTIONARY
  5
269
102
{ACAD_REACTORS
330
268
102
}
330
268
100
AcDbDictionary
281
     1
  3
*A1
350
26A
  0
DICTIONARY
  5
26E
102
{ACAD_REACTORS
330
26D
102
}
330
26D
100
AcDbDictionary
281
     1
  3
*A1
350
26F
  0
DICTIONARY
  5
15D
330
15C
100
AcDbDictionary
280
     1
281
     1
  3
BUMPTILE
360
15F
  3
DIFFUSETILE
360
15E
  3
OPACITYTILE
360
162
  3
REFLECTIONTILE
360
161
  3
REFRACTIONTILE
360
163
  3
SPECULARTILE
360
160
  0
DICTIONARY
  5
155
330
154
100
AcDbDictionary
280
     1
281
     1
  3
BUMPTILE
360
157
  3
DIFFUSETILE
360
156
  3
OPACITYTILE
360
15A
  3
REFLECTIONTILE
360
159
  3
REFRACTIONTILE
360
15B
  3
SPECULARTILE
360
158
  0
DICTIONARY
  5
165
330
164
100
AcDbDictionary
280
     1
281
     1
  3
BUMPTILE
360
167
  3
DIFFUSETILE
360
166
  3
OPACITYTILE
360
16A
  3
REFLECTIONTILE
360
169
  3
REFRACTIONTILE
360
16B
  3
SPECULARTILE
360
168
  0
DICTIONARY
  5
358
330
187
100
AcDbDictionary
280
     1
281
     1
  3
ACAD_ROUNDTRIP_2008_TABLESTYLE_CELLSTYLEMAP
360
359
  0
ACDB_TEXTOBJECTCONTEXTDATA_CLASS
  5
218
102
{ACAD_REACTORS
330
217
102
}
330
217
100
AcDbObjectContextData
 70
     4
290
     1
100
AcDbAnnotScaleObjectContextData
340
189
 70
     4
 50
0.0
 10
771.7486585918329
 20
186.0837151440135
 11
798.1436108428559
 21
188.5837151440135
  0
ACDB_TEXTOBJECTCONTEXTDATA_CLASS
  5
21E
102
{ACAD_REACTORS
330
21D
102
}
330
21D
100
AcDbObjectContextData
 70
     4
290
     1
100
AcDbAnnotScaleObjectContextData
340
189
 70
     4
 50
0.0
 10
774.647215756658
 20
116.0219641180411
 11
802.0142007498366
 21
118.5236694386414
  0
ACDB_TEXTOBJECTCONTEXTDATA_CLASS
  5
225
102
{ACAD_REACTORS
330
224
102
}
330
224
100
AcDbObjectContextData
 70
     4
290
     1
100
AcDbAnnotScaleObjectContextData
340
189
 70
     4
 50
0.0
 10
772.6676375908015
 20
136.1059466969325
 11
856.4943770178137
 21
138.6076520175328
  0
ACDB_TEXTOBJECTCONTEXTDATA_CLASS
  5
22C
102
{ACAD_REACTORS
330
22B
102
}
330
22B
100
AcDbObjectContextData
 70
     4
290
     1
100
AcDbAnnotScaleObjectContextData
340
189
 70
     4
 50
0.0
 10
774.1885512219741
 20
126.0568892830034
 11
865.5903247553982
 21
128.5585946036037
  0
ACDB_TEXTOBJECTCONTEXTDATA_CLASS
  5
231
102
{ACAD_REACTORS
330
230
102
}
330
230
100
AcDbObjectContextData
 70
     4
290
     1
100
AcDbAnnotScaleObjectContextData
340
189
 70
     4
 50
0.0
 10
772.8109029533709
 20
146.0070944066023
 11
855.6724309206288
 21
148.5087997272026
  0
ACDB_TEXTOBJECTCONTEXTDATA_CLASS
  5
236
102
{ACAD_REACTORS
330
235
102
}
330
235
100
AcDbObjectContextData
 70
     4
290
     1
100
AcDbAnnotScaleObjectContextData
340
189
 70
     4
 50
0.0
 10
773.9048217192007
 20
156.1118067323929
 11
861.0364724695417
 21
158.6135120529932
  0
ACDB_TEXTOBJECTCONTEXTDATA_CLASS
  5
23B
102
{ACAD_REACTORS
330
23A
102
}
330
23A
100
AcDbObjectContextData
 70
     4
290
     1
100
AcDbAnnotScaleObjectContextData
340
189
 70
     4
 50
0.0
 10
537.5232539354197
 20
152.5922192969964
 11
546.263022011818
 21
155.0598182055912
  0
ACDB_TEXTOBJECTCONTEXTDATA_CLASS
  5
241
102
{ACAD_REACTORS
330
240
102
}
330
240
100
AcDbObjectContextData
 70
     4
290
     1
100
AcDbAnnotScaleObjectContextData
340
189
 70
     4
 50
0.0
 10
472.1082482876757
 20
173.6791676994248
 11
483.5526548361068
 21
176.1791676994248
  0
ACDB_TEXTOBJECTCONTEXTDATA_CLASS
  5
246
102
{ACAD_REACTORS
330
245
102
}
330
245
100
AcDbObjectContextData
 70
     4
290
     1
100
AcDbAnnotScaleObjectContextData
340
189
 70
     4
 50
0.0
 10
475.5894203747103
 20
152.5922192969964
 11
486.263022011818
 21
155.0598182055912
  0
ACDB_TEXTOBJECTCONTEXTDATA_CLASS
  5
24B
102
{ACAD_REACTORS
330
24A
102
}
330
24A
100
AcDbObjectContextData
 70
     4
290
     1
100
AcDbAnnotScaleObjectContextData
340
189
 70
     4
 50
0.0
 10
459.103473389995
 20
184.5750857664435
 11
483.5526548361068
 21
187.0767910870438
  0
ACDB_TEXTOBJECTCONTEXTDATA_CLASS
  5
250
102
{ACAD_REACTORS
330
24F
102
}
330
24F
100
AcDbObjectContextData
 70
     4
290
     1
100
AcDbAnnotScaleObjectContextData
340
189
 70
     4
 50
0.0
 10
411.2466782276433
 20
184.5767910870438
 11
427.5461325250512
 21
187.0767910870438
  0
ACDB_TEXTOBJECTCONTEXTDATA_CLASS
  5
255
102
{ACAD_REACTORS
330
254
102
}
330
254
100
AcDbObjectContextData
 70
     4
290
     1
100
AcDbAnnotScaleObjectContextData
340
189
 70
     4
 50
0.0
 10
410.3455595288712
 20
152.7098864184152
 11
426.2630220118181
 21
155.0598182055912
  0
ACDB_TEXTOBJECTCONTEXTDATA_CLASS
  5
25D
102
{ACAD_REACTORS
330
25C
102
}
330
25C
100
AcDbObjectContextData
 70
     4
290
     1
100
AcDbAnnotScaleObjectContextData
340
189
 70
     4
 50
0.0
 10
527.2469919981755
 20
173.9718546315646
 11
546.263022011818
 21
175.7811997884541
  0
ACDB_TEXTOBJECTCONTEXTDATA_CLASS
  5
262
102
{ACAD_REACTORS
330
261
102
}
330
261
100
AcDbObjectContextData
 70
     4
290
     1
100
AcDbAnnotScaleObjectContextData
340
189
 70
     4
 50
0.0
 10
517.925709597084
 20
184.5816215841754
 11
546.263022011818
 21
187.0816215841754
  0
ACDB_TEXTOBJECTCONTEXTDATA_CLASS
  5
26A
102
{ACAD_REACTORS
330
269
102
}
330
269
100
AcDbObjectContextData
 70
     4
290
     1
100
AcDbAnnotScaleObjectContextData
340
189
 70
     4
 50
0.0
 10
639.359383799619
 20
186.0820098234132
 11
690.0057003071225
 21
188.5837151440135
  0
ACDB_TEXTOBJECTCONTEXTDATA_CLASS
  5
26F
102
{ACAD_REACTORS
330
26E
102
}
330
26E
100
AcDbObjectContextData
 70
     4
290
     1
100
AcDbAnnotScaleObjectContextData
340
189
 70
     4
 50
0.0
 10
639.0939058766655
 20
156.1475553589171
 11
696.3398131072249
 21
158.6492606795174
  0
XRECORD
  5
15F
102
{ACAD_REACTORS
330
15D
102
}
330
15D
100
AcDbXrecord
280
     1
270
     1
271
     1
  0
XRECORD
  5
15E
102
{ACAD_REACTORS
330
15D
102
}
330
15D
100
AcDbXrecord
280
     1
270
     1
271
     1
  0
XRECORD
  5
162
102
{ACAD_REACTORS
330
15D
102
}
330
15D
100
AcDbXrecord
280
     1
270
     1
271
     1
  0
XRECORD
  5
161
102
{ACAD_REACTORS
330
15D
102
}
330
15D
100
AcDbXrecord
280
     1
270
     1
271
     1
  0
XRECORD
  5
163
102
{ACAD_REACTORS
330
15D
102
}
330
15D
100
AcDbXrecord
280
     1
270
     1
271
     1
  0
XRECORD
  5
160
102
{ACAD_REACTORS
330
15D
102
}
330
15D
100
AcDbXrecord
280
     1
270
     1
271
     1
  0
XRECORD
  5
157
102
{ACAD_REACTORS
330
155
102
}
330
155
100
AcDbXrecord
280
     1
270
     1
271
     1
  0
XRECORD
  5
156
102
{ACAD_REACTORS
330
155
102
}
330
155
100
AcDbXrecord
280
     1
270
     1
271
     1
  0
XRECORD
  5
15A
102
{ACAD_REACTORS
330
155
102
}
330
155
100
AcDbXrecord
280
     1
270
     1
271
     1
  0
XRECORD
  5
159
102
{ACAD_REACTORS
330
155
102
}
330
155
100
AcDbXrecord
280
     1
270
     1
271
     1
  0
XRECORD
  5
15B
102
{ACAD_REACTORS
330
155
102
}
330
155
100
AcDbXrecord
280
     1
270
     1
271
     1
  0
XRECORD
  5
158
102
{ACAD_REACTORS
330
155
102
}
330
155
100
AcDbXrecord
280
     1
270
     1
271
     1
  0
XRECORD
  5
167
102
{ACAD_REACTORS
330
165
102
}
330
165
100
AcDbXrecord
280
     1
270
     1
271
     1
  0
XRECORD
  5
166
102
{ACAD_REACTORS
330
165
102
}
330
165
100
AcDbXrecord
280
     1
270
     1
271
     1
  0
XRECORD
  5
16A
102
{ACAD_REACTORS
330
165
102
}
330
165
100
AcDbXrecord
280
     1
270
     1
271
     1
  0
XRECORD
  5
169
102
{ACAD_REACTORS
330
165
102
}
330
165
100
AcDbXrecord
280
     1
270
     1
271
     1
  0
XRECORD
  5
16B
102
{ACAD_REACTORS
330
165
102
}
330
165
100
AcDbXrecord
280
     1
270
     1
271
     1
  0
XRECORD
  5
168
102
{ACAD_REACTORS
330
165
102
}
330
165
100
AcDbXrecord
280
     1
270
     1
271
     1
  0
CELLSTYLEMAP
  5
359
102
{ACAD_REACTORS
330
358
102
}
330
358
100
AcDbCellStyleMap
 90
        3
300
CELLSTYLE
  1
TABLEFORMAT_BEGIN
 90
        5
170
     1
 91
        0
 92
    32768
 62
   257
 93
        1
300
CONTENTFORMAT
  1
CONTENTFORMAT_BEGIN
 90
        0
 91
        0
 92
      512
 93
        0
300

 40
0.0
140
1.0
 94
        5
 62
     0
340
16
144
0.25
309
CONTENTFORMAT_END
171
     0
 94
        0
309
TABLEFORMAT_END
  1
CELLSTYLE_BEGIN
 90
        1
 91
        1
300
_TITLE
309
CELLSTYLE_END
300
CELLSTYLE
  1
TABLEFORMAT_BEGIN
 90
        5
170
     1
 91
        0
 92
        0
 62
   257
 93
        1
300
CONTENTFORMAT
  1
CONTENTFORMAT_BEGIN
 90
        0
 91
        0
 92
      512
 93
        0
300

 40
0.0
140
1.0
 94
        5
 62
     0
340
16
144
0.18
309
CONTENTFORMAT_END
171
     0
 94
        0
309
TABLEFORMAT_END
  1
CELLSTYLE_BEGIN
 90
        2
 91
        1
300
_HEADER
309
CELLSTYLE_END
300
CELLSTYLE
  1
TABLEFORMAT_BEGIN
 90
        5
170
     1
 91
        0
 92
        0
 62
   257
 93
        1
300
CONTENTFORMAT
  1
CONTENTFORMAT_BEGIN
 90
        0
 91
        0
 92
      512
 93
        0
300

 40
0.0
140
1.0
 94
        2
 62
     0
340
16
144
0.18
309
CONTENTFORMAT_END
171
     0
 94
        0
309
TABLEFORMAT_END
  1
CELLSTYLE_BEGIN
 90
        3
 91
        2
300
_DATA
309
CELLSTYLE_END
  0
ENDSEC
  0
EOF
