  0
SECTION
  2
HEADER
  9
$ACADVER
  1
AC1032
  9
$ACADMAINTVER
 90
      155
  9
$DWGCODEPAGE
  3
ANSI_1252
  9
$LASTSAVEDBY
  1
falinoori
  9
$REQUIREDVERSIONS
160
                 0
  9
$INSBASE
 10
0.0000000000000568
 20
0.0000000000000568
 30
0.0
  9
$EXTMIN
 10
-92.12457794163601
 20
-261.5789965443416
 30
0.0
  9
$EXTMAX
 10
939.0283140914934
 20
98.39109263085289
 30
0.0
  9
$LIMMIN
 10
0.0
 20
0.0
  9
$LIMMAX
 10
420.0
 20
297.0
  9
$ORTHOMODE
 70
     1
  9
$REGENMODE
 70
     1
  9
$FILLMODE
 70
     1
  9
$QTEXTMODE
 70
     0
  9
$MIRRTEXT
 70
     1
  9
$LTSCALE
 40
0.25
  9
$ATTMODE
 70
     1
  9
$TEXTSIZE
 40
5.0
  9
$TRACEWID
 40
10.0
  9
$TEXTSTYLE
  7
ROMANS
  9
$CLAYER
  8
ANCON-DSD
  9
$CELTYPE
  6
BYLAYER
  9
$CECOLOR
 62
   256
  9
$CELTSCALE
 40
1.0
  9
$DISPSILH
 70
     0
  9
$DIMSCALE
 40
0.0
  9
$DIMASZ
 40
4.0
  9
$DIMEXO
 40
3.0
  9
$DIMDLI
 40
10.0
  9
$DIMRND
 40
0.0
  9
$DIMDLE
 40
1.25
  9
$DIMEXE
 40
3.0
  9
$DIMTP
 40
0.0
  9
$DIMTM
 40
0.0
  9
$DIMTXT
 40
3.0
  9
$DIMCEN
 40
-3.0
  9
$DIMTSZ
 40
0.0
  9
$DIMTOL
 70
     0
  9
$DIMLIM
 70
     0
  9
$DIMTIH
 70
     0
  9
$DIMTOH
 70
     0
  9
$DIMSE1
 70
     0
  9
$DIMSE2
 70
     0
  9
$DIMTAD
 70
     1
  9
$DIMZIN
 70
    12
  9
$DIMBLK
  1

  9
$DIMASO
 70
     1
  9
$DIMSHO
 70
     0
  9
$DIMPOST
  1

  9
$DIMAPOST
  1

  9
$DIMALT
 70
     0
  9
$DIMALTD
 70
     2
  9
$DIMALTF
 40
0.039
  9
$DIMLFAC
 40
1.0
  9
$DIMTOFL
 70
     0
  9
$DIMTVP
 40
1.5
  9
$DIMTIX
 70
     0
  9
$DIMSOXD
 70
     0
  9
$DIMSAH
 70
     0
  9
$DIMBLK1
  1

  9
$DIMBLK2
  1

  9
$DIMSTYLE
  2
1-2
  9
$DIMCLRD
 70
     0
  9
$DIMCLRE
 70
     0
  9
$DIMCLRT
 70
     0
  9
$DIMTFAC
 40
0.75
  9
$DIMGAP
 40
1.5
  9
$DIMJUST
 70
     0
  9
$DIMSD1
 70
     0
  9
$DIMSD2
 70
     0
  9
$DIMTOLJ
 70
     1
  9
$DIMTZIN
 70
    12
  9
$DIMALTZ
 70
    12
  9
$DIMALTTZ
 70
    12
  9
$DIMUPT
 70
     0
  9
$DIMDEC
 70
     2
  9
$DIMTDEC
 70
     2
  9
$DIMALTU
 70
     2
  9
$DIMALTTD
 70
     2
  9
$DIMTXSTY
  7
ROMANS
  9
$DIMAUNIT
 70
     0
  9
$DIMADEC
 70
     0
  9
$DIMALTRND
 40
0.0
  9
$DIMAZIN
 70
     0
  9
$DIMDSEP
 70
    46
  9
$DIMATFIT
 70
     3
  9
$DIMFRAC
 70
     0
  9
$DIMLDRBLK
  1

  9
$DIMLUNIT
 70
     2
  9
$DIMLWD
 70
    -2
  9
$DIMLWE
 70
    -2
  9
$DIMTMOVE
 70
     2
  9
$DIMFXL
 40
1.0
  9
$DIMFXLON
 70
     0
  9
$DIMJOGANG
 40
0.7853981633974483
  9
$DIMTFILL
 70
     0
  9
$DIMTFILLCLR
 70
     0
  9
$DIMARCSYM
 70
     0
  9
$DIMLTYPE
  6

  9
$DIMLTEX1
  6

  9
$DIMLTEX2
  6

  9
$DIMTXTDIRECTION
 70
     0
  9
$LUNITS
 70
     2
  9
$LUPREC
 70
     2
  9
$SKETCHINC
 40
1.0
  9
$FILLETRAD
 40
0.0
  9
$AUNITS
 70
     0
  9
$AUPREC
 70
     4
  9
$MENU
  1
acad
  9
$ELEVATION
 40
0.0
  9
$PELEVATION
 40
0.0
  9
$THICKNESS
 40
0.0
  9
$LIMCHECK
 70
     0
  9
$CHAMFERA
 40
0.0
  9
$CHAMFERB
 40
0.0
  9
$CHAMFERC
 40
0.0
  9
$CHAMFERD
 40
0.0
  9
$SKPOLY
 70
     0
  9
$TDCREATE
 40
2449527.946145833
  9
$TDUCREATE
 40
2449527.529488426
  9
$TDUPDATE
 40
2459590.451388889
  9
$TDUUPDATE
 40
2459589.993055555
  9
$TDINDWG
 40
0.2681900463
  9
$TDUSRTIMER
 40
0.2681900463
  9
$USRTIMER
 70
     1
  9
$ANGBASE
 50
0.0
  9
$ANGDIR
 70
     0
  9
$PDMODE
 70
     0
  9
$PDSIZE
 40
0.0
  9
$PLINEWID
 40
0.0
  9
$SPLFRAME
 70
     0
  9
$SPLINETYPE
 70
     6
  9
$SPLINESEGS
 70
     8
  9
$HANDSEED
  5
205
  9
$SURFTAB1
 70
    18
  9
$SURFTAB2
 70
    18
  9
$SURFTYPE
 70
     6
  9
$SURFU
 70
    18
  9
$SURFV
 70
    18
  9
$UCSBASE
  2

  9
$UCSNAME
  2

  9
$UCSORG
 10
0.0
 20
0.0
 30
0.0
  9
$UCSXDIR
 10
1.0
 20
0.0
 30
0.0
  9
$UCSYDIR
 10
0.0
 20
1.0
 30
0.0
  9
$UCSORTHOREF
  2

  9
$UCSORTHOVIEW
 70
     0
  9
$UCSORGTOP
 10
0.0
 20
0.0
 30
0.0
  9
$UCSORGBOTTOM
 10
0.0
 20
0.0
 30
0.0
  9
$UCSORGLEFT
 10
0.0
 20
0.0
 30
0.0
  9
$UCSORGRIGHT
 10
0.0
 20
0.0
 30
0.0
  9
$UCSORGFRONT
 10
0.0
 20
0.0
 30
0.0
  9
$UCSORGBACK
 10
0.0
 20
0.0
 30
0.0
  9
$PUCSBASE
  2

  9
$PUCSNAME
  2

  9
$PUCSORG
 10
0.0
 20
0.0
 30
0.0
  9
$PUCSXDIR
 10
1.0
 20
0.0
 30
0.0
  9
$PUCSYDIR
 10
0.0
 20
1.0
 30
0.0
  9
$PUCSORTHOREF
  2

  9
$PUCSORTHOVIEW
 70
     0
  9
$PUCSORGTOP
 10
0.0
 20
0.0
 30
0.0
  9
$PUCSORGBOTTOM
 10
0.0
 20
0.0
 30
0.0
  9
$PUCSORGLEFT
 10
0.0
 20
0.0
 30
0.0
  9
$PUCSORGRIGHT
 10
0.0
 20
0.0
 30
0.0
  9
$PUCSORGFRONT
 10
0.0
 20
0.0
 30
0.0
  9
$PUCSORGBACK
 10
0.0
 20
0.0
 30
0.0
  9
$USERI1
 70
     0
  9
$USERI2
 70
     0
  9
$USERI3
 70
     0
  9
$USERI4
 70
     0
  9
$USERI5
 70
     0
  9
$USERR1
 40
0.0
  9
$USERR2
 40
0.0
  9
$USERR3
 40
0.0
  9
$USERR4
 40
0.0
  9
$USERR5
 40
0.0
  9
$WORLDVIEW
 70
     1
  9
$SHADEDGE
 70
     3
  9
$SHADEDIF
 70
    70
  9
$TILEMODE
 70
     1
  9
$MAXACTVP
 70
    16
  9
$PINSBASE
 10
0.0
 20
0.0
 30
0.0
  9
$PLIMCHECK
 70
     0
  9
$PEXTMIN
 10
1.000000000000000E+20
 20
1.000000000000000E+20
 30
1.000000000000000E+20
  9
$PEXTMAX
 10
-1.000000000000000E+20
 20
-1.000000000000000E+20
 30
-1.000000000000000E+20
  9
$PLIMMIN
 10
0.0
 20
0.0
  9
$PLIMMAX
 10
420.0
 20
297.0
  9
$UNITMODE
 70
     0
  9
$VISRETAIN
 70
     0
  9
$PLINEGEN
 70
     0
  9
$PSLTSCALE
 70
     1
  9
$TREEDEPTH
 70
  3020
  9
$CMLSTYLE
  2
STANDARD
  9
$CMLJUST
 70
     0
  9
$CMLSCALE
 40
1.0
  9
$PROXYGRAPHICS
 70
     1
  9
$MEASUREMENT
 70
     0
  9
$CELWEIGHT
370
    -1
  9
$ENDCAPS
280
     0
  9
$JOINSTYLE
280
     0
  9
$LWDISPLAY
290
     0
  9
$INSUNITS
 70
     0
  9
$HYPERLINKBASE
  1

  9
$STYLESHEET
  1

  9
$XEDIT
290
     1
  9
$CEPSNTYPE
380
     0
  9
$PSTYLEMODE
290
     1
  9
$FINGERPRINTGUID
  2
{627E296F-AD1D-11D6-AAC6-0010A4A25215}
  9
$VERSIONGUID
  2
{F0AB32D9-1B42-3A48-AC53-75DD72F7E03E}
  9
$EXTNAMES
290
     1
  9
$PSVPSCALE
 40
0.0
  9
$OLESTARTUP
290
     0
  9
$SORTENTS
280
   127
  9
$INDEXCTL
280
     0
  9
$HIDETEXT
280
     0
  9
$XCLIPFRAME
280
     2
  9
$HALOGAP
280
     0
  9
$OBSCOLOR
 70
   257
  9
$OBSLTYPE
280
     0
  9
$INTERSECTIONDISPLAY
280
     0
  9
$INTERSECTIONCOLOR
 70
   257
  9
$DIMASSOC
280
     1
  9
$PROJECTNAME
  1

  9
$CAMERADISPLAY
290
     0
  9
$LENSLENGTH
 40
50.0
  9
$CAMERAHEIGHT
 40
0.0
  9
$STEPSPERSEC
 40
2.0
  9
$STEPSIZE
 40
6.0
  9
$3DDWFPREC
 40
2.0
  9
$PSOLWIDTH
 40
0.25
  9
$PSOLHEIGHT
 40
4.0
  9
$LOFTANG1
 40
1.570796326794896
  9
$LOFTANG2
 40
1.570796326794896
  9
$LOFTMAG1
 40
0.0
  9
$LOFTMAG2
 40
0.0
  9
$LOFTPARAM
 70
     7
  9
$LOFTNORMALS
280
     1
  9
$LATITUDE
 40
37.795
  9
$LONGITUDE
 40
-122.394
  9
$NORTHDIRECTION
 40
0.0
  9
$TIMEZONE
 70
 -8000
  9
$LIGHTGLYPHDISPLAY
280
     1
  9
$TILEMODELIGHTSYNCH
280
     1
  9
$CMATERIAL
347
97
  9
$SOLIDHIST
280
     0
  9
$SHOWHIST
280
     1
  9
$DWFFRAME
280
     2
  9
$DGNFRAME
280
     0
  9
$REALWORLDSCALE
290
     1
  9
$INTERFERECOLOR
 62
     1
  9
$INTERFEREOBJVS
345
B9
  9
$INTERFEREVPVS
346
B6
  9
$CSHADOW
280
     0
  9
$SHADOWPLANELOCATION
 40
0.0
  0
ENDSEC
  0
SECTION
  2
CLASSES
  0
CLASS
  1
DICTIONARYVAR
  2
AcDbDictionaryVar
  3
ObjectDBX Classes
 90
        0
 91
       27
280
     0
281
     0
  0
CLASS
  1
ACDBDICTIONARYWDFLT
  2
AcDbDictionaryWithDefault
  3
ObjectDBX Classes
 90
        0
 91
        1
280
     0
281
     0
  0
CLASS
  1
MATERIAL
  2
AcDbMaterial
  3
ObjectDBX Classes
 90
     1153
 91
        3
280
     0
281
     0
  0
CLASS
  1
VISUALSTYLE
  2
AcDbVisualStyle
  3
ObjectDBX Classes
 90
     4095
 91
       24
280
     0
281
     0
  0
CLASS
  1
TABLESTYLE
  2
AcDbTableStyle
  3
ObjectDBX Classes
 90
     4095
 91
        1
280
     0
281
     0
  0
CLASS
  1
SCALE
  2
AcDbScale
  3
ObjectDBX Classes
 90
     1153
 91
       17
280
     0
281
     0
  0
CLASS
  1
MLEADERSTYLE
  2
AcDbMLeaderStyle
  3
ACDB_MLEADERSTYLE_CLASS
 90
     4095
 91
        1
280
     0
281
     0
  0
CLASS
  1
ACDBSECTIONVIEWSTYLE
  2
AcDbSectionViewStyle
  3
ObjectDBX Classes
 90
     1025
 91
        1
280
     0
281
     0
  0
CLASS
  1
ACDBDETAILVIEWSTYLE
  2
AcDbDetailViewStyle
  3
ObjectDBX Classes
 90
     1025
 91
        1
280
     0
281
     0
  0
CLASS
  1
ACDB_TEXTOBJECTCONTEXTDATA_CLASS
  2
AcDbTextObjectContextData
  3
ObjectDBX Classes
 90
     1153
 91
       32
280
     0
281
     0
  0
CLASS
  1
CELLSTYLEMAP
  2
AcDbCellStyleMap
  3
ObjectDBX Classes
 90
     1152
 91
        1
280
     0
281
     0
  0
ENDSEC
  0
SECTION
  2
TABLES
  0
TABLE
  2
VPORT
  5
19
330
0
100
AcDbSymbolTable
 70
     1
  0
VPORT
  5
1A
330
19
100
AcDbSymbolTableRecord
100
AcDbViewportTableRecord
  2
*Active
 70
     0
 10
0.0
 20
0.0
 11
1.0
 21
1.0
 12
881.2140698868917
 22
-68.91251921856587
 13
0.0
 23
0.0
 14
5.0
 24
5.0
 15
10.0
 25
10.0
 16
0.0
 26
0.0
 36
1.0
 17
0.0
 27
0.0
 37
0.0
 40
522.6842315886852
 41
1.787234042553191
 42
50.0
 43
0.0
 44
0.0
 50
0.0
 51
0.0
 71
     0
 72
   100
 73
     1
 74
     1
 75
     0
 76
     0
 77
     0
 78
     0
281
     0
 65
     1
110
0.0
120
0.0
130
0.0
111
1.0
121
0.0
131
0.0
112
0.0
122
1.0
132
0.0
 79
     0
146
0.0
348
B5
 60
     3
 61
     5
292
     1
282
     1
141
0.0
142
0.0
 63
   250
421
  3355443
1001
ACAD_NAV_VCDISPLAY
1070
     3
  0
ENDTAB
  0
TABLE
  2
LTYPE
  5
14
330
0
100
AcDbSymbolTable
 70
     4
  0
LTYPE
  5
15
330
14
100
AcDbSymbolTableRecord
100
AcDbLinetypeTableRecord
  2
BYBLOCK
 70
     0
  3

 72
    65
 73
     0
 40
0.0
  0
LTYPE
  5
16
330
14
100
AcDbSymbolTableRecord
100
AcDbLinetypeTableRecord
  2
BYLAYER
 70
     0
  3

 72
    65
 73
     0
 40
0.0
  0
LTYPE
  5
8
330
14
100
AcDbSymbolTableRecord
100
AcDbLinetypeTableRecord
  2
CONTINUOUS
 70
     0
  3
Solid line
 72
    65
 73
     0
 40
0.0
  0
LTYPE
  5
32
330
14
100
AcDbSymbolTableRecord
100
AcDbLinetypeTableRecord
  2
CENTER2
 70
     0
  3
___ _ ___ _ ___ _ ___ _ ___ _ ___ _ ___ _ ___ _
 72
    65
 73
     4
 40
28.575
 49
19.05
 74
     0
 49
-3.174999999999999
 74
     0
 49
3.174999999999999
 74
     0
 49
-3.174999999999999
 74
     0
  0
ENDTAB
  0
TABLE
  2
LAYER
  5
10
102
{ACAD_XDICTIONARY
360
EB
102
}
330
0
100
AcDbSymbolTable
 70
     8
  0
LAYER
  5
4
102
{ACAD_XDICTIONARY
360
1EA
102
}
330
10
100
AcDbSymbolTableRecord
100
AcDbLayerTableRecord
  2
0
 70
     0
 62
     7
  6
CONTINUOUS
370
    -3
390
5
347
A7
348
0
  0
LAYER
  5
31
102
{ACAD_XDICTIONARY
360
1EC
102
}
330
10
100
AcDbSymbolTableRecord
100
AcDbLayerTableRecord
  2
DIMS
 70
     0
 62
     1
  6
CONTINUOUS
370
    -3
390
5
347
A7
348
0
  0
LAYER
  5
22
102
{ACAD_XDICTIONARY
360
1EE
102
}
330
10
100
AcDbSymbolTableRecord
100
AcDbLayerTableRecord
  2
ANCON-DSD
 70
     0
 62
     3
  6
CONTINUOUS
370
    -3
390
5
347
A7
348
0
  0
LAYER
  5
63
330
10
100
AcDbSymbolTableRecord
100
AcDbLayerTableRecord
  2
DEFPOINTS
 70
     0
 62
     7
  6
CONTINUOUS
290
     0
370
    -3
390
5
347
A7
348
0
  0
LAYER
  5
27
102
{ACAD_XDICTIONARY
360
1F0
102
}
330
10
100
AcDbSymbolTableRecord
100
AcDbLayerTableRecord
  2
ANCON-TEXT
 70
     0
 62
     6
  6
CONTINUOUS
370
    -3
390
5
347
A7
348
0
  0
LAYER
  5
48
102
{ACAD_XDICTIONARY
360
1F2
102
}
330
10
100
AcDbSymbolTableRecord
100
AcDbLayerTableRecord
  2
SPECP
 70
     0
 62
     6
  6
CONTINUOUS
370
    -3
390
5
347
A7
348
0
  0
LAYER
  5
2B
102
{ACAD_XDICTIONARY
360
1F4
102
}
330
10
100
AcDbSymbolTableRecord
100
AcDbLayerTableRecord
  2
SPECD
 70
     0
 62
     6
  6
CONTINUOUS
370
    -3
390
5
347
A7
348
0
  0
LAYER
  5
E7
102
{ACAD_XDICTIONARY
360
1F6
102
}
330
10
100
AcDbSymbolTableRecord
100
AcDbLayerTableRecord
  2
20MM-JOINT
 70
     0
 62
     7
  6
CONTINUOUS
370
    -3
390
5
347
A7
348
0
  0
ENDTAB
  0
TABLE
  2
STYLE
  5
11
330
0
100
AcDbSymbolTable
 70
     3
  0
STYLE
  5
12
330
11
100
AcDbSymbolTableRecord
100
AcDbTextStyleTableRecord
  2
STANDARD
 70
     0
 40
0.0
 41
1.0
 50
0.0
 71
     0
 42
6.0
  3
txt.shx
  4

  0
STYLE
  5
23
330
11
100
AcDbSymbolTableRecord
100
AcDbTextStyleTableRecord
  2
ROMANS
 70
     0
 40
0.0
 41
1.0
 50
0.0
 71
     0
 42
5.0
  3
romans
  4

  0
STYLE
  5
E8
330
11
100
AcDbSymbolTableRecord
100
AcDbTextStyleTableRecord
  2
ARIAL
 70
     0
 40
5.0
 41
1.0
 50
0.0
 71
     0
 42
5.0
  3
arial.ttf
  4

1001
AcadAnnotative
1000
AnnotativeData
1002
{
1070
     1
1070
     1
1002
}
1001
ACAD
1000
Arial
1071
       34
  0
ENDTAB
  0
TABLE
  2
VIEW
  5
17
330
0
100
AcDbSymbolTable
 70
     0
  0
ENDTAB
  0
TABLE
  2
UCS
  5
18
330
0
100
AcDbSymbolTable
 70
     0
  0
ENDTAB
  0
TABLE
  2
APPID
  5
1B
330
0
100
AcDbSymbolTable
 70
     4
  0
APPID
  5
1C
330
1B
100
AcDbSymbolTableRecord
100
AcDbRegAppTableRecord
  2
ACAD
 70
     0
  0
APPID
  5
E9
330
1B
100
AcDbSymbolTableRecord
100
AcDbRegAppTableRecord
  2
ACAD_NAV_VCDISPLAY
 70
     0
  0
APPID
  5
EA
330
1B
100
AcDbSymbolTableRecord
100
AcDbRegAppTableRecord
  2
AcadAnnotative
 70
     0
  0
APPID
  5
1B6
330
1B
100
AcDbSymbolTableRecord
100
AcDbRegAppTableRecord
  2
ACAD_EXEMPT_FROM_CAD_STANDARDS
 70
     0
  0
ENDTAB
  0
TABLE
  2
DIMSTYLE
  5
1D
330
0
100
AcDbSymbolTable
 70
     2
100
AcDbDimStyleTable
 71
     0
  0
DIMSTYLE
105
25
102
{ACAD_REACTORS
330
5A
330
6A
102
}
330
1D
100
AcDbSymbolTableRecord
100
AcDbDimStyleTableRecord
  2
1-2
 70
     0
 40
0.0
 41
4.0
 42
3.0
 43
10.0
 44
3.0
 46
1.25
 73
     0
 74
     0
 77
     1
 78
    12
140
3.0
141
-3.0
143
0.039
145
1.5
146
0.75
147
1.5
271
     2
272
     2
279
     2
284
    12
285
    12
286
    12
340
23
  0
ENDTAB
  0
TABLE
  2
BLOCK_RECORD
  5
1
330
0
100
AcDbSymbolTable
 70
     6
  0
BLOCK_RECORD
  5
2
330
1
100
AcDbSymbolTableRecord
100
AcDbBlockTableRecord
  2
*MODEL_SPACE
340
A
 70
     0
280
     1
281
     0
  0
BLOCK_RECORD
  5
C
330
1
100
AcDbSymbolTableRecord
100
AcDbBlockTableRecord
  2
*PAPER_SPACE
340
F
 70
     0
280
     1
281
     0
  0
BLOCK_RECORD
  5
6B
330
1
100
AcDbSymbolTableRecord
100
AcDbBlockTableRecord
  2
*D0
340
0
 70
     0
280
     1
281
     0
  0
BLOCK_RECORD
  5
5B
330
1
100
AcDbSymbolTableRecord
100
AcDbBlockTableRecord
  2
*D1
340
0
 70
     0
280
     1
281
     0
  0
BLOCK_RECORD
  5
1B8
330
1
100
AcDbSymbolTableRecord
100
AcDbBlockTableRecord
  2
*D3
340
0
 70
     0
280
     1
281
     0
  0
BLOCK_RECORD
  5
1C4
330
1
100
AcDbSymbolTableRecord
100
AcDbBlockTableRecord
  2
*D4
340
0
 70
     0
280
     1
281
     0
  0
ENDTAB
  0
ENDSEC
  0
SECTION
  2
BLOCKS
  0
BLOCK
  5
3
330
2
100
AcDbEntity
  8
0
100
AcDbBlockBegin
  2
*MODEL_SPACE
 70
     0
 10
0.0
 20
0.0
 30
0.0
  3
*MODEL_SPACE
  1

  0
ENDBLK
  5
9
330
2
100
AcDbEntity
  8
0
100
AcDbBlockEnd
  0
BLOCK
  5
D
330
C
100
AcDbEntity
 67
     1
  8
0
100
AcDbBlockBegin
  2
*PAPER_SPACE
 70
     0
 10
0.0
 20
0.0
 30
0.0
  3
*PAPER_SPACE
  1

  0
ENDBLK
  5
E
330
C
100
AcDbEntity
 67
     1
  8
0
100
AcDbBlockEnd
  0
BLOCK
  5
75
330
6B
100
AcDbEntity
  8
0
100
AcDbBlockBegin
  2
*D0
 70
     1
 10
0.0
 20
0.0
 30
0.0
  3
*D0
  1

  0
LINE
  5
6C
330
6B
100
AcDbEntity
  8
0
  6
ByBlock
 62
     0
440
 16777216
100
AcDbLine
 10
-74.99999999999994
 20
-9.99999999999995
 30
0.0
 11
-74.99999999999994
 21
-124.2316578599137
 31
0.0
  0
LINE
  5
6D
330
6B
100
AcDbEntity
  8
0
  6
ByBlock
 62
     0
440
 16777216
100
AcDbLine
 10
75.00000000000006
 20
-9.99999999999995
 30
0.0
 11
75.00000000000006
 21
-124.2316578599137
 31
0.0
  0
LINE
  5
6E
330
6B
100
AcDbEntity
  8
0
  6
ByBlock
 62
     0
440
 16777216
100
AcDbLine
 10
-70.99999999999994
 20
-121.2316578599136
 30
0.0
 11
71.00000000000005
 21
-121.2316578599136
 31
0.0
  0
SOLID
  5
6F
330
6B
100
AcDbEntity
  8
0
  6
ByBlock
 62
     0
440
 16777216
100
AcDbTrace
 10
-70.99999999999994
 20
-120.564991193247
 30
0.0
 11
-70.99999999999994
 21
-121.8983245265803
 31
0.0
 12
-74.99999999999994
 22
-121.2316578599136
 32
0.0
 13
-74.99999999999994
 23
-121.2316578599136
 33
0.0
  0
SOLID
  5
70
330
6B
100
AcDbEntity
  8
0
  6
ByBlock
 62
     0
440
 16777216
100
AcDbTrace
 10
71.00000000000005
 20
-120.564991193247
 30
0.0
 11
71.00000000000005
 21
-121.8983245265803
 31
0.0
 12
75.00000000000006
 22
-121.2316578599136
 32
0.0
 13
75.00000000000006
 23
-121.2316578599136
 33
0.0
  0
TEXT
  5
71
330
6B
100
AcDbEntity
  8
0
  6
ByBlock
 62
     0
440
 16777216
100
AcDbText
 10
-4.499999999999943
 20
-119.7316578599136
 30
0.0
 40
3.0
  1
150
  7
ROMANS
 72
     1
 11
0.0000000000000568
 21
-118.2316578599136
 31
0.0
100
AcDbText
 73
     2
  0
POINT
  5
72
330
6B
100
AcDbEntity
  8
DEFPOINTS
  6
ByBlock
 62
     0
440
 16777216
100
AcDbPoint
 10
-74.99999999999994
 20
-6.999999999999951
 30
0.0
  0
POINT
  5
73
330
6B
100
AcDbEntity
  8
DEFPOINTS
  6
ByBlock
 62
     0
440
 16777216
100
AcDbPoint
 10
75.00000000000006
 20
-6.999999999999951
 30
0.0
  0
POINT
  5
74
330
6B
100
AcDbEntity
  8
DEFPOINTS
  6
ByBlock
 62
     0
440
 16777216
100
AcDbPoint
 10
75.00000000000006
 20
-121.2316578599136
 30
0.0
  0
ENDBLK
  5
76
330
6B
100
AcDbEntity
  8
0
100
AcDbBlockEnd
  0
BLOCK
  5
66
330
5B
100
AcDbEntity
  8
0
100
AcDbBlockBegin
  2
*D1
 70
     1
 10
0.0
 20
0.0
 30
0.0
  3
*D1
  1

  0
LINE
  5
5C
330
5B
100
AcDbEntity
  8
0
  6
ByBlock
 62
     0
440
 16777216
100
AcDbLine
 10
-39.99999999999994
 20
-77.99999999999994
 30
0.0
 11
-39.99999999999994
 21
-106.9735733499639
 31
0.0
  0
LINE
  5
5D
330
5B
100
AcDbEntity
  8
0
  6
ByBlock
 62
     0
440
 16777216
100
AcDbLine
 10
40.00000000000006
 20
-77.99999999999994
 30
0.0
 11
40.00000000000006
 21
-106.9735733499639
 31
0.0
  0
LINE
  5
5E
330
5B
100
AcDbEntity
  8
0
  6
ByBlock
 62
     0
440
 16777216
100
AcDbLine
 10
-35.99999999999994
 20
-103.9735733499639
 30
0.0
 11
36.00000000000006
 21
-103.9735733499639
 31
0.0
  0
SOLID
  5
5F
330
5B
100
AcDbEntity
  8
0
  6
ByBlock
 62
     0
440
 16777216
100
AcDbTrace
 10
-35.99999999999994
 20
-103.3069066832972
 30
0.0
 11
-35.99999999999994
 21
-104.6402400166305
 31
0.0
 12
-39.99999999999994
 22
-103.9735733499639
 32
0.0
 13
-39.99999999999994
 23
-103.9735733499639
 33
0.0
  0
SOLID
  5
60
330
5B
100
AcDbEntity
  8
0
  6
ByBlock
 62
     0
440
 16777216
100
AcDbTrace
 10
36.00000000000006
 20
-103.3069066832972
 30
0.0
 11
36.00000000000006
 21
-104.6402400166305
 31
0.0
 12
40.00000000000006
 22
-103.9735733499639
 32
0.0
 13
40.00000000000006
 23
-103.9735733499639
 33
0.0
  0
TEXT
  5
61
330
5B
100
AcDbEntity
  8
0
  6
ByBlock
 62
     0
440
 16777216
100
AcDbText
 10
-2.857142857142796
 20
-102.4735733499639
 30
0.0
 40
3.0
  1
80
  7
ROMANS
 72
     1
 11
0.0000000000000604
 21
-100.9735733499639
 31
0.0
100
AcDbText
 73
     2
  0
POINT
  5
62
330
5B
100
AcDbEntity
  8
DEFPOINTS
  6
ByBlock
 62
     0
440
 16777216
100
AcDbPoint
 10
-39.99999999999994
 20
-74.99999999999994
 30
0.0
  0
POINT
  5
64
330
5B
100
AcDbEntity
  8
DEFPOINTS
  6
ByBlock
 62
     0
440
 16777216
100
AcDbPoint
 10
40.00000000000006
 20
-74.99999999999994
 30
0.0
  0
POINT
  5
65
330
5B
100
AcDbEntity
  8
DEFPOINTS
  6
ByBlock
 62
     0
440
 16777216
100
AcDbPoint
 10
40.00000000000006
 20
-103.9735733499639
 30
0.0
  0
ENDBLK
  5
67
330
5B
100
AcDbEntity
  8
0
100
AcDbBlockEnd
  0
BLOCK
  5
1B9
330
1B8
100
AcDbEntity
  8
0
100
AcDbBlockBegin
  2
*D3
 70
     1
 10
0.0
 20
0.0
 30
0.0
  3
*D3
  1

  0
LINE
  5
1BB
330
1B8
100
AcDbEntity
  8
DIMS
 62
     0
440
 16777216
370
    -2
100
AcDbLine
 10
616.5894864971947
 20
-139.3619323291739
 30
0.0
 11
616.5894864971947
 21
-168.3355056791378
 31
0.0
  0
LINE
  5
1BC
330
1B8
100
AcDbEntity
  8
DIMS
 62
     0
440
 16777216
370
    -2
100
AcDbLine
 10
696.5894864971946
 20
-139.3619323291739
 30
0.0
 11
696.5894864971946
 21
-168.3355056791378
 31
0.0
  0
LINE
  5
1BD
330
1B8
100
AcDbEntity
  8
DIMS
 62
     0
440
 16777216
370
    -2
100
AcDbLine
 10
620.5894864971947
 20
-165.3355056791378
 30
0.0
 11
692.5894864971946
 21
-165.3355056791378
 31
0.0
  0
SOLID
  5
1BE
330
1B8
100
AcDbEntity
  8
DIMS
 62
     0
440
 16777216
100
AcDbTrace
 10
620.5894864971947
 20
-164.6688390124712
 30
0.0
 11
620.5894864971947
 21
-166.0021723458045
 31
0.0
 12
616.5894864971947
 22
-165.3355056791378
 32
0.0
 13
616.5894864971947
 23
-165.3355056791378
 33
0.0
  0
SOLID
  5
1BF
330
1B8
100
AcDbEntity
  8
DIMS
 62
     0
440
 16777216
100
AcDbTrace
 10
692.5894864971946
 20
-164.6688390124712
 30
0.0
 11
692.5894864971946
 21
-166.0021723458045
 31
0.0
 12
696.5894864971946
 22
-165.3355056791378
 32
0.0
 13
696.5894864971946
 23
-165.3355056791378
 33
0.0
  0
MTEXT
  5
1C0
330
1B8
100
AcDbEntity
  8
DIMS
 62
     0
440
 16777216
100
AcDbMText
 10
656.5894864971946
 20
-162.3355056791378
 30
0.0
 40
3.0
 41
0.0
 46
0.0
 71
     5
 72
     1
  1
\A1;80
  7
ROMANS
 73
     1
 44
1.0
  0
POINT
  5
1C1
330
1B8
100
AcDbEntity
  8
DEFPOINTS
 62
     0
440
 16777216
100
AcDbPoint
 10
616.5894864971947
 20
-136.3619323291739
 30
0.0
  0
POINT
  5
1C2
330
1B8
100
AcDbEntity
  8
DEFPOINTS
 62
     0
440
 16777216
100
AcDbPoint
 10
696.5894864971946
 20
-136.3619323291739
 30
0.0
  0
POINT
  5
1C3
330
1B8
100
AcDbEntity
  8
DEFPOINTS
 62
     0
440
 16777216
100
AcDbPoint
 10
696.5894864971946
 20
-165.3355056791378
 30
0.0
  0
ENDBLK
  5
1BA
330
1B8
100
AcDbEntity
  8
0
100
AcDbBlockEnd
  0
BLOCK
  5
1C5
330
1C4
100
AcDbEntity
  8
0
100
AcDbBlockBegin
  2
*D4
 70
     1
 10
0.0
 20
0.0
 30
0.0
  3
*D4
  1

  0
LINE
  5
1C7
330
1C4
100
AcDbEntity
  8
DIMS
 62
     0
440
 16777216
370
    -2
100
AcDbLine
 10
581.5894864971946
 20
-71.36193232917391
 30
0.0
 11
581.5894864971946
 21
-185.5935901890876
 31
0.0
  0
LINE
  5
1C8
330
1C4
100
AcDbEntity
  8
DIMS
 62
     0
440
 16777216
370
    -2
100
AcDbLine
 10
731.5894864971946
 20
-71.36193232917391
 30
0.0
 11
731.5894864971946
 21
-185.5935901890876
 31
0.0
  0
LINE
  5
1C9
330
1C4
100
AcDbEntity
  8
DIMS
 62
     0
440
 16777216
370
    -2
100
AcDbLine
 10
585.5894864971946
 20
-182.5935901890876
 30
0.0
 11
727.5894864971946
 21
-182.5935901890876
 31
0.0
  0
SOLID
  5
1CA
330
1C4
100
AcDbEntity
  8
DIMS
 62
     0
440
 16777216
100
AcDbTrace
 10
585.5894864971946
 20
-181.9269235224209
 30
0.0
 11
585.5894864971946
 21
-183.2602568557543
 31
0.0
 12
581.5894864971946
 22
-182.5935901890876
 32
0.0
 13
581.5894864971946
 23
-182.5935901890876
 33
0.0
  0
SOLID
  5
1CB
330
1C4
100
AcDbEntity
  8
DIMS
 62
     0
440
 16777216
100
AcDbTrace
 10
727.5894864971946
 20
-181.9269235224209
 30
0.0
 11
727.5894864971946
 21
-183.2602568557543
 31
0.0
 12
731.5894864971946
 22
-182.5935901890876
 32
0.0
 13
731.5894864971946
 23
-182.5935901890876
 33
0.0
  0
MTEXT
  5
1CC
330
1C4
100
AcDbEntity
  8
DIMS
 62
     0
440
 16777216
100
AcDbMText
 10
656.5894864971946
 20
-179.5935901890876
 30
0.0
 40
3.0
 41
0.0
 46
0.0
 71
     5
 72
     1
  1
\A1;150
  7
ROMANS
 73
     1
 44
1.0
  0
POINT
  5
1CD
330
1C4
100
AcDbEntity
  8
DEFPOINTS
 62
     0
440
 16777216
100
AcDbPoint
 10
581.5894864971946
 20
-68.36193232917391
 30
0.0
  0
POINT
  5
1CE
330
1C4
100
AcDbEntity
  8
DEFPOINTS
 62
     0
440
 16777216
100
AcDbPoint
 10
731.5894864971946
 20
-68.36193232917391
 30
0.0
  0
POINT
  5
1CF
330
1C4
100
AcDbEntity
  8
DEFPOINTS
 62
     0
440
 16777216
100
AcDbPoint
 10
731.5894864971946
 20
-182.5935901890876
 30
0.0
  0
ENDBLK
  5
1C6
330
1C4
100
AcDbEntity
  8
0
100
AcDbBlockEnd
  0
ENDSEC
  0
SECTION
  2
ENTITIES
  0
LINE
  5
30
330
2
100
AcDbEntity
  8
DIMS
  6
CENTER2
100
AcDbLine
 10
685.0894864971946
 20
6.638067670826103
 30
0.0
 11
694.0894864971946
 21
6.638067670826103
 31
0.0
  0
LINE
  5
33
330
2
100
AcDbEntity
  8
DIMS
  6
CENTER2
100
AcDbLine
 10
689.5894864971946
 20
11.1380676708261
 30
0.0
 11
689.5894864971946
 21
2.138067670826103
 31
0.0
  0
CIRCLE
  5
34
330
2
100
AcDbEntity
  8
ANCON-DSD
100
AcDbCircle
 10
689.5894864971946
 20
6.638067670826103
 30
0.0
 40
2.5
  0
LINE
  5
37
330
2
100
AcDbEntity
  8
DIMS
  6
CENTER2
100
AcDbLine
 10
623.5894864971946
 20
11.1380676708261
 30
0.0
 11
623.5894864971946
 21
2.138067670826103
 31
0.0
  0
CIRCLE
  5
38
330
2
100
AcDbEntity
  8
ANCON-DSD
100
AcDbCircle
 10
623.5894864971946
 20
6.638067670826103
 30
0.0
 40
2.5
  0
LINE
  5
39
330
2
100
AcDbEntity
  8
DIMS
  6
CENTER2
100
AcDbLine
 10
619.0894864971946
 20
6.638067670826103
 30
0.0
 11
628.0894864971947
 21
6.638067670826103
 31
0.0
  0
LINE
  5
3A
330
2
100
AcDbEntity
  8
ANCON-DSD
100
AcDbLine
 10
616.5894864971947
 20
13.6380676708261
 30
0.0
 11
696.5894864971946
 21
13.6380676708261
 31
0.0
  0
LINE
  5
3B
330
2
100
AcDbEntity
  8
DIMS
  6
CENTER2
100
AcDbLine
 10
626.5894864971946
 20
-23.8619323291739
 30
0.0
 11
686.5894864971947
 21
-23.8619323291739
 31
0.0
  0
CIRCLE
  5
3C
330
2
100
AcDbEntity
  8
ANCON-DSD
100
AcDbCircle
 10
656.5894864971946
 20
-23.8619323291739
 30
0.0
 40
11.45
  0
LINE
  5
3D
330
2
100
AcDbEntity
  8
ANCON-DSD
  6
Continuous
100
AcDbLine
 10
631.5894864971946
 20
-8.861932329173903
 30
0.0
 11
681.5894864971946
 21
-8.861932329173896
 31
0.0
  0
LINE
  5
3E
330
2
100
AcDbEntity
  8
ANCON-DSD
  6
Continuous
100
AcDbLine
 10
633.5894864971947
 20
-10.8619323291739
 30
0.0
 11
679.5894864971947
 21
-10.8619323291739
 31
0.0
  0
LINE
  5
3F
330
2
100
AcDbEntity
  8
ANCON-DSD
  6
Continuous
100
AcDbLine
 10
731.5894864971946
 20
-54.36193232917393
 30
0.0
 11
731.5894864971946
 21
-68.3619323291739
 31
0.0
  0
LINE
  5
40
330
2
100
AcDbEntity
  8
ANCON-DSD
  6
Continuous
100
AcDbLine
 10
681.5894864971946
 20
-83.8619323291739
 30
0.0
 11
681.5894864971946
 21
-113.8619323291739
 31
0.0
  0
LINE
  5
41
330
2
100
AcDbEntity
  8
ANCON-DSD
  6
Continuous
100
AcDbLine
 10
679.5894864971947
 20
-85.8619323291739
 30
0.0
 11
679.5894864971947
 21
-111.8619323291739
 31
0.0
  0
LINE
  5
42
330
2
100
AcDbEntity
  8
ANCON-DSD
  6
Continuous
100
AcDbLine
 10
696.5894864971946
 20
-68.36193232917392
 30
0.0
 11
731.5894864971946
 21
-68.36193232917391
 31
0.0
  0
LINE
  5
43
330
2
100
AcDbEntity
  8
ANCON-DSD
  6
Continuous
100
AcDbLine
 10
696.5894864971946
 20
-54.36193232917393
 30
0.0
 11
731.5894864971946
 21
-54.36193232917393
 31
0.0
  0
LINE
  5
44
330
2
100
AcDbEntity
  8
DIMS
  6
CENTER2
100
AcDbLine
 10
689.5894864971946
 20
-124.8619323291739
 30
0.0
 11
689.5894864971946
 21
-133.8619323291739
 31
0.0
  0
CIRCLE
  5
45
330
2
100
AcDbEntity
  8
ANCON-DSD
100
AcDbCircle
 10
689.5894864971946
 20
-129.3619323291739
 30
0.0
 40
2.5
  0
LINE
  5
46
330
2
100
AcDbEntity
  8
DIMS
  6
CENTER2
100
AcDbLine
 10
685.0894864971946
 20
-129.3619323291739
 30
0.0
 11
694.0894864971946
 21
-129.3619323291739
 31
0.0
  0
LINE
  5
4F
330
2
100
AcDbEntity
  8
ANCON-DSD
  6
Continuous
100
AcDbLine
 10
633.5894864971947
 20
-85.8619323291739
 30
0.0
 11
633.5894864971947
 21
-111.8619323291739
 31
0.0
  0
LINE
  5
50
330
2
100
AcDbEntity
  8
ANCON-DSD
  6
Continuous
100
AcDbLine
 10
631.5894864971946
 20
-83.8619323291739
 30
0.0
 11
631.5894864971946
 21
-113.8619323291739
 31
0.0
  0
LINE
  5
51
330
2
100
AcDbEntity
  8
ANCON-DSD
  6
Continuous
100
AcDbLine
 10
581.5894864971946
 20
-54.36193232917393
 30
0.0
 11
581.5894864971946
 21
-68.3619323291739
 31
0.0
  0
LINE
  5
52
330
2
100
AcDbEntity
  8
ANCON-DSD
  6
Continuous
100
AcDbLine
 10
581.5894864971946
 20
-54.36193232917393
 30
0.0
 11
616.5894864971947
 21
-54.36193232917393
 31
0.0
  0
LINE
  5
53
330
2
100
AcDbEntity
  8
ANCON-DSD
  6
Continuous
100
AcDbLine
 10
581.5894864971946
 20
-68.36193232917391
 30
0.0
 11
616.5894864971947
 21
-68.36193232917392
 31
0.0
  0
CIRCLE
  5
54
330
2
100
AcDbEntity
  8
ANCON-DSD
100
AcDbCircle
 10
623.5894864971946
 20
-129.3619323291739
 30
0.0
 40
2.5
  0
LINE
  5
55
330
2
100
AcDbEntity
  8
DIMS
  6
CENTER2
100
AcDbLine
 10
623.5894864971946
 20
-124.8619323291739
 30
0.0
 11
623.5894864971946
 21
-133.8619323291739
 31
0.0
  0
LINE
  5
56
330
2
100
AcDbEntity
  8
DIMS
  6
CENTER2
100
AcDbLine
 10
619.0894864971946
 20
-129.3619323291739
 30
0.0
 11
628.0894864971947
 21
-129.3619323291739
 31
0.0
  0
LINE
  5
57
330
2
100
AcDbEntity
  8
DIMS
  6
CENTER2
100
AcDbLine
 10
576.5894864971946
 20
-61.36193232917389
 30
0.0
 11
736.5894864971947
 21
-61.36193232917389
 31
0.0
  0
LINE
  5
58
330
2
100
AcDbEntity
  8
ANCON-DSD
100
AcDbLine
 10
616.5894864971947
 20
-136.3619323291739
 30
0.0
 11
696.5894864971946
 21
-136.3619323291739
 31
0.0
  0
LINE
  5
59
330
2
100
AcDbEntity
  8
DIMS
  6
CENTER2
100
AcDbLine
 10
626.5894864971946
 20
-98.8619323291739
 30
0.0
 11
686.5894864971947
 21
-98.8619323291739
 31
0.0
  0
DIMENSION
  5
5A
330
2
100
AcDbEntity
  8
DIMS
100
AcDbDimension
280
     0
  2
*D3
 10
696.5894864971946
 20
-165.3355056791378
 30
0.0
 11
656.5894864971946
 21
-162.3355056791378
 31
0.0
 70
    32
 71
     5
 42
80.0
 73
     0
 74
     0
 75
     0
  3
1-2
100
AcDbAlignedDimension
 13
616.5894864971947
 23
-136.3619323291739
 33
0.0
 14
696.5894864971946
 24
-136.3619323291739
 34
0.0
100
AcDbRotatedDimension
1001
ACAD
1000
DSTYLE
1002
{
1070
    40
1040
1.0
1002
}
  0
DIMENSION
  5
6A
330
2
100
AcDbEntity
  8
DIMS
100
AcDbDimension
280
     0
  2
*D4
 10
731.5894864971946
 20
-182.5935901890876
 30
0.0
 11
656.5894864971946
 21
-179.5935901890876
 31
0.0
 70
    32
 71
     5
 42
150.0
 73
     0
 74
     0
 75
     0
  3
1-2
100
AcDbAlignedDimension
 13
581.5894864971946
 23
-68.36193232917391
 33
0.0
 14
731.5894864971946
 24
-68.36193232917391
 34
0.0
100
AcDbRotatedDimension
1001
ACAD
1000
DSTYLE
1002
{
1070
    40
1040
1.0
1002
}
  0
CIRCLE
  5
77
330
2
100
AcDbEntity
  8
ANCON-DSD
100
AcDbCircle
 10
656.5894864971946
 20
-98.8619323291739
 30
0.0
 40
12.7
  0
CIRCLE
  5
78
330
2
100
AcDbEntity
  8
ANCON-DSD
100
AcDbCircle
 10
656.5894864971946
 20
-98.8619323291739
 30
0.0
 40
11.45
  0
LINE
  5
79
330
2
100
AcDbEntity
  8
ANCON-DSD
  6
Continuous
100
AcDbLine
 10
631.5894864971946
 20
-38.8619323291739
 30
0.0
 11
681.5894864971946
 21
-38.8619323291739
 31
0.0
  0
LINE
  5
7A
330
2
100
AcDbEntity
  8
ANCON-DSD
  6
Continuous
100
AcDbLine
 10
633.5894864971947
 20
-36.8619323291739
 30
0.0
 11
679.5894864971947
 21
-36.8619323291739
 31
0.0
  0
LINE
  5
7B
330
2
100
AcDbEntity
  8
ANCON-DSD
  6
Continuous
100
AcDbLine
 10
633.5894864971947
 20
-85.8619323291739
 30
0.0
 11
679.5894864971947
 21
-85.8619323291739
 31
0.0
  0
LINE
  5
7C
330
2
100
AcDbEntity
  8
ANCON-DSD
  6
Continuous
100
AcDbLine
 10
631.5894864971946
 20
-83.8619323291739
 30
0.0
 11
681.5894864971946
 21
-83.8619323291739
 31
0.0
  0
LINE
  5
7D
330
2
100
AcDbEntity
  8
ANCON-DSD
  6
Continuous
100
AcDbLine
 10
633.5894864971947
 20
-111.8619323291739
 30
0.0
 11
679.5894864971947
 21
-111.8619323291739
 31
0.0
  0
LINE
  5
7E
330
2
100
AcDbEntity
  8
ANCON-DSD
  6
Continuous
100
AcDbLine
 10
631.5894864971946
 20
-113.8619323291739
 30
0.0
 11
681.5894864971946
 21
-113.8619323291739
 31
0.0
  0
LINE
  5
7F
330
2
100
AcDbEntity
  8
DIMS
  6
CENTER2
100
AcDbLine
 10
656.5894864971946
 20
6.183664080019639
 30
0.0
 11
656.5894864971946
 21
-122.3041350226426
 31
0.0
  0
LINE
  5
80
330
2
100
AcDbEntity
  8
DIMS
  6
CENTER2
100
AcDbLine
 10
656.5894864971946
 20
23.63806767082611
 30
0.0
 11
656.5894864971946
 21
-146.3619323291739
 31
0.0
  0
LINE
  5
81
330
2
100
AcDbEntity
  8
ANCON-DSD
100
AcDbLine
 10
616.5894864971947
 20
13.6380676708261
 30
0.0
 11
616.5894864971947
 21
-136.3619323291739
 31
0.0
  0
LINE
  5
82
330
2
100
AcDbEntity
  8
ANCON-DSD
100
AcDbLine
 10
696.5894864971946
 20
13.6380676708261
 30
0.0
 11
696.5894864971946
 21
-136.3619323291739
 31
0.0
  0
CIRCLE
  5
85
330
2
100
AcDbEntity
  8
ANCON-DSD
100
AcDbCircle
 10
656.5894864971946
 20
-23.8619323291739
 30
0.0
 40
12.7
  0
LINE
  5
86
330
2
100
AcDbEntity
  8
ANCON-DSD
  6
Continuous
100
AcDbLine
 10
681.5894864971946
 20
-8.861932329173896
 30
0.0
 11
681.5894864971946
 21
-38.8619323291739
 31
0.0
  0
LINE
  5
87
330
2
100
AcDbEntity
  8
ANCON-DSD
  6
Continuous
100
AcDbLine
 10
631.5894864971946
 20
-8.861932329173903
 30
0.0
 11
631.5894864971946
 21
-38.8619323291739
 31
0.0
  0
LINE
  5
88
330
2
100
AcDbEntity
  8
ANCON-DSD
  6
Continuous
100
AcDbLine
 10
679.5894864971947
 20
-10.8619323291739
 30
0.0
 11
679.5894864971947
 21
-36.8619323291739
 31
0.0
  0
LINE
  5
89
330
2
100
AcDbEntity
  8
ANCON-DSD
  6
Continuous
100
AcDbLine
 10
633.5894864971947
 20
-10.8619323291739
 30
0.0
 11
633.5894864971947
 21
-36.8619323291739
 31
0.0
  0
LINE
  5
155
330
2
100
AcDbEntity
  8
SPECD
  6
Continuous
 62
     6
100
AcDbLine
 10
928.9453633126115
 20
48.14166406188928
 30
0.0
 11
928.9453633126115
 21
-4.892028523661053
 31
0.0
  0
LINE
  5
156
330
2
100
AcDbEntity
  8
SPECP
  6
Continuous
 62
     6
100
AcDbLine
 10
726.4584132059711
 20
77.50817772898312
 30
0.0
 11
794.0482641287331
 21
77.50817772898312
 31
0.0
  0
LINE
  5
157
330
2
100
AcDbEntity
  8
SPECD
  6
Continuous
 62
     6
100
AcDbLine
 10
726.4584132059711
 20
48.14166406188928
 30
0.0
 11
726.4584132059711
 21
-4.892028523661053
 31
0.0
  0
TEXT
  5
158
102
{ACAD_XDICTIONARY
360
159
102
}
330
2
100
AcDbEntity
  8
SPECP
  6
Continuous
 62
     6
100
AcDbText
 10
734.0813801521496
 20
68.87106761313958
 30
0.0
 40
5.0
  1
STAIFIX DSD ??
  7
ARIAL
 72
     4
 11
760.4763324031726
 21
71.37106761313958
 31
0.0
100
AcDbText
1001
AcadAnnotative
1000
AnnotativeData
1002
{
1070
     1
1070
     1
1002
}
  0
LINE
  5
15D
330
2
100
AcDbEntity
  8
SPECP
  6
Continuous
 62
     6
100
AcDbLine
 10
726.4584132059711
 20
65.59020243698182
 30
0.0
 11
794.0482641287331
 21
65.59020243698182
 31
0.0
  0
TEXT
  5
15E
102
{ACAD_XDICTIONARY
360
15F
102
}
330
2
100
AcDbEntity
  8
SPECD
  6
Continuous
 62
     6
100
AcDbText
 10
736.9799373169747
 20
-1.190683412832775
 30
0.0
 40
5.0
  1
LOAD OF ??? kN
  7
ARIAL
 72
     4
 11
764.3469223101533
 21
1.311021907767496
 31
0.0
100
AcDbText
1001
AcadAnnotative
1000
AnnotativeData
1002
{
1070
     1
1070
     1
1002
}
  0
LINE
  5
163
330
2
100
AcDbEntity
  8
SPECP
  6
Continuous
 62
     6
100
AcDbLine
 10
726.4584132059711
 20
77.50817772898312
 30
0.0
 11
726.4584132059711
 21
65.59020243698182
 31
0.0
  0
LINE
  5
164
330
2
100
AcDbEntity
  8
SPECP
  6
Continuous
 62
     6
100
AcDbLine
 10
794.0482641287331
 20
77.50817772898312
 30
0.0
 11
794.0482641287331
 21
65.59020243698182
 31
0.0
  0
TEXT
  5
165
102
{ACAD_XDICTIONARY
360
166
102
}
330
2
100
AcDbEntity
  8
SPECD
  6
Continuous
 62
     6
100
AcDbText
 10
735.0003591511182
 20
18.8932991660586
 30
0.0
 40
5.0
  1
SUITABLE FOR A DESIGN JOINT WIDTH OF ?? MM
  7
ARIAL
 72
     4
 11
818.8270985781304
 21
21.39500448665888
 31
0.0
100
AcDbText
1001
AcadAnnotative
1000
AnnotativeData
1002
{
1070
     1
1070
     1
1002
}
  0
LINE
  5
16A
330
2
100
AcDbEntity
  8
SPECD
  6
Continuous
 62
     6
100
AcDbLine
 10
726.4584132059711
 20
48.14166406188928
 30
0.0
 11
928.9453633126115
 21
48.14166406188928
 31
0.0
  0
LINE
  5
16B
330
2
100
AcDbEntity
  8
SPECD
  6
Continuous
 62
     6
100
AcDbLine
 10
726.4584132059711
 20
-4.892028523661053
 30
0.0
 11
928.9453633126115
 21
-4.892028523661053
 31
0.0
  0
TEXT
  5
16C
102
{ACAD_XDICTIONARY
360
16D
102
}
330
2
100
AcDbEntity
  8
SPECD
  6
Continuous
 62
     6
100
AcDbText
 10
736.5212727822908
 20
8.844241752129541
 30
0.0
 40
5.0
  1
AND CAPABLE OF TRANSFERRING A SERVICEABILITY
  7
ARIAL
 72
     4
 11
827.923046315715
 21
11.34594707272981
 31
0.0
100
AcDbText
1001
AcadAnnotative
1000
AnnotativeData
1002
{
1070
     1
1070
     1
1002
}
  0
TEXT
  5
171
102
{ACAD_XDICTIONARY
360
172
102
}
330
2
100
AcDbEntity
  8
SPECD
  6
Continuous
 62
     6
100
AcDbText
 10
735.1436245136876
 20
28.79444687572838
 30
0.0
 40
5.0
  1
COMPRISING SLEEVE AND DOWEL COMPONENT
  7
ARIAL
 72
     4
 11
818.0051524809455
 21
31.29615219632865
 31
0.0
100
AcDbText
1001
AcadAnnotative
1000
AnnotativeData
1002
{
1070
     1
1070
     1
1002
}
  0
TEXT
  5
176
102
{ACAD_XDICTIONARY
360
177
102
}
330
2
100
AcDbEntity
  8
SPECD
  6
Continuous
 62
     6
100
AcDbText
 10
736.2375432795174
 20
38.89915920151899
 30
0.0
 40
5.0
  1
TWO PART STAINLESS STEEL SHEAR CONNECTOR
  7
ARIAL
 72
     4
 11
823.3691940298584
 21
41.40086452211926
 31
0.0
100
AcDbText
1001
AcadAnnotative
1000
AnnotativeData
1002
{
1070
     1
1070
     1
1002
}
  0
TEXT
  5
17B
102
{ACAD_XDICTIONARY
360
17C
102
}
330
2
100
AcDbEntity
  8
20MM-JOINT
  6
Continuous
 62
     6
100
AcDbText
 10
890.4754009735713
 20
-55.6992572156238
 30
0.0
 40
5.0
  1
???
  7
ARIAL
 72
     4
 11
896.3024814647035
 21
-53.15662420061698
 31
0.0
100
AcDbText
1001
AcadAnnotative
1000
AnnotativeData
1002
{
1070
     1
1070
     1
1002
}
  0
LINE
  5
180
330
2
100
AcDbEntity
  8
20MM-JOINT
  6
Continuous
 62
     6
100
AcDbLine
 10
927.7956950445373
 20
-13.37393515962276
 30
0.0
 11
927.7956950445373
 21
-66.47218129371555
 31
0.0
  0
TEXT
  5
181
102
{ACAD_XDICTIONARY
360
182
102
}
330
2
100
AcDbEntity
  8
20MM-JOINT
  6
Continuous
 62
     6
100
AcDbText
 10
822.1477077405614
 20
-34.53727470678336
 30
0.0
 40
5.0
  1
WIDTH
  7
ARIAL
 72
     4
 11
833.5921142889924
 21
-32.03727470678336
 31
0.0
100
AcDbText
1001
AcadAnnotative
1000
AnnotativeData
1002
{
1070
     1
1070
     1
1002
}
  0
TEXT
  5
186
102
{ACAD_XDICTIONARY
360
187
102
}
330
2
100
AcDbEntity
  8
20MM-JOINT
  6
Continuous
 62
     6
100
AcDbText
 10
825.6288798275956
 20
-55.69755189502354
 30
0.0
 40
5.0
  1
?? MM
  7
ARIAL
 72
     4
 11
836.3024814647035
 21
-53.15662420061698
 31
0.0
100
AcDbText
1001
AcadAnnotative
1000
AnnotativeData
1002
{
1070
     1
1070
     1
1002
}
  0
TEXT
  5
18B
102
{ACAD_XDICTIONARY
360
18C
102
}
330
2
100
AcDbEntity
  8
20MM-JOINT
  6
Continuous
 62
     6
100
AcDbText
 10
809.1429328428805
 20
-23.64135663976466
 30
0.0
 40
5.0
  1
DESIGN JOINT
  7
ARIAL
 72
     4
 11
833.5921142889924
 21
-21.13965131916438
 31
0.0
100
AcDbText
1001
AcadAnnotative
1000
AnnotativeData
1002
{
1070
     1
1070
     1
1002
}
  0
TEXT
  5
190
102
{ACAD_XDICTIONARY
360
191
102
}
330
2
100
AcDbEntity
  8
20MM-JOINT
  6
Continuous
 62
     6
100
AcDbText
 10
761.2861376805287
 20
-23.63965131916438
 30
0.0
 40
5.0
  1
DSD REF:
  7
ARIAL
 72
     4
 11
777.5855919779367
 21
-21.13965131916438
 31
0.0
100
AcDbText
1001
AcadAnnotative
1000
AnnotativeData
1002
{
1070
     1
1070
     1
1002
}
  0
TEXT
  5
195
102
{ACAD_XDICTIONARY
360
196
102
}
330
2
100
AcDbEntity
  8
20MM-JOINT
  6
Continuous
 62
     6
100
AcDbText
 10
762.3273791454675
 20
-55.50655598779298
 30
0.0
 40
5.0
  1
DSDQ75
  7
ARIAL
 72
     4
 11
776.3024814647035
 21
-53.15662420061698
 31
0.0
100
AcDbText
1001
AcadAnnotative
1000
AnnotativeData
1002
{
1070
     1
1070
     1
1002
}
  0
LINE
  5
19A
330
2
100
AcDbEntity
  8
20MM-JOINT
  6
Continuous
 62
     6
100
AcDbLine
 10
752.417017352675
 20
-13.37393515962276
 30
0.0
 11
752.417017352675
 21
-66.47218129371555
 31
0.0
  0
LINE
  5
19B
330
2
100
AcDbEntity
  8
20MM-JOINT
  6
Continuous
 62
     6
100
AcDbLine
 10
802.417017352675
 20
-13.37393515962276
 30
0.0
 11
802.417017352675
 21
-66.47218129371555
 31
0.0
  0
LINE
  5
19C
330
2
100
AcDbEntity
  8
20MM-JOINT
  6
Continuous
 62
     6
100
AcDbLine
 10
862.9251109097376
 20
-13.37393515962276
 30
0.0
 11
862.9251109097376
 21
-66.47218129371555
 31
0.0
  0
TEXT
  5
19D
102
{ACAD_XDICTIONARY
360
19E
102
}
330
2
100
AcDbEntity
  8
20MM-JOINT
  6
Continuous
 62
     6
100
AcDbText
 10
877.286451451061
 20
-34.24458777464355
 30
0.0
 40
5.0
  1
LOAD ( kN )
  7
ARIAL
 72
     4
 11
896.3024814647035
 21
-32.43524261775406
 31
0.0
100
AcDbText
1001
AcadAnnotative
1000
AnnotativeData
1002
{
1070
     1
1070
     1
1002
}
  0
TEXT
  5
1A2
102
{ACAD_XDICTIONARY
360
1A3
102
}
330
2
100
AcDbEntity
  8
20MM-JOINT
  6
Continuous
 62
     6
100
AcDbText
 10
867.9651690499694
 20
-23.6348208220328
 30
0.0
 40
5.0
  1
SERVICEABILITY
  7
ARIAL
 72
     4
 11
896.3024814647035
 21
-21.1348208220328
 31
0.0
100
AcDbText
1001
AcadAnnotative
1000
AnnotativeData
1002
{
1070
     1
1070
     1
1002
}
  0
LINE
  5
1A7
330
2
100
AcDbEntity
  8
20MM-JOINT
  6
Continuous
 62
     6
100
AcDbLine
 10
752.417017352675
 20
-13.37393515962276
 30
0.0
 11
927.7956950445373
 21
-13.37393515962276
 31
0.0
  0
LINE
  5
1A8
330
2
100
AcDbEntity
  8
20MM-JOINT
  6
Continuous
 62
     6
100
AcDbLine
 10
752.417017352675
 20
-39.44469621866847
 30
0.0
 11
927.7956950445373
 21
-39.44469621866847
 31
0.0
  0
LINE
  5
1A9
330
2
100
AcDbEntity
  8
20MM-JOINT
  6
Continuous
 62
     6
100
AcDbLine
 10
752.417017352675
 20
-66.47218129371549
 30
0.0
 11
927.7956950445373
 21
-66.47218129371555
 31
0.0
  0
TEXT
  5
1AA
102
{ACAD_XDICTIONARY
360
1AB
102
}
330
2
100
AcDbEntity
  8
SPECP
  6
Continuous
 62
     1
100
AcDbText
 10
601.6921053599357
 20
68.8693622925393
 30
0.0
 40
5.0
  1
SPECIFICATION BY PRODUCT
  7
ARIAL
 72
     4
 11
652.3384218674392
 21
71.37106761313958
 31
0.0
100
AcDbText
1001
AcadAnnotative
1000
AnnotativeData
1002
{
1070
     1
1070
     1
1002
}
  0
TEXT
  5
1AF
102
{ACAD_XDICTIONARY
360
1B0
102
}
330
2
100
AcDbEntity
  8
SPECD
  6
Continuous
 62
     1
100
AcDbText
 10
601.4266274369822
 20
38.93490782804319
 30
0.0
 40
5.0
  1
SPECIFICATION BY DESCRIPTION
  7
ARIAL
 72
     4
 11
658.6725346675416
 21
41.43661314864345
 31
0.0
100
AcDbText
1001
AcadAnnotative
1000
AnnotativeData
1002
{
1070
     1
1070
     1
1002
}
  0
MTEXT
  5
1B4
330
2
100
AcDbEntity
  8
ANCON-TEXT
100
AcDbMText
 10
788.2191337411552
 20
-144.6263096606344
 30
0.0
 40
6.695252439800889
 41
160.2376420553701
 46
0.0
 71
     1
 72
     5
  1
{\fArial|b0|i0|c0|p34;Leviat \PTel:  1300 304 320\PEmail: technical.au@leviat.com\PWeb: ancon.com.au / Leviat.com}
 73
     1
 44
1.0
101
Embedded Object
 70
     1
 10
1.0
 20
0.0
 30
0.0
 11
788.2191337411552
 21
-144.6263096606344
 31
0.0
 40
160.2376420553701
 41
0.0
 42
135.4898050010729
 43
40.5505773622047
 71
     2
 72
     1
 44
160.2376420553701
 45
0.8369065549751111
 73
     0
 74
     0
 46
0.0
  0
LWPOLYLINE
  5
1B5
330
2
100
AcDbEntity
  8
DIMS
 62
     0
100
AcDbPolyline
 90
        4
 70
     1
 43
0.0
 10
558.8472097875865
 20
98.39109263085289
 10
939.0283140914934
 20
98.39109263085289
 10
939.0283140914934
 20
-199.93330099436
 10
558.8472097875865
 20
-199.93330099436
  0
ENDSEC
  0
SECTION
  2
OBJECTS
  0
DICTIONARY
  5
7
330
0
100
AcDbDictionary
281
     1
  3
ACAD_CIP_PREVIOUS_PRODUCT_INFO
350
E6
  3
ACAD_COLOR
350
C8
  3
ACAD_DETAILVIEWSTYLE
350
E1
  3
ACAD_GROUP
350
1F
  3
ACAD_LAYOUT
350
B
  3
ACAD_MATERIAL
350
96
  3
ACAD_MLEADERSTYLE
350
DD
  3
ACAD_MLINESTYLE
350
20
  3
ACAD_PLOTSETTINGS
350
21
  3
ACAD_PLOTSTYLENAME
350
6
  3
ACAD_SCALELIST
350
CB
  3
ACAD_SECTIONVIEWSTYLE
350
DF
  3
ACAD_TABLESTYLE
350
C9
  3
ACAD_VISUALSTYLE
350
AF
  3
ACDB_RECOMPOSE_DATA
350
204
  3
AcDbVariableDictionary
350
1F8
  0
DICTIONARY
  5
EB
330
10
100
AcDbDictionary
280
     1
281
     1
  3
ACAD_LAYERSTATES
360
EC
  0
DICTIONARY
  5
1EA
330
4
100
AcDbDictionary
280
     1
281
     1
  3
ADSK_XREC_LAYER_RECONCILED
360
1EB
  0
DICTIONARY
  5
1EC
330
31
100
AcDbDictionary
280
     1
281
     1
  3
ADSK_XREC_LAYER_RECONCILED
360
1ED
  0
DICTIONARY
  5
1EE
330
22
100
AcDbDictionary
280
     1
281
     1
  3
ADSK_XREC_LAYER_RECONCILED
360
1EF
  0
DICTIONARY
  5
1F0
330
27
100
AcDbDictionary
280
     1
281
     1
  3
ADSK_XREC_LAYER_RECONCILED
360
1F1
  0
DICTIONARY
  5
1F2
330
48
100
AcDbDictionary
280
     1
281
     1
  3
ADSK_XREC_LAYER_RECONCILED
360
1F3
  0
DICTIONARY
  5
1F4
330
2B
100
AcDbDictionary
280
     1
281
     1
  3
ADSK_XREC_LAYER_RECONCILED
360
1F5
  0
DICTIONARY
  5
1F6
330
E7
100
AcDbDictionary
280
     1
281
     1
  3
ADSK_XREC_LAYER_RECONCILED
360
1F7
  0
DICTIONARY
  5
159
330
158
100
AcDbDictionary
280
     1
281
     1
  3
AcDbContextDataManager
360
15A
  0
DICTIONARY
  5
15F
330
15E
100
AcDbDictionary
280
     1
281
     1
  3
AcDbContextDataManager
360
160
  0
DICTIONARY
  5
166
330
165
100
AcDbDictionary
280
     1
281
     1
  3
AcDbContextDataManager
360
167
  0
DICTIONARY
  5
16D
330
16C
100
AcDbDictionary
280
     1
281
     1
  3
AcDbContextDataManager
360
16E
  0
DICTIONARY
  5
172
330
171
100
AcDbDictionary
280
     1
281
     1
  3
AcDbContextDataManager
360
173
  0
DICTIONARY
  5
177
330
176
100
AcDbDictionary
280
     1
281
     1
  3
AcDbContextDataManager
360
178
  0
DICTIONARY
  5
17C
330
17B
100
AcDbDictionary
280
     1
281
     1
  3
AcDbContextDataManager
360
17D
  0
DICTIONARY
  5
182
330
181
100
AcDbDictionary
280
     1
281
     1
  3
AcDbContextDataManager
360
183
  0
DICTIONARY
  5
187
330
186
100
AcDbDictionary
280
     1
281
     1
  3
AcDbContextDataManager
360
188
  0
DICTIONARY
  5
18C
330
18B
100
AcDbDictionary
280
     1
281
     1
  3
AcDbContextDataManager
360
18D
  0
DICTIONARY
  5
191
330
190
100
AcDbDictionary
280
     1
281
     1
  3
AcDbContextDataManager
360
192
  0
DICTIONARY
  5
196
330
195
100
AcDbDictionary
280
     1
281
     1
  3
AcDbContextDataManager
360
197
  0
DICTIONARY
  5
19E
330
19D
100
AcDbDictionary
280
     1
281
     1
  3
AcDbContextDataManager
360
19F
  0
DICTIONARY
  5
1A3
330
1A2
100
AcDbDictionary
280
     1
281
     1
  3
AcDbContextDataManager
360
1A4
  0
DICTIONARY
  5
1AB
330
1AA
100
AcDbDictionary
280
     1
281
     1
  3
AcDbContextDataManager
360
1AC
  0
DICTIONARY
  5
1B0
330
1AF
100
AcDbDictionary
280
     1
281
     1
  3
AcDbContextDataManager
360
1B1
  0
XRECORD
  5
E6
102
{ACAD_REACTORS
330
7
102
}
330
7
100
AcDbXrecord
280
     1
300
ACDLT
300
2020
300

  0
DICTIONARY
  5
C8
102
{ACAD_REACTORS
330
7
102
}
330
7
100
AcDbDictionary
281
     1
  0
DICTIONARY
  5
E1
102
{ACAD_REACTORS
330
7
102
}
330
7
100
AcDbDictionary
281
     1
  3
Imperial24
350
E2
  0
DICTIONARY
  5
1F
102
{ACAD_REACTORS
330
7
102
}
330
7
100
AcDbDictionary
281
     1
  0
DICTIONARY
  5
B
102
{ACAD_REACTORS
330
7
102
}
330
7
100
AcDbDictionary
281
     1
  3
Layout1
350
F
  3
Model
350
A
  0
DICTIONARY
  5
96
102
{ACAD_REACTORS
330
7
102
}
330
7
100
AcDbDictionary
281
     1
  3
ByBlock
350
9F
  3
ByLayer
350
97
  3
Global
350
A7
  0
DICTIONARY
  5
DD
102
{ACAD_REACTORS
330
7
102
}
330
7
100
AcDbDictionary
281
     1
  3
Standard
350
DE
  0
DICTIONARY
  5
20
102
{ACAD_REACTORS
330
7
102
}
330
7
100
AcDbDictionary
281
     1
  3
STANDARD
350
24
  0
DICTIONARY
  5
21
102
{ACAD_REACTORS
330
7
102
}
330
7
100
AcDbDictionary
281
     1
  0
ACDBDICTIONARYWDFLT
  5
6
102
{ACAD_REACTORS
330
7
102
}
330
7
100
AcDbDictionary
281
     1
  3
Normal
350
5
100
AcDbDictionaryWithDefault
340
5
  0
DICTIONARY
  5
CB
102
{ACAD_REACTORS
330
7
102
}
330
7
100
AcDbDictionary
281
     1
  3
A0
350
CC
  3
A1
350
CD
  3
A2
350
CE
  3
A3
350
CF
  3
A4
350
D0
  3
A5
350
D1
  3
A6
350
D2
  3
A7
350
D3
  3
A8
350
D4
  3
A9
350
D5
  3
B0
350
D6
  3
B1
350
D7
  3
B2
350
D8
  3
B3
350
D9
  3
B4
350
DA
  3
B5
350
DB
  3
B6
350
DC
  0
DICTIONARY
  5
DF
102
{ACAD_REACTORS
330
7
102
}
330
7
100
AcDbDictionary
281
     1
  3
Imperial24
350
E0
  0
DICTIONARY
  5
C9
102
{ACAD_REACTORS
330
7
102
}
330
7
100
AcDbDictionary
281
     1
  3
Standard
350
CA
  0
DICTIONARY
  5
AF
102
{ACAD_REACTORS
330
7
102
}
330
7
100
AcDbDictionary
281
     1
  3
2dWireframe
350
B5
  3
Basic
350
B4
  3
Brighten
350
BB
  3
ColorChange
350
BF
  3
Conceptual
350
B8
  3
Dim
350
BA
  3
EdgeColorOff
350
C7
  3
Facepattern
350
BE
  3
Flat
350
B0
  3
FlatWithEdges
350
B1
  3
Gouraud
350
B2
  3
GouraudWithEdges
350
B3
  3
Hidden
350
B7
  3
JitterOff
350
C5
  3
Linepattern
350
BD
  3
OverhangOff
350
C6
  3
Realistic
350
B9
  3
Shaded
350
C4
  3
Shaded with edges
350
C3
  3
Shades of Gray
350
C0
  3
Sketchy
350
C1
  3
Thicken
350
BC
  3
Wireframe
350
B6
  3
X-Ray
350
C2
  0
XRECORD
  5
204
102
{ACAD_REACTORS
330
7
102
}
330
7
100
AcDbXrecord
280
     1
 90
        1
330
CA
  0
DICTIONARY
  5
1F8
102
{ACAD_REACTORS
330
7
102
}
330
7
100
AcDbDictionary
281
     1
  3
CANNOSCALE
350
1FE
  3
CMLEADERSTYLE
350
1FA
  3
CTABLESTYLE
350
1F9
  3
CVIEWDETAILSTYLE
350
1FB
  3
CVIEWSECTIONSTYLE
350
1FC
  3
LAYEREVAL
350
200
  3
LAYERNOTIFY
350
201
  3
LIGHTINGUNITS
350
1FF
  3
MSLTSCALE
350
1FD
  0
DICTIONARY
  5
EC
102
{ACAD_REACTORS
330
EB
102
}
330
EB
100
AcDbDictionary
281
     1
  0
XRECORD
  5
1EB
102
{ACAD_REACTORS
330
1EA
102
}
330
1EA
100
AcDbXrecord
280
     1
290
     1
  0
XRECORD
  5
1ED
102
{ACAD_REACTORS
330
1EC
102
}
330
1EC
100
AcDbXrecord
280
     1
290
     1
  0
XRECORD
  5
1EF
102
{ACAD_REACTORS
330
1EE
102
}
330
1EE
100
AcDbXrecord
280
     1
290
     1
  0
XRECORD
  5
1F1
102
{ACAD_REACTORS
330
1F0
102
}
330
1F0
100
AcDbXrecord
280
     1
290
     1
  0
XRECORD
  5
1F3
102
{ACAD_REACTORS
330
1F2
102
}
330
1F2
100
AcDbXrecord
280
     1
290
     1
  0
XRECORD
  5
1F5
102
{ACAD_REACTORS
330
1F4
102
}
330
1F4
100
AcDbXrecord
280
     1
290
     1
  0
XRECORD
  5
1F7
102
{ACAD_REACTORS
330
1F6
102
}
330
1F6
100
AcDbXrecord
280
     1
290
     1
  0
DICTIONARY
  5
15A
102
{ACAD_REACTORS
330
159
102
}
330
159
100
AcDbDictionary
281
     1
  3
ACDB_ANNOTATIONSCALES
350
15B
  0
DICTIONARY
  5
160
102
{ACAD_REACTORS
330
15F
102
}
330
15F
100
AcDbDictionary
281
     1
  3
ACDB_ANNOTATIONSCALES
350
161
  0
DICTIONARY
  5
167
102
{ACAD_REACTORS
330
166
102
}
330
166
100
AcDbDictionary
281
     1
  3
ACDB_ANNOTATIONSCALES
350
168
  0
DICTIONARY
  5
16E
102
{ACAD_REACTORS
330
16D
102
}
330
16D
100
AcDbDictionary
281
     1
  3
ACDB_ANNOTATIONSCALES
350
16F
  0
DICTIONARY
  5
173
102
{ACAD_REACTORS
330
172
102
}
330
172
100
AcDbDictionary
281
     1
  3
ACDB_ANNOTATIONSCALES
350
174
  0
DICTIONARY
  5
178
102
{ACAD_REACTORS
330
177
102
}
330
177
100
AcDbDictionary
281
     1
  3
ACDB_ANNOTATIONSCALES
350
179
  0
DICTIONARY
  5
17D
102
{ACAD_REACTORS
330
17C
102
}
330
17C
100
AcDbDictionary
281
     1
  3
ACDB_ANNOTATIONSCALES
350
17E
  0
DICTIONARY
  5
183
102
{ACAD_REACTORS
330
182
102
}
330
182
100
AcDbDictionary
281
     1
  3
ACDB_ANNOTATIONSCALES
350
184
  0
DICTIONARY
  5
188
102
{ACAD_REACTORS
330
187
102
}
330
187
100
AcDbDictionary
281
     1
  3
ACDB_ANNOTATIONSCALES
350
189
  0
DICTIONARY
  5
18D
102
{ACAD_REACTORS
330
18C
102
}
330
18C
100
AcDbDictionary
281
     1
  3
ACDB_ANNOTATIONSCALES
350
18E
  0
DICTIONARY
  5
192
102
{ACAD_REACTORS
330
191
102
}
330
191
100
AcDbDictionary
281
     1
  3
ACDB_ANNOTATIONSCALES
350
193
  0
DICTIONARY
  5
197
102
{ACAD_REACTORS
330
196
102
}
330
196
100
AcDbDictionary
281
     1
  3
ACDB_ANNOTATIONSCALES
350
198
  0
DICTIONARY
  5
19F
102
{ACAD_REACTORS
330
19E
102
}
330
19E
100
AcDbDictionary
281
     1
  3
ACDB_ANNOTATIONSCALES
350
1A0
  0
DICTIONARY
  5
1A4
102
{ACAD_REACTORS
330
1A3
102
}
330
1A3
100
AcDbDictionary
281
     1
  3
ACDB_ANNOTATIONSCALES
350
1A5
  0
DICTIONARY
  5
1AC
102
{ACAD_REACTORS
330
1AB
102
}
330
1AB
100
AcDbDictionary
281
     1
  3
ACDB_ANNOTATIONSCALES
350
1AD
  0
DICTIONARY
  5
1B1
102
{ACAD_REACTORS
330
1B0
102
}
330
1B0
100
AcDbDictionary
281
     1
  3
ACDB_ANNOTATIONSCALES
350
1B2
  0
ACDBDETAILVIEWSTYLE
  5
E2
102
{ACAD_REACTORS
330
E1
102
}
330
E1
100
AcDbModelDocViewStyle
 70
     0
  3
Imperial24
290
     1
300
Imperial24
 90
        0
100
AcDbDetailViewStyle
 70
     0
 71
     0
 90
        3
 71
     1
340
12
 62
   256
 40
0.24
340
0
 62
   256
 40
0.24
300

 40
0.36
280
     3
 71
     2
340
8
 90
       25
 62
   256
 71
     3
340
12
 62
   256
 40
0.24
 90
        1
 40
0.75
 90
        1
300
%<\AcVar ViewType \f "%tc1">% %<\AcVar ViewDetailId>%\PSCALE %<\AcVar ViewScale \f "%sn">%
 71
     4
340
8
 90
       25
 62
   256
340
8
 90
       25
 62
   256
280
     0
  0
LAYOUT
  5
F
102
{ACAD_REACTORS
330
B
102
}
330
B
100
AcDbPlotSettings
  1

  2
Ancon 2
  4

  6

 40
0.0
 41
0.0
 42
0.0
 43
0.0
 44
0.0
 45
0.0
 46
0.0
 47
0.0
 48
0.0
 49
0.0
140
0.0
141
0.0
142
1.0
143
1.0
 70
   688
 72
     0
 73
     0
 74
     5
  7

 75
    16
147
1.0
 76
     0
 77
     2
 78
   300
148
0.0
149
0.0
100
AcDbLayout
  1
Layout1
 70
     1
 71
     1
 10
0.0
 20
0.0
 11
420.0
 21
297.0
 12
0.0
 22
0.0
 32
0.0
 14
1.000000000000000E+20
 24
1.000000000000000E+20
 34
1.000000000000000E+20
 15
-1.000000000000000E+20
 25
-1.000000000000000E+20
 35
-1.000000000000000E+20
146
0.0
 13
0.0
 23
0.0
 33
0.0
 16
1.0
 26
0.0
 36
0.0
 17
0.0
 27
1.0
 37
0.0
 76
     0
330
C
  0
LAYOUT
  5
A
102
{ACAD_REACTORS
330
B
102
}
330
B
100
AcDbPlotSettings
  1

  2
Ancon 2
  4

  6

 40
0.0
 41
0.0
 42
0.0
 43
0.0
 44
0.0
 45
0.0
 46
0.0
 47
0.0
 48
0.0
 49
0.0
140
0.0
141
0.0
142
1.0
143
1.0
 70
  1712
 72
     0
 73
     0
 74
     0
  7

 75
     0
147
1.0
 76
     0
 77
     2
 78
   300
148
0.0
149
0.0
100
AcDbLayout
  1
Model
 70
     1
 71
     0
 10
0.0
 20
0.0
 11
12.0
 21
9.0
 12
0.0
 22
0.0
 32
0.0
 14
0.0
 24
0.0
 34
0.0
 15
0.0
 25
0.0
 35
0.0
146
0.0
 13
0.0
 23
0.0
 33
0.0
 16
1.0
 26
0.0
 36
0.0
 17
0.0
 27
1.0
 37
0.0
 76
     0
330
2
331
1A
  0
MATERIAL
  5
9F
102
{ACAD_XDICTIONARY
360
A0
102
}
102
{ACAD_REACTORS
330
96
102
}
330
96
100
AcDbMaterial
  1
ByBlock
 72
     0
 43
0.0208333333333333
 43
0.0
 43
0.0
 43
0.0
 43
0.0
 43
0.0208333333333333
 43
0.0
 43
0.0
 43
0.0
 43
0.0
 43
1.0
 43
0.0
 43
0.0
 43
0.0
 43
0.0
 43
1.0
 77
     0
 47
0.0208333333333333
 47
0.0
 47
0.0
 47
0.0
 47
0.0
 47
0.0208333333333333
 47
0.0
 47
0.0
 47
0.0
 47
0.0
 47
1.0
 47
0.0
 47
0.0
 47
0.0
 47
0.0
 47
1.0
171
     0
 49
0.0208333333333333
 49
0.0
 49
0.0
 49
0.0
 49
0.0
 49
0.0208333333333333
 49
0.0
 49
0.0
 49
0.0
 49
0.0
 49
1.0
 49
0.0
 49
0.0
 49
0.0
 49
0.0
 49
1.0
175
     0
142
0.0208333333333333
142
0.0
142
0.0
142
0.0
142
0.0
142
0.0208333333333333
142
0.0
142
0.0
142
0.0
142
0.0
142
1.0
142
0.0
142
0.0
142
0.0
142
0.0
142
1.0
179
     0
144
0.0208333333333333
144
0.0
144
0.0
144
0.0
144
0.0
144
0.0208333333333333
144
0.0
144
0.0
144
0.0
144
0.0
144
1.0
144
0.0
144
0.0
144
0.0
144
0.0
144
1.0
147
0.0208333333333333
147
0.0
147
0.0
147
0.0
147
0.0
147
0.0208333333333333
147
0.0
147
0.0
147
0.0
147
0.0
147
1.0
147
0.0
147
0.0
147
0.0
147
0.0
147
1.0
  0
MATERIAL
  5
97
102
{ACAD_XDICTIONARY
360
98
102
}
102
{ACAD_REACTORS
330
96
102
}
330
96
100
AcDbMaterial
  1
ByLayer
 72
     0
 43
0.0208333333333333
 43
0.0
 43
0.0
 43
0.0
 43
0.0
 43
0.0208333333333333
 43
0.0
 43
0.0
 43
0.0
 43
0.0
 43
1.0
 43
0.0
 43
0.0
 43
0.0
 43
0.0
 43
1.0
 77
     0
 47
0.0208333333333333
 47
0.0
 47
0.0
 47
0.0
 47
0.0
 47
0.0208333333333333
 47
0.0
 47
0.0
 47
0.0
 47
0.0
 47
1.0
 47
0.0
 47
0.0
 47
0.0
 47
0.0
 47
1.0
171
     0
 49
0.0208333333333333
 49
0.0
 49
0.0
 49
0.0
 49
0.0
 49
0.0208333333333333
 49
0.0
 49
0.0
 49
0.0
 49
0.0
 49
1.0
 49
0.0
 49
0.0
 49
0.0
 49
0.0
 49
1.0
175
     0
142
0.0208333333333333
142
0.0
142
0.0
142
0.0
142
0.0
142
0.0208333333333333
142
0.0
142
0.0
142
0.0
142
0.0
142
1.0
142
0.0
142
0.0
142
0.0
142
0.0
142
1.0
179
     0
144
0.0208333333333333
144
0.0
144
0.0
144
0.0
144
0.0
144
0.0208333333333333
144
0.0
144
0.0
144
0.0
144
0.0
144
1.0
144
0.0
144
0.0
144
0.0
144
0.0
144
1.0
147
0.0208333333333333
147
0.0
147
0.0
147
0.0
147
0.0
147
0.0208333333333333
147
0.0
147
0.0
147
0.0
147
0.0
147
1.0
147
0.0
147
0.0
147
0.0
147
0.0
147
1.0
  0
MATERIAL
  5
A7
102
{ACAD_XDICTIONARY
360
A8
102
}
102
{ACAD_REACTORS
330
96
102
}
330
96
100
AcDbMaterial
  1
Global
 72
     0
 43
0.0208333333333333
 43
0.0
 43
0.0
 43
0.0
 43
0.0
 43
0.0208333333333333
 43
0.0
 43
0.0
 43
0.0
 43
0.0
 43
1.0
 43
0.0
 43
0.0
 43
0.0
 43
0.0
 43
1.0
 77
     0
 47
0.0208333333333333
 47
0.0
 47
0.0
 47
0.0
 47
0.0
 47
0.0208333333333333
 47
0.0
 47
0.0
 47
0.0
 47
0.0
 47
1.0
 47
0.0
 47
0.0
 47
0.0
 47
0.0
 47
1.0
171
     0
 49
0.0208333333333333
 49
0.0
 49
0.0
 49
0.0
 49
0.0
 49
0.0208333333333333
 49
0.0
 49
0.0
 49
0.0
 49
0.0
 49
1.0
 49
0.0
 49
0.0
 49
0.0
 49
0.0
 49
1.0
175
     0
142
0.0208333333333333
142
0.0
142
0.0
142
0.0
142
0.0
142
0.0208333333333333
142
0.0
142
0.0
142
0.0
142
0.0
142
1.0
142
0.0
142
0.0
142
0.0
142
0.0
142
1.0
179
     0
144
0.0208333333333333
144
0.0
144
0.0
144
0.0
144
0.0
144
0.0208333333333333
144
0.0
144
0.0
144
0.0
144
0.0
144
1.0
144
0.0
144
0.0
144
0.0
144
0.0
144
1.0
147
0.0208333333333333
147
0.0
147
0.0
147
0.0
147
0.0
147
0.0208333333333333
147
0.0
147
0.0
147
0.0
147
0.0
147
1.0
147
0.0
147
0.0
147
0.0
147
0.0
147
1.0
  0
MLEADERSTYLE
  5
DE
102
{ACAD_REACTORS
330
DD
102
}
330
DD
100
AcDbMLeaderStyle
179
     2
170
     2
171
     1
172
     0
 90
        2
 40
0.0
 41
0.0
173
     1
 91
-1056964608
340
15
 92
       -2
290
     1
 42
0.09
291
     1
 43
0.36
  3
Standard
 44
0.18
300

342
12
174
     1
178
     6
175
     1
176
     0
 93
-1056964608
 45
0.18
292
     0
297
     0
 46
0.18
 94
-1056964608
 47
1.0
 49
1.0
140
1.0
293
     1
141
0.0
294
     1
177
     0
142
1.0
295
     1
296
     0
143
0.125
271
     0
272
     9
273
     9
298
     1
  0
MLINESTYLE
  5
24
102
{ACAD_REACTORS
330
20
102
}
330
20
100
AcDbMlineStyle
  2
STANDARD
 70
     0
  3

 62
   256
 51
90.0
 52
90.0
 71
     2
 49
0.5
 62
   256
  6
BYLAYER
 49
-0.5
 62
   256
  6
BYLAYER
  0
ACDBPLACEHOLDER
  5
5
102
{ACAD_REACTORS
330
6
102
}
330
6
  0
SCALE
  5
CC
102
{ACAD_REACTORS
330
CB
102
}
330
CB
100
AcDbScale
 70
     0
300
1:1
140
1.0
141
1.0
290
     1
  0
SCALE
  5
CD
102
{ACAD_REACTORS
330
CB
102
}
330
CB
100
AcDbScale
 70
     0
300
1/128" = 1'-0"
140
0.0078125
141
12.0
290
     0
  0
SCALE
  5
CE
102
{ACAD_REACTORS
330
CB
102
}
330
CB
100
AcDbScale
 70
     0
300
1/64" = 1'-0"
140
0.015625
141
12.0
290
     0
  0
SCALE
  5
CF
102
{ACAD_REACTORS
330
CB
102
}
330
CB
100
AcDbScale
 70
     0
300
1/32" = 1'-0"
140
0.03125
141
12.0
290
     0
  0
SCALE
  5
D0
102
{ACAD_REACTORS
330
CB
102
}
330
CB
100
AcDbScale
 70
     0
300
1/16" = 1'-0"
140
0.0625
141
12.0
290
     0
  0
SCALE
  5
D1
102
{ACAD_REACTORS
330
CB
102
}
330
CB
100
AcDbScale
 70
     0
300
3/32" = 1'-0"
140
0.09375
141
12.0
290
     0
  0
SCALE
  5
D2
102
{ACAD_REACTORS
330
CB
102
}
330
CB
100
AcDbScale
 70
     0
300
1/8" = 1'-0"
140
0.125
141
12.0
290
     0
  0
SCALE
  5
D3
102
{ACAD_REACTORS
330
CB
102
}
330
CB
100
AcDbScale
 70
     0
300
3/16" = 1'-0"
140
0.1875
141
12.0
290
     0
  0
SCALE
  5
D4
102
{ACAD_REACTORS
330
CB
102
}
330
CB
100
AcDbScale
 70
     0
300
1/4" = 1'-0"
140
0.25
141
12.0
290
     0
  0
SCALE
  5
D5
102
{ACAD_REACTORS
330
CB
102
}
330
CB
100
AcDbScale
 70
     0
300
3/8" = 1'-0"
140
0.375
141
12.0
290
     0
  0
SCALE
  5
D6
102
{ACAD_REACTORS
330
CB
102
}
330
CB
100
AcDbScale
 70
     0
300
1/2" = 1'-0"
140
0.5
141
12.0
290
     0
  0
SCALE
  5
D7
102
{ACAD_REACTORS
330
CB
102
}
330
CB
100
AcDbScale
 70
     0
300
3/4" = 1'-0"
140
0.75
141
12.0
290
     0
  0
SCALE
  5
D8
102
{ACAD_REACTORS
330
CB
102
}
330
CB
100
AcDbScale
 70
     0
300
1" = 1'-0"
140
1.0
141
12.0
290
     0
  0
SCALE
  5
D9
102
{ACAD_REACTORS
330
CB
102
}
330
CB
100
AcDbScale
 70
     0
300
1-1/2" = 1'-0"
140
1.5
141
12.0
290
     0
  0
SCALE
  5
DA
102
{ACAD_REACTORS
330
CB
102
}
330
CB
100
AcDbScale
 70
     0
300
3" = 1'-0"
140
3.0
141
12.0
290
     0
  0
SCALE
  5
DB
102
{ACAD_REACTORS
330
CB
102
}
330
CB
100
AcDbScale
 70
     0
300
6" = 1'-0"
140
6.0
141
12.0
290
     0
  0
SCALE
  5
DC
102
{ACAD_REACTORS
330
CB
102
}
330
CB
100
AcDbScale
 70
     0
300
1'-0" = 1'-0"
140
12.0
141
12.0
290
     0
  0
ACDBSECTIONVIEWSTYLE
  5
E0
102
{ACAD_REACTORS
330
DF
102
}
330
DF
100
AcDbModelDocViewStyle
 70
     0
  3
Imperial24
290
     1
300
Imperial24
 90
        0
100
AcDbSectionViewStyle
 70
     0
 71
     0
 90
       78
 71
     1
340
12
 62
   256
 40
0.24
340
0
340
0
 62
   256
 40
0.24
300
I, O, Q, S, X, Z
 40
0.48
 90
        3
 40
0.18
 90
        1
 71
     2
340
8
 90
       25
 62
   256
340
8
 90
       50
 62
   256
 40
0.24
 40
0.0
 40
0.24
 71
     3
340
12
 62
   256
 40
0.24
 90
        1
 40
0.75
 90
        1
300
%<\AcVar ViewType \f "%tc1">% %<\AcVar ViewSectionStartId>%-%<\AcVar ViewSectionEndId>%\PSCALE %<\AcVar ViewScale \f "%sn">%
 71
     4
 62
   256
 62
   257
300
ANSI31
 40
1.0
 90
        0
290
     0
290
     0
 90
        6
 40
0.0
 40
1.570796326794896
 40
0.2617993877991494
 40
1.308996938995747
 40
-0.2617993877991494
 40
1.832595714594046
  0
TABLESTYLE
  5
CA
102
{ACAD_XDICTIONARY
360
202
102
}
102
{ACAD_REACTORS
330
C9
102
}
330
C9
100
AcDbTableStyle
280
     0
  3
Standard
 70
     0
 71
     0
 40
0.06
 41
0.06
280
     0
281
     0
  7
STANDARD
140
0.18
170
     2
 62
     0
 63
     7
283
     0
 90
      512
 91
        0
  1

274
    -2
284
     1
 64
     0
275
    -2
285
     1
 65
     0
276
    -2
286
     1
 66
     0
277
    -2
287
     1
 67
     0
278
    -2
288
     1
 68
     0
279
    -2
289
     1
 69
     0
  7
STANDARD
140
0.25
170
     5
 62
     0
 63
     7
283
     0
 90
      512
 91
        0
  1

274
    -2
284
     1
 64
     0
275
    -2
285
     1
 65
     0
276
    -2
286
     1
 66
     0
277
    -2
287
     1
 67
     0
278
    -2
288
     1
 68
     0
279
    -2
289
     1
 69
     0
  7
STANDARD
140
0.18
170
     5
 62
     0
 63
     7
283
     0
 90
      512
 91
        0
  1

274
    -2
284
     1
 64
     0
275
    -2
285
     1
 65
     0
276
    -2
286
     1
 66
     0
277
    -2
287
     1
 67
     0
278
    -2
288
     1
 68
     0
279
    -2
289
     1
 69
     0
  0
VISUALSTYLE
  5
B5
102
{ACAD_REACTORS
330
AF
102
}
330
AF
100
AcDbVisualStyle
  2
2dWireframe
 70
     4
177
     3
291
     0
 70
    58
 90
        0
176
     1
 90
        2
176
     1
 90
        0
176
     1
 90
        0
176
     1
 40
0.6
176
     1
 40
30.0
176
     1
 62
     7
420
 16777215
176
     1
 90
        1
176
     1
 90
        4
176
     1
 62
     7
176
     1
 62
   257
176
     1
 90
        1
176
     1
 90
        1
176
     1
 40
1.0
176
     1
 90
        0
176
     1
 62
   257
176
     1
 40
1.0
176
     1
 90
        1
176
     1
 90
        6
176
     1
 90
        2
176
     1
 62
     7
176
     1
 90
        5
176
     1
 90
        0
176
     1
 90
        0
176
     1
290
     0
176
     1
 90
        1
176
     1
 40
0.0
176
     1
 90
        0
176
     1
290
     1
176
     1
290
     1
176
     1
290
     0
176
     1
290
     0
176
     1
290
     0
176
     1
290
     0
176
     1
290
     0
176
     1
290
     0
176
     1
290
     0
176
     1
 90
       50
176
     1
 40
0.0
176
     1
 40
1.0
176
     1
 90
        0
176
     1
 62
    18
420
        0
176
     1
 90
       50
176
     1
 90
        3
176
     1
 62
     5
420
      255
176
     1
290
     0
176
     1
 90
       50
176
     1
 90
       50
176
     1
 90
       50
176
     1
290
     0
176
     1
 90
       50
176
     1
 62
   256
176
     0
 40
1.0
176
     0
 90
        2
176
     1
  1
strokes_ogs.tif
176
     1
290
     0
176
     1
 40
1.0
176
     1
 40
1.0
176
     1
  0
VISUALSTYLE
  5
B4
102
{ACAD_REACTORS
330
AF
102
}
330
AF
100
AcDbVisualStyle
  2
Basic
 70
     7
177
     3
291
     1
 70
    58
 90
        1
176
     1
 90
        0
176
     1
 90
        1
176
     1
 90
        0
176
     1
 40
0.6
176
     1
 40
30.0
176
     1
 62
     7
420
 16777215
176
     1
 90
        0
176
     1
 90
        4
176
     1
 62
     7
176
     1
 62
   257
176
     1
 90
        1
176
     1
 90
        1
176
     1
 40
1.0
176
     1
 90
        8
176
     1
 62
     7
176
     1
 40
1.0
176
     1
 90
        1
176
     1
 90
        6
176
     1
 90
        2
176
     1
 62
     7
176
     1
 90
        5
176
     1
 90
        0
176
     1
 90
        0
176
     1
290
     0
176
     1
 90
        1
176
     1
 40
0.0
176
     1
 90
        0
176
     1
290
     0
176
     1
290
     1
176
     1
290
     1
176
     1
290
     0
176
     1
290
     0
176
     1
290
     0
176
     1
290
     0
176
     1
290
     0
176
     1
290
     0
176
     1
 90
       50
176
     1
 40
0.0
176
     1
 40
1.0
176
     1
 90
        0
176
     1
 62
    18
420
        0
176
     1
 90
       50
176
     1
 90
        3
176
     1
 62
     5
420
      255
176
     1
290
     0
176
     1
 90
       50
176
     1
 90
       50
176
     1
 90
       50
176
     1
290
     0
176
     1
 90
       50
176
     1
 62
   256
176
     0
 40
1.0
176
     0
 90
        2
176
     1
  1
strokes_ogs.tif
176
     1
290
     0
176
     1
 40
1.0
176
     1
 40
1.0
176
     1
  0
VISUALSTYLE
  5
BB
102
{ACAD_REACTORS
330
AF
102
}
330
AF
100
AcDbVisualStyle
  2
Brighten
 70
    12
177
     3
291
     1
 70
    58
 90
        2
176
     1
 90
        2
176
     1
 90
        0
176
     1
 90
        0
176
     1
 40
0.6
176
     1
 40
30.0
176
     1
 62
     7
420
 16777215
176
     1
 90
        1
176
     1
 90
        4
176
     1
 62
     7
176
     1
 62
   257
176
     1
 90
        1
176
     1
 90
        1
176
     1
 40
1.0
176
     1
 90
        8
176
     1
 62
     7
176
     1
 40
1.0
176
     1
 90
        1
176
     1
 90
        6
176
     1
 90
        2
176
     1
 62
     7
176
     1
 90
        5
176
     1
 90
        0
176
     1
 90
        0
176
     1
290
     0
176
     1
 90
        1
176
     1
 40
50.0
176
     1
 90
        0
176
     1
290
     0
176
     1
290
     1
176
     1
290
     1
176
     1
290
     0
176
     1
290
     0
176
     1
290
     0
176
     1
290
     0
176
     1
290
     0
176
     1
290
     0
176
     1
 90
       50
176
     1
 40
0.0
176
     1
 40
1.0
176
     1
 90
        0
176
     1
 62
    18
420
        0
176
     1
 90
       50
176
     1
 90
        3
176
     1
 62
     5
420
      255
176
     1
290
     0
176
     1
 90
       50
176
     1
 90
       50
176
     1
 90
       50
176
     1
290
     0
176
     1
 90
       50
176
     1
 62
   256
176
     0
 40
1.0
176
     0
 90
        2
176
     1
  1
strokes_ogs.tif
176
     1
290
     0
176
     1
 40
1.0
176
     1
 40
1.0
176
     1
  0
VISUALSTYLE
  5
BF
102
{ACAD_REACTORS
330
AF
102
}
330
AF
100
AcDbVisualStyle
  2
ColorChange
 70
    16
177
     3
291
     1
 70
    58
 90
        2
176
     1
 90
        2
176
     1
 90
        3
176
     1
 90
        0
176
     1
 40
0.6
176
     1
 40
30.0
176
     1
 62
     8
420
  8421504
176
     1
 90
        1
176
     1
 90
        4
176
     1
 62
     7
176
     1
 62
   257
176
     1
 90
        1
176
     1
 90
        1
176
     1
 40
1.0
176
     1
 90
        8
176
     1
 62
     8
420
  8421504
176
     1
 40
1.0
176
     1
 90
        1
176
     1
 90
        6
176
     1
 90
        2
176
     1
 62
     7
176
     1
 90
        5
176
     1
 90
        0
176
     1
 90
        0
176
     1
290
     0
176
     1
 90
        1
176
     1
 40
0.0
176
     1
 90
        0
176
     1
290
     0
176
     1
290
     1
176
     1
290
     1
176
     1
290
     0
176
     1
290
     0
176
     1
290
     0
176
     1
290
     0
176
     1
290
     0
176
     1
290
     0
176
     1
 90
       50
176
     1
 40
0.0
176
     1
 40
1.0
176
     1
 90
        0
176
     1
 62
    18
420
        0
176
     1
 90
       50
176
     1
 90
        3
176
     1
 62
     5
420
      255
176
     1
290
     0
176
     1
 90
       50
176
     1
 90
       50
176
     1
 90
       50
176
     1
290
     0
176
     1
 90
       50
176
     1
 62
   256
176
     0
 40
1.0
176
     0
 90
        2
176
     1
  1
strokes_ogs.tif
176
     1
290
     0
176
     1
 40
1.0
176
     1
 40
1.0
176
     1
  0
VISUALSTYLE
  5
B8
102
{ACAD_REACTORS
330
AF
102
}
330
AF
100
AcDbVisualStyle
  2
Conceptual
 70
     9
177
     3
291
     0
 70
    58
 90
        3
176
     1
 90
        2
176
     1
 90
        0
176
     1
 90
        0
176
     1
 40
0.6
176
     1
 40
30.0
176
     1
 62
     7
420
 16777215
176
     1
 90
        2
176
     1
 90
        2
176
     1
 62
     7
176
     1
 62
   257
176
     1
 90
        1
176
     1
 90
        1
176
     1
 40
179.0
176
     1
 90
        8
176
     1
 62
     7
176
     1
 40
1.0
176
     1
 90
        1
176
     1
 90
        6
176
     1
 90
        2
176
     1
 62
     7
176
     1
 90
        3
176
     1
 90
        0
176
     1
 90
        0
176
     1
290
     0
176
     1
 90
        1
176
     1
 40
0.0
176
     1
 90
        0
176
     1
290
     0
176
     1
290
     1
176
     1
290
     1
176
     1
290
     0
176
     1
290
     0
176
     1
290
     0
176
     1
290
     0
176
     1
290
     0
176
     1
290
     0
176
     1
 90
       50
176
     1
 40
0.0
176
     1
 40
1.0
176
     1
 90
        0
176
     1
 62
    18
420
        0
176
     1
 90
       50
176
     1
 90
        3
176
     1
 62
     5
420
      255
176
     1
290
     0
176
     1
 90
       50
176
     1
 90
       50
176
     1
 90
       50
176
     1
290
     0
176
     1
 90
       50
176
     1
 62
   256
176
     0
 40
1.0
176
     0
 90
        2
176
     1
  1
strokes_ogs.tif
176
     1
290
     0
176
     1
 40
1.0
176
     1
 40
1.0
176
     1
  0
VISUALSTYLE
  5
BA
102
{ACAD_REACTORS
330
AF
102
}
330
AF
100
AcDbVisualStyle
  2
Dim
 70
    11
177
     3
291
     1
 70
    58
 90
        2
176
     1
 90
        2
176
     1
 90
        0
176
     1
 90
        0
176
     1
 40
0.6
176
     1
 40
30.0
176
     1
 62
     7
420
 16777215
176
     1
 90
        1
176
     1
 90
        4
176
     1
 62
     7
176
     1
 62
   257
176
     1
 90
        1
176
     1
 90
        1
176
     1
 40
1.0
176
     1
 90
        8
176
     1
 62
     7
176
     1
 40
1.0
176
     1
 90
        1
176
     1
 90
        6
176
     1
 90
        2
176
     1
 62
     7
176
     1
 90
        5
176
     1
 90
        0
176
     1
 90
        0
176
     1
290
     0
176
     1
 90
        1
176
     1
 40
-50.0
176
     1
 90
        0
176
     1
290
     0
176
     1
290
     1
176
     1
290
     1
176
     1
290
     0
176
     1
290
     0
176
     1
290
     0
176
     1
290
     0
176
     1
290
     0
176
     1
290
     0
176
     1
 90
       50
176
     1
 40
0.0
176
     1
 40
1.0
176
     1
 90
        0
176
     1
 62
    18
420
        0
176
     1
 90
       50
176
     1
 90
        3
176
     1
 62
     5
420
      255
176
     1
290
     0
176
     1
 90
       50
176
     1
 90
       50
176
     1
 90
       50
176
     1
290
     0
176
     1
 90
       50
176
     1
 62
   256
176
     0
 40
1.0
176
     0
 90
        2
176
     1
  1
strokes_ogs.tif
176
     1
290
     0
176
     1
 40
1.0
176
     1
 40
1.0
176
     1
  0
VISUALSTYLE
  5
C7
102
{ACAD_REACTORS
330
AF
102
}
330
AF
100
AcDbVisualStyle
  2
EdgeColorOff
 70
    22
177
     3
291
     1
 70
    58
 90
        2
176
     0
 90
        2
176
     0
 90
        0
176
     0
 90
        0
176
     0
 40
0.6
176
     0
 40
30.0
176
     0
 62
     7
420
 16777215
176
     0
 90
        1
176
     0
 90
        4
176
     0
 62
     7
176
     0
 62
   257
176
     0
 90
        1
176
     0
 90
        1
176
     0
 40
1.0
176
     0
 90
        8
176
     2
 62
     7
176
     0
 40
1.0
176
     0
 90
        1
176
     0
 90
        6
176
     0
 90
        2
176
     0
 62
     7
176
     0
 90
        5
176
     0
 90
        0
176
     0
 90
        0
176
     0
290
     0
176
     0
 90
        1
176
     0
 40
0.0
176
     0
 90
        0
176
     0
290
     0
176
     0
290
     1
176
     0
290
     1
176
     0
290
     0
176
     0
290
     0
176
     0
290
     0
176
     0
290
     0
176
     0
290
     0
176
     0
290
     0
176
     0
 90
       50
176
     0
 40
0.0
176
     0
 40
1.0
176
     0
 90
        0
176
     0
 62
    18
420
        0
176
     0
 90
       50
176
     0
 90
        3
176
     0
 62
     5
420
      255
176
     0
290
     0
176
     0
 90
       50
176
     0
 90
       50
176
     0
 90
       50
176
     0
290
     0
176
     0
 90
       50
176
     0
 62
   256
176
     0
 40
1.0
176
     0
 90
        2
176
     0
  1
strokes_ogs.tif
176
     0
290
     0
176
     0
 40
1.0
176
     0
 40
1.0
176
     0
  0
VISUALSTYLE
  5
BE
102
{ACAD_REACTORS
330
AF
102
}
330
AF
100
AcDbVisualStyle
  2
Facepattern
 70
    15
177
     3
291
     1
 70
    58
 90
        2
176
     1
 90
        2
176
     1
 90
        0
176
     1
 90
        0
176
     1
 40
0.6
176
     1
 40
30.0
176
     1
 62
     7
420
 16777215
176
     1
 90
        1
176
     1
 90
        4
176
     1
 62
     7
176
     1
 62
   257
176
     1
 90
        1
176
     1
 90
        1
176
     1
 40
1.0
176
     1
 90
        8
176
     1
 62
     7
176
     1
 40
1.0
176
     1
 90
        1
176
     1
 90
        6
176
     1
 90
        2
176
     1
 62
     7
176
     1
 90
        5
176
     1
 90
        0
176
     1
 90
        0
176
     1
290
     0
176
     1
 90
        1
176
     1
 40
0.0
176
     1
 90
        0
176
     1
290
     0
176
     1
290
     1
176
     1
290
     1
176
     1
290
     0
176
     1
290
     0
176
     1
290
     0
176
     1
290
     0
176
     1
290
     0
176
     1
290
     0
176
     1
 90
       50
176
     1
 40
0.0
176
     1
 40
1.0
176
     1
 90
        0
176
     1
 62
    18
420
        0
176
     1
 90
       50
176
     1
 90
        3
176
     1
 62
     5
420
      255
176
     1
290
     0
176
     1
 90
       50
176
     1
 90
       50
176
     1
 90
       50
176
     1
290
     0
176
     1
 90
       50
176
     1
 62
   256
176
     0
 40
1.0
176
     0
 90
        2
176
     1
  1
strokes_ogs.tif
176
     1
290
     0
176
     1
 40
1.0
176
     1
 40
1.0
176
     1
  0
VISUALSTYLE
  5
B0
102
{ACAD_REACTORS
330
AF
102
}
330
AF
100
AcDbVisualStyle
  2
Flat
 70
     0
177
     3
291
     1
 70
    58
 90
        2
176
     1
 90
        1
176
     1
 90
        1
176
     1
 90
        2
176
     1
 40
0.6
176
     1
 40
30.0
176
     1
 62
     7
420
 16777215
176
     1
 90
        0
176
     1
 90
        0
176
     1
 62
     7
176
     1
 62
   257
176
     1
 90
        1
176
     1
 90
        1
176
     1
 40
1.0
176
     1
 90
        8
176
     1
 62
     7
176
     1
 40
1.0
176
     1
 90
        1
176
     1
 90
        6
176
     1
 90
        2
176
     1
 62
     7
176
     1
 90
        5
176
     1
 90
        0
176
     1
 90
        0
176
     1
290
     0
176
     1
 90
       13
176
     1
 40
0.0
176
     1
 90
        0
176
     1
290
     0
176
     1
290
     1
176
     1
290
     1
176
     1
290
     0
176
     1
290
     0
176
     1
290
     0
176
     1
290
     0
176
     1
290
     0
176
     1
290
     0
176
     1
 90
       50
176
     1
 40
0.0
176
     1
 40
1.0
176
     1
 90
        0
176
     1
 62
    18
420
        0
176
     1
 90
       50
176
     1
 90
        3
176
     1
 62
     5
420
      255
176
     1
290
     0
176
     1
 90
       50
176
     1
 90
       50
176
     1
 90
       50
176
     1
290
     0
176
     1
 90
       50
176
     1
 62
   256
176
     0
 40
1.0
176
     0
 90
        2
176
     1
  1
strokes_ogs.tif
176
     1
290
     0
176
     1
 40
1.0
176
     1
 40
1.0
176
     1
  0
VISUALSTYLE
  5
B1
102
{ACAD_REACTORS
330
AF
102
}
330
AF
100
AcDbVisualStyle
  2
FlatWithEdges
 70
     1
177
     3
291
     1
 70
    58
 90
        2
176
     1
 90
        1
176
     1
 90
        1
176
     1
 90
        2
176
     1
 40
0.6
176
     1
 40
30.0
176
     1
 62
     7
420
 16777215
176
     1
 90
        1
176
     1
 90
        0
176
     1
 62
     7
176
     1
 62
   257
176
     1
 90
        1
176
     1
 90
        1
176
     1
 40
1.0
176
     1
 90
        0
176
     1
 62
   257
176
     1
 40
1.0
176
     1
 90
        1
176
     1
 90
        6
176
     1
 90
        2
176
     1
 62
     7
176
     1
 90
        5
176
     1
 90
        0
176
     1
 90
        0
176
     1
290
     0
176
     1
 90
       13
176
     1
 40
0.0
176
     1
 90
        0
176
     1
290
     0
176
     1
290
     1
176
     1
290
     1
176
     1
290
     0
176
     1
290
     0
176
     1
290
     0
176
     1
290
     0
176
     1
290
     0
176
     1
290
     0
176
     1
 90
       50
176
     1
 40
0.0
176
     1
 40
1.0
176
     1
 90
        0
176
     1
 62
    18
420
        0
176
     1
 90
       50
176
     1
 90
        3
176
     1
 62
     5
420
      255
176
     1
290
     0
176
     1
 90
       50
176
     1
 90
       50
176
     1
 90
       50
176
     1
290
     0
176
     1
 90
       50
176
     1
 62
   256
176
     0
 40
1.0
176
     0
 90
        2
176
     1
  1
strokes_ogs.tif
176
     1
290
     0
176
     1
 40
1.0
176
     1
 40
1.0
176
     1
  0
VISUALSTYLE
  5
B2
102
{ACAD_REACTORS
330
AF
102
}
330
AF
100
AcDbVisualStyle
  2
Gouraud
 70
     2
177
     3
291
     1
 70
    58
 90
        2
176
     1
 90
        2
176
     1
 90
        1
176
     1
 90
        2
176
     1
 40
0.6
176
     1
 40
30.0
176
     1
 62
     7
420
 16777215
176
     1
 90
        0
176
     1
 90
        0
176
     1
 62
     7
176
     1
 62
   257
176
     1
 90
        1
176
     1
 90
        1
176
     1
 40
1.0
176
     1
 90
        0
176
     1
 62
     7
176
     1
 40
1.0
176
     1
 90
        1
176
     1
 90
        6
176
     1
 90
        2
176
     1
 62
     7
176
     1
 90
        5
176
     1
 90
        0
176
     1
 90
        0
176
     1
290
     0
176
     1
 90
       13
176
     1
 40
0.0
176
     1
 90
        0
176
     1
290
     0
176
     1
290
     1
176
     1
290
     1
176
     1
290
     0
176
     1
290
     0
176
     1
290
     0
176
     1
290
     0
176
     1
290
     0
176
     1
290
     0
176
     1
 90
       50
176
     1
 40
0.0
176
     1
 40
1.0
176
     1
 90
        0
176
     1
 62
    18
420
        0
176
     1
 90
       50
176
     1
 90
        3
176
     1
 62
     5
420
      255
176
     1
290
     0
176
     1
 90
       50
176
     1
 90
       50
176
     1
 90
       50
176
     1
290
     0
176
     1
 90
       50
176
     1
 62
   256
176
     0
 40
1.0
176
     0
 90
        2
176
     1
  1
strokes_ogs.tif
176
     1
290
     0
176
     1
 40
1.0
176
     1
 40
1.0
176
     1
  0
VISUALSTYLE
  5
B3
102
{ACAD_REACTORS
330
AF
102
}
330
AF
100
AcDbVisualStyle
  2
GouraudWithEdges
 70
     3
177
     3
291
     1
 70
    58
 90
        2
176
     1
 90
        2
176
     1
 90
        1
176
     1
 90
        2
176
     1
 40
0.6
176
     1
 40
30.0
176
     1
 62
     7
420
 16777215
176
     1
 90
        1
176
     1
 90
        0
176
     1
 62
     7
176
     1
 62
   257
176
     1
 90
        1
176
     1
 90
        1
176
     1
 40
1.0
176
     1
 90
        0
176
     1
 62
   257
176
     1
 40
1.0
176
     1
 90
        1
176
     1
 90
        6
176
     1
 90
        2
176
     1
 62
     7
176
     1
 90
        5
176
     1
 90
        0
176
     1
 90
        0
176
     1
290
     0
176
     1
 90
       13
176
     1
 40
0.0
176
     1
 90
        0
176
     1
290
     0
176
     1
290
     1
176
     1
290
     1
176
     1
290
     0
176
     1
290
     0
176
     1
290
     0
176
     1
290
     0
176
     1
290
     0
176
     1
290
     0
176
     1
 90
       50
176
     1
 40
0.0
176
     1
 40
1.0
176
     1
 90
        0
176
     1
 62
    18
420
        0
176
     1
 90
       50
176
     1
 90
        3
176
     1
 62
     5
420
      255
176
     1
290
     0
176
     1
 90
       50
176
     1
 90
       50
176
     1
 90
       50
176
     1
290
     0
176
     1
 90
       50
176
     1
 62
   256
176
     0
 40
1.0
176
     0
 90
        2
176
     1
  1
strokes_ogs.tif
176
     1
290
     0
176
     1
 40
1.0
176
     1
 40
1.0
176
     1
  0
VISUALSTYLE
  5
B7
102
{ACAD_REACTORS
330
AF
102
}
330
AF
100
AcDbVisualStyle
  2
Hidden
 70
     6
177
     3
291
     0
 70
    58
 90
        1
176
     1
 90
        2
176
     1
 90
        2
176
     1
 90
        0
176
     1
 40
0.6
176
     1
 40
30.0
176
     1
 62
     7
420
 16777215
176
     1
 90
        2
176
     1
 90
        2
176
     1
 62
     7
176
     1
 62
   257
176
     1
 90
        2
176
     1
 90
        1
176
     1
 40
40.0
176
     1
 90
        0
176
     1
 62
   257
176
     1
 40
1.0
176
     1
 90
        1
176
     1
 90
        6
176
     1
 90
        2
176
     1
 62
     7
176
     1
 90
        3
176
     1
 90
        0
176
     1
 90
        0
176
     1
290
     0
176
     1
 90
        1
176
     1
 40
0.0
176
     1
 90
        0
176
     1
290
     0
176
     1
290
     1
176
     1
290
     1
176
     1
290
     0
176
     1
290
     0
176
     1
290
     0
176
     1
290
     0
176
     1
290
     0
176
     1
290
     0
176
     1
 90
       50
176
     1
 40
0.0
176
     1
 40
1.0
176
     1
 90
        0
176
     1
 62
    18
420
        0
176
     1
 90
       50
176
     1
 90
        3
176
     1
 62
     5
420
      255
176
     1
290
     0
176
     1
 90
       50
176
     1
 90
       50
176
     1
 90
       50
176
     1
290
     0
176
     1
 90
       50
176
     1
 62
   256
176
     0
 40
1.0
176
     0
 90
        2
176
     1
  1
strokes_ogs.tif
176
     1
290
     0
176
     1
 40
1.0
176
     1
 40
1.0
176
     1
  0
VISUALSTYLE
  5
C5
102
{ACAD_REACTORS
330
AF
102
}
330
AF
100
AcDbVisualStyle
  2
JitterOff
 70
    20
177
     3
291
     1
 70
    58
 90
        2
176
     0
 90
        2
176
     0
 90
        0
176
     0
 90
        0
176
     0
 40
0.6
176
     0
 40
30.0
176
     0
 62
     7
420
 16777215
176
     0
 90
        1
176
     0
 90
        4
176
     0
 62
     7
176
     0
 62
   257
176
     0
 90
        1
176
     0
 90
        1
176
     0
 40
1.0
176
     0
 90
       10
176
     2
 62
     7
176
     0
 40
1.0
176
     0
 90
        1
176
     0
 90
        6
176
     0
 90
        2
176
     0
 62
     7
176
     0
 90
        5
176
     0
 90
        0
176
     0
 90
        0
176
     0
290
     0
176
     0
 90
        1
176
     0
 40
0.0
176
     0
 90
        0
176
     0
290
     0
176
     0
290
     1
176
     0
290
     1
176
     0
290
     0
176
     0
290
     0
176
     0
290
     0
176
     0
290
     0
176
     0
290
     0
176
     0
290
     0
176
     0
 90
       50
176
     0
 40
0.0
176
     0
 40
1.0
176
     0
 90
        0
176
     0
 62
    18
420
        0
176
     0
 90
       50
176
     0
 90
        3
176
     0
 62
     5
420
      255
176
     0
290
     0
176
     0
 90
       50
176
     0
 90
       50
176
     0
 90
       50
176
     0
290
     0
176
     0
 90
       50
176
     0
 62
   256
176
     0
 40
1.0
176
     0
 90
        2
176
     0
  1
strokes_ogs.tif
176
     0
290
     0
176
     0
 40
1.0
176
     0
 40
1.0
176
     0
  0
VISUALSTYLE
  5
BD
102
{ACAD_REACTORS
330
AF
102
}
330
AF
100
AcDbVisualStyle
  2
Linepattern
 70
    14
177
     3
291
     1
 70
    58
 90
        2
176
     1
 90
        2
176
     1
 90
        0
176
     1
 90
        0
176
     1
 40
0.6
176
     1
 40
30.0
176
     1
 62
     7
420
 16777215
176
     1
 90
        1
176
     1
 90
        4
176
     1
 62
     7
176
     1
 62
   257
176
     1
 90
        7
176
     1
 90
        7
176
     1
 40
1.0
176
     1
 90
        8
176
     1
 62
     7
176
     1
 40
1.0
176
     1
 90
        1
176
     1
 90
        6
176
     1
 90
        2
176
     1
 62
     7
176
     1
 90
        5
176
     1
 90
        0
176
     1
 90
        0
176
     1
290
     0
176
     1
 90
        1
176
     1
 40
0.0
176
     1
 90
        0
176
     1
290
     0
176
     1
290
     1
176
     1
290
     1
176
     1
290
     0
176
     1
290
     0
176
     1
290
     0
176
     1
290
     0
176
     1
290
     0
176
     1
290
     0
176
     1
 90
       50
176
     1
 40
0.0
176
     1
 40
1.0
176
     1
 90
        0
176
     1
 62
    18
420
        0
176
     1
 90
       50
176
     1
 90
        3
176
     1
 62
     5
420
      255
176
     1
290
     0
176
     1
 90
       50
176
     1
 90
       50
176
     1
 90
       50
176
     1
290
     0
176
     1
 90
       50
176
     1
 62
   256
176
     0
 40
1.0
176
     0
 90
        2
176
     1
  1
strokes_ogs.tif
176
     1
290
     0
176
     1
 40
1.0
176
     1
 40
1.0
176
     1
  0
VISUALSTYLE
  5
C6
102
{ACAD_REACTORS
330
AF
102
}
330
AF
100
AcDbVisualStyle
  2
OverhangOff
 70
    21
177
     3
291
     1
 70
    58
 90
        2
176
     0
 90
        2
176
     0
 90
        0
176
     0
 90
        0
176
     0
 40
0.6
176
     0
 40
30.0
176
     0
 62
     7
420
 16777215
176
     0
 90
        1
176
     0
 90
        4
176
     0
 62
     7
176
     0
 62
   257
176
     0
 90
        1
176
     0
 90
        1
176
     0
 40
1.0
176
     0
 90
        9
176
     2
 62
     7
176
     0
 40
1.0
176
     0
 90
        1
176
     0
 90
        6
176
     0
 90
        2
176
     0
 62
     7
176
     0
 90
        5
176
     0
 90
        0
176
     0
 90
        0
176
     0
290
     0
176
     0
 90
        1
176
     0
 40
0.0
176
     0
 90
        0
176
     0
290
     0
176
     0
290
     1
176
     0
290
     1
176
     0
290
     0
176
     0
290
     0
176
     0
290
     0
176
     0
290
     0
176
     0
290
     0
176
     0
290
     0
176
     0
 90
       50
176
     0
 40
0.0
176
     0
 40
1.0
176
     0
 90
        0
176
     0
 62
    18
420
        0
176
     0
 90
       50
176
     0
 90
        3
176
     0
 62
     5
420
      255
176
     0
290
     0
176
     0
 90
       50
176
     0
 90
       50
176
     0
 90
       50
176
     0
290
     0
176
     0
 90
       50
176
     0
 62
   256
176
     0
 40
1.0
176
     0
 90
        2
176
     0
  1
strokes_ogs.tif
176
     0
290
     0
176
     0
 40
1.0
176
     0
 40
1.0
176
     0
  0
VISUALSTYLE
  5
B9
102
{ACAD_REACTORS
330
AF
102
}
330
AF
100
AcDbVisualStyle
  2
Realistic
 70
     8
177
     3
291
     0
 70
    58
 90
        2
176
     1
 90
        3
176
     1
 90
        0
176
     1
 90
        2
176
     1
 40
0.6
176
     1
 40
30.0
176
     1
 62
     7
420
 16777215
176
     1
 90
        0
176
     1
 90
        0
176
     1
 62
     7
176
     1
 62
   257
176
     1
 90
        1
176
     1
 90
        1
176
     1
 40
1.0
176
     1
 90
        8
176
     1
 62
   257
176
     1
 40
1.0
176
     1
 90
        1
176
     1
 90
        6
176
     1
 90
        2
176
     1
 62
     7
176
     1
 90
        3
176
     1
 90
        0
176
     1
 90
        0
176
     1
290
     0
176
     1
 90
       13
176
     1
 40
0.0
176
     1
 90
        0
176
     1
290
     0
176
     1
290
     1
176
     1
290
     1
176
     1
290
     0
176
     1
290
     0
176
     1
290
     0
176
     1
290
     0
176
     1
290
     0
176
     1
290
     0
176
     1
 90
       50
176
     1
 40
0.0
176
     1
 40
1.0
176
     1
 90
        0
176
     1
 62
    18
420
        0
176
     1
 90
       50
176
     1
 90
        3
176
     1
 62
     5
420
      255
176
     1
290
     0
176
     1
 90
       50
176
     1
 90
       50
176
     1
 90
       50
176
     1
290
     0
176
     1
 90
       50
176
     1
 62
   256
176
     0
 40
1.0
176
     0
 90
        2
176
     1
  1
strokes_ogs.tif
176
     1
290
     0
176
     1
 40
1.0
176
     1
 40
1.0
176
     1
  0
VISUALSTYLE
  5
C4
102
{ACAD_REACTORS
330
AF
102
}
330
AF
100
AcDbVisualStyle
  2
Shaded
 70
    27
177
     3
291
     0
 70
    58
 90
        2
176
     1
 90
        2
176
     1
 90
        1
176
     1
 90
        2
176
     1
 40
0.6
176
     1
 40
30.0
176
     1
 62
     7
420
 16777215
176
     1
 90
        0
176
     1
 90
        4
176
     1
 62
     7
176
     1
 62
   257
176
     1
 90
        1
176
     1
 90
        1
176
     1
 40
1.0
176
     1
 90
        8
176
     1
 62
   257
176
     1
 40
1.0
176
     1
 90
        1
176
     1
 90
        6
176
     1
 90
        2
176
     1
 62
     8
420
  7895160
176
     1
 90
        3
176
     1
 90
        0
176
     1
 90
        0
176
     1
290
     0
176
     1
 90
        5
176
     1
 40
0.0
176
     1
 90
        0
176
     1
290
     0
176
     1
290
     1
176
     1
290
     1
176
     1
290
     0
176
     1
290
     0
176
     1
290
     0
176
     1
290
     0
176
     1
290
     0
176
     1
290
     0
176
     1
 90
       50
176
     1
 40
0.0
176
     1
 40
1.0
176
     1
 90
        0
176
     1
 62
    18
420
        0
176
     1
 90
       50
176
     1
 90
        3
176
     1
 62
     5
420
      255
176
     1
290
     0
176
     1
 90
       50
176
     1
 90
       50
176
     1
 90
       50
176
     1
290
     0
176
     1
 90
       50
176
     1
 62
   256
176
     0
 40
1.0
176
     0
 90
        2
176
     1
  1
strokes_ogs.tif
176
     1
290
     0
176
     1
 40
1.0
176
     1
 40
1.0
176
     1
  0
VISUALSTYLE
  5
C3
102
{ACAD_REACTORS
330
AF
102
}
330
AF
100
AcDbVisualStyle
  2
Shaded with edges
 70
    26
177
     3
291
     0
 70
    58
 90
        2
176
     1
 90
        2
176
     1
 90
        1
176
     1
 90
        2
176
     1
 40
0.6
176
     1
 40
30.0
176
     1
 62
     7
420
 16777215
176
     1
 90
        1
176
     1
 90
        2
176
     1
 62
     7
176
     1
 62
   257
176
     1
 90
        2
176
     1
 90
        1
176
     1
 40
1.0
176
     1
 90
        8
176
     1
 62
   257
176
     1
 40
1.0
176
     1
 90
        1
176
     1
 90
        6
176
     1
 90
        2
176
     1
 62
     7
176
     1
 90
        3
176
     1
 90
        0
176
     1
 90
        0
176
     1
290
     0
176
     1
 90
        5
176
     1
 40
0.0
176
     1
 90
        0
176
     1
290
     0
176
     1
290
     1
176
     1
290
     1
176
     1
290
     0
176
     1
290
     0
176
     1
290
     0
176
     1
290
     0
176
     1
290
     0
176
     1
290
     0
176
     1
 90
       50
176
     1
 40
0.0
176
     1
 40
1.0
176
     1
 90
        0
176
     1
 62
    18
420
        0
176
     1
 90
       50
176
     1
 90
        3
176
     1
 62
     5
420
      255
176
     1
290
     0
176
     1
 90
       50
176
     1
 90
       50
176
     1
 90
       50
176
     1
290
     0
176
     1
 90
       50
176
     1
 62
   256
176
     0
 40
1.0
176
     0
 90
        2
176
     1
  1
strokes_ogs.tif
176
     1
290
     0
176
     1
 40
1.0
176
     1
 40
1.0
176
     1
  0
VISUALSTYLE
  5
C0
102
{ACAD_REACTORS
330
AF
102
}
330
AF
100
AcDbVisualStyle
  2
Shades of Gray
 70
    23
177
     3
291
     0
 70
    58
 90
        2
176
     1
 90
        2
176
     1
 90
        3
176
     1
 90
        0
176
     1
 40
0.6
176
     1
 40
30.0
176
     1
 62
     7
420
 16777215
176
     1
 90
        2
176
     1
 90
        2
176
     1
 62
     7
176
     1
 62
     7
176
     1
 90
        1
176
     1
 90
        1
176
     1
 40
40.0
176
     1
 90
        8
176
     1
 62
     7
176
     1
 40
1.0
176
     1
 90
        1
176
     1
 90
        6
176
     1
 90
        2
176
     1
 62
     7
176
     1
 90
        3
176
     1
 90
        0
176
     1
 90
        0
176
     1
290
     0
176
     1
 90
        1
176
     1
 40
0.0
176
     1
 90
        0
176
     1
290
     0
176
     1
290
     1
176
     1
290
     1
176
     1
290
     0
176
     1
290
     0
176
     1
290
     0
176
     1
290
     0
176
     1
290
     0
176
     1
290
     0
176
     1
 90
       50
176
     1
 40
0.0
176
     1
 40
1.0
176
     1
 90
        0
176
     1
 62
    18
420
        0
176
     1
 90
       50
176
     1
 90
        3
176
     1
 62
     5
420
      255
176
     1
290
     0
176
     1
 90
       50
176
     1
 90
       50
176
     1
 90
       50
176
     1
290
     0
176
     1
 90
       50
176
     1
 62
   256
176
     0
 40
1.0
176
     0
 90
        2
176
     1
  1
strokes_ogs.tif
176
     1
290
     0
176
     1
 40
1.0
176
     1
 40
1.0
176
     1
  0
VISUALSTYLE
  5
C1
102
{ACAD_REACTORS
330
AF
102
}
330
AF
100
AcDbVisualStyle
  2
Sketchy
 70
    24
177
     3
291
     0
 70
    58
 90
        1
176
     1
 90
        2
176
     1
 90
        2
176
     1
 90
        0
176
     1
 40
0.6
176
     1
 40
30.0
176
     1
 62
     7
420
 16777215
176
     1
 90
        2
176
     1
 90
        2
176
     1
 62
     7
176
     1
 62
     7
176
     1
 90
        1
176
     1
 90
        1
176
     1
 40
40.0
176
     1
 90
       11
176
     1
 62
     7
176
     1
 40
1.0
176
     1
 90
        1
176
     1
 90
        6
176
     1
 90
        2
176
     1
 62
     7
176
     1
 90
        6
176
     1
 90
        0
176
     1
 90
        0
176
     1
290
     0
176
     1
 90
        1
176
     1
 40
0.0
176
     1
 90
        0
176
     1
290
     0
176
     1
290
     1
176
     1
290
     1
176
     1
290
     0
176
     1
290
     0
176
     1
290
     0
176
     1
290
     0
176
     1
290
     0
176
     1
290
     0
176
     1
 90
       50
176
     1
 40
0.0
176
     1
 40
1.0
176
     1
 90
        0
176
     1
 62
    18
420
        0
176
     1
 90
       50
176
     1
 90
        3
176
     1
 62
     5
420
      255
176
     1
290
     0
176
     1
 90
       50
176
     1
 90
       50
176
     1
 90
       50
176
     1
290
     0
176
     1
 90
       50
176
     1
 62
   256
176
     0
 40
1.0
176
     0
 90
        2
176
     1
  1
strokes_ogs.tif
176
     1
290
     0
176
     1
 40
1.0
176
     1
 40
1.0
176
     1
  0
VISUALSTYLE
  5
BC
102
{ACAD_REACTORS
330
AF
102
}
330
AF
100
AcDbVisualStyle
  2
Thicken
 70
    13
177
     3
291
     1
 70
    58
 90
        2
176
     1
 90
        2
176
     1
 90
        0
176
     1
 90
        0
176
     1
 40
0.6
176
     1
 40
30.0
176
     1
 62
     7
420
 16777215
176
     1
 90
        1
176
     1
 90
        4
176
     1
 62
     7
176
     1
 62
   257
176
     1
 90
        1
176
     1
 90
        1
176
     1
 40
1.0
176
     1
 90
       12
176
     1
 62
     7
176
     1
 40
1.0
176
     1
 90
        1
176
     1
 90
        6
176
     1
 90
        2
176
     1
 62
     7
176
     1
 90
        5
176
     1
 90
        0
176
     1
 90
        0
176
     1
290
     0
176
     1
 90
        1
176
     1
 40
0.0
176
     1
 90
        0
176
     1
290
     0
176
     1
290
     1
176
     1
290
     1
176
     1
290
     0
176
     1
290
     0
176
     1
290
     0
176
     1
290
     0
176
     1
290
     0
176
     1
290
     0
176
     1
 90
       50
176
     1
 40
0.0
176
     1
 40
1.0
176
     1
 90
        0
176
     1
 62
    18
420
        0
176
     1
 90
       50
176
     1
 90
        3
176
     1
 62
     5
420
      255
176
     1
290
     0
176
     1
 90
       50
176
     1
 90
       50
176
     1
 90
       50
176
     1
290
     0
176
     1
 90
       50
176
     1
 62
   256
176
     0
 40
1.0
176
     0
 90
        2
176
     1
  1
strokes_ogs.tif
176
     1
290
     0
176
     1
 40
1.0
176
     1
 40
1.0
176
     1
  0
VISUALSTYLE
  5
B6
102
{ACAD_REACTORS
330
AF
102
}
330
AF
100
AcDbVisualStyle
  2
Wireframe
 70
     5
177
     3
291
     0
 70
    58
 90
        0
176
     1
 90
        2
176
     1
 90
        0
176
     1
 90
        0
176
     1
 40
0.6
176
     1
 40
30.0
176
     1
 62
     7
420
 16777215
176
     1
 90
        1
176
     1
 90
        4
176
     1
 62
     7
176
     1
 62
   257
176
     1
 90
        1
176
     1
 90
        1
176
     1
 40
1.0
176
     1
 90
        0
176
     1
 62
   257
176
     1
 40
1.0
176
     1
 90
        1
176
     1
 90
        6
176
     1
 90
        2
176
     1
 62
     7
176
     1
 90
        3
176
     1
 90
        0
176
     1
 90
        0
176
     1
290
     0
176
     1
 90
        1
176
     1
 40
0.0
176
     1
 90
        0
176
     1
290
     0
176
     1
290
     1
176
     1
290
     1
176
     1
290
     0
176
     1
290
     0
176
     1
290
     0
176
     1
290
     0
176
     1
290
     0
176
     1
290
     0
176
     1
 90
       50
176
     1
 40
0.0
176
     1
 40
1.0
176
     1
 90
        0
176
     1
 62
    18
420
        0
176
     1
 90
       50
176
     1
 90
        3
176
     1
 62
     5
420
      255
176
     1
290
     0
176
     1
 90
       50
176
     1
 90
       50
176
     1
 90
       50
176
     1
290
     0
176
     1
 90
       50
176
     1
 62
   256
176
     0
 40
1.0
176
     0
 90
        2
176
     1
  1
strokes_ogs.tif
176
     1
290
     0
176
     1
 40
1.0
176
     1
 40
1.0
176
     1
  0
VISUALSTYLE
  5
C2
102
{ACAD_REACTORS
330
AF
102
}
330
AF
100
AcDbVisualStyle
  2
X-Ray
 70
    25
177
     3
291
     0
 70
    58
 90
        2
176
     1
 90
        2
176
     1
 90
        1
176
     1
 90
        1
176
     1
 40
0.5
176
     1
 40
30.0
176
     1
 62
     7
420
 16777215
176
     1
 90
        1
176
     1
 90
        0
176
     1
 62
     7
176
     1
 62
   257
176
     1
 90
        1
176
     1
 90
        1
176
     1
 40
1.0
176
     1
 90
        8
176
     1
 62
     7
176
     1
 40
1.0
176
     1
 90
        1
176
     1
 90
        6
176
     1
 90
        2
176
     1
 62
     7
176
     1
 90
        3
176
     1
 90
        0
176
     1
 90
        0
176
     1
290
     0
176
     1
 90
       13
176
     1
 40
0.0
176
     1
 90
        0
176
     1
290
     0
176
     1
290
     1
176
     1
290
     1
176
     1
290
     0
176
     1
290
     0
176
     1
290
     0
176
     1
290
     0
176
     1
290
     0
176
     1
290
     0
176
     1
 90
       50
176
     1
 40
0.0
176
     1
 40
1.0
176
     1
 90
        0
176
     1
 62
    18
420
        0
176
     1
 90
       50
176
     1
 90
        3
176
     1
 62
     5
420
      255
176
     1
290
     0
176
     1
 90
       50
176
     1
 90
       50
176
     1
 90
       50
176
     1
290
     0
176
     1
 90
       50
176
     1
 62
   256
176
     0
 40
1.0
176
     0
 90
        2
176
     1
  1
strokes_ogs.tif
176
     1
290
     0
176
     1
 40
1.0
176
     1
 40
1.0
176
     1
  0
DICTIONARYVAR
  5
1FE
102
{ACAD_REACTORS
330
1F8
102
}
330
1F8
100
DictionaryVariables
280
     0
  1
1:1
  0
DICTIONARYVAR
  5
1FA
102
{ACAD_REACTORS
330
1F8
102
}
330
1F8
100
DictionaryVariables
280
     0
  1
STANDARD
  0
DICTIONARYVAR
  5
1F9
102
{ACAD_REACTORS
330
1F8
102
}
330
1F8
100
DictionaryVariables
280
     0
  1
STANDARD
  0
DICTIONARYVAR
  5
1FB
102
{ACAD_REACTORS
330
1F8
102
}
330
1F8
100
DictionaryVariables
280
     0
  1
Imperial24
  0
DICTIONARYVAR
  5
1FC
102
{ACAD_REACTORS
330
1F8
102
}
330
1F8
100
DictionaryVariables
280
     0
  1
Imperial24
  0
DICTIONARYVAR
  5
200
102
{ACAD_REACTORS
330
1F8
102
}
330
1F8
100
DictionaryVariables
280
     0
  1
1
  0
DICTIONARYVAR
  5
201
102
{ACAD_REACTORS
330
1F8
102
}
330
1F8
100
DictionaryVariables
280
     0
  1
15
  0
DICTIONARYVAR
  5
1FF
102
{ACAD_REACTORS
330
1F8
102
}
330
1F8
100
DictionaryVariables
280
     0
  1
0
  0
DICTIONARYVAR
  5
1FD
102
{ACAD_REACTORS
330
1F8
102
}
330
1F8
100
DictionaryVariables
280
     0
  1
0
  0
DICTIONARY
  5
15B
102
{ACAD_REACTORS
330
15A
102
}
330
15A
100
AcDbDictionary
281
     1
  3
*A1
350
15C
  0
DICTIONARY
  5
161
102
{ACAD_REACTORS
330
160
102
}
330
160
100
AcDbDictionary
281
     1
  3
*A1
350
162
  0
DICTIONARY
  5
168
102
{ACAD_REACTORS
330
167
102
}
330
167
100
AcDbDictionary
281
     1
  3
*A1
350
169
  0
DICTIONARY
  5
16F
102
{ACAD_REACTORS
330
16E
102
}
330
16E
100
AcDbDictionary
281
     1
  3
*A1
350
170
  0
DICTIONARY
  5
174
102
{ACAD_REACTORS
330
173
102
}
330
173
100
AcDbDictionary
281
     1
  3
*A1
350
175
  0
DICTIONARY
  5
179
102
{ACAD_REACTORS
330
178
102
}
330
178
100
AcDbDictionary
281
     1
  3
*A1
350
17A
  0
DICTIONARY
  5
17E
102
{ACAD_REACTORS
330
17D
102
}
330
17D
100
AcDbDictionary
281
     1
  3
*A1
350
17F
  0
DICTIONARY
  5
184
102
{ACAD_REACTORS
330
183
102
}
330
183
100
AcDbDictionary
281
     1
  3
*A1
350
185
  0
DICTIONARY
  5
189
102
{ACAD_REACTORS
330
188
102
}
330
188
100
AcDbDictionary
281
     1
  3
*A1
350
18A
  0
DICTIONARY
  5
18E
102
{ACAD_REACTORS
330
18D
102
}
330
18D
100
AcDbDictionary
281
     1
  3
*A1
350
18F
  0
DICTIONARY
  5
193
102
{ACAD_REACTORS
330
192
102
}
330
192
100
AcDbDictionary
281
     1
  3
*A1
350
194
  0
DICTIONARY
  5
198
102
{ACAD_REACTORS
330
197
102
}
330
197
100
AcDbDictionary
281
     1
  3
*A1
350
199
  0
DICTIONARY
  5
1A0
102
{ACAD_REACTORS
330
19F
102
}
330
19F
100
AcDbDictionary
281
     1
  3
*A1
350
1A1
  0
DICTIONARY
  5
1A5
102
{ACAD_REACTORS
330
1A4
102
}
330
1A4
100
AcDbDictionary
281
     1
  3
*A1
350
1A6
  0
DICTIONARY
  5
1AD
102
{ACAD_REACTORS
330
1AC
102
}
330
1AC
100
AcDbDictionary
281
     1
  3
*A1
350
1AE
  0
DICTIONARY
  5
1B2
102
{ACAD_REACTORS
330
1B1
102
}
330
1B1
100
AcDbDictionary
281
     1
  3
*A1
350
1B3
  0
DICTIONARY
  5
A0
330
9F
100
AcDbDictionary
280
     1
281
     1
  3
BUMPTILE
360
A2
  3
DIFFUSETILE
360
A1
  3
OPACITYTILE
360
A5
  3
REFLECTIONTILE
360
A4
  3
REFRACTIONTILE
360
A6
  3
SPECULARTILE
360
A3
  0
DICTIONARY
  5
98
330
97
100
AcDbDictionary
280
     1
281
     1
  3
BUMPTILE
360
9A
  3
DIFFUSETILE
360
99
  3
OPACITYTILE
360
9D
  3
REFLECTIONTILE
360
9C
  3
REFRACTIONTILE
360
9E
  3
SPECULARTILE
360
9B
  0
DICTIONARY
  5
A8
330
A7
100
AcDbDictionary
280
     1
281
     1
  3
BUMPTILE
360
AA
  3
DIFFUSETILE
360
A9
  3
OPACITYTILE
360
AD
  3
REFLECTIONTILE
360
AC
  3
REFRACTIONTILE
360
AE
  3
SPECULARTILE
360
AB
  0
DICTIONARY
  5
202
330
CA
100
AcDbDictionary
280
     1
281
     1
  3
ACAD_ROUNDTRIP_2008_TABLESTYLE_CELLSTYLEMAP
360
203
  0
ACDB_TEXTOBJECTCONTEXTDATA_CLASS
  5
15C
102
{ACAD_REACTORS
330
15B
102
}
330
15B
100
AcDbObjectContextData
 70
     4
290
     1
100
AcDbAnnotScaleObjectContextData
340
CC
 70
     4
 50
0.0
 10
734.0813801521496
 20
68.87106761313958
 11
760.4763324031726
 21
71.37106761313958
  0
ACDB_TEXTOBJECTCONTEXTDATA_CLASS
  5
162
102
{ACAD_REACTORS
330
161
102
}
330
161
100
AcDbObjectContextData
 70
     4
290
     1
100
AcDbAnnotScaleObjectContextData
340
CC
 70
     4
 50
0.0
 10
736.9799373169747
 20
-1.190683412832775
 11
764.3469223101533
 21
1.311021907767496
  0
ACDB_TEXTOBJECTCONTEXTDATA_CLASS
  5
169
102
{ACAD_REACTORS
330
168
102
}
330
168
100
AcDbObjectContextData
 70
     4
290
     1
100
AcDbAnnotScaleObjectContextData
340
CC
 70
     4
 50
0.0
 10
735.0003591511182
 20
18.8932991660586
 11
818.8270985781304
 21
21.39500448665888
  0
ACDB_TEXTOBJECTCONTEXTDATA_CLASS
  5
170
102
{ACAD_REACTORS
330
16F
102
}
330
16F
100
AcDbObjectContextData
 70
     4
290
     1
100
AcDbAnnotScaleObjectContextData
340
CC
 70
     4
 50
0.0
 10
736.5212727822908
 20
8.844241752129541
 11
827.923046315715
 21
11.34594707272981
  0
ACDB_TEXTOBJECTCONTEXTDATA_CLASS
  5
175
102
{ACAD_REACTORS
330
174
102
}
330
174
100
AcDbObjectContextData
 70
     4
290
     1
100
AcDbAnnotScaleObjectContextData
340
CC
 70
     4
 50
0.0
 10
735.1436245136876
 20
28.79444687572838
 11
818.0051524809455
 21
31.29615219632865
  0
ACDB_TEXTOBJECTCONTEXTDATA_CLASS
  5
17A
102
{ACAD_REACTORS
330
179
102
}
330
179
100
AcDbObjectContextData
 70
     4
290
     1
100
AcDbAnnotScaleObjectContextData
340
CC
 70
     4
 50
0.0
 10
736.2375432795174
 20
38.89915920151899
 11
823.3691940298584
 21
41.40086452211926
  0
ACDB_TEXTOBJECTCONTEXTDATA_CLASS
  5
17F
102
{ACAD_REACTORS
330
17E
102
}
330
17E
100
AcDbObjectContextData
 70
     4
290
     1
100
AcDbAnnotScaleObjectContextData
340
CC
 70
     4
 50
0.0
 10
890.4754009735713
 20
-55.6992572156238
 11
896.3024814647035
 21
-53.15662420061698
  0
ACDB_TEXTOBJECTCONTEXTDATA_CLASS
  5
185
102
{ACAD_REACTORS
330
184
102
}
330
184
100
AcDbObjectContextData
 70
     4
290
     1
100
AcDbAnnotScaleObjectContextData
340
CC
 70
     4
 50
0.0
 10
822.1477077405614
 20
-34.53727470678336
 11
833.5921142889924
 21
-32.03727470678336
  0
ACDB_TEXTOBJECTCONTEXTDATA_CLASS
  5
18A
102
{ACAD_REACTORS
330
189
102
}
330
189
100
AcDbObjectContextData
 70
     4
290
     1
100
AcDbAnnotScaleObjectContextData
340
CC
 70
     4
 50
0.0
 10
825.6288798275956
 20
-55.69755189502354
 11
836.3024814647035
 21
-53.15662420061698
  0
ACDB_TEXTOBJECTCONTEXTDATA_CLASS
  5
18F
102
{ACAD_REACTORS
330
18E
102
}
330
18E
100
AcDbObjectContextData
 70
     4
290
     1
100
AcDbAnnotScaleObjectContextData
340
CC
 70
     4
 50
0.0
 10
809.1429328428805
 20
-23.64135663976466
 11
833.5921142889924
 21
-21.13965131916438
  0
ACDB_TEXTOBJECTCONTEXTDATA_CLASS
  5
194
102
{ACAD_REACTORS
330
193
102
}
330
193
100
AcDbObjectContextData
 70
     4
290
     1
100
AcDbAnnotScaleObjectContextData
340
CC
 70
     4
 50
0.0
 10
761.2861376805287
 20
-23.63965131916438
 11
777.5855919779367
 21
-21.13965131916438
  0
ACDB_TEXTOBJECTCONTEXTDATA_CLASS
  5
199
102
{ACAD_REACTORS
330
198
102
}
330
198
100
AcDbObjectContextData
 70
     4
290
     1
100
AcDbAnnotScaleObjectContextData
340
CC
 70
     4
 50
0.0
 10
762.3273791454675
 20
-55.50655598779298
 11
776.3024814647035
 21
-53.15662420061698
  0
ACDB_TEXTOBJECTCONTEXTDATA_CLASS
  5
1A1
102
{ACAD_REACTORS
330
1A0
102
}
330
1A0
100
AcDbObjectContextData
 70
     4
290
     1
100
AcDbAnnotScaleObjectContextData
340
CC
 70
     4
 50
0.0
 10
877.286451451061
 20
-34.24458777464355
 11
896.3024814647035
 21
-32.43524261775406
  0
ACDB_TEXTOBJECTCONTEXTDATA_CLASS
  5
1A6
102
{ACAD_REACTORS
330
1A5
102
}
330
1A5
100
AcDbObjectContextData
 70
     4
290
     1
100
AcDbAnnotScaleObjectContextData
340
CC
 70
     4
 50
0.0
 10
867.9651690499694
 20
-23.6348208220328
 11
896.3024814647035
 21
-21.1348208220328
  0
ACDB_TEXTOBJECTCONTEXTDATA_CLASS
  5
1AE
102
{ACAD_REACTORS
330
1AD
102
}
330
1AD
100
AcDbObjectContextData
 70
     4
290
     1
100
AcDbAnnotScaleObjectContextData
340
CC
 70
     4
 50
0.0
 10
601.6921053599357
 20
68.8693622925393
 11
652.3384218674392
 21
71.37106761313958
  0
ACDB_TEXTOBJECTCONTEXTDATA_CLASS
  5
1B3
102
{ACAD_REACTORS
330
1B2
102
}
330
1B2
100
AcDbObjectContextData
 70
     4
290
     1
100
AcDbAnnotScaleObjectContextData
340
CC
 70
     4
 50
0.0
 10
601.4266274369822
 20
38.93490782804319
 11
658.6725346675416
 21
41.43661314864345
  0
XRECORD
  5
A2
102
{ACAD_REACTORS
330
A0
102
}
330
A0
100
AcDbXrecord
280
     1
270
     1
271
     1
  0
XRECORD
  5
A1
102
{ACAD_REACTORS
330
A0
102
}
330
A0
100
AcDbXrecord
280
     1
270
     1
271
     1
  0
XRECORD
  5
A5
102
{ACAD_REACTORS
330
A0
102
}
330
A0
100
AcDbXrecord
280
     1
270
     1
271
     1
  0
XRECORD
  5
A4
102
{ACAD_REACTORS
330
A0
102
}
330
A0
100
AcDbXrecord
280
     1
270
     1
271
     1
  0
XRECORD
  5
A6
102
{ACAD_REACTORS
330
A0
102
}
330
A0
100
AcDbXrecord
280
     1
270
     1
271
     1
  0
XRECORD
  5
A3
102
{ACAD_REACTORS
330
A0
102
}
330
A0
100
AcDbXrecord
280
     1
270
     1
271
     1
  0
XRECORD
  5
9A
102
{ACAD_REACTORS
330
98
102
}
330
98
100
AcDbXrecord
280
     1
270
     1
271
     1
  0
XRECORD
  5
99
102
{ACAD_REACTORS
330
98
102
}
330
98
100
AcDbXrecord
280
     1
270
     1
271
     1
  0
XRECORD
  5
9D
102
{ACAD_REACTORS
330
98
102
}
330
98
100
AcDbXrecord
280
     1
270
     1
271
     1
  0
XRECORD
  5
9C
102
{ACAD_REACTORS
330
98
102
}
330
98
100
AcDbXrecord
280
     1
270
     1
271
     1
  0
XRECORD
  5
9E
102
{ACAD_REACTORS
330
98
102
}
330
98
100
AcDbXrecord
280
     1
270
     1
271
     1
  0
XRECORD
  5
9B
102
{ACAD_REACTORS
330
98
102
}
330
98
100
AcDbXrecord
280
     1
270
     1
271
     1
  0
XRECORD
  5
AA
102
{ACAD_REACTORS
330
A8
102
}
330
A8
100
AcDbXrecord
280
     1
270
     1
271
     1
  0
XRECORD
  5
A9
102
{ACAD_REACTORS
330
A8
102
}
330
A8
100
AcDbXrecord
280
     1
270
     1
271
     1
  0
XRECORD
  5
AD
102
{ACAD_REACTORS
330
A8
102
}
330
A8
100
AcDbXrecord
280
     1
270
     1
271
     1
  0
XRECORD
  5
AC
102
{ACAD_REACTORS
330
A8
102
}
330
A8
100
AcDbXrecord
280
     1
270
     1
271
     1
  0
XRECORD
  5
AE
102
{ACAD_REACTORS
330
A8
102
}
330
A8
100
AcDbXrecord
280
     1
270
     1
271
     1
  0
XRECORD
  5
AB
102
{ACAD_REACTORS
330
A8
102
}
330
A8
100
AcDbXrecord
280
     1
270
     1
271
     1
  0
CELLSTYLEMAP
  5
203
102
{ACAD_REACTORS
330
202
102
}
330
202
100
AcDbCellStyleMap
 90
        3
300
CELLSTYLE
  1
TABLEFORMAT_BEGIN
 90
        5
170
     1
 91
        0
 92
    32768
 62
   257
 93
        1
300
CONTENTFORMAT
  1
CONTENTFORMAT_BEGIN
 90
        0
 91
        0
 92
      512
 93
        0
300

 40
0.0
140
1.0
 94
        5
 62
     0
340
12
144
0.25
309
CONTENTFORMAT_END
171
     0
 94
        0
309
TABLEFORMAT_END
  1
CELLSTYLE_BEGIN
 90
        1
 91
        1
300
_TITLE
309
CELLSTYLE_END
300
CELLSTYLE
  1
TABLEFORMAT_BEGIN
 90
        5
170
     1
 91
        0
 92
        0
 62
   257
 93
        1
300
CONTENTFORMAT
  1
CONTENTFORMAT_BEGIN
 90
        0
 91
        0
 92
      512
 93
        0
300

 40
0.0
140
1.0
 94
        5
 62
     0
340
12
144
0.18
309
CONTENTFORMAT_END
171
     0
 94
        0
309
TABLEFORMAT_END
  1
CELLSTYLE_BEGIN
 90
        2
 91
        1
300
_HEADER
309
CELLSTYLE_END
300
CELLSTYLE
  1
TABLEFORMAT_BEGIN
 90
        5
170
     1
 91
        0
 92
        0
 62
   257
 93
        1
300
CONTENTFORMAT
  1
CONTENTFORMAT_BEGIN
 90
        0
 91
        0
 92
      512
 93
        0
300

 40
0.0
140
1.0
 94
        2
 62
     0
340
12
144
0.18
309
CONTENTFORMAT_END
171
     0
 94
        0
309
TABLEFORMAT_END
  1
CELLSTYLE_BEGIN
 90
        3
 91
        2
300
_DATA
309
CELLSTYLE_END
  0
ENDSEC
  0
EOF
