  0
SECTION
  2
HEADER
  9
$ACADVER
  1
AC1032
  9
$ACADMAINTVER
 90
      155
  9
$DWGCODEPAGE
  3
ANSI_1252
  9
$LASTSAVEDBY
  1
falinoori
  9
$REQUIREDVERSIONS
160
                 0
  9
$INSBASE
 10
2224.297184477158
 20
-20.5746546712611
 30
0.0
  9
$EXTMIN
 10
2117.256469184702
 20
-301.5990267228299
 30
0.0
  9
$EXTMAX
 10
3099.711749905879
 20
58.37106245236464
 30
0.0
  9
$LIMMIN
 10
0.0
 20
0.0
  9
$LIMMAX
 10
12.0
 20
9.0
  9
$ORTHOMODE
 70
     0
  9
$REGENMODE
 70
     1
  9
$FILLMODE
 70
     1
  9
$QTEXTMODE
 70
     0
  9
$MIRRTEXT
 70
     1
  9
$LTSCALE
 40
1.0
  9
$ATTMODE
 70
     1
  9
$TEXTSIZE
 40
9.0
  9
$TRACEWID
 40
0.05
  9
$TEXTSTYLE
  7
Standard
  9
$CLAYER
  8
DDIMS
  9
$CELTYPE
  6
ByLayer
  9
$CECOLOR
 62
   256
  9
$CELTSCALE
 40
1.0
  9
$DISPSILH
 70
     0
  9
$DIMSCALE
 40
2.0
  9
$DIMASZ
 40
2.0
  9
$DIMEXO
 40
4.5
  9
$DIMDLI
 40
0.0
  9
$DIMRND
 40
0.5
  9
$DIMDLE
 40
0.0
  9
$DIMEXE
 40
1.5
  9
$DIMTP
 40
0.0
  9
$DIMTM
 40
0.0
  9
$DIMTXT
 40
1.8
  9
$DIMCEN
 40
0.0
  9
$DIMTSZ
 40
0.0
  9
$DIMTOL
 70
     0
  9
$DIMLIM
 70
     0
  9
$DIMTIH
 70
     0
  9
$DIMTOH
 70
     0
  9
$DIMSE1
 70
     0
  9
$DIMSE2
 70
     0
  9
$DIMTAD
 70
     1
  9
$DIMZIN
 70
    12
  9
$DIMBLK
  1

  9
$DIMASO
 70
     1
  9
$DIMSHO
 70
     1
  9
$DIMPOST
  1

  9
$DIMAPOST
  1

  9
$DIMALT
 70
     0
  9
$DIMALTD
 70
     2
  9
$DIMALTF
 40
25.4
  9
$DIMLFAC
 40
1.0
  9
$DIMTOFL
 70
     0
  9
$DIMTVP
 40
0.0
  9
$DIMTIX
 70
     0
  9
$DIMSOXD
 70
     0
  9
$DIMSAH
 70
     0
  9
$DIMBLK1
  1

  9
$DIMBLK2
  1

  9
$DIMSTYLE
  2
1-2
  9
$DIMCLRD
 70
     0
  9
$DIMCLRE
 70
     0
  9
$DIMCLRT
 70
     0
  9
$DIMTFAC
 40
1.25
  9
$DIMGAP
 40
0.8
  9
$DIMJUST
 70
     0
  9
$DIMSD1
 70
     0
  9
$DIMSD2
 70
     0
  9
$DIMTOLJ
 70
     1
  9
$DIMTZIN
 70
    12
  9
$DIMALTZ
 70
    12
  9
$DIMALTTZ
 70
    12
  9
$DIMUPT
 70
     0
  9
$DIMDEC
 70
     4
  9
$DIMTDEC
 70
     4
  9
$DIMALTU
 70
     2
  9
$DIMALTTD
 70
     2
  9
$DIMTXSTY
  7
ROMANS
  9
$DIMAUNIT
 70
     0
  9
$DIMADEC
 70
     0
  9
$DIMALTRND
 40
0.0
  9
$DIMAZIN
 70
     0
  9
$DIMDSEP
 70
    46
  9
$DIMATFIT
 70
     3
  9
$DIMFRAC
 70
     0
  9
$DIMLDRBLK
  1

  9
$DIMLUNIT
 70
     2
  9
$DIMLWD
 70
    -2
  9
$DIMLWE
 70
    -2
  9
$DIMTMOVE
 70
     2
  9
$DIMFXL
 40
1.0
  9
$DIMFXLON
 70
     0
  9
$DIMJOGANG
 40
0.7853981633974483
  9
$DIMTFILL
 70
     0
  9
$DIMTFILLCLR
 70
     0
  9
$DIMARCSYM
 70
     0
  9
$DIMLTYPE
  6

  9
$DIMLTEX1
  6

  9
$DIMLTEX2
  6

  9
$DIMTXTDIRECTION
 70
     0
  9
$LUNITS
 70
     2
  9
$LUPREC
 70
     4
  9
$SKETCHINC
 40
0.1
  9
$FILLETRAD
 40
15.5
  9
$AUNITS
 70
     0
  9
$AUPREC
 70
     0
  9
$MENU
  1
.
  9
$ELEVATION
 40
0.0
  9
$PELEVATION
 40
0.0
  9
$THICKNESS
 40
0.0
  9
$LIMCHECK
 70
     0
  9
$CHAMFERA
 40
0.0
  9
$CHAMFERB
 40
0.0
  9
$CHAMFERC
 40
1.0
  9
$CHAMFERD
 40
0.0
  9
$SKPOLY
 70
     0
  9
$TDCREATE
 40
2452516.942013889
  9
$TDUCREATE
 40
2452516.525357234
  9
$TDUPDATE
 40
2459590.451840278
  9
$TDUUPDATE
 40
2459589.993506944
  9
$TDINDWG
 40
0.2263292014
  9
$TDUSRTIMER
 40
0.2263268519
  9
$USRTIMER
 70
     1
  9
$ANGBASE
 50
0.0
  9
$ANGDIR
 70
     0
  9
$PDMODE
 70
     0
  9
$PDSIZE
 40
0.0
  9
$PLINEWID
 40
0.0
  9
$SPLFRAME
 70
     0
  9
$SPLINETYPE
 70
     6
  9
$SPLINESEGS
 70
     8
  9
$HANDSEED
  5
225
  9
$SURFTAB1
 70
     6
  9
$SURFTAB2
 70
     6
  9
$SURFTYPE
 70
     6
  9
$SURFU
 70
     6
  9
$SURFV
 70
     6
  9
$UCSBASE
  2

  9
$UCSNAME
  2

  9
$UCSORG
 10
0.0
 20
0.0
 30
0.0
  9
$UCSXDIR
 10
1.0
 20
0.0
 30
0.0
  9
$UCSYDIR
 10
0.0
 20
1.0
 30
0.0
  9
$UCSORTHOREF
  2

  9
$UCSORTHOVIEW
 70
     0
  9
$UCSORGTOP
 10
0.0
 20
0.0
 30
0.0
  9
$UCSORGBOTTOM
 10
0.0
 20
0.0
 30
0.0
  9
$UCSORGLEFT
 10
0.0
 20
0.0
 30
0.0
  9
$UCSORGRIGHT
 10
0.0
 20
0.0
 30
0.0
  9
$UCSORGFRONT
 10
0.0
 20
0.0
 30
0.0
  9
$UCSORGBACK
 10
0.0
 20
0.0
 30
0.0
  9
$PUCSBASE
  2

  9
$PUCSNAME
  2

  9
$PUCSORG
 10
0.0
 20
0.0
 30
0.0
  9
$PUCSXDIR
 10
1.0
 20
0.0
 30
0.0
  9
$PUCSYDIR
 10
0.0
 20
1.0
 30
0.0
  9
$PUCSORTHOREF
  2

  9
$PUCSORTHOVIEW
 70
     0
  9
$PUCSORGTOP
 10
0.0
 20
0.0
 30
0.0
  9
$PUCSORGBOTTOM
 10
0.0
 20
0.0
 30
0.0
  9
$PUCSORGLEFT
 10
0.0
 20
0.0
 30
0.0
  9
$PUCSORGRIGHT
 10
0.0
 20
0.0
 30
0.0
  9
$PUCSORGFRONT
 10
0.0
 20
0.0
 30
0.0
  9
$PUCSORGBACK
 10
0.0
 20
0.0
 30
0.0
  9
$USERI1
 70
     0
  9
$USERI2
 70
     0
  9
$USERI3
 70
     0
  9
$USERI4
 70
     0
  9
$USERI5
 70
     0
  9
$USERR1
 40
0.0
  9
$USERR2
 40
0.0
  9
$USERR3
 40
0.0
  9
$USERR4
 40
0.0
  9
$USERR5
 40
0.0
  9
$WORLDVIEW
 70
     1
  9
$SHADEDGE
 70
     3
  9
$SHADEDIF
 70
    70
  9
$TILEMODE
 70
     1
  9
$MAXACTVP
 70
    64
  9
$PINSBASE
 10
0.0
 20
0.0
 30
0.0
  9
$PLIMCHECK
 70
     0
  9
$PEXTMIN
 10
7.777105839157954
 20
0.5792682657111623
 30
0.0
  9
$PEXTMAX
 10
197.6550712950588
 20
283.6213344614825
 30
0.0
  9
$PLIMMIN
 10
-1.784982416891718
 20
-7.730023936247521
  9
$PLIMMAX
 10
208.188345219827
 20
289.2382988176588
  9
$UNITMODE
 70
     0
  9
$VISRETAIN
 70
     1
  9
$PLINEGEN
 70
     0
  9
$PSLTSCALE
 70
     0
  9
$TREEDEPTH
 70
  3020
  9
$CMLSTYLE
  2
Standard
  9
$CMLJUST
 70
     0
  9
$CMLSCALE
 40
1.0
  9
$PROXYGRAPHICS
 70
     1
  9
$MEASUREMENT
 70
     1
  9
$CELWEIGHT
370
    -1
  9
$ENDCAPS
280
     0
  9
$JOINSTYLE
280
     0
  9
$LWDISPLAY
290
     0
  9
$INSUNITS
 70
     1
  9
$HYPERLINKBASE
  1

  9
$STYLESHEET
  1

  9
$XEDIT
290
     1
  9
$CEPSNTYPE
380
     0
  9
$PSTYLEMODE
290
     1
  9
$FINGERPRINTGUID
  2
{0F8F7604-0E20-11D5-8D50-00105A3DEFE9}
  9
$VERSIONGUID
  2
{1EF5793E-5005-B54D-B27B-1DE5E0051E89}
  9
$EXTNAMES
290
     1
  9
$PSVPSCALE
 40
0.0
  9
$OLESTARTUP
290
     0
  9
$SORTENTS
280
   127
  9
$INDEXCTL
280
     0
  9
$HIDETEXT
280
     0
  9
$XCLIPFRAME
280
     2
  9
$HALOGAP
280
     0
  9
$OBSCOLOR
 70
   257
  9
$OBSLTYPE
280
     0
  9
$INTERSECTIONDISPLAY
280
     0
  9
$INTERSECTIONCOLOR
 70
   257
  9
$DIMASSOC
280
     1
  9
$PROJECTNAME
  1

  9
$CAMERADISPLAY
290
     0
  9
$LENSLENGTH
 40
50.0
  9
$CAMERAHEIGHT
 40
0.0
  9
$STEPSPERSEC
 40
2.0
  9
$STEPSIZE
 40
6.0
  9
$3DDWFPREC
 40
2.0
  9
$PSOLWIDTH
 40
0.25
  9
$PSOLHEIGHT
 40
4.0
  9
$LOFTANG1
 40
1.570796326794896
  9
$LOFTANG2
 40
1.570796326794896
  9
$LOFTMAG1
 40
0.0
  9
$LOFTMAG2
 40
0.0
  9
$LOFTPARAM
 70
     7
  9
$LOFTNORMALS
280
     1
  9
$LATITUDE
 40
37.795
  9
$LONGITUDE
 40
-122.394
  9
$NORTHDIRECTION
 40
0.0
  9
$TIMEZONE
 70
 -8000
  9
$LIGHTGLYPHDISPLAY
280
     1
  9
$TILEMODELIGHTSYNCH
280
     1
  9
$CMATERIAL
347
A8
  9
$SOLIDHIST
280
     0
  9
$SHOWHIST
280
     1
  9
$DWFFRAME
280
     2
  9
$DGNFRAME
280
     0
  9
$REALWORLDSCALE
290
     1
  9
$INTERFERECOLOR
 62
     1
  9
$INTERFEREOBJVS
345
CA
  9
$INTERFEREVPVS
346
C7
  9
$CSHADOW
280
     0
  9
$SHADOWPLANELOCATION
 40
0.0
  0
ENDSEC
  0
SECTION
  2
CLASSES
  0
CLASS
  1
ACDBDICTIONARYWDFLT
  2
AcDbDictionaryWithDefault
  3
ObjectDBX Classes
 90
        0
 91
        1
280
     0
281
     0
  0
CLASS
  1
DICTIONARYVAR
  2
AcDbDictionaryVar
  3
ObjectDBX Classes
 90
        0
 91
       27
280
     0
281
     0
  0
CLASS
  1
PLOTSETTINGS
  2
AcDbPlotSettings
  3
ObjectDBX Classes
 90
        0
 91
        0
280
     0
281
     0
  0
CLASS
  1
MATERIAL
  2
AcDbMaterial
  3
ObjectDBX Classes
 90
     1153
 91
        3
280
     0
281
     0
  0
CLASS
  1
VISUALSTYLE
  2
AcDbVisualStyle
  3
ObjectDBX Classes
 90
     4095
 91
       24
280
     0
281
     0
  0
CLASS
  1
TABLESTYLE
  2
AcDbTableStyle
  3
ObjectDBX Classes
 90
     4095
 91
        1
280
     0
281
     0
  0
CLASS
  1
SCALE
  2
AcDbScale
  3
ObjectDBX Classes
 90
     1153
 91
       17
280
     0
281
     0
  0
CLASS
  1
MLEADERSTYLE
  2
AcDbMLeaderStyle
  3
ACDB_MLEADERSTYLE_CLASS
 90
     4095
 91
        1
280
     0
281
     0
  0
CLASS
  1
ACDBSECTIONVIEWSTYLE
  2
AcDbSectionViewStyle
  3
ObjectDBX Classes
 90
     1025
 91
        2
280
     0
281
     0
  0
CLASS
  1
ACDBDETAILVIEWSTYLE
  2
AcDbDetailViewStyle
  3
ObjectDBX Classes
 90
     1025
 91
        2
280
     0
281
     0
  0
CLASS
  1
ACDB_TEXTOBJECTCONTEXTDATA_CLASS
  2
AcDbTextObjectContextData
  3
ObjectDBX Classes
 90
     1153
 91
       32
280
     0
281
     0
  0
CLASS
  1
CELLSTYLEMAP
  2
AcDbCellStyleMap
  3
ObjectDBX Classes
 90
     1152
 91
        1
280
     0
281
     0
  0
ENDSEC
  0
SECTION
  2
TABLES
  0
TABLE
  2
VPORT
  5
19
330
0
100
AcDbSymbolTable
 70
     1
  0
VPORT
  5
1A
330
19
100
AcDbSymbolTableRecord
100
AcDbViewportTableRecord
  2
*Active
 70
     0
 10
0.0
 20
0.0
 11
1.0
 21
1.0
 12
2927.400999671801
 22
-164.848269767933
 13
0.0
 23
0.0
 14
0.5
 24
0.5
 15
0.5
 25
0.5
 16
0.0
 26
0.0
 36
1.0
 17
0.0
 27
0.0
 37
0.0
 40
478.2846103877841
 41
1.787234042553191
 42
50.0
 43
0.0
 44
0.0
 50
0.0
 51
0.0
 71
     0
 72
   100
 73
     1
 74
     3
 75
     0
 76
     0
 77
     0
 78
     1
281
     0
 65
     1
110
0.0
120
0.0
130
0.0
111
1.0
121
0.0
131
0.0
112
0.0
122
1.0
132
0.0
 79
     0
146
0.0
348
C6
 60
     3
 61
     5
292
     1
282
     1
141
0.0
142
0.0
 63
   250
421
  3355443
1001
ACAD_NAV_VCDISPLAY
1070
     3
  0
ENDTAB
  0
TABLE
  2
LTYPE
  5
14
330
0
100
AcDbSymbolTable
 70
     4
  0
LTYPE
  5
15
330
14
100
AcDbSymbolTableRecord
100
AcDbLinetypeTableRecord
  2
ByBlock
 70
     0
  3

 72
    65
 73
     0
 40
0.0
  0
LTYPE
  5
16
330
14
100
AcDbSymbolTableRecord
100
AcDbLinetypeTableRecord
  2
ByLayer
 70
     0
  3

 72
    65
 73
     0
 40
0.0
  0
LTYPE
  5
8
330
14
100
AcDbSymbolTableRecord
100
AcDbLinetypeTableRecord
  2
Continuous
 70
     0
  3
Solid line
 72
    65
 73
     0
 40
0.0
  0
LTYPE
  5
5A
330
14
100
AcDbSymbolTableRecord
100
AcDbLinetypeTableRecord
  2
CENTER2
 70
     0
  3
___ _ ___ _ ___ _ ___ _ ___ _ ___ _ ___ _ ___ _
 72
    65
 73
     4
 40
28.575
 49
19.05
 74
     0
 49
-3.174999999999999
 74
     0
 49
3.174999999999999
 74
     0
 49
-3.174999999999999
 74
     0
  0
ENDTAB
  0
TABLE
  2
LAYER
  5
10
102
{ACAD_XDICTIONARY
360
FB
102
}
330
0
100
AcDbSymbolTable
 70
     9
  0
LAYER
  5
4
102
{ACAD_XDICTIONARY
360
208
102
}
330
10
100
AcDbSymbolTableRecord
100
AcDbLayerTableRecord
  2
0
 70
     0
 62
     7
  6
Continuous
370
    -3
390
5
347
B8
348
0
  0
LAYER
  5
33
330
10
100
AcDbSymbolTableRecord
100
AcDbLayerTableRecord
  2
Defpoints
 70
     0
 62
     7
  6
Continuous
290
     0
370
    -3
390
5
347
B8
348
0
  0
LAYER
  5
27
102
{ACAD_XDICTIONARY
360
20A
102
}
330
10
100
AcDbSymbolTableRecord
100
AcDbLayerTableRecord
  2
DDIMS
 70
     0
 62
     2
  6
Continuous
370
    -3
390
5
347
B8
348
0
  0
LAYER
  5
2A
102
{ACAD_XDICTIONARY
360
20C
102
}
330
10
100
AcDbSymbolTableRecord
100
AcDbLayerTableRecord
  2
DIMS
 70
     0
 62
     2
  6
Continuous
370
    -3
390
5
347
B8
348
0
  0
LAYER
  5
58
102
{ACAD_XDICTIONARY
360
20E
102
}
330
10
100
AcDbSymbolTableRecord
100
AcDbLayerTableRecord
  2
ANCON-DSD
 70
     0
 62
     3
  6
Continuous
370
    -3
390
5
347
B8
348
0
  0
LAYER
  5
92
102
{ACAD_XDICTIONARY
360
210
102
}
330
10
100
AcDbSymbolTableRecord
100
AcDbLayerTableRecord
  2
ANCON-TEXT
 70
     0
 62
     6
  6
Continuous
370
    -3
390
5
347
B8
348
0
  0
LAYER
  5
49
102
{ACAD_XDICTIONARY
360
212
102
}
330
10
100
AcDbSymbolTableRecord
100
AcDbLayerTableRecord
  2
SPECP
 70
     0
 62
     6
  6
Continuous
370
    -3
390
5
347
B8
348
0
  0
LAYER
  5
46
102
{ACAD_XDICTIONARY
360
214
102
}
330
10
100
AcDbSymbolTableRecord
100
AcDbLayerTableRecord
  2
SPECD
 70
     0
 62
     6
  6
Continuous
370
    -3
390
5
347
B8
348
0
  0
LAYER
  5
F7
102
{ACAD_XDICTIONARY
360
216
102
}
330
10
100
AcDbSymbolTableRecord
100
AcDbLayerTableRecord
  2
20MM-JOINT
 70
     0
 62
     7
  6
Continuous
370
    -3
390
5
347
B8
348
0
  0
ENDTAB
  0
TABLE
  2
STYLE
  5
11
330
0
100
AcDbSymbolTable
 70
     3
  0
STYLE
  5
12
330
11
100
AcDbSymbolTableRecord
100
AcDbTextStyleTableRecord
  2
Standard
 70
     0
 40
9.0
 41
1.0
 50
0.0
 71
     0
 42
9.0
  3
romans.shx
  4

  0
STYLE
  5
1F
330
11
100
AcDbSymbolTableRecord
100
AcDbTextStyleTableRecord
  2
ROMANS
 70
     0
 40
0.0
 41
1.0
 50
0.0
 71
     0
 42
18.0
  3
ROMANS.SHX
  4

  0
STYLE
  5
F8
330
11
100
AcDbSymbolTableRecord
100
AcDbTextStyleTableRecord
  2
ARIAL
 70
     0
 40
5.0
 41
1.0
 50
0.0
 71
     0
 42
5.0
  3
arial.ttf
  4

1001
AcadAnnotative
1000
AnnotativeData
1002
{
1070
     1
1070
     1
1002
}
1001
ACAD
1000
Arial
1071
       34
  0
ENDTAB
  0
TABLE
  2
VIEW
  5
17
330
0
100
AcDbSymbolTable
 70
     0
  0
ENDTAB
  0
TABLE
  2
UCS
  5
18
330
0
100
AcDbSymbolTable
 70
     0
  0
ENDTAB
  0
TABLE
  2
APPID
  5
1B
330
0
100
AcDbSymbolTable
 70
     4
  0
APPID
  5
1C
330
1B
100
AcDbSymbolTableRecord
100
AcDbRegAppTableRecord
  2
ACAD
 70
     0
  0
APPID
  5
F9
330
1B
100
AcDbSymbolTableRecord
100
AcDbRegAppTableRecord
  2
ACAD_NAV_VCDISPLAY
 70
     0
  0
APPID
  5
FA
330
1B
100
AcDbSymbolTableRecord
100
AcDbRegAppTableRecord
  2
AcadAnnotative
 70
     0
  0
APPID
  5
1C8
330
1B
100
AcDbSymbolTableRecord
100
AcDbRegAppTableRecord
  2
ACAD_EXEMPT_FROM_CAD_STANDARDS
 70
     0
  0
ENDTAB
  0
TABLE
  2
DIMSTYLE
  5
1D
330
0
100
AcDbSymbolTable
 70
     5
100
AcDbDimStyleTable
 71
     4
340
1E
340
20
340
21
340
22
  0
DIMSTYLE
105
21
330
1D
100
AcDbSymbolTableRecord
100
AcDbDimStyleTableRecord
  2
1-10
 70
     0
 40
10.0
 41
2.0
 42
4.5
 43
0.0
 44
1.5
 45
1.0
 46
1.25
 73
     0
 74
     0
 77
     1
 78
    12
140
1.8
141
0.0
143
0.04
146
1.25
147
1.0
271
     2
272
     2
279
     2
284
    12
285
    12
286
    12
340
1F
  0
DIMSTYLE
105
22
330
1D
100
AcDbSymbolTableRecord
100
AcDbDimStyleTableRecord
  2
1-1
 70
     0
 41
2.0
 42
4.5
 43
0.0
 44
1.5
 45
1.0
 73
     0
 74
     0
 77
     1
 78
    12
140
1.8
141
0.0
146
1.25
147
0.8
279
     2
284
    12
285
    12
286
    12
340
1F
  0
DIMSTYLE
105
1E
102
{ACAD_REACTORS
330
63
330
38
330
29
102
}
330
1D
100
AcDbSymbolTableRecord
100
AcDbDimStyleTableRecord
  2
1-2
 70
     0
 40
2.0
 41
2.0
 42
4.5
 43
0.0
 44
1.5
 45
0.5
 73
     0
 74
     0
 77
     1
 78
    12
140
1.8
141
0.0
146
1.25
147
0.8
279
     2
284
    12
285
    12
286
    12
340
1F
  0
DIMSTYLE
105
20
330
1D
100
AcDbSymbolTableRecord
100
AcDbDimStyleTableRecord
  2
1-5
 70
     0
 40
5.0
 41
2.0
 42
4.5
 43
0.0
 44
1.5
 45
1.0
 73
     0
 74
     0
 77
     1
 78
    12
140
1.8
141
0.0
146
1.25
147
1.0
284
    12
285
    12
286
    12
340
1F
  0
ENDTAB
  0
TABLE
  2
BLOCK_RECORD
  5
1
330
0
100
AcDbSymbolTable
 70
     8
  0
BLOCK_RECORD
  5
2
330
1
100
AcDbSymbolTableRecord
100
AcDbBlockTableRecord
  2
*Model_Space
340
A
 70
     0
280
     1
281
     0
  0
BLOCK_RECORD
  5
C
330
1
100
AcDbSymbolTableRecord
100
AcDbBlockTableRecord
  2
*Paper_Space
340
F
 70
     0
280
     1
281
     0
  0
BLOCK_RECORD
  5
64
330
1
100
AcDbSymbolTableRecord
100
AcDbBlockTableRecord
  2
*D0
340
0
 70
     0
280
     1
281
     0
  0
BLOCK_RECORD
  5
39
330
1
100
AcDbSymbolTableRecord
100
AcDbBlockTableRecord
  2
*D1
340
0
 70
     0
280
     1
281
     0
  0
BLOCK_RECORD
  5
2B
330
1
100
AcDbSymbolTableRecord
100
AcDbBlockTableRecord
  2
*D2
340
0
 70
     0
280
     1
281
     0
  0
BLOCK_RECORD
  5
1CA
330
1
100
AcDbSymbolTableRecord
100
AcDbBlockTableRecord
  2
*D4
340
0
 70
     0
280
     1
281
     0
  0
BLOCK_RECORD
  5
1D6
330
1
100
AcDbSymbolTableRecord
100
AcDbBlockTableRecord
  2
*D5
340
0
 70
     0
280
     1
281
     0
  0
BLOCK_RECORD
  5
1E2
330
1
100
AcDbSymbolTableRecord
100
AcDbBlockTableRecord
  2
*D6
340
0
 70
     0
280
     1
281
     0
  0
ENDTAB
  0
ENDSEC
  0
SECTION
  2
BLOCKS
  0
BLOCK
  5
3
330
2
100
AcDbEntity
  8
0
100
AcDbBlockBegin
  2
*Model_Space
 70
     0
 10
0.0
 20
0.0
 30
0.0
  3
*Model_Space
  1

  0
ENDBLK
  5
9
330
2
100
AcDbEntity
  8
0
100
AcDbBlockEnd
  0
BLOCK
  5
D
330
C
100
AcDbEntity
 67
     1
  8
0
100
AcDbBlockBegin
  2
*Paper_Space
 70
     0
 10
0.0
 20
0.0
 30
0.0
  3
*Paper_Space
  1

  0
ENDBLK
  5
E
330
C
100
AcDbEntity
 67
     1
  8
0
100
AcDbBlockEnd
  0
BLOCK
  5
6E
330
64
100
AcDbEntity
  8
0
100
AcDbBlockBegin
  2
*D0
 70
     1
 10
0.0
 20
0.0
 30
0.0
  3
*D0
  1

  0
LINE
  5
65
330
64
100
AcDbEntity
  8
DDIMS
 62
     0
440
 16777216
370
    -2
100
AcDbLine
 10
2175.297184477158
 20
44.42534532873888
 30
0.0
 11
2119.456469184703
 21
44.4253453287389
 31
0.0
  0
LINE
  5
66
330
64
100
AcDbEntity
  8
DDIMS
 62
     0
440
 16777216
370
    -2
100
AcDbLine
 10
2175.297184477158
 20
-85.57465467126112
 30
0.0
 11
2119.456469184703
 21
-85.57465467126112
 31
0.0
  0
LINE
  5
67
330
64
100
AcDbEntity
  8
DDIMS
 62
     0
440
 16777216
370
    -2
100
AcDbLine
 10
2122.456469184703
 20
40.42534532873889
 30
0.0
 11
2122.456469184703
 21
-81.57465467126112
 31
0.0
  0
SOLID
  5
68
330
64
100
AcDbEntity
  8
DDIMS
 62
     0
440
 16777216
100
AcDbTrace
 10
2121.789802518036
 20
40.42534532873889
 30
0.0
 11
2123.123135851369
 21
40.42534532873889
 31
0.0
 12
2122.456469184703
 22
44.4253453287389
 32
0.0
 13
2122.456469184703
 23
44.4253453287389
 33
0.0
  0
SOLID
  5
69
330
64
100
AcDbEntity
  8
DDIMS
 62
     0
440
 16777216
100
AcDbTrace
 10
2121.789802518036
 20
-81.57465467126112
 30
0.0
 11
2123.123135851369
 21
-81.57465467126112
 31
0.0
 12
2122.456469184703
 22
-85.57465467126112
 32
0.0
 13
2122.456469184703
 23
-85.57465467126112
 33
0.0
  0
MTEXT
  5
6A
330
64
100
AcDbEntity
  8
DDIMS
 62
     0
440
 16777216
100
AcDbMText
 10
2119.056469184703
 20
-20.57465467126077
 30
0.0
 40
3.6
 41
0.0
 46
0.0
 71
     5
 72
     1
  1
\A1;130
  7
ROMANS
 11
0.0000000000000001
 21
1.0
 31
0.0
 73
     1
 44
1.0
  0
POINT
  5
6B
330
64
100
AcDbEntity
  8
Defpoints
 62
     0
440
 16777216
100
AcDbPoint
 10
2184.297184477158
 20
44.42534532873888
 30
0.0
  0
POINT
  5
6C
330
64
100
AcDbEntity
  8
Defpoints
 62
     0
440
 16777216
100
AcDbPoint
 10
2184.297184477158
 20
-85.57465467126112
 30
0.0
  0
POINT
  5
6D
330
64
100
AcDbEntity
  8
Defpoints
 62
     0
440
 16777216
100
AcDbPoint
 10
2122.456469184703
 20
-85.57465467126112
 30
0.0
  0
ENDBLK
  5
6F
330
64
100
AcDbEntity
  8
0
100
AcDbBlockEnd
  0
BLOCK
  5
43
330
39
100
AcDbEntity
  8
0
100
AcDbBlockBegin
  2
*D1
 70
     1
 10
0.0
 20
0.0
 30
0.0
  3
*D1
  1

  0
LINE
  5
3A
330
39
100
AcDbEntity
  8
DIMS
 62
     0
440
 16777216
370
    -2
100
AcDbLine
 10
2149.297184477158
 20
-36.57465467126113
 30
0.0
 11
2149.297184477158
 21
-134.8063125311748
 31
0.0
  0
LINE
  5
3B
330
39
100
AcDbEntity
  8
DIMS
 62
     0
440
 16777216
370
    -2
100
AcDbLine
 10
2299.297184477158
 20
-36.57465467126113
 30
0.0
 11
2299.297184477158
 21
-134.8063125311748
 31
0.0
  0
LINE
  5
3C
330
39
100
AcDbEntity
  8
DIMS
 62
     0
440
 16777216
370
    -2
100
AcDbLine
 10
2153.297184477159
 20
-131.8063125311748
 30
0.0
 11
2295.297184477158
 21
-131.8063125311748
 31
0.0
  0
SOLID
  5
3D
330
39
100
AcDbEntity
  8
DIMS
 62
     0
440
 16777216
100
AcDbTrace
 10
2153.297184477159
 20
-131.1396458645082
 30
0.0
 11
2153.297184477159
 21
-132.4729791978415
 31
0.0
 12
2149.297184477158
 22
-131.8063125311748
 32
0.0
 13
2149.297184477158
 23
-131.8063125311748
 33
0.0
  0
SOLID
  5
3E
330
39
100
AcDbEntity
  8
DIMS
 62
     0
440
 16777216
100
AcDbTrace
 10
2295.297184477158
 20
-131.1396458645082
 30
0.0
 11
2295.297184477158
 21
-132.4729791978415
 31
0.0
 12
2299.297184477158
 22
-131.8063125311748
 32
0.0
 13
2299.297184477158
 23
-131.8063125311748
 33
0.0
  0
MTEXT
  5
3F
330
39
100
AcDbEntity
  8
DIMS
 62
     0
440
 16777216
100
AcDbMText
 10
2224.297184477158
 20
-128.4063125311748
 30
0.0
 40
3.6
 41
0.0
 46
0.0
 71
     5
 72
     1
  1
\A1;150
  7
ROMANS
 73
     1
 44
1.0
  0
POINT
  5
40
330
39
100
AcDbEntity
  8
Defpoints
 62
     0
440
 16777216
100
AcDbPoint
 10
2149.297184477158
 20
-27.57465467126113
 30
0.0
  0
POINT
  5
41
330
39
100
AcDbEntity
  8
Defpoints
 62
     0
440
 16777216
100
AcDbPoint
 10
2299.297184477158
 20
-27.57465467126113
 30
0.0
  0
POINT
  5
42
330
39
100
AcDbEntity
  8
Defpoints
 62
     0
440
 16777216
100
AcDbPoint
 10
2299.297184477158
 20
-131.8063125311748
 30
0.0
  0
ENDBLK
  5
44
330
39
100
AcDbEntity
  8
0
100
AcDbBlockEnd
  0
BLOCK
  5
36
330
2B
100
AcDbEntity
  8
0
100
AcDbBlockBegin
  2
*D2
 70
     1
 10
0.0
 20
0.0
 30
0.0
  3
*D2
  1

  0
LINE
  5
2C
330
2B
100
AcDbEntity
  8
DIMS
 62
     0
440
 16777216
370
    -2
100
AcDbLine
 10
2184.297184477158
 20
-94.57465467126112
 30
0.0
 11
2184.297184477158
 21
-117.548228021225
 31
0.0
  0
LINE
  5
2D
330
2B
100
AcDbEntity
  8
DIMS
 62
     0
440
 16777216
370
    -2
100
AcDbLine
 10
2264.297184477158
 20
-94.57465467126112
 30
0.0
 11
2264.297184477158
 21
-117.548228021225
 31
0.0
  0
LINE
  5
2E
330
2B
100
AcDbEntity
  8
DIMS
 62
     0
440
 16777216
370
    -2
100
AcDbLine
 10
2188.297184477158
 20
-114.5482280212251
 30
0.0
 11
2260.297184477158
 21
-114.5482280212251
 31
0.0
  0
SOLID
  5
2F
330
2B
100
AcDbEntity
  8
DIMS
 62
     0
440
 16777216
100
AcDbTrace
 10
2188.297184477158
 20
-113.8815613545584
 30
0.0
 11
2188.297184477158
 21
-115.2148946878917
 31
0.0
 12
2184.297184477158
 22
-114.5482280212251
 32
0.0
 13
2184.297184477158
 23
-114.5482280212251
 33
0.0
  0
SOLID
  5
30
330
2B
100
AcDbEntity
  8
DIMS
 62
     0
440
 16777216
100
AcDbTrace
 10
2260.297184477158
 20
-113.8815613545584
 30
0.0
 11
2260.297184477158
 21
-115.2148946878917
 31
0.0
 12
2264.297184477158
 22
-114.5482280212251
 32
0.0
 13
2264.297184477158
 23
-114.5482280212251
 33
0.0
  0
MTEXT
  5
31
330
2B
100
AcDbEntity
  8
DIMS
 62
     0
440
 16777216
100
AcDbMText
 10
2224.297184477158
 20
-111.148228021225
 30
0.0
 40
3.6
 41
0.0
 46
0.0
 71
     5
 72
     1
  1
\A1;80
  7
ROMANS
 73
     1
 44
1.0
  0
POINT
  5
32
330
2B
100
AcDbEntity
  8
Defpoints
 62
     0
440
 16777216
100
AcDbPoint
 10
2184.297184477158
 20
-85.57465467126112
 30
0.0
  0
POINT
  5
34
330
2B
100
AcDbEntity
  8
Defpoints
 62
     0
440
 16777216
100
AcDbPoint
 10
2264.297184477158
 20
-85.57465467126112
 30
0.0
  0
POINT
  5
35
330
2B
100
AcDbEntity
  8
Defpoints
 62
     0
440
 16777216
100
AcDbPoint
 10
2264.297184477158
 20
-114.5482280212251
 30
0.0
  0
ENDBLK
  5
37
330
2B
100
AcDbEntity
  8
0
100
AcDbBlockEnd
  0
BLOCK
  5
1CB
330
1CA
100
AcDbEntity
  8
0
100
AcDbBlockBegin
  2
*D4
 70
     1
 10
0.0
 20
0.0
 30
0.0
  3
*D4
  1

  0
LINE
  5
1CD
330
1CA
100
AcDbEntity
  8
DIMS
 62
     0
440
 16777216
370
    -2
100
AcDbLine
 10
2822.639525202515
 20
-210.5503527493388
 30
0.0
 11
2822.639525202515
 21
-233.5239260993028
 31
0.0
  0
LINE
  5
1CE
330
1CA
100
AcDbEntity
  8
DIMS
 62
     0
440
 16777216
370
    -2
100
AcDbLine
 10
2902.639525202515
 20
-210.5503527493388
 30
0.0
 11
2902.639525202515
 21
-233.5239260993028
 31
0.0
  0
LINE
  5
1CF
330
1CA
100
AcDbEntity
  8
DIMS
 62
     0
440
 16777216
370
    -2
100
AcDbLine
 10
2826.639525202514
 20
-230.5239260993028
 30
0.0
 11
2898.639525202515
 21
-230.5239260993028
 31
0.0
  0
SOLID
  5
1D0
330
1CA
100
AcDbEntity
  8
DIMS
 62
     0
440
 16777216
100
AcDbTrace
 10
2826.639525202514
 20
-229.8572594326361
 30
0.0
 11
2826.639525202514
 21
-231.1905927659694
 31
0.0
 12
2822.639525202515
 22
-230.5239260993028
 32
0.0
 13
2822.639525202515
 23
-230.5239260993028
 33
0.0
  0
SOLID
  5
1D1
330
1CA
100
AcDbEntity
  8
DIMS
 62
     0
440
 16777216
100
AcDbTrace
 10
2898.639525202515
 20
-229.8572594326361
 30
0.0
 11
2898.639525202515
 21
-231.1905927659694
 31
0.0
 12
2902.639525202515
 22
-230.5239260993028
 32
0.0
 13
2902.639525202515
 23
-230.5239260993028
 33
0.0
  0
MTEXT
  5
1D2
330
1CA
100
AcDbEntity
  8
DIMS
 62
     0
440
 16777216
100
AcDbMText
 10
2862.639525202514
 20
-227.1239260993028
 30
0.0
 40
3.6
 41
0.0
 46
0.0
 71
     5
 72
     1
  1
\A1;80
  7
ROMANS
 73
     1
 44
1.0
  0
POINT
  5
1D3
330
1CA
100
AcDbEntity
  8
Defpoints
 62
     0
440
 16777216
100
AcDbPoint
 10
2822.639525202515
 20
-201.5503527493388
 30
0.0
  0
POINT
  5
1D4
330
1CA
100
AcDbEntity
  8
Defpoints
 62
     0
440
 16777216
100
AcDbPoint
 10
2902.639525202515
 20
-201.5503527493388
 30
0.0
  0
POINT
  5
1D5
330
1CA
100
AcDbEntity
  8
Defpoints
 62
     0
440
 16777216
100
AcDbPoint
 10
2902.639525202515
 20
-230.5239260993028
 30
0.0
  0
ENDBLK
  5
1CC
330
1CA
100
AcDbEntity
  8
0
100
AcDbBlockEnd
  0
BLOCK
  5
1D7
330
1D6
100
AcDbEntity
  8
0
100
AcDbBlockBegin
  2
*D5
 70
     1
 10
0.0
 20
0.0
 30
0.0
  3
*D5
  1

  0
LINE
  5
1D9
330
1D6
100
AcDbEntity
  8
DIMS
 62
     0
440
 16777216
370
    -2
100
AcDbLine
 10
2787.639525202515
 20
-152.5503527493388
 30
0.0
 11
2787.639525202515
 21
-250.7820106092526
 31
0.0
  0
LINE
  5
1DA
330
1D6
100
AcDbEntity
  8
DIMS
 62
     0
440
 16777216
370
    -2
100
AcDbLine
 10
2937.639525202515
 20
-152.5503527493388
 30
0.0
 11
2937.639525202515
 21
-250.7820106092526
 31
0.0
  0
LINE
  5
1DB
330
1D6
100
AcDbEntity
  8
DIMS
 62
     0
440
 16777216
370
    -2
100
AcDbLine
 10
2791.639525202515
 20
-247.7820106092526
 30
0.0
 11
2933.639525202515
 21
-247.7820106092526
 31
0.0
  0
SOLID
  5
1DC
330
1D6
100
AcDbEntity
  8
DIMS
 62
     0
440
 16777216
100
AcDbTrace
 10
2791.639525202515
 20
-247.1153439425859
 30
0.0
 11
2791.639525202515
 21
-248.4486772759192
 31
0.0
 12
2787.639525202515
 22
-247.7820106092526
 32
0.0
 13
2787.639525202515
 23
-247.7820106092526
 33
0.0
  0
SOLID
  5
1DD
330
1D6
100
AcDbEntity
  8
DIMS
 62
     0
440
 16777216
100
AcDbTrace
 10
2933.639525202515
 20
-247.1153439425859
 30
0.0
 11
2933.639525202515
 21
-248.4486772759192
 31
0.0
 12
2937.639525202515
 22
-247.7820106092526
 32
0.0
 13
2937.639525202515
 23
-247.7820106092526
 33
0.0
  0
MTEXT
  5
1DE
330
1D6
100
AcDbEntity
  8
DIMS
 62
     0
440
 16777216
100
AcDbMText
 10
2862.639525202514
 20
-244.3820106092525
 30
0.0
 40
3.6
 41
0.0
 46
0.0
 71
     5
 72
     1
  1
\A1;150
  7
ROMANS
 73
     1
 44
1.0
  0
POINT
  5
1DF
330
1D6
100
AcDbEntity
  8
Defpoints
 62
     0
440
 16777216
100
AcDbPoint
 10
2787.639525202515
 20
-143.5503527493388
 30
0.0
  0
POINT
  5
1E0
330
1D6
100
AcDbEntity
  8
Defpoints
 62
     0
440
 16777216
100
AcDbPoint
 10
2937.639525202515
 20
-143.5503527493388
 30
0.0
  0
POINT
  5
1E1
330
1D6
100
AcDbEntity
  8
Defpoints
 62
     0
440
 16777216
100
AcDbPoint
 10
2937.639525202515
 20
-247.7820106092526
 30
0.0
  0
ENDBLK
  5
1D8
330
1D6
100
AcDbEntity
  8
0
100
AcDbBlockEnd
  0
BLOCK
  5
1E3
330
1E2
100
AcDbEntity
  8
0
100
AcDbBlockBegin
  2
*D6
 70
     1
 10
0.0
 20
0.0
 30
0.0
  3
*D6
  1

  0
LINE
  5
1E5
330
1E2
100
AcDbEntity
  8
DDIMS
 62
     0
440
 16777216
370
    -2
100
AcDbLine
 10
2813.639525202516
 20
-71.55035274933886
 30
0.0
 11
2757.79880991006
 21
-71.55035274933887
 31
0.0
  0
LINE
  5
1E6
330
1E2
100
AcDbEntity
  8
DDIMS
 62
     0
440
 16777216
370
    -2
100
AcDbLine
 10
2813.639525202516
 20
-201.5503527493389
 30
0.0
 11
2757.79880991006
 21
-201.5503527493389
 31
0.0
  0
LINE
  5
1E7
330
1E2
100
AcDbEntity
  8
DDIMS
 62
     0
440
 16777216
370
    -2
100
AcDbLine
 10
2760.79880991006
 20
-75.55035274933887
 30
0.0
 11
2760.79880991006
 21
-197.5503527493389
 31
0.0
  0
SOLID
  5
1E8
330
1E2
100
AcDbEntity
  8
DDIMS
 62
     0
440
 16777216
100
AcDbTrace
 10
2760.132143243394
 20
-75.55035274933887
 30
0.0
 11
2761.465476576726
 21
-75.55035274933887
 31
0.0
 12
2760.79880991006
 22
-71.55035274933887
 32
0.0
 13
2760.79880991006
 23
-71.55035274933887
 33
0.0
  0
SOLID
  5
1E9
330
1E2
100
AcDbEntity
  8
DDIMS
 62
     0
440
 16777216
100
AcDbTrace
 10
2760.132143243394
 20
-197.5503527493389
 30
0.0
 11
2761.465476576726
 21
-197.5503527493389
 31
0.0
 12
2760.79880991006
 22
-201.5503527493389
 32
0.0
 13
2760.79880991006
 23
-201.5503527493389
 33
0.0
  0
MTEXT
  5
1EA
330
1E2
100
AcDbEntity
  8
DDIMS
 62
     0
440
 16777216
100
AcDbMText
 10
2757.398809910059
 20
-136.5503527493396
 30
0.0
 40
3.6
 41
0.0
 46
0.0
 71
     5
 72
     1
  1
\A1;130
  7
ROMANS
 11
0.0000000000000001
 21
1.0
 31
0.0
 73
     1
 44
1.0
  0
POINT
  5
1EB
330
1E2
100
AcDbEntity
  8
Defpoints
 62
     0
440
 16777216
100
AcDbPoint
 10
2822.639525202516
 20
-71.55035274933886
 30
0.0
  0
POINT
  5
1EC
330
1E2
100
AcDbEntity
  8
Defpoints
 62
     0
440
 16777216
100
AcDbPoint
 10
2822.639525202516
 20
-201.5503527493389
 30
0.0
  0
POINT
  5
1ED
330
1E2
100
AcDbEntity
  8
Defpoints
 62
     0
440
 16777216
100
AcDbPoint
 10
2760.79880991006
 20
-201.5503527493389
 30
0.0
  0
ENDBLK
  5
1E4
330
1E2
100
AcDbEntity
  8
0
100
AcDbBlockEnd
  0
ENDSEC
  0
SECTION
  2
ENTITIES
  0
DIMENSION
  5
29
330
2
100
AcDbEntity
  8
DIMS
100
AcDbDimension
280
     0
  2
*D4
 10
2902.639525202515
 20
-230.5239260993028
 30
0.0
 11
2862.639525202514
 21
-227.1239260993028
 31
0.0
 70
    32
 71
     5
 42
80.0
 73
     0
 74
     0
 75
     0
  3
1-2
100
AcDbAlignedDimension
 13
2822.639525202515
 23
-201.5503527493388
 33
0.0
 14
2902.639525202515
 24
-201.5503527493388
 34
0.0
100
AcDbRotatedDimension
  0
DIMENSION
  5
38
330
2
100
AcDbEntity
  8
DIMS
100
AcDbDimension
280
     0
  2
*D5
 10
2937.639525202515
 20
-247.7820106092526
 30
0.0
 11
2862.639525202514
 21
-244.3820106092525
 31
0.0
 70
    32
 71
     5
 42
150.0
 73
     0
 74
     0
 75
     0
  3
1-2
100
AcDbAlignedDimension
 13
2787.639525202515
 23
-143.5503527493388
 33
0.0
 14
2937.639525202515
 24
-143.5503527493388
 34
0.0
100
AcDbRotatedDimension
  0
CIRCLE
  5
57
330
2
100
AcDbEntity
  8
ANCON-DSD
100
AcDbCircle
 10
2895.639525202515
 20
-78.5503527493388
 30
0.0
 40
2.5
  0
LINE
  5
59
330
2
100
AcDbEntity
  8
DIMS
  6
CENTER2
100
AcDbLine
 10
2891.139525202515
 20
-78.5503527493388
 30
0.0
 11
2900.139525202515
 21
-78.5503527493388
 31
0.0
  0
LINE
  5
5B
330
2
100
AcDbEntity
  8
ANCON-DSD
100
AcDbLine
 10
2822.639525202515
 20
-71.55035274933879
 30
0.0
 11
2902.639525202515
 21
-71.55035274933879
 31
0.0
  0
CIRCLE
  5
5C
330
2
100
AcDbEntity
  8
ANCON-DSD
100
AcDbCircle
 10
2895.639525202515
 20
-194.5503527493388
 30
0.0
 40
2.5
  0
LINE
  5
5D
330
2
100
AcDbEntity
  8
DIMS
  6
CENTER2
100
AcDbLine
 10
2891.139525202515
 20
-194.5503527493388
 30
0.0
 11
2900.139525202515
 21
-194.5503527493388
 31
0.0
  0
LINE
  5
5E
330
2
100
AcDbEntity
  8
ANCON-DSD
100
AcDbLine
 10
2822.639525202515
 20
-201.5503527493388
 30
0.0
 11
2902.639525202515
 21
-201.5503527493388
 31
0.0
  0
LINE
  5
5F
330
2
100
AcDbEntity
  8
DIMS
  6
CENTER2
100
AcDbLine
 10
2782.639525202515
 20
-136.5503527493388
 30
0.0
 11
2942.639525202515
 21
-136.5503527493388
 31
0.0
  0
LINE
  5
60
330
2
100
AcDbEntity
  8
DIMS
  6
CENTER2
100
AcDbLine
 10
2862.639525202514
 20
-61.55035274933879
 30
0.0
 11
2862.639525202514
 21
-211.5503527493388
 31
0.0
  0
LINE
  5
61
330
2
100
AcDbEntity
  8
ANCON-DSD
100
AcDbLine
 10
2822.639525202515
 20
-71.55035274933879
 30
0.0
 11
2822.639525202515
 21
-201.5503527493388
 31
0.0
  0
LINE
  5
62
330
2
100
AcDbEntity
  8
DIMS
  6
CENTER2
100
AcDbLine
 10
2862.639525202514
 20
-79.00475634014526
 30
0.0
 11
2862.639525202514
 21
-187.4925554428075
 31
0.0
  0
DIMENSION
  5
63
330
2
100
AcDbEntity
  8
DDIMS
100
AcDbDimension
280
     0
  2
*D6
 10
2760.79880991006
 20
-201.5503527493389
 30
0.0
 11
2757.398809910059
 21
-136.5503527493396
 31
0.0
 70
    32
 71
     5
 42
130.0
 73
     0
 74
     0
 75
     0
  3
1-2
100
AcDbAlignedDimension
 13
2822.639525202515
 23
-71.55035274933883
 33
0.0
 14
2822.639525202515
 24
-201.5503527493388
 34
0.0
 50
90.0
100
AcDbRotatedDimension
  0
CIRCLE
  5
70
330
2
100
AcDbEntity
  8
ANCON-DSD
100
AcDbCircle
 10
2829.639525202514
 20
-194.5503527493388
 30
0.0
 40
2.5
  0
LINE
  5
71
330
2
100
AcDbEntity
  8
DIMS
  6
CENTER2
100
AcDbLine
 10
2825.139525202514
 20
-194.5503527493388
 30
0.0
 11
2834.139525202515
 21
-194.5503527493388
 31
0.0
  0
LINE
  5
72
330
2
100
AcDbEntity
  8
DIMS
  6
CENTER2
100
AcDbLine
 10
2829.639525202514
 20
-190.0503527493388
 30
0.0
 11
2829.639525202514
 21
-199.0503527493388
 31
0.0
  0
LINE
  5
73
330
2
100
AcDbEntity
  8
DIMS
  6
CENTER2
100
AcDbLine
 10
2895.639525202515
 20
-190.0503527493388
 30
0.0
 11
2895.639525202515
 21
-199.0503527493388
 31
0.0
  0
LINE
  5
74
330
2
100
AcDbEntity
  8
ANCON-DSD
  6
Continuous
100
AcDbLine
 10
2837.639525202515
 20
-154.0503527493388
 30
0.0
 11
2887.639525202514
 21
-154.0503527493388
 31
0.0
  0
LINE
  5
75
330
2
100
AcDbEntity
  8
ANCON-DSD
  6
Continuous
100
AcDbLine
 10
2839.639525202514
 20
-156.0503527493388
 30
0.0
 11
2885.639525202515
 21
-156.0503527493388
 31
0.0
  0
LINE
  5
76
330
2
100
AcDbEntity
  8
ANCON-DSD
  6
Continuous
100
AcDbLine
 10
2837.639525202515
 20
-184.0503527493388
 30
0.0
 11
2887.639525202514
 21
-184.0503527493388
 31
0.0
  0
LINE
  5
77
330
2
100
AcDbEntity
  8
ANCON-DSD
  6
Continuous
100
AcDbLine
 10
2839.639525202514
 20
-182.0503527493388
 30
0.0
 11
2885.639525202515
 21
-182.0503527493388
 31
0.0
  0
LINE
  5
78
330
2
100
AcDbEntity
  8
DIMS
  6
CENTER2
100
AcDbLine
 10
2832.639525202515
 20
-169.0503527493388
 30
0.0
 11
2892.639525202515
 21
-169.0503527493388
 31
0.0
  0
CIRCLE
  5
79
330
2
100
AcDbEntity
  8
ANCON-DSD
100
AcDbCircle
 10
2862.639525202514
 20
-169.0503527493388
 30
0.0
 40
12.7
  0
CIRCLE
  5
7A
330
2
100
AcDbEntity
  8
ANCON-DSD
100
AcDbCircle
 10
2862.639525202514
 20
-169.0503527493388
 30
0.0
 40
11.45
  0
LINE
  5
7B
330
2
100
AcDbEntity
  8
ANCON-DSD
  6
Continuous
100
AcDbLine
 10
2837.639525202515
 20
-154.0503527493388
 30
0.0
 11
2837.639525202515
 21
-184.0503527493388
 31
0.0
  0
LINE
  5
7C
330
2
100
AcDbEntity
  8
ANCON-DSD
  6
Continuous
100
AcDbLine
 10
2839.639525202514
 20
-156.0503527493388
 30
0.0
 11
2839.639525202514
 21
-182.0503527493388
 31
0.0
  0
LINE
  5
7D
330
2
100
AcDbEntity
  8
ANCON-DSD
  6
Continuous
100
AcDbLine
 10
2885.639525202515
 20
-156.0503527493388
 30
0.0
 11
2885.639525202515
 21
-182.0503527493388
 31
0.0
  0
LINE
  5
7E
330
2
100
AcDbEntity
  8
ANCON-DSD
  6
Continuous
100
AcDbLine
 10
2887.639525202514
 20
-154.0503527493388
 30
0.0
 11
2887.639525202514
 21
-184.0503527493388
 31
0.0
  0
LINE
  5
7F
330
2
100
AcDbEntity
  8
ANCON-DSD
  6
Continuous
100
AcDbLine
 10
2787.639525202515
 20
-143.5503527493388
 30
0.0
 11
2822.639525202515
 21
-143.5503527493388
 31
0.0
  0
LINE
  5
80
330
2
100
AcDbEntity
  8
ANCON-DSD
  6
Continuous
100
AcDbLine
 10
2787.639525202515
 20
-129.5503527493388
 30
0.0
 11
2822.639525202515
 21
-129.5503527493388
 31
0.0
  0
LINE
  5
81
330
2
100
AcDbEntity
  8
ANCON-DSD
  6
Continuous
100
AcDbLine
 10
2787.639525202515
 20
-129.5503527493388
 30
0.0
 11
2787.639525202515
 21
-143.5503527493388
 31
0.0
  0
LINE
  5
82
330
2
100
AcDbEntity
  8
ANCON-DSD
  6
Continuous
100
AcDbLine
 10
2885.639525202515
 20
-91.0503527493388
 30
0.0
 11
2885.639525202515
 21
-117.0503527493388
 31
0.0
  0
CIRCLE
  5
83
330
2
100
AcDbEntity
  8
ANCON-DSD
100
AcDbCircle
 10
2862.639525202514
 20
-104.0503527493388
 30
0.0
 40
12.7
  0
CIRCLE
  5
84
330
2
100
AcDbEntity
  8
ANCON-DSD
100
AcDbCircle
 10
2862.639525202514
 20
-104.0503527493388
 30
0.0
 40
11.45
  0
LINE
  5
85
330
2
100
AcDbEntity
  8
ANCON-DSD
  6
Continuous
100
AcDbLine
 10
2839.639525202514
 20
-91.0503527493388
 30
0.0
 11
2839.639525202514
 21
-117.0503527493388
 31
0.0
  0
LINE
  5
86
330
2
100
AcDbEntity
  8
ANCON-DSD
  6
Continuous
100
AcDbLine
 10
2837.639525202515
 20
-89.05035274933879
 30
0.0
 11
2837.639525202515
 21
-119.0503527493388
 31
0.0
  0
LINE
  5
87
330
2
100
AcDbEntity
  8
ANCON-DSD
  6
Continuous
100
AcDbLine
 10
2887.639525202514
 20
-89.05035274933879
 30
0.0
 11
2887.639525202514
 21
-119.0503527493388
 31
0.0
  0
LINE
  5
88
330
2
100
AcDbEntity
  8
ANCON-DSD
  6
Continuous
100
AcDbLine
 10
2839.639525202514
 20
-117.0503527493388
 30
0.0
 11
2885.639525202515
 21
-117.0503527493388
 31
0.0
  0
LINE
  5
89
330
2
100
AcDbEntity
  8
ANCON-DSD
  6
Continuous
100
AcDbLine
 10
2837.639525202515
 20
-119.0503527493388
 30
0.0
 11
2887.639525202514
 21
-119.0503527493388
 31
0.0
  0
LINE
  5
8A
330
2
100
AcDbEntity
  8
ANCON-DSD
  6
Continuous
100
AcDbLine
 10
2837.639525202515
 20
-89.05035274933879
 30
0.0
 11
2887.639525202514
 21
-89.05035274933879
 31
0.0
  0
LINE
  5
8B
330
2
100
AcDbEntity
  8
DIMS
  6
CENTER2
100
AcDbLine
 10
2832.639525202515
 20
-104.0503527493388
 30
0.0
 11
2892.639525202515
 21
-104.0503527493388
 31
0.0
  0
LINE
  5
8C
330
2
100
AcDbEntity
  8
ANCON-DSD
  6
Continuous
100
AcDbLine
 10
2839.639525202514
 20
-91.0503527493388
 30
0.0
 11
2885.639525202515
 21
-91.0503527493388
 31
0.0
  0
CIRCLE
  5
8D
330
2
100
AcDbEntity
  8
ANCON-DSD
100
AcDbCircle
 10
2829.639525202514
 20
-78.5503527493388
 30
0.0
 40
2.5
  0
LINE
  5
8E
330
2
100
AcDbEntity
  8
DIMS
  6
CENTER2
100
AcDbLine
 10
2825.139525202514
 20
-78.5503527493388
 30
0.0
 11
2834.139525202515
 21
-78.5503527493388
 31
0.0
  0
LINE
  5
8F
330
2
100
AcDbEntity
  8
DIMS
  6
CENTER2
100
AcDbLine
 10
2829.639525202514
 20
-74.05035274933879
 30
0.0
 11
2829.639525202514
 21
-83.0503527493388
 31
0.0
  0
LINE
  5
90
330
2
100
AcDbEntity
  8
DIMS
  6
CENTER2
100
AcDbLine
 10
2895.639525202515
 20
-74.05035274933879
 30
0.0
 11
2895.639525202515
 21
-83.0503527493388
 31
0.0
  0
LINE
  5
9C
330
2
100
AcDbEntity
  8
ANCON-DSD
100
AcDbLine
 10
2902.639525202515
 20
-71.55035274933879
 30
0.0
 11
2902.639525202515
 21
-201.5503527493388
 31
0.0
  0
LINE
  5
9D
330
2
100
AcDbEntity
  8
ANCON-DSD
  6
Continuous
100
AcDbLine
 10
2902.639525202515
 20
-129.5503527493388
 30
0.0
 11
2937.639525202515
 21
-129.5503527493388
 31
0.0
  0
LINE
  5
9E
330
2
100
AcDbEntity
  8
ANCON-DSD
  6
Continuous
100
AcDbLine
 10
2902.639525202515
 20
-143.5503527493388
 30
0.0
 11
2937.639525202515
 21
-143.5503527493388
 31
0.0
  0
LINE
  5
9F
330
2
100
AcDbEntity
  8
ANCON-DSD
  6
Continuous
100
AcDbLine
 10
2937.639525202515
 20
-129.5503527493388
 30
0.0
 11
2937.639525202515
 21
-143.5503527493388
 31
0.0
  0
LINE
  5
167
330
2
100
AcDbEntity
  8
SPECD
  6
Continuous
 62
     6
100
AcDbLine
 10
3089.628799126997
 20
8.121633883401045
 30
0.0
 11
3089.628799126997
 21
-44.91205870214929
 31
0.0
  0
LINE
  5
168
330
2
100
AcDbEntity
  8
SPECP
  6
Continuous
 62
     6
100
AcDbLine
 10
2887.141849020356
 20
37.48814755049489
 30
0.0
 11
2954.731699943118
 21
37.48814755049489
 31
0.0
  0
LINE
  5
169
330
2
100
AcDbEntity
  8
SPECD
  6
Continuous
 62
     6
100
AcDbLine
 10
2887.141849020356
 20
8.121633883401045
 30
0.0
 11
2887.141849020356
 21
-44.91205870214929
 31
0.0
  0
TEXT
  5
16A
102
{ACAD_XDICTIONARY
360
16B
102
}
330
2
100
AcDbEntity
  8
SPECP
  6
Continuous
 62
     6
100
AcDbText
 10
2894.764815966535
 20
28.85103743465135
 30
0.0
 40
5.0
  1
STAIFIX DSD ??
  7
ARIAL
 72
     4
 11
2921.159768217558
 21
31.35103743465135
 31
0.0
100
AcDbText
1001
AcadAnnotative
1000
AnnotativeData
1002
{
1070
     1
1070
     1
1002
}
  0
LINE
  5
16F
330
2
100
AcDbEntity
  8
SPECP
  6
Continuous
 62
     6
100
AcDbLine
 10
2887.141849020356
 20
25.57017225849359
 30
0.0
 11
2954.731699943118
 21
25.57017225849359
 31
0.0
  0
TEXT
  5
170
102
{ACAD_XDICTIONARY
360
171
102
}
330
2
100
AcDbEntity
  8
SPECD
  6
Continuous
 62
     6
100
AcDbText
 10
2897.66337313136
 20
-41.21071359132101
 30
0.0
 40
5.0
  1
LOAD OF ??? kN
  7
ARIAL
 72
     4
 11
2925.030358124539
 21
-38.70900827072075
 31
0.0
100
AcDbText
1001
AcadAnnotative
1000
AnnotativeData
1002
{
1070
     1
1070
     1
1002
}
  0
LINE
  5
175
330
2
100
AcDbEntity
  8
SPECP
  6
Continuous
 62
     6
100
AcDbLine
 10
2887.141849020356
 20
37.48814755049489
 30
0.0
 11
2887.141849020356
 21
25.57017225849359
 31
0.0
  0
LINE
  5
176
330
2
100
AcDbEntity
  8
SPECP
  6
Continuous
 62
     6
100
AcDbLine
 10
2954.731699943118
 20
37.48814755049489
 30
0.0
 11
2954.731699943118
 21
25.57017225849359
 31
0.0
  0
TEXT
  5
177
102
{ACAD_XDICTIONARY
360
178
102
}
330
2
100
AcDbEntity
  8
SPECD
  6
Continuous
 62
     6
100
AcDbText
 10
2895.683794965503
 20
-21.12673101242964
 30
0.0
 40
5.0
  1
SUITABLE FOR A DESIGN JOINT WIDTH OF ?? MM
  7
ARIAL
 72
     4
 11
2979.510534392516
 21
-18.62502569182936
 31
0.0
100
AcDbText
1001
AcadAnnotative
1000
AnnotativeData
1002
{
1070
     1
1070
     1
1002
}
  0
LINE
  5
17C
330
2
100
AcDbEntity
  8
SPECD
  6
Continuous
 62
     6
100
AcDbLine
 10
2887.141849020356
 20
8.121633883401045
 30
0.0
 11
3089.628799126997
 21
8.121633883401045
 31
0.0
  0
LINE
  5
17D
330
2
100
AcDbEntity
  8
SPECD
  6
Continuous
 62
     6
100
AcDbLine
 10
2887.141849020356
 20
-44.91205870214929
 30
0.0
 11
3089.628799126997
 21
-44.91205870214929
 31
0.0
  0
TEXT
  5
17E
102
{ACAD_XDICTIONARY
360
17F
102
}
330
2
100
AcDbEntity
  8
SPECD
  6
Continuous
 62
     6
100
AcDbText
 10
2897.204708596676
 20
-31.1757884263587
 30
0.0
 40
5.0
  1
AND CAPABLE OF TRANSFERRING A SERVICEABILITY
  7
ARIAL
 72
     4
 11
2988.6064821301
 21
-28.67408310575843
 31
0.0
100
AcDbText
1001
AcadAnnotative
1000
AnnotativeData
1002
{
1070
     1
1070
     1
1002
}
  0
TEXT
  5
183
102
{ACAD_XDICTIONARY
360
184
102
}
330
2
100
AcDbEntity
  8
SPECD
  6
Continuous
 62
     6
100
AcDbText
 10
2895.827060328073
 20
-11.22558330275986
 30
0.0
 40
5.0
  1
COMPRISING SLEEVE AND DOWEL COMPONENT
  7
ARIAL
 72
     4
 11
2978.688588295331
 21
-8.723877982159592
 31
0.0
100
AcDbText
1001
AcadAnnotative
1000
AnnotativeData
1002
{
1070
     1
1070
     1
1002
}
  0
TEXT
  5
188
102
{ACAD_XDICTIONARY
360
189
102
}
330
2
100
AcDbEntity
  8
SPECD
  6
Continuous
 62
     6
100
AcDbText
 10
2896.920979093902
 20
-1.12087097696925
 30
0.0
 40
5.0
  1
TWO PART STAINLESS STEEL SHEAR CONNECTOR
  7
ARIAL
 72
     4
 11
2984.052629844244
 21
1.380834343631022
 31
0.0
100
AcDbText
1001
AcadAnnotative
1000
AnnotativeData
1002
{
1070
     1
1070
     1
1002
}
  0
TEXT
  5
18D
102
{ACAD_XDICTIONARY
360
18E
102
}
330
2
100
AcDbEntity
  8
20MM-JOINT
  6
Continuous
 62
     6
100
AcDbText
 10
3051.879589653851
 20
-97.85140470884712
 30
0.0
 40
5.0
  1
???
  7
ARIAL
 72
     4
 11
3057.706670144983
 21
-95.3087716938403
 31
0.0
100
AcDbText
1001
AcadAnnotative
1000
AnnotativeData
1002
{
1070
     1
1070
     1
1002
}
  0
LINE
  5
192
330
2
100
AcDbEntity
  8
20MM-JOINT
  6
Continuous
 62
     6
100
AcDbLine
 10
3089.199883724817
 20
-55.52608265284607
 30
0.0
 11
3089.199883724817
 21
-108.6243287869388
 31
0.0
  0
TEXT
  5
193
102
{ACAD_XDICTIONARY
360
194
102
}
330
2
100
AcDbEntity
  8
20MM-JOINT
  6
Continuous
 62
     6
100
AcDbText
 10
2983.55189642084
 20
-76.68942220000667
 30
0.0
 40
5.0
  1
WIDTH
  7
ARIAL
 72
     4
 11
2994.996302969272
 21
-74.18942220000667
 31
0.0
100
AcDbText
1001
AcadAnnotative
1000
AnnotativeData
1002
{
1070
     1
1070
     1
1002
}
  0
TEXT
  5
198
102
{ACAD_XDICTIONARY
360
199
102
}
330
2
100
AcDbEntity
  8
20MM-JOINT
  6
Continuous
 62
     6
100
AcDbText
 10
2987.033068507875
 20
-97.84969938824685
 30
0.0
 40
5.0
  1
?? MM
  7
ARIAL
 72
     4
 11
2997.706670144983
 21
-95.3087716938403
 31
0.0
100
AcDbText
1001
AcadAnnotative
1000
AnnotativeData
1002
{
1070
     1
1070
     1
1002
}
  0
TEXT
  5
19D
102
{ACAD_XDICTIONARY
360
19E
102
}
330
2
100
AcDbEntity
  8
20MM-JOINT
  6
Continuous
 62
     6
100
AcDbText
 10
2970.54712152316
 20
-65.79350413298797
 30
0.0
 40
5.0
  1
DESIGN JOINT
  7
ARIAL
 72
     4
 11
2994.996302969272
 21
-63.29179881238769
 31
0.0
100
AcDbText
1001
AcadAnnotative
1000
AnnotativeData
1002
{
1070
     1
1070
     1
1002
}
  0
TEXT
  5
1A2
102
{ACAD_XDICTIONARY
360
1A3
102
}
330
2
100
AcDbEntity
  8
20MM-JOINT
  6
Continuous
 62
     6
100
AcDbText
 10
2922.690326360808
 20
-65.79179881238769
 30
0.0
 40
5.0
  1
DSD REF:
  7
ARIAL
 72
     4
 11
2938.989780658216
 21
-63.29179881238769
 31
0.0
100
AcDbText
1001
AcadAnnotative
1000
AnnotativeData
1002
{
1070
     1
1070
     1
1002
}
  0
TEXT
  5
1A7
102
{ACAD_XDICTIONARY
360
1A8
102
}
330
2
100
AcDbEntity
  8
20MM-JOINT
  6
Continuous
 62
     6
100
AcDbText
 10
2923.731567825747
 20
-97.65870348101628
 30
0.0
 40
5.0
  1
DSDQ65
  7
ARIAL
 72
     4
 11
2937.706670144983
 21
-95.3087716938403
 31
0.0
100
AcDbText
1001
AcadAnnotative
1000
AnnotativeData
1002
{
1070
     1
1070
     1
1002
}
  0
LINE
  5
1AC
330
2
100
AcDbEntity
  8
20MM-JOINT
  6
Continuous
 62
     6
100
AcDbLine
 10
2913.821206032955
 20
-55.52608265284607
 30
0.0
 11
2913.821206032955
 21
-108.6243287869388
 31
0.0
  0
LINE
  5
1AD
330
2
100
AcDbEntity
  8
20MM-JOINT
  6
Continuous
 62
     6
100
AcDbLine
 10
2963.821206032955
 20
-55.52608265284607
 30
0.0
 11
2963.821206032955
 21
-108.6243287869388
 31
0.0
  0
LINE
  5
1AE
330
2
100
AcDbEntity
  8
20MM-JOINT
  6
Continuous
 62
     6
100
AcDbLine
 10
3024.329299590017
 20
-55.52608265284607
 30
0.0
 11
3024.329299590017
 21
-108.6243287869388
 31
0.0
  0
TEXT
  5
1AF
102
{ACAD_XDICTIONARY
360
1B0
102
}
330
2
100
AcDbEntity
  8
20MM-JOINT
  6
Continuous
 62
     6
100
AcDbText
 10
3038.690640131341
 20
-76.39673526786686
 30
0.0
 40
5.0
  1
LOAD ( kN )
  7
ARIAL
 72
     4
 11
3057.706670144983
 21
-74.58739011097737
 31
0.0
100
AcDbText
1001
AcadAnnotative
1000
AnnotativeData
1002
{
1070
     1
1070
     1
1002
}
  0
TEXT
  5
1B4
102
{ACAD_XDICTIONARY
360
1B5
102
}
330
2
100
AcDbEntity
  8
20MM-JOINT
  6
Continuous
 62
     6
100
AcDbText
 10
3029.369357730249
 20
-65.7869683152561
 30
0.0
 40
5.0
  1
SERVICEABILITY
  7
ARIAL
 72
     4
 11
3057.706670144983
 21
-63.2869683152561
 31
0.0
100
AcDbText
1001
AcadAnnotative
1000
AnnotativeData
1002
{
1070
     1
1070
     1
1002
}
  0
LINE
  5
1B9
330
2
100
AcDbEntity
  8
20MM-JOINT
  6
Continuous
 62
     6
100
AcDbLine
 10
2913.821206032955
 20
-55.52608265284607
 30
0.0
 11
3089.199883724817
 21
-55.52608265284607
 31
0.0
  0
LINE
  5
1BA
330
2
100
AcDbEntity
  8
20MM-JOINT
  6
Continuous
 62
     6
100
AcDbLine
 10
2913.821206032955
 20
-81.59684371189177
 30
0.0
 11
3089.199883724817
 21
-81.59684371189177
 31
0.0
  0
LINE
  5
1BB
330
2
100
AcDbEntity
  8
20MM-JOINT
  6
Continuous
 62
     6
100
AcDbLine
 10
2913.821206032955
 20
-108.6243287869388
 30
0.0
 11
3089.199883724817
 21
-108.6243287869388
 31
0.0
  0
TEXT
  5
1BC
102
{ACAD_XDICTIONARY
360
1BD
102
}
330
2
100
AcDbEntity
  8
SPECP
  6
Continuous
 62
     1
100
AcDbText
 10
2762.375541174321
 20
28.84933211405107
 30
0.0
 40
5.0
  1
SPECIFICATION BY PRODUCT
  7
ARIAL
 72
     4
 11
2813.021857681825
 21
31.35103743465135
 31
0.0
100
AcDbText
1001
AcadAnnotative
1000
AnnotativeData
1002
{
1070
     1
1070
     1
1002
}
  0
TEXT
  5
1C1
102
{ACAD_XDICTIONARY
360
1C2
102
}
330
2
100
AcDbEntity
  8
SPECD
  6
Continuous
 62
     1
100
AcDbText
 10
2762.110063251368
 20
-1.085122350445054
 30
0.0
 40
5.0
  1
SPECIFICATION BY DESCRIPTION
  7
ARIAL
 72
     4
 11
2819.355970481927
 21
1.416582970155218
 31
0.0
100
AcDbText
1001
AcadAnnotative
1000
AnnotativeData
1002
{
1070
     1
1070
     1
1002
}
  0
MTEXT
  5
1C6
330
2
100
AcDbEntity
  8
ANCON-TEXT
100
AcDbMText
 10
2959.057506108963
 20
-209.6878948061002
 30
0.0
 40
6.695252439800889
 41
160.2376420553701
 46
0.0
 71
     1
 72
     5
  1
{\fArial|b0|i0|c0|p34;Leviat \PTel:  1300 304 320\PEmail: technical.au@leviat.com\PWeb: ancon.com.au / Leviat.com}
 73
     1
 44
1.0
101
Embedded Object
 70
     1
 10
1.0
 20
0.0
 30
0.0
 11
2959.057506108963
 21
-209.6878948061002
 31
0.0
 40
160.2376420553701
 41
0.0
 42
135.4898050010729
 43
40.5505773622047
 71
     2
 72
     1
 44
160.2376420553701
 45
0.8369065549751111
 73
     0
 74
     0
 46
0.0
  0
LWPOLYLINE
  5
1C7
330
2
100
AcDbEntity
  8
DIMS
 62
     0
100
AcDbPolyline
 90
        4
 70
     1
 43
0.0
 10
2741.455566461123
 20
58.37106245236464
 10
3099.711749905879
 20
58.37106245236464
 10
3099.711749905879
 20
-260.198990983839
 10
2741.455566461123
 20
-260.198990983839
  0
ENDSEC
  0
SECTION
  2
OBJECTS
  0
DICTIONARY
  5
7
330
0
100
AcDbDictionary
281
     1
  3
ACAD_CIP_PREVIOUS_PRODUCT_INFO
350
F6
  3
ACAD_COLOR
350
D9
  3
ACAD_DETAILVIEWSTYLE
350
F2
  3
ACAD_GROUP
350
24
  3
ACAD_LAYOUT
350
B
  3
ACAD_MATERIAL
350
A7
  3
ACAD_MLEADERSTYLE
350
EE
  3
ACAD_MLINESTYLE
350
25
  3
ACAD_PLOTSETTINGS
350
26
  3
ACAD_PLOTSTYLENAME
350
6
  3
ACAD_SCALELIST
350
DC
  3
ACAD_SECTIONVIEWSTYLE
350
F0
  3
ACAD_TABLESTYLE
350
DA
  3
ACAD_VISUALSTYLE
350
C0
  3
ACDB_RECOMPOSE_DATA
350
224
  3
AcDbVariableDictionary
350
218
  0
DICTIONARY
  5
FB
330
10
100
AcDbDictionary
280
     1
281
     1
  3
ACAD_LAYERSTATES
360
FC
  0
DICTIONARY
  5
208
330
4
100
AcDbDictionary
280
     1
281
     1
  3
ADSK_XREC_LAYER_RECONCILED
360
209
  0
DICTIONARY
  5
20A
330
27
100
AcDbDictionary
280
     1
281
     1
  3
ADSK_XREC_LAYER_RECONCILED
360
20B
  0
DICTIONARY
  5
20C
330
2A
100
AcDbDictionary
280
     1
281
     1
  3
ADSK_XREC_LAYER_RECONCILED
360
20D
  0
DICTIONARY
  5
20E
330
58
100
AcDbDictionary
280
     1
281
     1
  3
ADSK_XREC_LAYER_RECONCILED
360
20F
  0
DICTIONARY
  5
210
330
92
100
AcDbDictionary
280
     1
281
     1
  3
ADSK_XREC_LAYER_RECONCILED
360
211
  0
DICTIONARY
  5
212
330
49
100
AcDbDictionary
280
     1
281
     1
  3
ADSK_XREC_LAYER_RECONCILED
360
213
  0
DICTIONARY
  5
214
330
46
100
AcDbDictionary
280
     1
281
     1
  3
ADSK_XREC_LAYER_RECONCILED
360
215
  0
DICTIONARY
  5
216
330
F7
100
AcDbDictionary
280
     1
281
     1
  3
ADSK_XREC_LAYER_RECONCILED
360
217
  0
DICTIONARY
  5
16B
330
16A
100
AcDbDictionary
280
     1
281
     1
  3
AcDbContextDataManager
360
16C
  0
DICTIONARY
  5
171
330
170
100
AcDbDictionary
280
     1
281
     1
  3
AcDbContextDataManager
360
172
  0
DICTIONARY
  5
178
330
177
100
AcDbDictionary
280
     1
281
     1
  3
AcDbContextDataManager
360
179
  0
DICTIONARY
  5
17F
330
17E
100
AcDbDictionary
280
     1
281
     1
  3
AcDbContextDataManager
360
180
  0
DICTIONARY
  5
184
330
183
100
AcDbDictionary
280
     1
281
     1
  3
AcDbContextDataManager
360
185
  0
DICTIONARY
  5
189
330
188
100
AcDbDictionary
280
     1
281
     1
  3
AcDbContextDataManager
360
18A
  0
DICTIONARY
  5
18E
330
18D
100
AcDbDictionary
280
     1
281
     1
  3
AcDbContextDataManager
360
18F
  0
DICTIONARY
  5
194
330
193
100
AcDbDictionary
280
     1
281
     1
  3
AcDbContextDataManager
360
195
  0
DICTIONARY
  5
199
330
198
100
AcDbDictionary
280
     1
281
     1
  3
AcDbContextDataManager
360
19A
  0
DICTIONARY
  5
19E
330
19D
100
AcDbDictionary
280
     1
281
     1
  3
AcDbContextDataManager
360
19F
  0
DICTIONARY
  5
1A3
330
1A2
100
AcDbDictionary
280
     1
281
     1
  3
AcDbContextDataManager
360
1A4
  0
DICTIONARY
  5
1A8
330
1A7
100
AcDbDictionary
280
     1
281
     1
  3
AcDbContextDataManager
360
1A9
  0
DICTIONARY
  5
1B0
330
1AF
100
AcDbDictionary
280
     1
281
     1
  3
AcDbContextDataManager
360
1B1
  0
DICTIONARY
  5
1B5
330
1B4
100
AcDbDictionary
280
     1
281
     1
  3
AcDbContextDataManager
360
1B6
  0
DICTIONARY
  5
1BD
330
1BC
100
AcDbDictionary
280
     1
281
     1
  3
AcDbContextDataManager
360
1BE
  0
DICTIONARY
  5
1C2
330
1C1
100
AcDbDictionary
280
     1
281
     1
  3
AcDbContextDataManager
360
1C3
  0
XRECORD
  5
F6
102
{ACAD_REACTORS
330
7
102
}
330
7
100
AcDbXrecord
280
     1
300
ACDLT
300
2020
300

  0
DICTIONARY
  5
D9
102
{ACAD_REACTORS
330
7
102
}
330
7
100
AcDbDictionary
281
     1
  0
DICTIONARY
  5
F2
102
{ACAD_REACTORS
330
7
102
}
330
7
100
AcDbDictionary
281
     1
  3
Imperial24
350
FE
  3
Metric50
350
F3
  0
DICTIONARY
  5
24
102
{ACAD_REACTORS
330
7
102
}
330
7
100
AcDbDictionary
281
     1
  0
DICTIONARY
  5
B
102
{ACAD_REACTORS
330
7
102
}
330
7
100
AcDbDictionary
281
     1
  3
Layout1
350
F
  3
Model
350
A
  0
DICTIONARY
  5
A7
102
{ACAD_REACTORS
330
7
102
}
330
7
100
AcDbDictionary
281
     1
  3
ByBlock
350
B0
  3
ByLayer
350
A8
  3
Global
350
B8
  0
DICTIONARY
  5
EE
102
{ACAD_REACTORS
330
7
102
}
330
7
100
AcDbDictionary
281
     1
  3
Standard
350
EF
  0
DICTIONARY
  5
25
102
{ACAD_REACTORS
330
7
102
}
330
7
100
AcDbDictionary
281
     1
  3
Standard
350
28
  0
DICTIONARY
  5
26
102
{ACAD_REACTORS
330
7
102
}
330
7
100
AcDbDictionary
281
     1
  0
ACDBDICTIONARYWDFLT
  5
6
102
{ACAD_REACTORS
330
7
102
}
330
7
100
AcDbDictionary
281
     1
  3
Normal
350
5
100
AcDbDictionaryWithDefault
340
5
  0
DICTIONARY
  5
DC
102
{ACAD_REACTORS
330
7
102
}
330
7
100
AcDbDictionary
281
     1
  3
A0
350
DD
  3
A1
350
DE
  3
A2
350
DF
  3
A3
350
E0
  3
A4
350
E1
  3
A5
350
E2
  3
A6
350
E3
  3
A7
350
E4
  3
A8
350
E5
  3
A9
350
E6
  3
B0
350
E7
  3
B1
350
E8
  3
B2
350
E9
  3
B3
350
EA
  3
B4
350
EB
  3
B5
350
EC
  3
B6
350
ED
  0
DICTIONARY
  5
F0
102
{ACAD_REACTORS
330
7
102
}
330
7
100
AcDbDictionary
281
     1
  3
Imperial24
350
FD
  3
Metric50
350
F1
  0
DICTIONARY
  5
DA
102
{ACAD_REACTORS
330
7
102
}
330
7
100
AcDbDictionary
281
     1
  3
Standard
350
DB
  0
DICTIONARY
  5
C0
102
{ACAD_REACTORS
330
7
102
}
330
7
100
AcDbDictionary
281
     1
  3
2dWireframe
350
C6
  3
Basic
350
C5
  3
Brighten
350
CC
  3
ColorChange
350
D0
  3
Conceptual
350
C9
  3
Dim
350
CB
  3
EdgeColorOff
350
D8
  3
Facepattern
350
CF
  3
Flat
350
C1
  3
FlatWithEdges
350
C2
  3
Gouraud
350
C3
  3
GouraudWithEdges
350
C4
  3
Hidden
350
C8
  3
JitterOff
350
D6
  3
Linepattern
350
CE
  3
OverhangOff
350
D7
  3
Realistic
350
CA
  3
Shaded
350
D5
  3
Shaded with edges
350
D4
  3
Shades of Gray
350
D1
  3
Sketchy
350
D2
  3
Thicken
350
CD
  3
Wireframe
350
C7
  3
X-Ray
350
D3
  0
XRECORD
  5
224
102
{ACAD_REACTORS
330
7
102
}
330
7
100
AcDbXrecord
280
     1
 90
        1
330
DB
  0
DICTIONARY
  5
218
102
{ACAD_REACTORS
330
7
102
}
330
7
100
AcDbDictionary
281
     1
  3
CANNOSCALE
350
21E
  3
CMLEADERSTYLE
350
21A
  3
CTABLESTYLE
350
219
  3
CVIEWDETAILSTYLE
350
21B
  3
CVIEWSECTIONSTYLE
350
21C
  3
LAYEREVAL
350
220
  3
LAYERNOTIFY
350
221
  3
LIGHTINGUNITS
350
21F
  3
MSLTSCALE
350
21D
  0
DICTIONARY
  5
FC
102
{ACAD_REACTORS
330
FB
102
}
330
FB
100
AcDbDictionary
281
     1
  0
XRECORD
  5
209
102
{ACAD_REACTORS
330
208
102
}
330
208
100
AcDbXrecord
280
     1
290
     1
  0
XRECORD
  5
20B
102
{ACAD_REACTORS
330
20A
102
}
330
20A
100
AcDbXrecord
280
     1
290
     1
  0
XRECORD
  5
20D
102
{ACAD_REACTORS
330
20C
102
}
330
20C
100
AcDbXrecord
280
     1
290
     1
  0
XRECORD
  5
20F
102
{ACAD_REACTORS
330
20E
102
}
330
20E
100
AcDbXrecord
280
     1
290
     1
  0
XRECORD
  5
211
102
{ACAD_REACTORS
330
210
102
}
330
210
100
AcDbXrecord
280
     1
290
     1
  0
XRECORD
  5
213
102
{ACAD_REACTORS
330
212
102
}
330
212
100
AcDbXrecord
280
     1
290
     1
  0
XRECORD
  5
215
102
{ACAD_REACTORS
330
214
102
}
330
214
100
AcDbXrecord
280
     1
290
     1
  0
XRECORD
  5
217
102
{ACAD_REACTORS
330
216
102
}
330
216
100
AcDbXrecord
280
     1
290
     1
  0
DICTIONARY
  5
16C
102
{ACAD_REACTORS
330
16B
102
}
330
16B
100
AcDbDictionary
281
     1
  3
ACDB_ANNOTATIONSCALES
350
16D
  0
DICTIONARY
  5
172
102
{ACAD_REACTORS
330
171
102
}
330
171
100
AcDbDictionary
281
     1
  3
ACDB_ANNOTATIONSCALES
350
173
  0
DICTIONARY
  5
179
102
{ACAD_REACTORS
330
178
102
}
330
178
100
AcDbDictionary
281
     1
  3
ACDB_ANNOTATIONSCALES
350
17A
  0
DICTIONARY
  5
180
102
{ACAD_REACTORS
330
17F
102
}
330
17F
100
AcDbDictionary
281
     1
  3
ACDB_ANNOTATIONSCALES
350
181
  0
DICTIONARY
  5
185
102
{ACAD_REACTORS
330
184
102
}
330
184
100
AcDbDictionary
281
     1
  3
ACDB_ANNOTATIONSCALES
350
186
  0
DICTIONARY
  5
18A
102
{ACAD_REACTORS
330
189
102
}
330
189
100
AcDbDictionary
281
     1
  3
ACDB_ANNOTATIONSCALES
350
18B
  0
DICTIONARY
  5
18F
102
{ACAD_REACTORS
330
18E
102
}
330
18E
100
AcDbDictionary
281
     1
  3
ACDB_ANNOTATIONSCALES
350
190
  0
DICTIONARY
  5
195
102
{ACAD_REACTORS
330
194
102
}
330
194
100
AcDbDictionary
281
     1
  3
ACDB_ANNOTATIONSCALES
350
196
  0
DICTIONARY
  5
19A
102
{ACAD_REACTORS
330
199
102
}
330
199
100
AcDbDictionary
281
     1
  3
ACDB_ANNOTATIONSCALES
350
19B
  0
DICTIONARY
  5
19F
102
{ACAD_REACTORS
330
19E
102
}
330
19E
100
AcDbDictionary
281
     1
  3
ACDB_ANNOTATIONSCALES
350
1A0
  0
DICTIONARY
  5
1A4
102
{ACAD_REACTORS
330
1A3
102
}
330
1A3
100
AcDbDictionary
281
     1
  3
ACDB_ANNOTATIONSCALES
350
1A5
  0
DICTIONARY
  5
1A9
102
{ACAD_REACTORS
330
1A8
102
}
330
1A8
100
AcDbDictionary
281
     1
  3
ACDB_ANNOTATIONSCALES
350
1AA
  0
DICTIONARY
  5
1B1
102
{ACAD_REACTORS
330
1B0
102
}
330
1B0
100
AcDbDictionary
281
     1
  3
ACDB_ANNOTATIONSCALES
350
1B2
  0
DICTIONARY
  5
1B6
102
{ACAD_REACTORS
330
1B5
102
}
330
1B5
100
AcDbDictionary
281
     1
  3
ACDB_ANNOTATIONSCALES
350
1B7
  0
DICTIONARY
  5
1BE
102
{ACAD_REACTORS
330
1BD
102
}
330
1BD
100
AcDbDictionary
281
     1
  3
ACDB_ANNOTATIONSCALES
350
1BF
  0
DICTIONARY
  5
1C3
102
{ACAD_REACTORS
330
1C2
102
}
330
1C2
100
AcDbDictionary
281
     1
  3
ACDB_ANNOTATIONSCALES
350
1C4
  0
ACDBDETAILVIEWSTYLE
  5
FE
102
{ACAD_REACTORS
330
F2
102
}
330
F2
100
AcDbModelDocViewStyle
 70
     0
  3
Imperial24
290
     0
300
Imperial24
 90
        0
100
AcDbDetailViewStyle
 70
     0
 71
     0
 90
        3
 71
     1
340
12
 62
   256
 40
0.24
340
0
 62
   256
 40
0.24
300

 40
0.36
280
     3
 71
     2
340
8
 90
       25
 62
   256
 71
     3
340
12
 62
   256
 40
0.24
 90
        1
 40
0.75
 90
        1
300
%<\AcVar ViewType \f "%tc1">% %<\AcVar ViewDetailId>%\PSCALE %<\AcVar ViewScale \f "%sn">%
 71
     4
340
8
 90
       25
 62
   256
340
8
 90
       25
 62
   256
280
     0
  0
ACDBDETAILVIEWSTYLE
  5
F3
102
{ACAD_REACTORS
330
F2
102
}
330
F2
100
AcDbModelDocViewStyle
 70
     0
  3
Metric50
290
     1
300
Metric50
 90
        0
100
AcDbDetailViewStyle
 70
     0
 71
     0
 90
        3
 71
     1
340
12
 62
   256
 40
5.0
340
0
 62
   256
 40
5.0
300

 40
0.0
280
     1
 71
     2
340
8
 90
       25
 62
   256
 71
     3
340
12
 62
   256
 40
5.0
 90
        0
 40
15.0
 90
        1
300
%<\AcVar ViewDetailId>% (%<\AcVar ViewScale \f "%sn">%)
 71
     4
340
8
 90
       25
 62
   256
340
8
 90
       25
 62
   256
280
     0
  0
LAYOUT
  5
F
102
{ACAD_REACTORS
330
B
102
}
330
B
100
AcDbPlotSettings
  1

  2
A4.pc3
  4
A4
  6

 40
6.720416545867919
 41
6.720423221588134
 42
7.694076538085937
 43
4.011077880859375
 44
209.9733276367187
 45
296.9683227539062
 46
2.839999999999999
 47
1.58
 48
0.0
 49
0.0
140
0.0
141
0.0
142
1.0
143
1.0
 70
   692
 72
     1
 73
     0
 74
     1
  7
Std pen settings.ctb
 75
    16
147
1.0
 76
     0
 77
     2
 78
   300
148
-7.775434128976201
149
-0.5703992853406135
100
AcDbLayout
  1
Layout1
 70
     0
 71
     1
 10
-1.784982416891718
 20
-7.730023936247521
 11
208.188345219827
 21
289.2382988176588
 12
0.0
 22
0.0
 32
0.0
 14
7.777105839157954
 24
0.5792682657111623
 34
0.0
 15
197.6550712950588
 25
283.6213344614825
 35
0.0
146
0.0
 13
0.0
 23
0.0
 33
0.0
 16
1.0
 26
0.0
 36
0.0
 17
0.0
 27
1.0
 37
0.0
 76
     0
330
C
  0
LAYOUT
  5
A
102
{ACAD_REACTORS
330
B
102
}
330
B
100
AcDbPlotSettings
  1

  2
Xerox 2 plain A3
  4

  6

 40
0.0
 41
0.0
 42
0.0
 43
0.0
 44
0.0
 45
0.0
 46
0.0
 47
0.0
 48
0.0
 49
0.0
140
0.0
141
0.0
142
1.0
143
1.0
 70
  1712
 72
     0
 73
     0
 74
     0
  7
Std pen settings.ctb
 75
     0
147
1.0
 76
     0
 77
     2
 78
   300
148
0.0
149
0.0
100
AcDbLayout
  1
Model
 70
     1
 71
     0
 10
0.0
 20
0.0
 11
12.0
 21
9.0
 12
0.0
 22
0.0
 32
0.0
 14
0.0
 24
0.0
 34
0.0
 15
0.0
 25
0.0
 35
0.0
146
0.0
 13
0.0
 23
0.0
 33
0.0
 16
1.0
 26
0.0
 36
0.0
 17
0.0
 27
1.0
 37
0.0
 76
     0
330
2
331
1A
  0
MATERIAL
  5
B0
102
{ACAD_XDICTIONARY
360
B1
102
}
102
{ACAD_REACTORS
330
A7
102
}
330
A7
100
AcDbMaterial
  1
ByBlock
 72
     0
 43
0.0208333333333333
 43
0.0
 43
0.0
 43
0.0
 43
0.0
 43
0.0208333333333333
 43
0.0
 43
0.0
 43
0.0
 43
0.0
 43
1.0
 43
0.0
 43
0.0
 43
0.0
 43
0.0
 43
1.0
 77
     0
 47
0.0208333333333333
 47
0.0
 47
0.0
 47
0.0
 47
0.0
 47
0.0208333333333333
 47
0.0
 47
0.0
 47
0.0
 47
0.0
 47
1.0
 47
0.0
 47
0.0
 47
0.0
 47
0.0
 47
1.0
171
     0
 49
0.0208333333333333
 49
0.0
 49
0.0
 49
0.0
 49
0.0
 49
0.0208333333333333
 49
0.0
 49
0.0
 49
0.0
 49
0.0
 49
1.0
 49
0.0
 49
0.0
 49
0.0
 49
0.0
 49
1.0
175
     0
142
0.0208333333333333
142
0.0
142
0.0
142
0.0
142
0.0
142
0.0208333333333333
142
0.0
142
0.0
142
0.0
142
0.0
142
1.0
142
0.0
142
0.0
142
0.0
142
0.0
142
1.0
179
     0
144
0.0208333333333333
144
0.0
144
0.0
144
0.0
144
0.0
144
0.0208333333333333
144
0.0
144
0.0
144
0.0
144
0.0
144
1.0
144
0.0
144
0.0
144
0.0
144
0.0
144
1.0
147
0.0208333333333333
147
0.0
147
0.0
147
0.0
147
0.0
147
0.0208333333333333
147
0.0
147
0.0
147
0.0
147
0.0
147
1.0
147
0.0
147
0.0
147
0.0
147
0.0
147
1.0
  0
MATERIAL
  5
A8
102
{ACAD_XDICTIONARY
360
A9
102
}
102
{ACAD_REACTORS
330
A7
102
}
330
A7
100
AcDbMaterial
  1
ByLayer
 72
     0
 43
0.0208333333333333
 43
0.0
 43
0.0
 43
0.0
 43
0.0
 43
0.0208333333333333
 43
0.0
 43
0.0
 43
0.0
 43
0.0
 43
1.0
 43
0.0
 43
0.0
 43
0.0
 43
0.0
 43
1.0
 77
     0
 47
0.0208333333333333
 47
0.0
 47
0.0
 47
0.0
 47
0.0
 47
0.0208333333333333
 47
0.0
 47
0.0
 47
0.0
 47
0.0
 47
1.0
 47
0.0
 47
0.0
 47
0.0
 47
0.0
 47
1.0
171
     0
 49
0.0208333333333333
 49
0.0
 49
0.0
 49
0.0
 49
0.0
 49
0.0208333333333333
 49
0.0
 49
0.0
 49
0.0
 49
0.0
 49
1.0
 49
0.0
 49
0.0
 49
0.0
 49
0.0
 49
1.0
175
     0
142
0.0208333333333333
142
0.0
142
0.0
142
0.0
142
0.0
142
0.0208333333333333
142
0.0
142
0.0
142
0.0
142
0.0
142
1.0
142
0.0
142
0.0
142
0.0
142
0.0
142
1.0
179
     0
144
0.0208333333333333
144
0.0
144
0.0
144
0.0
144
0.0
144
0.0208333333333333
144
0.0
144
0.0
144
0.0
144
0.0
144
1.0
144
0.0
144
0.0
144
0.0
144
0.0
144
1.0
147
0.0208333333333333
147
0.0
147
0.0
147
0.0
147
0.0
147
0.0208333333333333
147
0.0
147
0.0
147
0.0
147
0.0
147
1.0
147
0.0
147
0.0
147
0.0
147
0.0
147
1.0
  0
MATERIAL
  5
B8
102
{ACAD_XDICTIONARY
360
B9
102
}
102
{ACAD_REACTORS
330
A7
102
}
330
A7
100
AcDbMaterial
  1
Global
 72
     0
 43
0.0208333333333333
 43
0.0
 43
0.0
 43
0.0
 43
0.0
 43
0.0208333333333333
 43
0.0
 43
0.0
 43
0.0
 43
0.0
 43
1.0
 43
0.0
 43
0.0
 43
0.0
 43
0.0
 43
1.0
 77
     0
 47
0.0208333333333333
 47
0.0
 47
0.0
 47
0.0
 47
0.0
 47
0.0208333333333333
 47
0.0
 47
0.0
 47
0.0
 47
0.0
 47
1.0
 47
0.0
 47
0.0
 47
0.0
 47
0.0
 47
1.0
171
     0
 49
0.0208333333333333
 49
0.0
 49
0.0
 49
0.0
 49
0.0
 49
0.0208333333333333
 49
0.0
 49
0.0
 49
0.0
 49
0.0
 49
1.0
 49
0.0
 49
0.0
 49
0.0
 49
0.0
 49
1.0
175
     0
142
0.0208333333333333
142
0.0
142
0.0
142
0.0
142
0.0
142
0.0208333333333333
142
0.0
142
0.0
142
0.0
142
0.0
142
1.0
142
0.0
142
0.0
142
0.0
142
0.0
142
1.0
179
     0
144
0.0208333333333333
144
0.0
144
0.0
144
0.0
144
0.0
144
0.0208333333333333
144
0.0
144
0.0
144
0.0
144
0.0
144
1.0
144
0.0
144
0.0
144
0.0
144
0.0
144
1.0
147
0.0208333333333333
147
0.0
147
0.0
147
0.0
147
0.0
147
0.0208333333333333
147
0.0
147
0.0
147
0.0
147
0.0
147
1.0
147
0.0
147
0.0
147
0.0
147
0.0
147
1.0
  0
MLEADERSTYLE
  5
EF
102
{ACAD_REACTORS
330
EE
102
}
330
EE
100
AcDbMLeaderStyle
179
     2
170
     2
171
     1
172
     0
 90
        2
 40
0.0
 41
0.0
173
     1
 91
-1056964608
340
15
 92
       -2
290
     1
 42
2.0
291
     1
 43
0.36
  3
Standard
 44
4.0
300

342
12
174
     1
178
     6
175
     1
176
     0
 93
-1056964608
 45
4.0
292
     0
297
     0
 46
4.0
 94
-1056964608
 47
1.0
 49
1.0
140
1.0
293
     1
141
0.0
294
     1
177
     0
142
1.0
295
     1
296
     0
143
0.125
271
     0
272
     9
273
     9
298
     1
  0
MLINESTYLE
  5
28
102
{ACAD_REACTORS
330
25
102
}
330
25
100
AcDbMlineStyle
  2
STANDARD
 70
     0
  3

 62
   256
 51
90.0
 52
90.0
 71
     2
 49
0.5
 62
   256
  6
BYLAYER
 49
-0.5
 62
   256
  6
BYLAYER
  0
ACDBPLACEHOLDER
  5
5
102
{ACAD_REACTORS
330
6
102
}
330
6
  0
SCALE
  5
DD
102
{ACAD_REACTORS
330
DC
102
}
330
DC
100
AcDbScale
 70
     0
300
1:1
140
1.0
141
1.0
290
     1
  0
SCALE
  5
DE
102
{ACAD_REACTORS
330
DC
102
}
330
DC
100
AcDbScale
 70
     0
300
1:2
140
1.0
141
2.0
290
     0
  0
SCALE
  5
DF
102
{ACAD_REACTORS
330
DC
102
}
330
DC
100
AcDbScale
 70
     0
300
1:4
140
1.0
141
4.0
290
     0
  0
SCALE
  5
E0
102
{ACAD_REACTORS
330
DC
102
}
330
DC
100
AcDbScale
 70
     0
300
1:5
140
1.0
141
5.0
290
     0
  0
SCALE
  5
E1
102
{ACAD_REACTORS
330
DC
102
}
330
DC
100
AcDbScale
 70
     0
300
1:8
140
1.0
141
8.0
290
     0
  0
SCALE
  5
E2
102
{ACAD_REACTORS
330
DC
102
}
330
DC
100
AcDbScale
 70
     0
300
1:10
140
1.0
141
10.0
290
     0
  0
SCALE
  5
E3
102
{ACAD_REACTORS
330
DC
102
}
330
DC
100
AcDbScale
 70
     0
300
1:16
140
1.0
141
16.0
290
     0
  0
SCALE
  5
E4
102
{ACAD_REACTORS
330
DC
102
}
330
DC
100
AcDbScale
 70
     0
300
1:20
140
1.0
141
20.0
290
     0
  0
SCALE
  5
E5
102
{ACAD_REACTORS
330
DC
102
}
330
DC
100
AcDbScale
 70
     0
300
1:30
140
1.0
141
30.0
290
     0
  0
SCALE
  5
E6
102
{ACAD_REACTORS
330
DC
102
}
330
DC
100
AcDbScale
 70
     0
300
1:40
140
1.0
141
40.0
290
     0
  0
SCALE
  5
E7
102
{ACAD_REACTORS
330
DC
102
}
330
DC
100
AcDbScale
 70
     0
300
1:50
140
1.0
141
50.0
290
     0
  0
SCALE
  5
E8
102
{ACAD_REACTORS
330
DC
102
}
330
DC
100
AcDbScale
 70
     0
300
1:100
140
1.0
141
100.0
290
     0
  0
SCALE
  5
E9
102
{ACAD_REACTORS
330
DC
102
}
330
DC
100
AcDbScale
 70
     0
300
2:1
140
2.0
141
1.0
290
     0
  0
SCALE
  5
EA
102
{ACAD_REACTORS
330
DC
102
}
330
DC
100
AcDbScale
 70
     0
300
4:1
140
4.0
141
1.0
290
     0
  0
SCALE
  5
EB
102
{ACAD_REACTORS
330
DC
102
}
330
DC
100
AcDbScale
 70
     0
300
8:1
140
8.0
141
1.0
290
     0
  0
SCALE
  5
EC
102
{ACAD_REACTORS
330
DC
102
}
330
DC
100
AcDbScale
 70
     0
300
10:1
140
10.0
141
1.0
290
     0
  0
SCALE
  5
ED
102
{ACAD_REACTORS
330
DC
102
}
330
DC
100
AcDbScale
 70
     0
300
100:1
140
100.0
141
1.0
290
     0
  0
ACDBSECTIONVIEWSTYLE
  5
FD
102
{ACAD_REACTORS
330
F0
102
}
330
F0
100
AcDbModelDocViewStyle
 70
     0
  3
Imperial24
290
     0
300
Imperial24
 90
        0
100
AcDbSectionViewStyle
 70
     0
 71
     0
 90
       78
 71
     1
340
12
 62
   256
 40
0.24
340
0
340
0
 62
   256
 40
0.24
300
I, O, Q, S, X, Z
 40
0.48
 90
        3
 40
0.18
 90
        1
 71
     2
340
8
 90
       25
 62
   256
340
8
 90
       50
 62
   256
 40
0.24
 40
0.0
 40
0.24
 71
     3
340
12
 62
   256
 40
0.24
 90
        1
 40
0.75
 90
        1
300
%<\AcVar ViewType \f "%tc1">% %<\AcVar ViewSectionStartId>%-%<\AcVar ViewSectionEndId>%\PSCALE %<\AcVar ViewScale \f "%sn">%
 71
     4
 62
   256
 62
   257
300
ANSI31
 40
1.0
 90
        0
290
     0
290
     0
 90
        6
 40
0.0
 40
1.570796326794896
 40
0.2617993877991494
 40
1.308996938995747
 40
-0.2617993877991494
 40
1.832595714594046
  0
ACDBSECTIONVIEWSTYLE
  5
F1
102
{ACAD_REACTORS
330
F0
102
}
330
F0
100
AcDbModelDocViewStyle
 70
     0
  3
Metric50
290
     1
300
Metric50
 90
        0
100
AcDbSectionViewStyle
 70
     0
 71
     0
 90
      102
 71
     1
340
12
 62
   256
 40
5.0
340
0
340
0
 62
   256
 40
5.0
300
I, O, Q, S, X, Z
 40
10.0
 90
        0
 40
2.5
 90
        0
 71
     2
340
8
 90
       25
 62
   256
340
8
 90
       50
 62
   256
 40
5.0
 40
2.5
 40
5.0
 71
     3
340
12
 62
   256
 40
5.0
 90
        0
 40
15.0
 90
        1
300
%<\AcVar ViewSectionStartId>%-%<\AcVar ViewSectionEndId>% (%<\AcVar ViewScale \f "%sn">%)
 71
     4
 62
   256
 62
   257
300
ANSI31
 40
1.0
 90
        0
290
     0
290
     0
 90
        6
 40
0.0
 40
1.570796326794896
 40
0.2617993877991494
 40
1.308996938995747
 40
-0.2617993877991494
 40
1.832595714594046
  0
TABLESTYLE
  5
DB
102
{ACAD_XDICTIONARY
360
222
102
}
102
{ACAD_REACTORS
330
DA
102
}
330
DA
100
AcDbTableStyle
280
     0
  3
Standard
 70
     0
 71
     0
 40
1.5
 41
1.5
280
     0
281
     0
  7
Standard
140
4.5
170
     2
 62
     0
 63
     7
283
     0
 90
      512
 91
        0
  1

274
    -2
284
     1
 64
     0
275
    -2
285
     1
 65
     0
276
    -2
286
     1
 66
     0
277
    -2
287
     1
 67
     0
278
    -2
288
     1
 68
     0
279
    -2
289
     1
 69
     0
  7
Standard
140
6.0
170
     5
 62
     0
 63
     7
283
     0
 90
      512
 91
        0
  1

274
    -2
284
     1
 64
     0
275
    -2
285
     1
 65
     0
276
    -2
286
     1
 66
     0
277
    -2
287
     1
 67
     0
278
    -2
288
     1
 68
     0
279
    -2
289
     1
 69
     0
  7
Standard
140
4.5
170
     5
 62
     0
 63
     7
283
     0
 90
      512
 91
        0
  1

274
    -2
284
     1
 64
     0
275
    -2
285
     1
 65
     0
276
    -2
286
     1
 66
     0
277
    -2
287
     1
 67
     0
278
    -2
288
     1
 68
     0
279
    -2
289
     1
 69
     0
  0
VISUALSTYLE
  5
C6
102
{ACAD_REACTORS
330
C0
102
}
330
C0
100
AcDbVisualStyle
  2
2dWireframe
 70
     4
177
     3
291
     0
 70
    58
 90
        0
176
     1
 90
        2
176
     1
 90
        0
176
     1
 90
        0
176
     1
 40
0.6
176
     1
 40
30.0
176
     1
 62
     7
420
 16777215
176
     1
 90
        1
176
     1
 90
        4
176
     1
 62
     7
176
     1
 62
   257
176
     1
 90
        1
176
     1
 90
        1
176
     1
 40
1.0
176
     1
 90
        0
176
     1
 62
   257
176
     1
 40
1.0
176
     1
 90
        1
176
     1
 90
        6
176
     1
 90
        2
176
     1
 62
     7
176
     1
 90
        5
176
     1
 90
        0
176
     1
 90
        0
176
     1
290
     0
176
     1
 90
        1
176
     1
 40
0.0
176
     1
 90
        0
176
     1
290
     1
176
     1
290
     1
176
     1
290
     0
176
     1
290
     0
176
     1
290
     0
176
     1
290
     0
176
     1
290
     0
176
     1
290
     0
176
     1
290
     0
176
     1
 90
       50
176
     1
 40
0.0
176
     1
 40
1.0
176
     1
 90
        0
176
     1
 62
    18
420
        0
176
     1
 90
       50
176
     1
 90
        3
176
     1
 62
     5
420
      255
176
     1
290
     0
176
     1
 90
       50
176
     1
 90
       50
176
     1
 90
       50
176
     1
290
     0
176
     1
 90
       50
176
     1
 62
   256
176
     0
 40
1.0
176
     0
 90
        2
176
     1
  1
strokes_ogs.tif
176
     1
290
     0
176
     1
 40
1.0
176
     1
 40
1.0
176
     1
  0
VISUALSTYLE
  5
C5
102
{ACAD_REACTORS
330
C0
102
}
330
C0
100
AcDbVisualStyle
  2
Basic
 70
     7
177
     3
291
     1
 70
    58
 90
        1
176
     1
 90
        0
176
     1
 90
        1
176
     1
 90
        0
176
     1
 40
0.6
176
     1
 40
30.0
176
     1
 62
     7
420
 16777215
176
     1
 90
        0
176
     1
 90
        4
176
     1
 62
     7
176
     1
 62
   257
176
     1
 90
        1
176
     1
 90
        1
176
     1
 40
1.0
176
     1
 90
        8
176
     1
 62
     7
176
     1
 40
1.0
176
     1
 90
        1
176
     1
 90
        6
176
     1
 90
        2
176
     1
 62
     7
176
     1
 90
        5
176
     1
 90
        0
176
     1
 90
        0
176
     1
290
     0
176
     1
 90
        1
176
     1
 40
0.0
176
     1
 90
        0
176
     1
290
     0
176
     1
290
     1
176
     1
290
     1
176
     1
290
     0
176
     1
290
     0
176
     1
290
     0
176
     1
290
     0
176
     1
290
     0
176
     1
290
     0
176
     1
 90
       50
176
     1
 40
0.0
176
     1
 40
1.0
176
     1
 90
        0
176
     1
 62
    18
420
        0
176
     1
 90
       50
176
     1
 90
        3
176
     1
 62
     5
420
      255
176
     1
290
     0
176
     1
 90
       50
176
     1
 90
       50
176
     1
 90
       50
176
     1
290
     0
176
     1
 90
       50
176
     1
 62
   256
176
     0
 40
1.0
176
     0
 90
        2
176
     1
  1
strokes_ogs.tif
176
     1
290
     0
176
     1
 40
1.0
176
     1
 40
1.0
176
     1
  0
VISUALSTYLE
  5
CC
102
{ACAD_REACTORS
330
C0
102
}
330
C0
100
AcDbVisualStyle
  2
Brighten
 70
    12
177
     3
291
     1
 70
    58
 90
        2
176
     1
 90
        2
176
     1
 90
        0
176
     1
 90
        0
176
     1
 40
0.6
176
     1
 40
30.0
176
     1
 62
     7
420
 16777215
176
     1
 90
        1
176
     1
 90
        4
176
     1
 62
     7
176
     1
 62
   257
176
     1
 90
        1
176
     1
 90
        1
176
     1
 40
1.0
176
     1
 90
        8
176
     1
 62
     7
176
     1
 40
1.0
176
     1
 90
        1
176
     1
 90
        6
176
     1
 90
        2
176
     1
 62
     7
176
     1
 90
        5
176
     1
 90
        0
176
     1
 90
        0
176
     1
290
     0
176
     1
 90
        1
176
     1
 40
50.0
176
     1
 90
        0
176
     1
290
     0
176
     1
290
     1
176
     1
290
     1
176
     1
290
     0
176
     1
290
     0
176
     1
290
     0
176
     1
290
     0
176
     1
290
     0
176
     1
290
     0
176
     1
 90
       50
176
     1
 40
0.0
176
     1
 40
1.0
176
     1
 90
        0
176
     1
 62
    18
420
        0
176
     1
 90
       50
176
     1
 90
        3
176
     1
 62
     5
420
      255
176
     1
290
     0
176
     1
 90
       50
176
     1
 90
       50
176
     1
 90
       50
176
     1
290
     0
176
     1
 90
       50
176
     1
 62
   256
176
     0
 40
1.0
176
     0
 90
        2
176
     1
  1
strokes_ogs.tif
176
     1
290
     0
176
     1
 40
1.0
176
     1
 40
1.0
176
     1
  0
VISUALSTYLE
  5
D0
102
{ACAD_REACTORS
330
C0
102
}
330
C0
100
AcDbVisualStyle
  2
ColorChange
 70
    16
177
     3
291
     1
 70
    58
 90
        2
176
     1
 90
        2
176
     1
 90
        3
176
     1
 90
        0
176
     1
 40
0.6
176
     1
 40
30.0
176
     1
 62
     8
420
  8421504
176
     1
 90
        1
176
     1
 90
        4
176
     1
 62
     7
176
     1
 62
   257
176
     1
 90
        1
176
     1
 90
        1
176
     1
 40
1.0
176
     1
 90
        8
176
     1
 62
     8
420
  8421504
176
     1
 40
1.0
176
     1
 90
        1
176
     1
 90
        6
176
     1
 90
        2
176
     1
 62
     7
176
     1
 90
        5
176
     1
 90
        0
176
     1
 90
        0
176
     1
290
     0
176
     1
 90
        1
176
     1
 40
0.0
176
     1
 90
        0
176
     1
290
     0
176
     1
290
     1
176
     1
290
     1
176
     1
290
     0
176
     1
290
     0
176
     1
290
     0
176
     1
290
     0
176
     1
290
     0
176
     1
290
     0
176
     1
 90
       50
176
     1
 40
0.0
176
     1
 40
1.0
176
     1
 90
        0
176
     1
 62
    18
420
        0
176
     1
 90
       50
176
     1
 90
        3
176
     1
 62
     5
420
      255
176
     1
290
     0
176
     1
 90
       50
176
     1
 90
       50
176
     1
 90
       50
176
     1
290
     0
176
     1
 90
       50
176
     1
 62
   256
176
     0
 40
1.0
176
     0
 90
        2
176
     1
  1
strokes_ogs.tif
176
     1
290
     0
176
     1
 40
1.0
176
     1
 40
1.0
176
     1
  0
VISUALSTYLE
  5
C9
102
{ACAD_REACTORS
330
C0
102
}
330
C0
100
AcDbVisualStyle
  2
Conceptual
 70
     9
177
     3
291
     0
 70
    58
 90
        3
176
     1
 90
        2
176
     1
 90
        0
176
     1
 90
        0
176
     1
 40
0.6
176
     1
 40
30.0
176
     1
 62
     7
420
 16777215
176
     1
 90
        2
176
     1
 90
        2
176
     1
 62
     7
176
     1
 62
   257
176
     1
 90
        1
176
     1
 90
        1
176
     1
 40
179.0
176
     1
 90
        8
176
     1
 62
     7
176
     1
 40
1.0
176
     1
 90
        1
176
     1
 90
        6
176
     1
 90
        2
176
     1
 62
     7
176
     1
 90
        3
176
     1
 90
        0
176
     1
 90
        0
176
     1
290
     0
176
     1
 90
        1
176
     1
 40
0.0
176
     1
 90
        0
176
     1
290
     0
176
     1
290
     1
176
     1
290
     1
176
     1
290
     0
176
     1
290
     0
176
     1
290
     0
176
     1
290
     0
176
     1
290
     0
176
     1
290
     0
176
     1
 90
       50
176
     1
 40
0.0
176
     1
 40
1.0
176
     1
 90
        0
176
     1
 62
    18
420
        0
176
     1
 90
       50
176
     1
 90
        3
176
     1
 62
     5
420
      255
176
     1
290
     0
176
     1
 90
       50
176
     1
 90
       50
176
     1
 90
       50
176
     1
290
     0
176
     1
 90
       50
176
     1
 62
   256
176
     0
 40
1.0
176
     0
 90
        2
176
     1
  1
strokes_ogs.tif
176
     1
290
     0
176
     1
 40
1.0
176
     1
 40
1.0
176
     1
  0
VISUALSTYLE
  5
CB
102
{ACAD_REACTORS
330
C0
102
}
330
C0
100
AcDbVisualStyle
  2
Dim
 70
    11
177
     3
291
     1
 70
    58
 90
        2
176
     1
 90
        2
176
     1
 90
        0
176
     1
 90
        0
176
     1
 40
0.6
176
     1
 40
30.0
176
     1
 62
     7
420
 16777215
176
     1
 90
        1
176
     1
 90
        4
176
     1
 62
     7
176
     1
 62
   257
176
     1
 90
        1
176
     1
 90
        1
176
     1
 40
1.0
176
     1
 90
        8
176
     1
 62
     7
176
     1
 40
1.0
176
     1
 90
        1
176
     1
 90
        6
176
     1
 90
        2
176
     1
 62
     7
176
     1
 90
        5
176
     1
 90
        0
176
     1
 90
        0
176
     1
290
     0
176
     1
 90
        1
176
     1
 40
-50.0
176
     1
 90
        0
176
     1
290
     0
176
     1
290
     1
176
     1
290
     1
176
     1
290
     0
176
     1
290
     0
176
     1
290
     0
176
     1
290
     0
176
     1
290
     0
176
     1
290
     0
176
     1
 90
       50
176
     1
 40
0.0
176
     1
 40
1.0
176
     1
 90
        0
176
     1
 62
    18
420
        0
176
     1
 90
       50
176
     1
 90
        3
176
     1
 62
     5
420
      255
176
     1
290
     0
176
     1
 90
       50
176
     1
 90
       50
176
     1
 90
       50
176
     1
290
     0
176
     1
 90
       50
176
     1
 62
   256
176
     0
 40
1.0
176
     0
 90
        2
176
     1
  1
strokes_ogs.tif
176
     1
290
     0
176
     1
 40
1.0
176
     1
 40
1.0
176
     1
  0
VISUALSTYLE
  5
D8
102
{ACAD_REACTORS
330
C0
102
}
330
C0
100
AcDbVisualStyle
  2
EdgeColorOff
 70
    22
177
     3
291
     1
 70
    58
 90
        2
176
     0
 90
        2
176
     0
 90
        0
176
     0
 90
        0
176
     0
 40
0.6
176
     0
 40
30.0
176
     0
 62
     7
420
 16777215
176
     0
 90
        1
176
     0
 90
        4
176
     0
 62
     7
176
     0
 62
   257
176
     0
 90
        1
176
     0
 90
        1
176
     0
 40
1.0
176
     0
 90
        8
176
     2
 62
     7
176
     0
 40
1.0
176
     0
 90
        1
176
     0
 90
        6
176
     0
 90
        2
176
     0
 62
     7
176
     0
 90
        5
176
     0
 90
        0
176
     0
 90
        0
176
     0
290
     0
176
     0
 90
        1
176
     0
 40
0.0
176
     0
 90
        0
176
     0
290
     0
176
     0
290
     1
176
     0
290
     1
176
     0
290
     0
176
     0
290
     0
176
     0
290
     0
176
     0
290
     0
176
     0
290
     0
176
     0
290
     0
176
     0
 90
       50
176
     0
 40
0.0
176
     0
 40
1.0
176
     0
 90
        0
176
     0
 62
    18
420
        0
176
     0
 90
       50
176
     0
 90
        3
176
     0
 62
     5
420
      255
176
     0
290
     0
176
     0
 90
       50
176
     0
 90
       50
176
     0
 90
       50
176
     0
290
     0
176
     0
 90
       50
176
     0
 62
   256
176
     0
 40
1.0
176
     0
 90
        2
176
     0
  1
strokes_ogs.tif
176
     0
290
     0
176
     0
 40
1.0
176
     0
 40
1.0
176
     0
  0
VISUALSTYLE
  5
CF
102
{ACAD_REACTORS
330
C0
102
}
330
C0
100
AcDbVisualStyle
  2
Facepattern
 70
    15
177
     3
291
     1
 70
    58
 90
        2
176
     1
 90
        2
176
     1
 90
        0
176
     1
 90
        0
176
     1
 40
0.6
176
     1
 40
30.0
176
     1
 62
     7
420
 16777215
176
     1
 90
        1
176
     1
 90
        4
176
     1
 62
     7
176
     1
 62
   257
176
     1
 90
        1
176
     1
 90
        1
176
     1
 40
1.0
176
     1
 90
        8
176
     1
 62
     7
176
     1
 40
1.0
176
     1
 90
        1
176
     1
 90
        6
176
     1
 90
        2
176
     1
 62
     7
176
     1
 90
        5
176
     1
 90
        0
176
     1
 90
        0
176
     1
290
     0
176
     1
 90
        1
176
     1
 40
0.0
176
     1
 90
        0
176
     1
290
     0
176
     1
290
     1
176
     1
290
     1
176
     1
290
     0
176
     1
290
     0
176
     1
290
     0
176
     1
290
     0
176
     1
290
     0
176
     1
290
     0
176
     1
 90
       50
176
     1
 40
0.0
176
     1
 40
1.0
176
     1
 90
        0
176
     1
 62
    18
420
        0
176
     1
 90
       50
176
     1
 90
        3
176
     1
 62
     5
420
      255
176
     1
290
     0
176
     1
 90
       50
176
     1
 90
       50
176
     1
 90
       50
176
     1
290
     0
176
     1
 90
       50
176
     1
 62
   256
176
     0
 40
1.0
176
     0
 90
        2
176
     1
  1
strokes_ogs.tif
176
     1
290
     0
176
     1
 40
1.0
176
     1
 40
1.0
176
     1
  0
VISUALSTYLE
  5
C1
102
{ACAD_REACTORS
330
C0
102
}
330
C0
100
AcDbVisualStyle
  2
Flat
 70
     0
177
     3
291
     1
 70
    58
 90
        2
176
     1
 90
        1
176
     1
 90
        1
176
     1
 90
        2
176
     1
 40
0.6
176
     1
 40
30.0
176
     1
 62
     7
420
 16777215
176
     1
 90
        0
176
     1
 90
        0
176
     1
 62
     7
176
     1
 62
   257
176
     1
 90
        1
176
     1
 90
        1
176
     1
 40
1.0
176
     1
 90
        8
176
     1
 62
     7
176
     1
 40
1.0
176
     1
 90
        1
176
     1
 90
        6
176
     1
 90
        2
176
     1
 62
     7
176
     1
 90
        5
176
     1
 90
        0
176
     1
 90
        0
176
     1
290
     0
176
     1
 90
       13
176
     1
 40
0.0
176
     1
 90
        0
176
     1
290
     0
176
     1
290
     1
176
     1
290
     1
176
     1
290
     0
176
     1
290
     0
176
     1
290
     0
176
     1
290
     0
176
     1
290
     0
176
     1
290
     0
176
     1
 90
       50
176
     1
 40
0.0
176
     1
 40
1.0
176
     1
 90
        0
176
     1
 62
    18
420
        0
176
     1
 90
       50
176
     1
 90
        3
176
     1
 62
     5
420
      255
176
     1
290
     0
176
     1
 90
       50
176
     1
 90
       50
176
     1
 90
       50
176
     1
290
     0
176
     1
 90
       50
176
     1
 62
   256
176
     0
 40
1.0
176
     0
 90
        2
176
     1
  1
strokes_ogs.tif
176
     1
290
     0
176
     1
 40
1.0
176
     1
 40
1.0
176
     1
  0
VISUALSTYLE
  5
C2
102
{ACAD_REACTORS
330
C0
102
}
330
C0
100
AcDbVisualStyle
  2
FlatWithEdges
 70
     1
177
     3
291
     1
 70
    58
 90
        2
176
     1
 90
        1
176
     1
 90
        1
176
     1
 90
        2
176
     1
 40
0.6
176
     1
 40
30.0
176
     1
 62
     7
420
 16777215
176
     1
 90
        1
176
     1
 90
        0
176
     1
 62
     7
176
     1
 62
   257
176
     1
 90
        1
176
     1
 90
        1
176
     1
 40
1.0
176
     1
 90
        0
176
     1
 62
   257
176
     1
 40
1.0
176
     1
 90
        1
176
     1
 90
        6
176
     1
 90
        2
176
     1
 62
     7
176
     1
 90
        5
176
     1
 90
        0
176
     1
 90
        0
176
     1
290
     0
176
     1
 90
       13
176
     1
 40
0.0
176
     1
 90
        0
176
     1
290
     0
176
     1
290
     1
176
     1
290
     1
176
     1
290
     0
176
     1
290
     0
176
     1
290
     0
176
     1
290
     0
176
     1
290
     0
176
     1
290
     0
176
     1
 90
       50
176
     1
 40
0.0
176
     1
 40
1.0
176
     1
 90
        0
176
     1
 62
    18
420
        0
176
     1
 90
       50
176
     1
 90
        3
176
     1
 62
     5
420
      255
176
     1
290
     0
176
     1
 90
       50
176
     1
 90
       50
176
     1
 90
       50
176
     1
290
     0
176
     1
 90
       50
176
     1
 62
   256
176
     0
 40
1.0
176
     0
 90
        2
176
     1
  1
strokes_ogs.tif
176
     1
290
     0
176
     1
 40
1.0
176
     1
 40
1.0
176
     1
  0
VISUALSTYLE
  5
C3
102
{ACAD_REACTORS
330
C0
102
}
330
C0
100
AcDbVisualStyle
  2
Gouraud
 70
     2
177
     3
291
     1
 70
    58
 90
        2
176
     1
 90
        2
176
     1
 90
        1
176
     1
 90
        2
176
     1
 40
0.6
176
     1
 40
30.0
176
     1
 62
     7
420
 16777215
176
     1
 90
        0
176
     1
 90
        0
176
     1
 62
     7
176
     1
 62
   257
176
     1
 90
        1
176
     1
 90
        1
176
     1
 40
1.0
176
     1
 90
        0
176
     1
 62
     7
176
     1
 40
1.0
176
     1
 90
        1
176
     1
 90
        6
176
     1
 90
        2
176
     1
 62
     7
176
     1
 90
        5
176
     1
 90
        0
176
     1
 90
        0
176
     1
290
     0
176
     1
 90
       13
176
     1
 40
0.0
176
     1
 90
        0
176
     1
290
     0
176
     1
290
     1
176
     1
290
     1
176
     1
290
     0
176
     1
290
     0
176
     1
290
     0
176
     1
290
     0
176
     1
290
     0
176
     1
290
     0
176
     1
 90
       50
176
     1
 40
0.0
176
     1
 40
1.0
176
     1
 90
        0
176
     1
 62
    18
420
        0
176
     1
 90
       50
176
     1
 90
        3
176
     1
 62
     5
420
      255
176
     1
290
     0
176
     1
 90
       50
176
     1
 90
       50
176
     1
 90
       50
176
     1
290
     0
176
     1
 90
       50
176
     1
 62
   256
176
     0
 40
1.0
176
     0
 90
        2
176
     1
  1
strokes_ogs.tif
176
     1
290
     0
176
     1
 40
1.0
176
     1
 40
1.0
176
     1
  0
VISUALSTYLE
  5
C4
102
{ACAD_REACTORS
330
C0
102
}
330
C0
100
AcDbVisualStyle
  2
GouraudWithEdges
 70
     3
177
     3
291
     1
 70
    58
 90
        2
176
     1
 90
        2
176
     1
 90
        1
176
     1
 90
        2
176
     1
 40
0.6
176
     1
 40
30.0
176
     1
 62
     7
420
 16777215
176
     1
 90
        1
176
     1
 90
        0
176
     1
 62
     7
176
     1
 62
   257
176
     1
 90
        1
176
     1
 90
        1
176
     1
 40
1.0
176
     1
 90
        0
176
     1
 62
   257
176
     1
 40
1.0
176
     1
 90
        1
176
     1
 90
        6
176
     1
 90
        2
176
     1
 62
     7
176
     1
 90
        5
176
     1
 90
        0
176
     1
 90
        0
176
     1
290
     0
176
     1
 90
       13
176
     1
 40
0.0
176
     1
 90
        0
176
     1
290
     0
176
     1
290
     1
176
     1
290
     1
176
     1
290
     0
176
     1
290
     0
176
     1
290
     0
176
     1
290
     0
176
     1
290
     0
176
     1
290
     0
176
     1
 90
       50
176
     1
 40
0.0
176
     1
 40
1.0
176
     1
 90
        0
176
     1
 62
    18
420
        0
176
     1
 90
       50
176
     1
 90
        3
176
     1
 62
     5
420
      255
176
     1
290
     0
176
     1
 90
       50
176
     1
 90
       50
176
     1
 90
       50
176
     1
290
     0
176
     1
 90
       50
176
     1
 62
   256
176
     0
 40
1.0
176
     0
 90
        2
176
     1
  1
strokes_ogs.tif
176
     1
290
     0
176
     1
 40
1.0
176
     1
 40
1.0
176
     1
  0
VISUALSTYLE
  5
C8
102
{ACAD_REACTORS
330
C0
102
}
330
C0
100
AcDbVisualStyle
  2
Hidden
 70
     6
177
     3
291
     0
 70
    58
 90
        1
176
     1
 90
        2
176
     1
 90
        2
176
     1
 90
        0
176
     1
 40
0.6
176
     1
 40
30.0
176
     1
 62
     7
420
 16777215
176
     1
 90
        2
176
     1
 90
        2
176
     1
 62
     7
176
     1
 62
   257
176
     1
 90
        2
176
     1
 90
        1
176
     1
 40
40.0
176
     1
 90
        0
176
     1
 62
   257
176
     1
 40
1.0
176
     1
 90
        1
176
     1
 90
        6
176
     1
 90
        2
176
     1
 62
     7
176
     1
 90
        3
176
     1
 90
        0
176
     1
 90
        0
176
     1
290
     0
176
     1
 90
        1
176
     1
 40
0.0
176
     1
 90
        0
176
     1
290
     0
176
     1
290
     1
176
     1
290
     1
176
     1
290
     0
176
     1
290
     0
176
     1
290
     0
176
     1
290
     0
176
     1
290
     0
176
     1
290
     0
176
     1
 90
       50
176
     1
 40
0.0
176
     1
 40
1.0
176
     1
 90
        0
176
     1
 62
    18
420
        0
176
     1
 90
       50
176
     1
 90
        3
176
     1
 62
     5
420
      255
176
     1
290
     0
176
     1
 90
       50
176
     1
 90
       50
176
     1
 90
       50
176
     1
290
     0
176
     1
 90
       50
176
     1
 62
   256
176
     0
 40
1.0
176
     0
 90
        2
176
     1
  1
strokes_ogs.tif
176
     1
290
     0
176
     1
 40
1.0
176
     1
 40
1.0
176
     1
  0
VISUALSTYLE
  5
D6
102
{ACAD_REACTORS
330
C0
102
}
330
C0
100
AcDbVisualStyle
  2
JitterOff
 70
    20
177
     3
291
     1
 70
    58
 90
        2
176
     0
 90
        2
176
     0
 90
        0
176
     0
 90
        0
176
     0
 40
0.6
176
     0
 40
30.0
176
     0
 62
     7
420
 16777215
176
     0
 90
        1
176
     0
 90
        4
176
     0
 62
     7
176
     0
 62
   257
176
     0
 90
        1
176
     0
 90
        1
176
     0
 40
1.0
176
     0
 90
       10
176
     2
 62
     7
176
     0
 40
1.0
176
     0
 90
        1
176
     0
 90
        6
176
     0
 90
        2
176
     0
 62
     7
176
     0
 90
        5
176
     0
 90
        0
176
     0
 90
        0
176
     0
290
     0
176
     0
 90
        1
176
     0
 40
0.0
176
     0
 90
        0
176
     0
290
     0
176
     0
290
     1
176
     0
290
     1
176
     0
290
     0
176
     0
290
     0
176
     0
290
     0
176
     0
290
     0
176
     0
290
     0
176
     0
290
     0
176
     0
 90
       50
176
     0
 40
0.0
176
     0
 40
1.0
176
     0
 90
        0
176
     0
 62
    18
420
        0
176
     0
 90
       50
176
     0
 90
        3
176
     0
 62
     5
420
      255
176
     0
290
     0
176
     0
 90
       50
176
     0
 90
       50
176
     0
 90
       50
176
     0
290
     0
176
     0
 90
       50
176
     0
 62
   256
176
     0
 40
1.0
176
     0
 90
        2
176
     0
  1
strokes_ogs.tif
176
     0
290
     0
176
     0
 40
1.0
176
     0
 40
1.0
176
     0
  0
VISUALSTYLE
  5
CE
102
{ACAD_REACTORS
330
C0
102
}
330
C0
100
AcDbVisualStyle
  2
Linepattern
 70
    14
177
     3
291
     1
 70
    58
 90
        2
176
     1
 90
        2
176
     1
 90
        0
176
     1
 90
        0
176
     1
 40
0.6
176
     1
 40
30.0
176
     1
 62
     7
420
 16777215
176
     1
 90
        1
176
     1
 90
        4
176
     1
 62
     7
176
     1
 62
   257
176
     1
 90
        7
176
     1
 90
        7
176
     1
 40
1.0
176
     1
 90
        8
176
     1
 62
     7
176
     1
 40
1.0
176
     1
 90
        1
176
     1
 90
        6
176
     1
 90
        2
176
     1
 62
     7
176
     1
 90
        5
176
     1
 90
        0
176
     1
 90
        0
176
     1
290
     0
176
     1
 90
        1
176
     1
 40
0.0
176
     1
 90
        0
176
     1
290
     0
176
     1
290
     1
176
     1
290
     1
176
     1
290
     0
176
     1
290
     0
176
     1
290
     0
176
     1
290
     0
176
     1
290
     0
176
     1
290
     0
176
     1
 90
       50
176
     1
 40
0.0
176
     1
 40
1.0
176
     1
 90
        0
176
     1
 62
    18
420
        0
176
     1
 90
       50
176
     1
 90
        3
176
     1
 62
     5
420
      255
176
     1
290
     0
176
     1
 90
       50
176
     1
 90
       50
176
     1
 90
       50
176
     1
290
     0
176
     1
 90
       50
176
     1
 62
   256
176
     0
 40
1.0
176
     0
 90
        2
176
     1
  1
strokes_ogs.tif
176
     1
290
     0
176
     1
 40
1.0
176
     1
 40
1.0
176
     1
  0
VISUALSTYLE
  5
D7
102
{ACAD_REACTORS
330
C0
102
}
330
C0
100
AcDbVisualStyle
  2
OverhangOff
 70
    21
177
     3
291
     1
 70
    58
 90
        2
176
     0
 90
        2
176
     0
 90
        0
176
     0
 90
        0
176
     0
 40
0.6
176
     0
 40
30.0
176
     0
 62
     7
420
 16777215
176
     0
 90
        1
176
     0
 90
        4
176
     0
 62
     7
176
     0
 62
   257
176
     0
 90
        1
176
     0
 90
        1
176
     0
 40
1.0
176
     0
 90
        9
176
     2
 62
     7
176
     0
 40
1.0
176
     0
 90
        1
176
     0
 90
        6
176
     0
 90
        2
176
     0
 62
     7
176
     0
 90
        5
176
     0
 90
        0
176
     0
 90
        0
176
     0
290
     0
176
     0
 90
        1
176
     0
 40
0.0
176
     0
 90
        0
176
     0
290
     0
176
     0
290
     1
176
     0
290
     1
176
     0
290
     0
176
     0
290
     0
176
     0
290
     0
176
     0
290
     0
176
     0
290
     0
176
     0
290
     0
176
     0
 90
       50
176
     0
 40
0.0
176
     0
 40
1.0
176
     0
 90
        0
176
     0
 62
    18
420
        0
176
     0
 90
       50
176
     0
 90
        3
176
     0
 62
     5
420
      255
176
     0
290
     0
176
     0
 90
       50
176
     0
 90
       50
176
     0
 90
       50
176
     0
290
     0
176
     0
 90
       50
176
     0
 62
   256
176
     0
 40
1.0
176
     0
 90
        2
176
     0
  1
strokes_ogs.tif
176
     0
290
     0
176
     0
 40
1.0
176
     0
 40
1.0
176
     0
  0
VISUALSTYLE
  5
CA
102
{ACAD_REACTORS
330
C0
102
}
330
C0
100
AcDbVisualStyle
  2
Realistic
 70
     8
177
     3
291
     0
 70
    58
 90
        2
176
     1
 90
        3
176
     1
 90
        0
176
     1
 90
        2
176
     1
 40
0.6
176
     1
 40
30.0
176
     1
 62
     7
420
 16777215
176
     1
 90
        0
176
     1
 90
        0
176
     1
 62
     7
176
     1
 62
   257
176
     1
 90
        1
176
     1
 90
        1
176
     1
 40
1.0
176
     1
 90
        8
176
     1
 62
   257
176
     1
 40
1.0
176
     1
 90
        1
176
     1
 90
        6
176
     1
 90
        2
176
     1
 62
     7
176
     1
 90
        3
176
     1
 90
        0
176
     1
 90
        0
176
     1
290
     0
176
     1
 90
       13
176
     1
 40
0.0
176
     1
 90
        0
176
     1
290
     0
176
     1
290
     1
176
     1
290
     1
176
     1
290
     0
176
     1
290
     0
176
     1
290
     0
176
     1
290
     0
176
     1
290
     0
176
     1
290
     0
176
     1
 90
       50
176
     1
 40
0.0
176
     1
 40
1.0
176
     1
 90
        0
176
     1
 62
    18
420
        0
176
     1
 90
       50
176
     1
 90
        3
176
     1
 62
     5
420
      255
176
     1
290
     0
176
     1
 90
       50
176
     1
 90
       50
176
     1
 90
       50
176
     1
290
     0
176
     1
 90
       50
176
     1
 62
   256
176
     0
 40
1.0
176
     0
 90
        2
176
     1
  1
strokes_ogs.tif
176
     1
290
     0
176
     1
 40
1.0
176
     1
 40
1.0
176
     1
  0
VISUALSTYLE
  5
D5
102
{ACAD_REACTORS
330
C0
102
}
330
C0
100
AcDbVisualStyle
  2
Shaded
 70
    27
177
     3
291
     0
 70
    58
 90
        2
176
     1
 90
        2
176
     1
 90
        1
176
     1
 90
        2
176
     1
 40
0.6
176
     1
 40
30.0
176
     1
 62
     7
420
 16777215
176
     1
 90
        0
176
     1
 90
        4
176
     1
 62
     7
176
     1
 62
   257
176
     1
 90
        1
176
     1
 90
        1
176
     1
 40
1.0
176
     1
 90
        8
176
     1
 62
   257
176
     1
 40
1.0
176
     1
 90
        1
176
     1
 90
        6
176
     1
 90
        2
176
     1
 62
     8
420
  7895160
176
     1
 90
        3
176
     1
 90
        0
176
     1
 90
        0
176
     1
290
     0
176
     1
 90
        5
176
     1
 40
0.0
176
     1
 90
        0
176
     1
290
     0
176
     1
290
     1
176
     1
290
     1
176
     1
290
     0
176
     1
290
     0
176
     1
290
     0
176
     1
290
     0
176
     1
290
     0
176
     1
290
     0
176
     1
 90
       50
176
     1
 40
0.0
176
     1
 40
1.0
176
     1
 90
        0
176
     1
 62
    18
420
        0
176
     1
 90
       50
176
     1
 90
        3
176
     1
 62
     5
420
      255
176
     1
290
     0
176
     1
 90
       50
176
     1
 90
       50
176
     1
 90
       50
176
     1
290
     0
176
     1
 90
       50
176
     1
 62
   256
176
     0
 40
1.0
176
     0
 90
        2
176
     1
  1
strokes_ogs.tif
176
     1
290
     0
176
     1
 40
1.0
176
     1
 40
1.0
176
     1
  0
VISUALSTYLE
  5
D4
102
{ACAD_REACTORS
330
C0
102
}
330
C0
100
AcDbVisualStyle
  2
Shaded with edges
 70
    26
177
     3
291
     0
 70
    58
 90
        2
176
     1
 90
        2
176
     1
 90
        1
176
     1
 90
        2
176
     1
 40
0.6
176
     1
 40
30.0
176
     1
 62
     7
420
 16777215
176
     1
 90
        1
176
     1
 90
        2
176
     1
 62
     7
176
     1
 62
   257
176
     1
 90
        2
176
     1
 90
        1
176
     1
 40
1.0
176
     1
 90
        8
176
     1
 62
   257
176
     1
 40
1.0
176
     1
 90
        1
176
     1
 90
        6
176
     1
 90
        2
176
     1
 62
     7
176
     1
 90
        3
176
     1
 90
        0
176
     1
 90
        0
176
     1
290
     0
176
     1
 90
        5
176
     1
 40
0.0
176
     1
 90
        0
176
     1
290
     0
176
     1
290
     1
176
     1
290
     1
176
     1
290
     0
176
     1
290
     0
176
     1
290
     0
176
     1
290
     0
176
     1
290
     0
176
     1
290
     0
176
     1
 90
       50
176
     1
 40
0.0
176
     1
 40
1.0
176
     1
 90
        0
176
     1
 62
    18
420
        0
176
     1
 90
       50
176
     1
 90
        3
176
     1
 62
     5
420
      255
176
     1
290
     0
176
     1
 90
       50
176
     1
 90
       50
176
     1
 90
       50
176
     1
290
     0
176
     1
 90
       50
176
     1
 62
   256
176
     0
 40
1.0
176
     0
 90
        2
176
     1
  1
strokes_ogs.tif
176
     1
290
     0
176
     1
 40
1.0
176
     1
 40
1.0
176
     1
  0
VISUALSTYLE
  5
D1
102
{ACAD_REACTORS
330
C0
102
}
330
C0
100
AcDbVisualStyle
  2
Shades of Gray
 70
    23
177
     3
291
     0
 70
    58
 90
        2
176
     1
 90
        2
176
     1
 90
        3
176
     1
 90
        0
176
     1
 40
0.6
176
     1
 40
30.0
176
     1
 62
     7
420
 16777215
176
     1
 90
        2
176
     1
 90
        2
176
     1
 62
     7
176
     1
 62
     7
176
     1
 90
        1
176
     1
 90
        1
176
     1
 40
40.0
176
     1
 90
        8
176
     1
 62
     7
176
     1
 40
1.0
176
     1
 90
        1
176
     1
 90
        6
176
     1
 90
        2
176
     1
 62
     7
176
     1
 90
        3
176
     1
 90
        0
176
     1
 90
        0
176
     1
290
     0
176
     1
 90
        1
176
     1
 40
0.0
176
     1
 90
        0
176
     1
290
     0
176
     1
290
     1
176
     1
290
     1
176
     1
290
     0
176
     1
290
     0
176
     1
290
     0
176
     1
290
     0
176
     1
290
     0
176
     1
290
     0
176
     1
 90
       50
176
     1
 40
0.0
176
     1
 40
1.0
176
     1
 90
        0
176
     1
 62
    18
420
        0
176
     1
 90
       50
176
     1
 90
        3
176
     1
 62
     5
420
      255
176
     1
290
     0
176
     1
 90
       50
176
     1
 90
       50
176
     1
 90
       50
176
     1
290
     0
176
     1
 90
       50
176
     1
 62
   256
176
     0
 40
1.0
176
     0
 90
        2
176
     1
  1
strokes_ogs.tif
176
     1
290
     0
176
     1
 40
1.0
176
     1
 40
1.0
176
     1
  0
VISUALSTYLE
  5
D2
102
{ACAD_REACTORS
330
C0
102
}
330
C0
100
AcDbVisualStyle
  2
Sketchy
 70
    24
177
     3
291
     0
 70
    58
 90
        1
176
     1
 90
        2
176
     1
 90
        2
176
     1
 90
        0
176
     1
 40
0.6
176
     1
 40
30.0
176
     1
 62
     7
420
 16777215
176
     1
 90
        2
176
     1
 90
        2
176
     1
 62
     7
176
     1
 62
     7
176
     1
 90
        1
176
     1
 90
        1
176
     1
 40
40.0
176
     1
 90
       11
176
     1
 62
     7
176
     1
 40
1.0
176
     1
 90
        1
176
     1
 90
        6
176
     1
 90
        2
176
     1
 62
     7
176
     1
 90
        6
176
     1
 90
        0
176
     1
 90
        0
176
     1
290
     0
176
     1
 90
        1
176
     1
 40
0.0
176
     1
 90
        0
176
     1
290
     0
176
     1
290
     1
176
     1
290
     1
176
     1
290
     0
176
     1
290
     0
176
     1
290
     0
176
     1
290
     0
176
     1
290
     0
176
     1
290
     0
176
     1
 90
       50
176
     1
 40
0.0
176
     1
 40
1.0
176
     1
 90
        0
176
     1
 62
    18
420
        0
176
     1
 90
       50
176
     1
 90
        3
176
     1
 62
     5
420
      255
176
     1
290
     0
176
     1
 90
       50
176
     1
 90
       50
176
     1
 90
       50
176
     1
290
     0
176
     1
 90
       50
176
     1
 62
   256
176
     0
 40
1.0
176
     0
 90
        2
176
     1
  1
strokes_ogs.tif
176
     1
290
     0
176
     1
 40
1.0
176
     1
 40
1.0
176
     1
  0
VISUALSTYLE
  5
CD
102
{ACAD_REACTORS
330
C0
102
}
330
C0
100
AcDbVisualStyle
  2
Thicken
 70
    13
177
     3
291
     1
 70
    58
 90
        2
176
     1
 90
        2
176
     1
 90
        0
176
     1
 90
        0
176
     1
 40
0.6
176
     1
 40
30.0
176
     1
 62
     7
420
 16777215
176
     1
 90
        1
176
     1
 90
        4
176
     1
 62
     7
176
     1
 62
   257
176
     1
 90
        1
176
     1
 90
        1
176
     1
 40
1.0
176
     1
 90
       12
176
     1
 62
     7
176
     1
 40
1.0
176
     1
 90
        1
176
     1
 90
        6
176
     1
 90
        2
176
     1
 62
     7
176
     1
 90
        5
176
     1
 90
        0
176
     1
 90
        0
176
     1
290
     0
176
     1
 90
        1
176
     1
 40
0.0
176
     1
 90
        0
176
     1
290
     0
176
     1
290
     1
176
     1
290
     1
176
     1
290
     0
176
     1
290
     0
176
     1
290
     0
176
     1
290
     0
176
     1
290
     0
176
     1
290
     0
176
     1
 90
       50
176
     1
 40
0.0
176
     1
 40
1.0
176
     1
 90
        0
176
     1
 62
    18
420
        0
176
     1
 90
       50
176
     1
 90
        3
176
     1
 62
     5
420
      255
176
     1
290
     0
176
     1
 90
       50
176
     1
 90
       50
176
     1
 90
       50
176
     1
290
     0
176
     1
 90
       50
176
     1
 62
   256
176
     0
 40
1.0
176
     0
 90
        2
176
     1
  1
strokes_ogs.tif
176
     1
290
     0
176
     1
 40
1.0
176
     1
 40
1.0
176
     1
  0
VISUALSTYLE
  5
C7
102
{ACAD_REACTORS
330
C0
102
}
330
C0
100
AcDbVisualStyle
  2
Wireframe
 70
     5
177
     3
291
     0
 70
    58
 90
        0
176
     1
 90
        2
176
     1
 90
        0
176
     1
 90
        0
176
     1
 40
0.6
176
     1
 40
30.0
176
     1
 62
     7
420
 16777215
176
     1
 90
        1
176
     1
 90
        4
176
     1
 62
     7
176
     1
 62
   257
176
     1
 90
        1
176
     1
 90
        1
176
     1
 40
1.0
176
     1
 90
        0
176
     1
 62
   257
176
     1
 40
1.0
176
     1
 90
        1
176
     1
 90
        6
176
     1
 90
        2
176
     1
 62
     7
176
     1
 90
        3
176
     1
 90
        0
176
     1
 90
        0
176
     1
290
     0
176
     1
 90
        1
176
     1
 40
0.0
176
     1
 90
        0
176
     1
290
     0
176
     1
290
     1
176
     1
290
     1
176
     1
290
     0
176
     1
290
     0
176
     1
290
     0
176
     1
290
     0
176
     1
290
     0
176
     1
290
     0
176
     1
 90
       50
176
     1
 40
0.0
176
     1
 40
1.0
176
     1
 90
        0
176
     1
 62
    18
420
        0
176
     1
 90
       50
176
     1
 90
        3
176
     1
 62
     5
420
      255
176
     1
290
     0
176
     1
 90
       50
176
     1
 90
       50
176
     1
 90
       50
176
     1
290
     0
176
     1
 90
       50
176
     1
 62
   256
176
     0
 40
1.0
176
     0
 90
        2
176
     1
  1
strokes_ogs.tif
176
     1
290
     0
176
     1
 40
1.0
176
     1
 40
1.0
176
     1
  0
VISUALSTYLE
  5
D3
102
{ACAD_REACTORS
330
C0
102
}
330
C0
100
AcDbVisualStyle
  2
X-Ray
 70
    25
177
     3
291
     0
 70
    58
 90
        2
176
     1
 90
        2
176
     1
 90
        1
176
     1
 90
        1
176
     1
 40
0.5
176
     1
 40
30.0
176
     1
 62
     7
420
 16777215
176
     1
 90
        1
176
     1
 90
        0
176
     1
 62
     7
176
     1
 62
   257
176
     1
 90
        1
176
     1
 90
        1
176
     1
 40
1.0
176
     1
 90
        8
176
     1
 62
     7
176
     1
 40
1.0
176
     1
 90
        1
176
     1
 90
        6
176
     1
 90
        2
176
     1
 62
     7
176
     1
 90
        3
176
     1
 90
        0
176
     1
 90
        0
176
     1
290
     0
176
     1
 90
       13
176
     1
 40
0.0
176
     1
 90
        0
176
     1
290
     0
176
     1
290
     1
176
     1
290
     1
176
     1
290
     0
176
     1
290
     0
176
     1
290
     0
176
     1
290
     0
176
     1
290
     0
176
     1
290
     0
176
     1
 90
       50
176
     1
 40
0.0
176
     1
 40
1.0
176
     1
 90
        0
176
     1
 62
    18
420
        0
176
     1
 90
       50
176
     1
 90
        3
176
     1
 62
     5
420
      255
176
     1
290
     0
176
     1
 90
       50
176
     1
 90
       50
176
     1
 90
       50
176
     1
290
     0
176
     1
 90
       50
176
     1
 62
   256
176
     0
 40
1.0
176
     0
 90
        2
176
     1
  1
strokes_ogs.tif
176
     1
290
     0
176
     1
 40
1.0
176
     1
 40
1.0
176
     1
  0
DICTIONARYVAR
  5
21E
102
{ACAD_REACTORS
330
218
102
}
330
218
100
DictionaryVariables
280
     0
  1
1:1
  0
DICTIONARYVAR
  5
21A
102
{ACAD_REACTORS
330
218
102
}
330
218
100
DictionaryVariables
280
     0
  1
STANDARD
  0
DICTIONARYVAR
  5
219
102
{ACAD_REACTORS
330
218
102
}
330
218
100
DictionaryVariables
280
     0
  1
STANDARD
  0
DICTIONARYVAR
  5
21B
102
{ACAD_REACTORS
330
218
102
}
330
218
100
DictionaryVariables
280
     0
  1
Metric50
  0
DICTIONARYVAR
  5
21C
102
{ACAD_REACTORS
330
218
102
}
330
218
100
DictionaryVariables
280
     0
  1
Metric50
  0
DICTIONARYVAR
  5
220
102
{ACAD_REACTORS
330
218
102
}
330
218
100
DictionaryVariables
280
     0
  1
1
  0
DICTIONARYVAR
  5
221
102
{ACAD_REACTORS
330
218
102
}
330
218
100
DictionaryVariables
280
     0
  1
15
  0
DICTIONARYVAR
  5
21F
102
{ACAD_REACTORS
330
218
102
}
330
218
100
DictionaryVariables
280
     0
  1
0
  0
DICTIONARYVAR
  5
21D
102
{ACAD_REACTORS
330
218
102
}
330
218
100
DictionaryVariables
280
     0
  1
0
  0
DICTIONARY
  5
16D
102
{ACAD_REACTORS
330
16C
102
}
330
16C
100
AcDbDictionary
281
     1
  3
*A1
350
16E
  0
DICTIONARY
  5
173
102
{ACAD_REACTORS
330
172
102
}
330
172
100
AcDbDictionary
281
     1
  3
*A1
350
174
  0
DICTIONARY
  5
17A
102
{ACAD_REACTORS
330
179
102
}
330
179
100
AcDbDictionary
281
     1
  3
*A1
350
17B
  0
DICTIONARY
  5
181
102
{ACAD_REACTORS
330
180
102
}
330
180
100
AcDbDictionary
281
     1
  3
*A1
350
182
  0
DICTIONARY
  5
186
102
{ACAD_REACTORS
330
185
102
}
330
185
100
AcDbDictionary
281
     1
  3
*A1
350
187
  0
DICTIONARY
  5
18B
102
{ACAD_REACTORS
330
18A
102
}
330
18A
100
AcDbDictionary
281
     1
  3
*A1
350
18C
  0
DICTIONARY
  5
190
102
{ACAD_REACTORS
330
18F
102
}
330
18F
100
AcDbDictionary
281
     1
  3
*A1
350
191
  0
DICTIONARY
  5
196
102
{ACAD_REACTORS
330
195
102
}
330
195
100
AcDbDictionary
281
     1
  3
*A1
350
197
  0
DICTIONARY
  5
19B
102
{ACAD_REACTORS
330
19A
102
}
330
19A
100
AcDbDictionary
281
     1
  3
*A1
350
19C
  0
DICTIONARY
  5
1A0
102
{ACAD_REACTORS
330
19F
102
}
330
19F
100
AcDbDictionary
281
     1
  3
*A1
350
1A1
  0
DICTIONARY
  5
1A5
102
{ACAD_REACTORS
330
1A4
102
}
330
1A4
100
AcDbDictionary
281
     1
  3
*A1
350
1A6
  0
DICTIONARY
  5
1AA
102
{ACAD_REACTORS
330
1A9
102
}
330
1A9
100
AcDbDictionary
281
     1
  3
*A1
350
1AB
  0
DICTIONARY
  5
1B2
102
{ACAD_REACTORS
330
1B1
102
}
330
1B1
100
AcDbDictionary
281
     1
  3
*A1
350
1B3
  0
DICTIONARY
  5
1B7
102
{ACAD_REACTORS
330
1B6
102
}
330
1B6
100
AcDbDictionary
281
     1
  3
*A1
350
1B8
  0
DICTIONARY
  5
1BF
102
{ACAD_REACTORS
330
1BE
102
}
330
1BE
100
AcDbDictionary
281
     1
  3
*A1
350
1C0
  0
DICTIONARY
  5
1C4
102
{ACAD_REACTORS
330
1C3
102
}
330
1C3
100
AcDbDictionary
281
     1
  3
*A1
350
1C5
  0
DICTIONARY
  5
B1
330
B0
100
AcDbDictionary
280
     1
281
     1
  3
BUMPTILE
360
B3
  3
DIFFUSETILE
360
B2
  3
OPACITYTILE
360
B6
  3
REFLECTIONTILE
360
B5
  3
REFRACTIONTILE
360
B7
  3
SPECULARTILE
360
B4
  0
DICTIONARY
  5
A9
330
A8
100
AcDbDictionary
280
     1
281
     1
  3
BUMPTILE
360
AB
  3
DIFFUSETILE
360
AA
  3
OPACITYTILE
360
AE
  3
REFLECTIONTILE
360
AD
  3
REFRACTIONTILE
360
AF
  3
SPECULARTILE
360
AC
  0
DICTIONARY
  5
B9
330
B8
100
AcDbDictionary
280
     1
281
     1
  3
BUMPTILE
360
BB
  3
DIFFUSETILE
360
BA
  3
OPACITYTILE
360
BE
  3
REFLECTIONTILE
360
BD
  3
REFRACTIONTILE
360
BF
  3
SPECULARTILE
360
BC
  0
DICTIONARY
  5
222
330
DB
100
AcDbDictionary
280
     1
281
     1
  3
ACAD_ROUNDTRIP_2008_TABLESTYLE_CELLSTYLEMAP
360
223
  0
ACDB_TEXTOBJECTCONTEXTDATA_CLASS
  5
16E
102
{ACAD_REACTORS
330
16D
102
}
330
16D
100
AcDbObjectContextData
 70
     4
290
     1
100
AcDbAnnotScaleObjectContextData
340
DD
 70
     4
 50
0.0
 10
2894.764815966535
 20
28.85103743465135
 11
2921.159768217558
 21
31.35103743465135
  0
ACDB_TEXTOBJECTCONTEXTDATA_CLASS
  5
174
102
{ACAD_REACTORS
330
173
102
}
330
173
100
AcDbObjectContextData
 70
     4
290
     1
100
AcDbAnnotScaleObjectContextData
340
DD
 70
     4
 50
0.0
 10
2897.66337313136
 20
-41.21071359132101
 11
2925.030358124539
 21
-38.70900827072075
  0
ACDB_TEXTOBJECTCONTEXTDATA_CLASS
  5
17B
102
{ACAD_REACTORS
330
17A
102
}
330
17A
100
AcDbObjectContextData
 70
     4
290
     1
100
AcDbAnnotScaleObjectContextData
340
DD
 70
     4
 50
0.0
 10
2895.683794965503
 20
-21.12673101242964
 11
2979.510534392516
 21
-18.62502569182936
  0
ACDB_TEXTOBJECTCONTEXTDATA_CLASS
  5
182
102
{ACAD_REACTORS
330
181
102
}
330
181
100
AcDbObjectContextData
 70
     4
290
     1
100
AcDbAnnotScaleObjectContextData
340
DD
 70
     4
 50
0.0
 10
2897.204708596676
 20
-31.1757884263587
 11
2988.6064821301
 21
-28.67408310575843
  0
ACDB_TEXTOBJECTCONTEXTDATA_CLASS
  5
187
102
{ACAD_REACTORS
330
186
102
}
330
186
100
AcDbObjectContextData
 70
     4
290
     1
100
AcDbAnnotScaleObjectContextData
340
DD
 70
     4
 50
0.0
 10
2895.827060328073
 20
-11.22558330275986
 11
2978.688588295331
 21
-8.723877982159592
  0
ACDB_TEXTOBJECTCONTEXTDATA_CLASS
  5
18C
102
{ACAD_REACTORS
330
18B
102
}
330
18B
100
AcDbObjectContextData
 70
     4
290
     1
100
AcDbAnnotScaleObjectContextData
340
DD
 70
     4
 50
0.0
 10
2896.920979093902
 20
-1.12087097696925
 11
2984.052629844244
 21
1.380834343631022
  0
ACDB_TEXTOBJECTCONTEXTDATA_CLASS
  5
191
102
{ACAD_REACTORS
330
190
102
}
330
190
100
AcDbObjectContextData
 70
     4
290
     1
100
AcDbAnnotScaleObjectContextData
340
DD
 70
     4
 50
0.0
 10
3051.879589653851
 20
-97.85140470884712
 11
3057.706670144983
 21
-95.3087716938403
  0
ACDB_TEXTOBJECTCONTEXTDATA_CLASS
  5
197
102
{ACAD_REACTORS
330
196
102
}
330
196
100
AcDbObjectContextData
 70
     4
290
     1
100
AcDbAnnotScaleObjectContextData
340
DD
 70
     4
 50
0.0
 10
2983.55189642084
 20
-76.68942220000667
 11
2994.996302969272
 21
-74.18942220000667
  0
ACDB_TEXTOBJECTCONTEXTDATA_CLASS
  5
19C
102
{ACAD_REACTORS
330
19B
102
}
330
19B
100
AcDbObjectContextData
 70
     4
290
     1
100
AcDbAnnotScaleObjectContextData
340
DD
 70
     4
 50
0.0
 10
2987.033068507875
 20
-97.84969938824685
 11
2997.706670144983
 21
-95.3087716938403
  0
ACDB_TEXTOBJECTCONTEXTDATA_CLASS
  5
1A1
102
{ACAD_REACTORS
330
1A0
102
}
330
1A0
100
AcDbObjectContextData
 70
     4
290
     1
100
AcDbAnnotScaleObjectContextData
340
DD
 70
     4
 50
0.0
 10
2970.54712152316
 20
-65.79350413298797
 11
2994.996302969272
 21
-63.29179881238769
  0
ACDB_TEXTOBJECTCONTEXTDATA_CLASS
  5
1A6
102
{ACAD_REACTORS
330
1A5
102
}
330
1A5
100
AcDbObjectContextData
 70
     4
290
     1
100
AcDbAnnotScaleObjectContextData
340
DD
 70
     4
 50
0.0
 10
2922.690326360808
 20
-65.79179881238769
 11
2938.989780658216
 21
-63.29179881238769
  0
ACDB_TEXTOBJECTCONTEXTDATA_CLASS
  5
1AB
102
{ACAD_REACTORS
330
1AA
102
}
330
1AA
100
AcDbObjectContextData
 70
     4
290
     1
100
AcDbAnnotScaleObjectContextData
340
DD
 70
     4
 50
0.0
 10
2923.731567825747
 20
-97.65870348101628
 11
2937.706670144983
 21
-95.3087716938403
  0
ACDB_TEXTOBJECTCONTEXTDATA_CLASS
  5
1B3
102
{ACAD_REACTORS
330
1B2
102
}
330
1B2
100
AcDbObjectContextData
 70
     4
290
     1
100
AcDbAnnotScaleObjectContextData
340
DD
 70
     4
 50
0.0
 10
3038.690640131341
 20
-76.39673526786686
 11
3057.706670144983
 21
-74.58739011097737
  0
ACDB_TEXTOBJECTCONTEXTDATA_CLASS
  5
1B8
102
{ACAD_REACTORS
330
1B7
102
}
330
1B7
100
AcDbObjectContextData
 70
     4
290
     1
100
AcDbAnnotScaleObjectContextData
340
DD
 70
     4
 50
0.0
 10
3029.369357730249
 20
-65.7869683152561
 11
3057.706670144983
 21
-63.2869683152561
  0
ACDB_TEXTOBJECTCONTEXTDATA_CLASS
  5
1C0
102
{ACAD_REACTORS
330
1BF
102
}
330
1BF
100
AcDbObjectContextData
 70
     4
290
     1
100
AcDbAnnotScaleObjectContextData
340
DD
 70
     4
 50
0.0
 10
2762.375541174321
 20
28.84933211405107
 11
2813.021857681825
 21
31.35103743465135
  0
ACDB_TEXTOBJECTCONTEXTDATA_CLASS
  5
1C5
102
{ACAD_REACTORS
330
1C4
102
}
330
1C4
100
AcDbObjectContextData
 70
     4
290
     1
100
AcDbAnnotScaleObjectContextData
340
DD
 70
     4
 50
0.0
 10
2762.110063251368
 20
-1.085122350445054
 11
2819.355970481927
 21
1.416582970155218
  0
XRECORD
  5
B3
102
{ACAD_REACTORS
330
B1
102
}
330
B1
100
AcDbXrecord
280
     1
270
     1
271
     1
  0
XRECORD
  5
B2
102
{ACAD_REACTORS
330
B1
102
}
330
B1
100
AcDbXrecord
280
     1
270
     1
271
     1
  0
XRECORD
  5
B6
102
{ACAD_REACTORS
330
B1
102
}
330
B1
100
AcDbXrecord
280
     1
270
     1
271
     1
  0
XRECORD
  5
B5
102
{ACAD_REACTORS
330
B1
102
}
330
B1
100
AcDbXrecord
280
     1
270
     1
271
     1
  0
XRECORD
  5
B7
102
{ACAD_REACTORS
330
B1
102
}
330
B1
100
AcDbXrecord
280
     1
270
     1
271
     1
  0
XRECORD
  5
B4
102
{ACAD_REACTORS
330
B1
102
}
330
B1
100
AcDbXrecord
280
     1
270
     1
271
     1
  0
XRECORD
  5
AB
102
{ACAD_REACTORS
330
A9
102
}
330
A9
100
AcDbXrecord
280
     1
270
     1
271
     1
  0
XRECORD
  5
AA
102
{ACAD_REACTORS
330
A9
102
}
330
A9
100
AcDbXrecord
280
     1
270
     1
271
     1
  0
XRECORD
  5
AE
102
{ACAD_REACTORS
330
A9
102
}
330
A9
100
AcDbXrecord
280
     1
270
     1
271
     1
  0
XRECORD
  5
AD
102
{ACAD_REACTORS
330
A9
102
}
330
A9
100
AcDbXrecord
280
     1
270
     1
271
     1
  0
XRECORD
  5
AF
102
{ACAD_REACTORS
330
A9
102
}
330
A9
100
AcDbXrecord
280
     1
270
     1
271
     1
  0
XRECORD
  5
AC
102
{ACAD_REACTORS
330
A9
102
}
330
A9
100
AcDbXrecord
280
     1
270
     1
271
     1
  0
XRECORD
  5
BB
102
{ACAD_REACTORS
330
B9
102
}
330
B9
100
AcDbXrecord
280
     1
270
     1
271
     1
  0
XRECORD
  5
BA
102
{ACAD_REACTORS
330
B9
102
}
330
B9
100
AcDbXrecord
280
     1
270
     1
271
     1
  0
XRECORD
  5
BE
102
{ACAD_REACTORS
330
B9
102
}
330
B9
100
AcDbXrecord
280
     1
270
     1
271
     1
  0
XRECORD
  5
BD
102
{ACAD_REACTORS
330
B9
102
}
330
B9
100
AcDbXrecord
280
     1
270
     1
271
     1
  0
XRECORD
  5
BF
102
{ACAD_REACTORS
330
B9
102
}
330
B9
100
AcDbXrecord
280
     1
270
     1
271
     1
  0
XRECORD
  5
BC
102
{ACAD_REACTORS
330
B9
102
}
330
B9
100
AcDbXrecord
280
     1
270
     1
271
     1
  0
CELLSTYLEMAP
  5
223
102
{ACAD_REACTORS
330
222
102
}
330
222
100
AcDbCellStyleMap
 90
        3
300
CELLSTYLE
  1
TABLEFORMAT_BEGIN
 90
        5
170
     1
 91
        0
 92
    32768
 62
   257
 93
        1
300
CONTENTFORMAT
  1
CONTENTFORMAT_BEGIN
 90
        0
 91
        0
 92
      512
 93
        0
300

 40
0.0
140
1.0
 94
        5
 62
     0
340
12
144
6.0
309
CONTENTFORMAT_END
171
     1
301
MARGIN
  1
CELLMARGIN_BEGIN
 40
1.5
 40
1.5
 40
1.5
 40
1.5
 40
4.5
 40
4.5
309
CELLMARGIN_END
 94
        6
 95
        1
302
GRIDFORMAT
  1
GRIDFORMAT_BEGIN
 90
        0
 91
        1
 62
     0
 92
       -2
340
0
 93
        0
 40
1.125
309
GRIDFORMAT_END
 95
        2
302
GRIDFORMAT
  1
GRIDFORMAT_BEGIN
 90
        0
 91
        1
 62
     0
 92
       -2
340
0
 93
        0
 40
1.125
309
GRIDFORMAT_END
 95
        4
302
GRIDFORMAT
  1
GRIDFORMAT_BEGIN
 90
        0
 91
        1
 62
     0
 92
       -2
340
0
 93
        0
 40
1.125
309
GRIDFORMAT_END
 95
        8
302
GRIDFORMAT
  1
GRIDFORMAT_BEGIN
 90
        0
 91
        1
 62
     0
 92
       -2
340
0
 93
        0
 40
1.125
309
GRIDFORMAT_END
 95
       16
302
GRIDFORMAT
  1
GRIDFORMAT_BEGIN
 90
        0
 91
        1
 62
     0
 92
       -2
340
0
 93
        0
 40
1.125
309
GRIDFORMAT_END
 95
       32
302
GRIDFORMAT
  1
GRIDFORMAT_BEGIN
 90
        0
 91
        1
 62
     0
 92
       -2
340
0
 93
        0
 40
1.125
309
GRIDFORMAT_END
309
TABLEFORMAT_END
  1
CELLSTYLE_BEGIN
 90
        1
 91
        1
300
_TITLE
309
CELLSTYLE_END
300
CELLSTYLE
  1
TABLEFORMAT_BEGIN
 90
        5
170
     1
 91
        0
 92
        0
 62
   257
 93
        1
300
CONTENTFORMAT
  1
CONTENTFORMAT_BEGIN
 90
        0
 91
        0
 92
      512
 93
        0
300

 40
0.0
140
1.0
 94
        5
 62
     0
340
12
144
4.5
309
CONTENTFORMAT_END
171
     1
301
MARGIN
  1
CELLMARGIN_BEGIN
 40
1.5
 40
1.5
 40
1.5
 40
1.5
 40
4.5
 40
4.5
309
CELLMARGIN_END
 94
        6
 95
        1
302
GRIDFORMAT
  1
GRIDFORMAT_BEGIN
 90
        0
 91
        1
 62
     0
 92
       -2
340
0
 93
        0
 40
1.125
309
GRIDFORMAT_END
 95
        2
302
GRIDFORMAT
  1
GRIDFORMAT_BEGIN
 90
        0
 91
        1
 62
     0
 92
       -2
340
0
 93
        0
 40
1.125
309
GRIDFORMAT_END
 95
        4
302
GRIDFORMAT
  1
GRIDFORMAT_BEGIN
 90
        0
 91
        1
 62
     0
 92
       -2
340
0
 93
        0
 40
1.125
309
GRIDFORMAT_END
 95
        8
302
GRIDFORMAT
  1
GRIDFORMAT_BEGIN
 90
        0
 91
        1
 62
     0
 92
       -2
340
0
 93
        0
 40
1.125
309
GRIDFORMAT_END
 95
       16
302
GRIDFORMAT
  1
GRIDFORMAT_BEGIN
 90
        0
 91
        1
 62
     0
 92
       -2
340
0
 93
        0
 40
1.125
309
GRIDFORMAT_END
 95
       32
302
GRIDFORMAT
  1
GRIDFORMAT_BEGIN
 90
        0
 91
        1
 62
     0
 92
       -2
340
0
 93
        0
 40
1.125
309
GRIDFORMAT_END
309
TABLEFORMAT_END
  1
CELLSTYLE_BEGIN
 90
        2
 91
        1
300
_HEADER
309
CELLSTYLE_END
300
CELLSTYLE
  1
TABLEFORMAT_BEGIN
 90
        5
170
     1
 91
        0
 92
        0
 62
   257
 93
        1
300
CONTENTFORMAT
  1
CONTENTFORMAT_BEGIN
 90
        0
 91
        0
 92
      512
 93
        0
300

 40
0.0
140
1.0
 94
        2
 62
     0
340
12
144
4.5
309
CONTENTFORMAT_END
171
     1
301
MARGIN
  1
CELLMARGIN_BEGIN
 40
1.5
 40
1.5
 40
1.5
 40
1.5
 40
4.5
 40
4.5
309
CELLMARGIN_END
 94
        6
 95
        1
302
GRIDFORMAT
  1
GRIDFORMAT_BEGIN
 90
        0
 91
        1
 62
     0
 92
       -2
340
0
 93
        0
 40
1.125
309
GRIDFORMAT_END
 95
        2
302
GRIDFORMAT
  1
GRIDFORMAT_BEGIN
 90
        0
 91
        1
 62
     0
 92
       -2
340
0
 93
        0
 40
1.125
309
GRIDFORMAT_END
 95
        4
302
GRIDFORMAT
  1
GRIDFORMAT_BEGIN
 90
        0
 91
        1
 62
     0
 92
       -2
340
0
 93
        0
 40
1.125
309
GRIDFORMAT_END
 95
        8
302
GRIDFORMAT
  1
GRIDFORMAT_BEGIN
 90
        0
 91
        1
 62
     0
 92
       -2
340
0
 93
        0
 40
1.125
309
GRIDFORMAT_END
 95
       16
302
GRIDFORMAT
  1
GRIDFORMAT_BEGIN
 90
        0
 91
        1
 62
     0
 92
       -2
340
0
 93
        0
 40
1.125
309
GRIDFORMAT_END
 95
       32
302
GRIDFORMAT
  1
GRIDFORMAT_BEGIN
 90
        0
 91
        1
 62
     0
 92
       -2
340
0
 93
        0
 40
1.125
309
GRIDFORMAT_END
309
TABLEFORMAT_END
  1
CELLSTYLE_BEGIN
 90
        3
 91
        2
300
_DATA
309
CELLSTYLE_END
  0
ENDSEC
  0
EOF
