  0
SECTION
  2
HEADER
  9
$ACADVER
  1
AC1032
  9
$ACADMAINTVER
 90
      155
  9
$DWGCODEPAGE
  3
ANSI_1252
  9
$LASTSAVEDBY
  1
falinoori
  9
$REQUIREDVERSIONS
160
                 0
  9
$INSBASE
 10
0.0057042259397662
 20
-0.0113969995586558
 30
0.0
  9
$EXTMIN
 10
-213.9289433599283
 20
-269.1464517837305
 30
0.0
  9
$EXTMAX
 10
571.3354402634813
 20
166.0147311608714
 30
0.0
  9
$LIMMIN
 10
0.0
 20
0.0
  9
$LIMMAX
 10
420.0
 20
297.0
  9
$ORTHOMODE
 70
     0
  9
$REGENMODE
 70
     1
  9
$FILLMODE
 70
     1
  9
$QTEXTMODE
 70
     0
  9
$MIRRTEXT
 70
     1
  9
$LTSCALE
 40
0.25
  9
$ATTMODE
 70
     1
  9
$TEXTSIZE
 40
5.0
  9
$TRACEWID
 40
10.0
  9
$TEXTSTYLE
  7
ARIAL
  9
$CLAYER
  8
ANCON-DSD
  9
$CELTYPE
  6
BYLAYER
  9
$CECOLOR
 62
   256
  9
$CELTSCALE
 40
1.0
  9
$DISPSILH
 70
     0
  9
$DIMSCALE
 40
0.0
  9
$DIMASZ
 40
4.0
  9
$DIMEXO
 40
3.0
  9
$DIMDLI
 40
10.0
  9
$DIMRND
 40
0.0
  9
$DIMDLE
 40
1.25
  9
$DIMEXE
 40
3.0
  9
$DIMTP
 40
0.0
  9
$DIMTM
 40
0.0
  9
$DIMTXT
 40
3.0
  9
$DIMCEN
 40
-3.0
  9
$DIMTSZ
 40
0.0
  9
$DIMTOL
 70
     0
  9
$DIMLIM
 70
     0
  9
$DIMTIH
 70
     0
  9
$DIMTOH
 70
     0
  9
$DIMSE1
 70
     0
  9
$DIMSE2
 70
     0
  9
$DIMTAD
 70
     1
  9
$DIMZIN
 70
    12
  9
$DIMBLK
  1

  9
$DIMASO
 70
     1
  9
$DIMSHO
 70
     0
  9
$DIMPOST
  1

  9
$DIMAPOST
  1

  9
$DIMALT
 70
     0
  9
$DIMALTD
 70
     2
  9
$DIMALTF
 40
0.039
  9
$DIMLFAC
 40
1.0
  9
$DIMTOFL
 70
     0
  9
$DIMTVP
 40
1.5
  9
$DIMTIX
 70
     0
  9
$DIMSOXD
 70
     0
  9
$DIMSAH
 70
     0
  9
$DIMBLK1
  1

  9
$DIMBLK2
  1

  9
$DIMSTYLE
  2
1-5
  9
$DIMCLRD
 70
     0
  9
$DIMCLRE
 70
     0
  9
$DIMCLRT
 70
     0
  9
$DIMTFAC
 40
0.75
  9
$DIMGAP
 40
1.5
  9
$DIMJUST
 70
     0
  9
$DIMSD1
 70
     0
  9
$DIMSD2
 70
     0
  9
$DIMTOLJ
 70
     1
  9
$DIMTZIN
 70
    12
  9
$DIMALTZ
 70
    12
  9
$DIMALTTZ
 70
    12
  9
$DIMUPT
 70
     0
  9
$DIMDEC
 70
     2
  9
$DIMTDEC
 70
     2
  9
$DIMALTU
 70
     2
  9
$DIMALTTD
 70
     2
  9
$DIMTXSTY
  7
ROMANS
  9
$DIMAUNIT
 70
     0
  9
$DIMADEC
 70
     0
  9
$DIMALTRND
 40
0.0
  9
$DIMAZIN
 70
     0
  9
$DIMDSEP
 70
    46
  9
$DIMATFIT
 70
     3
  9
$DIMFRAC
 70
     0
  9
$DIMLDRBLK
  1

  9
$DIMLUNIT
 70
     2
  9
$DIMLWD
 70
    -2
  9
$DIMLWE
 70
    -2
  9
$DIMTMOVE
 70
     2
  9
$DIMFXL
 40
1.0
  9
$DIMFXLON
 70
     0
  9
$DIMJOGANG
 40
0.7853981633974483
  9
$DIMTFILL
 70
     0
  9
$DIMTFILLCLR
 70
     0
  9
$DIMARCSYM
 70
     0
  9
$DIMLTYPE
  6

  9
$DIMLTEX1
  6

  9
$DIMLTEX2
  6

  9
$DIMTXTDIRECTION
 70
     0
  9
$LUNITS
 70
     2
  9
$LUPREC
 70
     2
  9
$SKETCHINC
 40
1.0
  9
$FILLETRAD
 40
0.0
  9
$AUNITS
 70
     0
  9
$AUPREC
 70
     4
  9
$MENU
  1
acad
  9
$ELEVATION
 40
0.0
  9
$PELEVATION
 40
0.0
  9
$THICKNESS
 40
0.0
  9
$LIMCHECK
 70
     0
  9
$CHAMFERA
 40
0.0
  9
$CHAMFERB
 40
0.0
  9
$CHAMFERC
 40
0.0
  9
$CHAMFERD
 40
0.0
  9
$SKPOLY
 70
     0
  9
$TDCREATE
 40
2449527.946145833
  9
$TDUCREATE
 40
2449527.529488426
  9
$TDUPDATE
 40
2459587.651053241
  9
$TDUUPDATE
 40
2459587.192719907
  9
$TDINDWG
 40
0.3181283565
  9
$TDUSRTIMER
 40
0.3181283565
  9
$USRTIMER
 70
     1
  9
$ANGBASE
 50
0.0
  9
$ANGDIR
 70
     0
  9
$PDMODE
 70
     0
  9
$PDSIZE
 40
0.0
  9
$PLINEWID
 40
0.0
  9
$SPLFRAME
 70
     0
  9
$SPLINETYPE
 70
     6
  9
$SPLINESEGS
 70
     8
  9
$HANDSEED
  5
1B0
  9
$SURFTAB1
 70
    18
  9
$SURFTAB2
 70
    18
  9
$SURFTYPE
 70
     6
  9
$SURFU
 70
    18
  9
$SURFV
 70
    18
  9
$UCSBASE
  2

  9
$UCSNAME
  2

  9
$UCSORG
 10
0.0
 20
0.0
 30
0.0
  9
$UCSXDIR
 10
1.0
 20
0.0
 30
0.0
  9
$UCSYDIR
 10
0.0
 20
1.0
 30
0.0
  9
$UCSORTHOREF
  2

  9
$UCSORTHOVIEW
 70
     0
  9
$UCSORGTOP
 10
0.0
 20
0.0
 30
0.0
  9
$UCSORGBOTTOM
 10
0.0
 20
0.0
 30
0.0
  9
$UCSORGLEFT
 10
0.0
 20
0.0
 30
0.0
  9
$UCSORGRIGHT
 10
0.0
 20
0.0
 30
0.0
  9
$UCSORGFRONT
 10
0.0
 20
0.0
 30
0.0
  9
$UCSORGBACK
 10
0.0
 20
0.0
 30
0.0
  9
$PUCSBASE
  2

  9
$PUCSNAME
  2

  9
$PUCSORG
 10
0.0
 20
0.0
 30
0.0
  9
$PUCSXDIR
 10
1.0
 20
0.0
 30
0.0
  9
$PUCSYDIR
 10
0.0
 20
1.0
 30
0.0
  9
$PUCSORTHOREF
  2

  9
$PUCSORTHOVIEW
 70
     0
  9
$PUCSORGTOP
 10
0.0
 20
0.0
 30
0.0
  9
$PUCSORGBOTTOM
 10
0.0
 20
0.0
 30
0.0
  9
$PUCSORGLEFT
 10
0.0
 20
0.0
 30
0.0
  9
$PUCSORGRIGHT
 10
0.0
 20
0.0
 30
0.0
  9
$PUCSORGFRONT
 10
0.0
 20
0.0
 30
0.0
  9
$PUCSORGBACK
 10
0.0
 20
0.0
 30
0.0
  9
$USERI1
 70
     0
  9
$USERI2
 70
     0
  9
$USERI3
 70
     0
  9
$USERI4
 70
     0
  9
$USERI5
 70
     0
  9
$USERR1
 40
0.0
  9
$USERR2
 40
0.0
  9
$USERR3
 40
0.0
  9
$USERR4
 40
0.0
  9
$USERR5
 40
0.0
  9
$WORLDVIEW
 70
     1
  9
$SHADEDGE
 70
     3
  9
$SHADEDIF
 70
    70
  9
$TILEMODE
 70
     1
  9
$MAXACTVP
 70
    16
  9
$PINSBASE
 10
0.0
 20
0.0
 30
0.0
  9
$PLIMCHECK
 70
     0
  9
$PEXTMIN
 10
1.000000000000000E+20
 20
1.000000000000000E+20
 30
1.000000000000000E+20
  9
$PEXTMAX
 10
-1.000000000000000E+20
 20
-1.000000000000000E+20
 30
-1.000000000000000E+20
  9
$PLIMMIN
 10
0.0
 20
0.0
  9
$PLIMMAX
 10
420.0
 20
297.0
  9
$UNITMODE
 70
     0
  9
$VISRETAIN
 70
     0
  9
$PLINEGEN
 70
     0
  9
$PSLTSCALE
 70
     1
  9
$TREEDEPTH
 70
  3020
  9
$CMLSTYLE
  2
STANDARD
  9
$CMLJUST
 70
     0
  9
$CMLSCALE
 40
1.0
  9
$PROXYGRAPHICS
 70
     1
  9
$MEASUREMENT
 70
     0
  9
$CELWEIGHT
370
    -1
  9
$ENDCAPS
280
     0
  9
$JOINSTYLE
280
     0
  9
$LWDISPLAY
290
     0
  9
$INSUNITS
 70
     0
  9
$HYPERLINKBASE
  1

  9
$STYLESHEET
  1

  9
$XEDIT
290
     1
  9
$CEPSNTYPE
380
     0
  9
$PSTYLEMODE
290
     1
  9
$FINGERPRINTGUID
  2
{1F88432F-AD2F-11D6-AAC6-0010A4A25215}
  9
$VERSIONGUID
  2
{34DF186A-4189-CC40-A81E-B95BB473BC66}
  9
$EXTNAMES
290
     1
  9
$PSVPSCALE
 40
0.0
  9
$OLESTARTUP
290
     0
  9
$SORTENTS
280
   127
  9
$INDEXCTL
280
     0
  9
$HIDETEXT
280
     0
  9
$XCLIPFRAME
280
     2
  9
$HALOGAP
280
     0
  9
$OBSCOLOR
 70
   257
  9
$OBSLTYPE
280
     0
  9
$INTERSECTIONDISPLAY
280
     0
  9
$INTERSECTIONCOLOR
 70
   257
  9
$DIMASSOC
280
     1
  9
$PROJECTNAME
  1

  9
$CAMERADISPLAY
290
     0
  9
$LENSLENGTH
 40
50.0
  9
$CAMERAHEIGHT
 40
0.0
  9
$STEPSPERSEC
 40
2.0
  9
$STEPSIZE
 40
6.0
  9
$3DDWFPREC
 40
2.0
  9
$PSOLWIDTH
 40
0.25
  9
$PSOLHEIGHT
 40
4.0
  9
$LOFTANG1
 40
1.570796326794896
  9
$LOFTANG2
 40
1.570796326794896
  9
$LOFTMAG1
 40
0.0
  9
$LOFTMAG2
 40
0.0
  9
$LOFTPARAM
 70
     7
  9
$LOFTNORMALS
280
     1
  9
$LATITUDE
 40
37.795
  9
$LONGITUDE
 40
-122.394
  9
$NORTHDIRECTION
 40
0.0
  9
$TIMEZONE
 70
 -8000
  9
$LIGHTGLYPHDISPLAY
280
     1
  9
$TILEMODELIGHTSYNCH
280
     1
  9
$CMATERIAL
347
96
  9
$SOLIDHIST
280
     0
  9
$SHOWHIST
280
     1
  9
$DWFFRAME
280
     2
  9
$DGNFRAME
280
     0
  9
$REALWORLDSCALE
290
     1
  9
$INTERFERECOLOR
 62
     1
  9
$INTERFEREOBJVS
345
B8
  9
$INTERFEREVPVS
346
B5
  9
$CSHADOW
280
     0
  9
$SHADOWPLANELOCATION
 40
0.0
  0
ENDSEC
  0
SECTION
  2
CLASSES
  0
CLASS
  1
DICTIONARYVAR
  2
AcDbDictionaryVar
  3
ObjectDBX Classes
 90
        0
 91
       36
280
     0
281
     0
  0
CLASS
  1
ACDBDICTIONARYWDFLT
  2
AcDbDictionaryWithDefault
  3
ObjectDBX Classes
 90
        0
 91
        1
280
     0
281
     0
  0
CLASS
  1
MATERIAL
  2
AcDbMaterial
  3
ObjectDBX Classes
 90
     1153
 91
        3
280
     0
281
     0
  0
CLASS
  1
VISUALSTYLE
  2
AcDbVisualStyle
  3
ObjectDBX Classes
 90
     4095
 91
       24
280
     0
281
     0
  0
CLASS
  1
TABLESTYLE
  2
AcDbTableStyle
  3
ObjectDBX Classes
 90
     4095
 91
        1
280
     0
281
     0
  0
CLASS
  1
SCALE
  2
AcDbScale
  3
ObjectDBX Classes
 90
     1153
 91
       17
280
     0
281
     0
  0
CLASS
  1
MLEADERSTYLE
  2
AcDbMLeaderStyle
  3
ACDB_MLEADERSTYLE_CLASS
 90
     4095
 91
        1
280
     0
281
     0
  0
CLASS
  1
ACDBSECTIONVIEWSTYLE
  2
AcDbSectionViewStyle
  3
ObjectDBX Classes
 90
     1025
 91
        1
280
     0
281
     0
  0
CLASS
  1
ACDBDETAILVIEWSTYLE
  2
AcDbDetailViewStyle
  3
ObjectDBX Classes
 90
     1025
 91
        1
280
     0
281
     0
  0
CLASS
  1
SORTENTSTABLE
  2
AcDbSortentsTable
  3
ObjectDBX Classes
 90
        0
 91
        1
280
     0
281
     0
  0
CLASS
  1
ACDB_TEXTOBJECTCONTEXTDATA_CLASS
  2
AcDbTextObjectContextData
  3
ObjectDBX Classes
 90
     1153
 91
       30
280
     0
281
     0
  0
CLASS
  1
CELLSTYLEMAP
  2
AcDbCellStyleMap
  3
ObjectDBX Classes
 90
     1152
 91
        1
280
     0
281
     0
  0
ENDSEC
  0
SECTION
  2
TABLES
  0
TABLE
  2
VPORT
  5
19
330
0
100
AcDbSymbolTable
 70
     1
  0
VPORT
  5
1A
330
19
100
AcDbSymbolTableRecord
100
AcDbViewportTableRecord
  2
*Active
 70
     0
 10
0.0
 20
0.0
 11
1.0
 21
1.0
 12
342.1214616326285
 22
-44.58590110695832
 13
0.0
 23
0.0
 14
5.0
 24
5.0
 15
10.0
 25
10.0
 16
0.0
 26
0.0
 36
1.0
 17
0.0
 27
0.0
 37
0.0
 40
816.8667516303854
 41
1.787234042553191
 42
50.0
 43
0.0
 44
0.0
 50
0.0
 51
0.0
 71
     0
 72
   100
 73
     1
 74
     1
 75
     0
 76
     0
 77
     0
 78
     0
281
     0
 65
     1
110
0.0
120
0.0
130
0.0
111
1.0
121
0.0
131
0.0
112
0.0
122
1.0
132
0.0
 79
     0
146
0.0
348
B4
 60
     3
 61
     5
292
     1
282
     1
141
0.0
142
0.0
 63
   250
421
  3355443
1001
ACAD_NAV_VCDISPLAY
1070
     3
  0
ENDTAB
  0
TABLE
  2
LTYPE
  5
14
330
0
100
AcDbSymbolTable
 70
     2
  0
LTYPE
  5
15
330
14
100
AcDbSymbolTableRecord
100
AcDbLinetypeTableRecord
  2
BYBLOCK
 70
     0
  3

 72
    65
 73
     0
 40
0.0
  0
LTYPE
  5
16
330
14
100
AcDbSymbolTableRecord
100
AcDbLinetypeTableRecord
  2
BYLAYER
 70
     0
  3

 72
    65
 73
     0
 40
0.0
  0
LTYPE
  5
8
330
14
100
AcDbSymbolTableRecord
100
AcDbLinetypeTableRecord
  2
CONTINUOUS
 70
     0
  3
Solid line
 72
    65
 73
     0
 40
0.0
  0
LTYPE
  5
44
330
14
100
AcDbSymbolTableRecord
100
AcDbLinetypeTableRecord
  2
CENTER2
 70
     0
  3
___ _ ___ _ ___ _ ___ _ ___ _ ___ _ ___ _ ___ _
 72
    65
 73
     4
 40
28.575
 49
19.05
 74
     0
 49
-3.174999999999999
 74
     0
 49
3.174999999999999
 74
     0
 49
-3.174999999999999
 74
     0
  0
ENDTAB
  0
TABLE
  2
LAYER
  5
10
102
{ACAD_XDICTIONARY
360
F2
102
}
330
0
100
AcDbSymbolTable
 70
     7
  0
LAYER
  5
4
102
{ACAD_XDICTIONARY
360
197
102
}
330
10
100
AcDbSymbolTableRecord
100
AcDbLayerTableRecord
  2
0
 70
     0
 62
     7
  6
CONTINUOUS
370
    -3
390
5
347
A6
348
0
  0
LAYER
  5
43
102
{ACAD_XDICTIONARY
360
199
102
}
330
10
100
AcDbSymbolTableRecord
100
AcDbLayerTableRecord
  2
DIMS
 70
     0
 62
     1
  6
CONTINUOUS
370
    -3
390
5
347
A6
348
0
  0
LAYER
  5
22
102
{ACAD_XDICTIONARY
360
19B
102
}
330
10
100
AcDbSymbolTableRecord
100
AcDbLayerTableRecord
  2
ANCON-DSD
 70
     0
 62
     3
  6
CONTINUOUS
370
    -3
390
5
347
A6
348
0
  0
LAYER
  5
6B
330
10
100
AcDbSymbolTableRecord
100
AcDbLayerTableRecord
  2
DEFPOINTS
 70
     0
 62
     7
  6
CONTINUOUS
290
     0
370
    -3
390
5
347
A6
348
0
  0
LAYER
  5
27
102
{ACAD_XDICTIONARY
360
19D
102
}
330
10
100
AcDbSymbolTableRecord
100
AcDbLayerTableRecord
  2
ANCON-TEXT
 70
     0
 62
     6
  6
CONTINUOUS
370
    -3
390
5
347
A6
348
0
  0
LAYER
  5
2F
102
{ACAD_XDICTIONARY
360
19F
102
}
330
10
100
AcDbSymbolTableRecord
100
AcDbLayerTableRecord
  2
SPECP
 70
     0
 62
     6
  6
CONTINUOUS
370
    -3
390
5
347
A6
348
0
  0
LAYER
  5
2D
102
{ACAD_XDICTIONARY
360
1A1
102
}
330
10
100
AcDbSymbolTableRecord
100
AcDbLayerTableRecord
  2
SPECD
 70
     0
 62
     6
  6
CONTINUOUS
370
    -3
390
5
347
A6
348
0
  0
ENDTAB
  0
TABLE
  2
STYLE
  5
11
330
0
100
AcDbSymbolTable
 70
     3
  0
STYLE
  5
12
330
11
100
AcDbSymbolTableRecord
100
AcDbTextStyleTableRecord
  2
STANDARD
 70
     0
 40
0.0
 41
1.0
 50
0.0
 71
     0
 42
6.0
  3
txt.shx
  4

  0
STYLE
  5
23
330
11
100
AcDbSymbolTableRecord
100
AcDbTextStyleTableRecord
  2
ROMANS
 70
     0
 40
0.0
 41
1.0
 50
0.0
 71
     0
 42
5.0
  3
romans
  4

  0
STYLE
  5
110
330
11
100
AcDbSymbolTableRecord
100
AcDbTextStyleTableRecord
  2
ARIAL
 70
     0
 40
4.0
 41
1.0
 50
0.0
 71
     0
 42
5.0
  3
arial.ttf
  4

1001
AcadAnnotative
1000
AnnotativeData
1002
{
1070
     1
1070
     1
1002
}
1001
ACAD
1000
Arial
1071
       34
  0
ENDTAB
  0
TABLE
  2
VIEW
  5
17
330
0
100
AcDbSymbolTable
 70
     0
  0
ENDTAB
  0
TABLE
  2
UCS
  5
18
330
0
100
AcDbSymbolTable
 70
     0
  0
ENDTAB
  0
TABLE
  2
APPID
  5
1B
330
0
100
AcDbSymbolTable
 70
     4
  0
APPID
  5
1C
330
1B
100
AcDbSymbolTableRecord
100
AcDbRegAppTableRecord
  2
ACAD
 70
     0
  0
APPID
  5
F1
330
1B
100
AcDbSymbolTableRecord
100
AcDbRegAppTableRecord
  2
ACAD_NAV_VCDISPLAY
 70
     0
  0
APPID
  5
111
330
1B
100
AcDbSymbolTableRecord
100
AcDbRegAppTableRecord
  2
AcadAnnoPO
 70
     0
  0
APPID
  5
114
330
1B
100
AcDbSymbolTableRecord
100
AcDbRegAppTableRecord
  2
AcadAnnotative
 70
     0
  0
ENDTAB
  0
TABLE
  2
DIMSTYLE
  5
1D
330
0
100
AcDbSymbolTable
 70
     2
100
AcDbDimStyleTable
 71
     1
340
25
  0
DIMSTYLE
105
25
102
{ACAD_REACTORS
330
62
330
71
330
7E
102
}
330
1D
100
AcDbSymbolTableRecord
100
AcDbDimStyleTableRecord
  2
1-5
 70
     0
 40
0.0
 41
7.5
 42
22.0
 43
0.0
 44
7.5
 45
0.5
 73
     0
 74
     0
 77
     1
 78
    12
140
7.5
146
0.024
147
0.5
171
     0
271
     2
272
     2
279
     2
284
    12
285
    12
286
    12
340
23
  0
DIMSTYLE
105
F0
330
1D
100
AcDbSymbolTableRecord
100
AcDbDimStyleTableRecord
  2
1-2
 70
     0
 40
0.0
 41
4.0
 42
3.0
 43
10.0
 44
3.0
 46
1.25
 73
     0
 74
     0
 77
     1
 78
    12
140
3.0
141
-3.0
143
0.039
146
0.75
147
1.5
271
     2
272
     2
279
     2
284
    12
285
    12
286
    12
340
23
  0
ENDTAB
  0
TABLE
  2
BLOCK_RECORD
  5
1
330
0
100
AcDbSymbolTable
 70
     6
  0
BLOCK_RECORD
  5
2
330
1
100
AcDbSymbolTableRecord
100
AcDbBlockTableRecord
  2
*MODEL_SPACE
340
A
 70
     0
280
     1
281
     0
  0
BLOCK_RECORD
  5
C
330
1
100
AcDbSymbolTableRecord
100
AcDbBlockTableRecord
  2
*PAPER_SPACE
340
F
 70
     0
280
     1
281
     0
  0
BLOCK_RECORD
  5
63
330
1
100
AcDbSymbolTableRecord
100
AcDbBlockTableRecord
  2
*D0
340
0
 70
     0
280
     1
281
     0
  0
BLOCK_RECORD
  5
72
330
1
100
AcDbSymbolTableRecord
100
AcDbBlockTableRecord
  2
*D1
340
0
 70
     0
280
     1
281
     0
  0
BLOCK_RECORD
  5
7F
330
1
100
AcDbSymbolTableRecord
100
AcDbBlockTableRecord
  2
*D2
340
0
 70
     0
280
     1
281
     0
  0
BLOCK_RECORD
  5
E6
102
{ACAD_XDICTIONARY
360
E7
102
}
330
1
100
AcDbSymbolTableRecord
100
AcDbBlockTableRecord
  2
A$Ca8201df8
340
0
102
{BLKREFS
331
EE
102
}
 70
     0
280
     1
281
     0
  0
BLOCK_RECORD
  5
EC
330
1
100
AcDbSymbolTableRecord
100
AcDbBlockTableRecord
  2
Leviat info
340
0
310
28000000300000003000000001002000000000000024000001000000010000000000000000000000302821FF302821FF302821FF302821FF302821FF302821FF302821FF302821FF302821FF302821FF302821FF302821FF302821FF302821FF302821FF302821FF302821FF302821FF302821FF302821FF302821FF302821
310
FF302821FF302821FF302821FF302821FF302821FF302821FF302821FF302821FF302821FF302821FF302821FF302821FF302821FF302821FF302821FF302821FF302821FF302821FF302821FF302821FF302821FF302821FF302821FF302821FF302821FF302821FF302821FF302821FF302821FF302821FF302821FF3028
310
21FF302821FF302821FF302821FF302821FF302821FF302821FF302821FF302821FF302821FF302821FF302821FF302821FF302821FF302821FF302821FF302821FF302821FF302821FF302821FF302821FF302821FF302821FF302821FF302821FF302821FF302821FF302821FF302821FF302821FF302821FF302821FF30
310
2821FF302821FF302821FF302821FF302821FF302821FF302821FF302821FF302821FF302821FF302821FF302821FF302821FF302821FF302821FF302821FF302821FF302821FF302821FF302821FF302821FF302821FF302821FF302821FF302821FF302821FF302821FF302821FF302821FF302821FF302821FF302821FF
310
302821FF302821FF302821FF302821FF302821FF302821FF302821FF302821FF302821FF302821FF302821FF302821FF302821FF302821FF302821FF302821FF302821FF302821FF302821FF302821FF302821FF302821FF302821FF302821FF302821FF302821FF302821FF302821FF302821FF302821FF302821FF302821
310
FF302821FF302821FF302821FF302821FF302821FF302821FF302821FF302821FF302821FF302821FF302821FF302821FF302821FF302821FF302821FF302821FF302821FF302821FF302821FF302821FF302821FF302821FF302821FF302821FF302821FF302821FF302821FF302821FF302821FF302821FF302821FF3028
310
21FF302821FF302821FF302821FF302821FF302821FF302821FF302821FF302821FF302821FF302821FF302821FF302821FF302821FF302821FF302821FF302821FF302821FF302821FF302821FF302821FF302821FF302821FF302821FF302821FF302821FF302821FF302821FF302821FF302821FF302821FF302821FF30
310
2821FF302821FF302821FF302821FF302821FF302821FF302821FF302821FF302821FF302821FF302821FF302821FF302821FF302821FF302821FF302821FF302821FF302821FF302821FF302821FF302821FF302821FF302821FF302821FF302821FF302821FF302821FF302821FF302821FF302821FF302821FF302821FF
310
302821FF302821FF302821FF302821FF302821FF302821FF302821FF302821FF302821FF302821FF302821FF302821FF302821FF302821FF302821FF302821FF302821FF302821FF302821FF302821FF302821FF302821FF302821FF302821FF302821FF302821FF302821FF302821FF302821FF302821FF302821FF302821
310
FF302821FF302821FF302821FF302821FF302821FF302821FF302821FF302821FF302821FF302821FF302821FF302821FF302821FF302821FF302821FF302821FF302821FF302821FF302821FF302821FF302821FF302821FF302821FF302821FF302821FF302821FF302821FF302821FF302821FF302821FF302821FF3028
310
21FF302821FF302821FF302821FF302821FF302821FF302821FF302821FF302821FF302821FF302821FF302821FF302821FF302821FF302821FF302821FF302821FF302821FF302821FF302821FF302821FF302821FF302821FF302821FF302821FF302821FF302821FF302821FF302821FF302821FF302821FF302821FF30
310
2821FF302821FF302821FF302821FF302821FF302821FF302821FF302821FF302821FF302821FF302821FF302821FF302821FF302821FF302821FF302821FF302821FF302821FF302821FF302821FF302821FF302821FF302821FF302821FF302821FF302821FF302821FF302821FF302821FF302821FF302821FF302821FF
310
302821FF302821FF302821FF302821FF302821FF302821FF302821FF302821FF302821FF302821FF302821FF302821FF302821FF302821FF302821FF302821FF302821FF302821FF302821FF302821FF302821FF302821FF302821FF302821FF302821FF302821FF302821FF302821FF302821FF302821FF302821FF302821
310
FF302821FF302821FF302821FF302821FF302821FF302821FF302821FF302821FF302821FF302821FF302821FF302821FF302821FF302821FF302821FF302821FF302821FF302821FF302821FF302821FF302821FF302821FF302821FF302821FF302821FF302821FF302821FF302821FF302821FF302821FF302821FF3028
310
21FF302821FF302821FF302821FF302821FF302821FF302821FF302821FF302821FF302821FF302821FF302821FF302821FF302821FF302821FF302821FF302821FF302821FF302821FF302821FF302821FF302821FF302821FF302821FF302821FF302821FF302821FF302821FF302821FF302821FF302821FF302821FF30
310
2821FF302821FF302821FF302821FF302821FF302821FF302821FF302821FF302821FF302821FF302821FF302821FF302821FF302821FF302821FF302821FF302821FF302821FF302821FF302821FF302821FF302821FF302821FF302821FF302821FF302821FF302821FF302821FF302821FF302821FF302821FF302821FF
310
302821FF302821FF302821FF302821FF302821FF302821FF302821FF302821FF302821FF302821FF302821FF302821FF302821FF302821FF302821FF302821FF302821FF302821FF302821FF302821FF302821FF302821FF302821FF302821FF302821FF302821FF302821FF302821FF302821FF302821FF302821FF302821
310
FF302821FF302821FF302821FF302821FF302821FF302821FF302821FF302821FF302821FF302821FF302821FF302821FF302821FF302821FF302821FF302821FF302821FF302821FF302821FF302821FF302821FF302821FF302821FF302821FF302821FF302821FF302821FF302821FF302821FF302821FF302821FF3028
310
21FF302821FF302821FF302821FF302821FF302821FF302821FF302821FF302821FF302821FF302821FF302821FF302821FF302821FF302821FF302821FF302821FF302821FF302821FF302821FF302821FF302821FF302821FF302821FF302821FF302821FF302821FF302821FF302821FF302821FF302821FF302821FF30
310
2821FF302821FF302821FF302821FF302821FF302821FF302821FF302821FF302821FF302821FF302821FF302821FF302821FF302821FF302821FF302821FF302821FF302821FF302821FF302821FF302821FF302821FF302821FF302821FF302821FF302821FF302821FF302821FF302821FF302821FF302821FF302821FF
310
302821FF302821FF302821FF302821FF302821FF302821FF302821FF302821FF302821FF302821FF302821FF302821FF302821FF302821FF302821FF302821FF302821FF302821FF302821FF302821FF302821FF302821FF302821FF302821FF302821FF302821FF302821FF302821FF302821FF302821FF302821FF302821
310
FF302821FF302821FF302821FF302821FF302821FF302821FF302821FF302821FF302821FF302821FF302821FF302821FF302821FF302821FF302821FF302821FF302821FF302821FF302821FF302821FF302821FF302821FF302821FF302821FF302821FF302821FF302821FF302821FF302821FF302821FF302821FF3028
310
21FF302821FF302821FF302821FF302821FF302821FF302821FF302821FF302821FF302821FF302821FF302821FF302821FF302821FF302821FF302821FF302821FF302821FF302821FF302821FF302821FF302821FF302821FF302821FF302821FF302821FF302821FF302821FF302821FF302821FF302821FF302821FF30
310
2821FF302821FF302821FF302821FF302821FF302821FF302821FF302821FF302821FF302821FF302821FF302821FF302821FF302821FF302821FF302821FF302821FF302821FF302821FF302821FF302821FF302821FF302821FF302821FF302821FF302821FF302821FF302821FF302821FF302821FF302821FF302821FF
310
302821FF302821FF302821FF302821FF302821FF302821FF302821FF302821FF302821FF302821FF302821FF302821FF302821FF302821FF302821FF302821FF302821FF302821FF302821FF302821FF302821FF302821FF302821FF302821FF302821FF302821FF302821FF302821FF302821FF302821FF302821FF302821
310
FF302821FF302821FF302821FF302821FF302821FF302821FF302821FF302821FF302821FF302821FF302821FF302821FF302821FF302821FF302821FF302821FF302821FF302821FF302821FF302821FF302821FF302821FF302821FF302821FF302821FF302821FF302821FF302821FF302821FF302821FF302821FF3028
310
21FF302821FF302821FF302821FF302821FF302821FF302821FF302821FF302821FF302821FF302821FF302821FF302821FF302821FF302821FF302821FF302821FF302821FF302821FF302821FF302821FF302821FF302821FF302821FF302821FF302821FF302821FF302821FF302821FF302821FF302821FF302821FF30
310
2821FF302821FF302821FF302821FF302821FF302821FF302821FF302821FF302821FF302821FF302821FF302821FF302821FF302821FF302821FF302821FF302821FF302821FF302821FF302821FFFF00FFFFFF00FFFFFF00FFFFFF00FFFFFF00FFFFFF00FFFFFF00FFFFFF00FFFFFF00FFFFFF00FFFFFF00FFFFFF00FFFF
310
FF00FFFFFF00FFFFFF00FFFFFF00FFFFFF00FFFFFF00FFFFFF00FFFFFF00FFFFFF00FFFFFF00FFFFFF00FFFF302821FFFF00FFFFFF00FFFFFF00FFFFFF00FFFFFF00FFFFFF00FFFFFF00FFFFFF00FFFFFF00FFFFFF00FFFFFF00FFFFFF00FFFF302821FF302821FF302821FF302821FF302821FF302821FF302821FF302821
310
FF302821FF302821FF302821FF302821FFFF00FFFFFF00FFFFFF00FFFFFF00FFFFFF00FFFFFF00FFFFFF00FFFFFF00FFFFFF00FFFFFF00FFFFFF00FFFFFF00FFFFFF00FFFFFF00FFFFFF00FFFFFF00FFFFFF00FFFFFF00FFFFFF00FFFFFF00FFFFFF00FFFFFF00FFFF302821FFFF00FFFFFF00FFFFFF00FFFFFF00FFFFFF00
310
FFFFFF00FFFFFF00FFFFFF00FFFFFF00FFFFFF00FFFFFF00FFFFFF00FFFFFF00FFFF302821FF302821FF302821FF302821FF302821FF302821FF302821FF302821FF302821FF302821FF302821FFFF00FFFFFF00FFFFFF00FFFFFF00FFFFFF00FFFFFF00FFFFFF00FFFFFF00FFFFFF00FFFFFF00FFFFFF00FFFFFF00FFFFFF
310
00FFFFFF00FFFFFF00FFFFFF00FFFFFF00FFFFFF00FFFFFF00FFFF302821FFFF00FFFFFF00FFFFFF00FFFF302821FFFF00FFFFFF00FFFFFF00FFFFFF00FFFFFF00FFFFFF00FFFFFF00FFFFFF00FFFFFF00FFFF302821FFFF00FFFFFF00FFFFFF00FFFF302821FF302821FF302821FF302821FF302821FF302821FF302821FF
310
302821FF302821FF302821FF302821FFFF00FFFFFF00FFFFFF00FFFFFF00FFFFFF00FFFFFF00FFFFFF00FFFFFF00FFFFFF00FFFFFF00FFFFFF00FFFFFF00FFFFFF00FFFFFF00FFFFFF00FFFFFF00FFFFFF00FFFFFF00FFFFFF00FFFFFF00FFFFFF00FFFFFF00FFFFFF00FFFFFF00FFFFFF00FFFFFF00FFFFFF00FFFFFF00FF
310
FFFF00FFFFFF00FFFFFF00FFFFFF00FFFFFF00FFFFFF00FFFFFF00FFFF302821FF302821FF302821FF302821FF302821FF302821FF302821FF302821FF302821FF302821FF302821FF302821FF302821FFFF00FFFFFF00FFFFFF00FFFFFF00FFFFFF00FFFFFF00FFFFFF00FFFFFF00FFFFFF00FFFFFF00FFFFFF00FFFFFF00
310
FFFFFF00FFFFFF00FFFFFF00FFFFFF00FFFFFF00FFFFFF00FFFFFF00FFFFFF00FFFFFF00FFFFFF00FFFFFF00FFFFFF00FFFFFF00FFFFFF00FFFFFF00FFFFFF00FFFFFF00FFFFFF00FFFFFF00FFFFFF00FFFFFF00FFFFFF00FFFFFF00FFFF302821FF302821FF302821FF302821FF302821FF302821FF302821FF302821FF30
310
2821FF302821FF302821FF302821FF302821FFFF00FFFFFF00FFFFFF00FFFFFF00FFFFFF00FFFFFF00FFFFFF00FFFFFF00FFFFFF00FFFFFF00FFFFFF00FFFFFF00FFFFFF00FFFFFF00FFFFFF00FFFFFF00FFFFFF00FFFFFF00FFFF302821FFFF00FFFFFF00FFFFFF00FFFFFF00FFFFFF00FFFFFF00FFFFFF00FFFFFF00FFFF
310
FF00FFFFFF00FFFFFF00FFFFFF00FFFFFF00FFFFFF00FFFFFF00FFFFFF00FFFF302821FF302821FF302821FF302821FF302821FF302821FF302821FF302821FF302821FF302821FF302821FF302821FF302821FF302821FFFF00FFFFFF00FFFFFF00FFFFFF00FFFF302821FFFF00FFFFFF00FFFFFF00FFFFFF00FFFFFF00FF
310
FFFF00FFFFFF00FFFFFF00FFFFFF00FFFF302821FFFF00FFFFFF00FFFFFF00FFFFFF00FFFFFF00FFFFFF00FFFF302821FF302821FF302821FF302821FF302821FF302821FF302821FF302821FF302821FF302821FF302821FF302821FF302821FF302821FF302821FF302821FF302821FF302821FF302821FF302821FF3028
310
21FF302821FF302821FF302821FF302821FF302821FF302821FFFF00FFFFFF00FFFFFF00FFFFFF00FFFF302821FFFF00FFFFFF00FFFFFF00FFFFFF00FFFFFF00FFFFFF00FFFFFF00FFFFFF00FFFFFF00FFFFFF00FFFFFF00FFFFFF00FFFFFF00FFFFFF00FFFFFF00FFFFFF00FFFF302821FF302821FF302821FF302821FF30
310
2821FF302821FF302821FF302821FF302821FF302821FF302821FF302821FF302821FF302821FF302821FF302821FF302821FF302821FF302821FF302821FF302821FF302821FF302821FF302821FF302821FF302821FFFF00FFFFFF00FFFFFF00FFFFFF00FFFFFF00FFFF302821FFFF00FFFFFF00FFFFFF00FFFFFF00FFFF
310
FF00FFFFFF00FFFFFF00FFFFFF00FFFFFF00FFFF302821FFFF00FFFFFF00FFFFFF00FFFFFF00FFFFFF00FFFFFF00FFFF302821FF302821FF302821FF302821FF302821FF302821FF302821FF302821FF302821FF302821FF302821FF302821FF302821FF302821FF302821FF302821FF302821FF302821FF302821FF302821
310
FF302821FF302821FF302821FF302821FF302821FF302821FFFF00FFFFFF00FFFFFF00FFFFFF00FFFFFF00FFFFFF00FFFFFF00FFFFFF00FFFF302821FF302821FF302821FF302821FF302821FF302821FF302821FF302821FF302821FF302821FF302821FF302821FF302821FF302821FF302821FF302821FF302821FF3028
310
21FF302821FF302821FF302821FF302821FF302821FF302821FF302821FF302821FF302821FF302821FF302821FF302821FF302821FF302821FF302821FF302821FF302821FF302821FF302821FF302821FF302821FF302821FFFF00FFFF302821FFFF00FFFFFF00FFFFFF00FFFFFF00FFFFFF00FFFFFF00FFFF302821FF30
310
2821FF302821FF302821FF302821FF302821FF302821FF302821FF302821FF302821FF302821FF302821FF302821FF302821FF302821FF302821FF302821FF302821FF302821FF302821FF302821FF302821FF302821FF302821FF302821FF302821FF302821FF302821FF302821FF302821FF302821FF302821FF302821FF
310
302821FF302821FF302821FF302821FF302821FF302821FF302821FFFF00FFFF302821FFFF00FFFFFF00FFFFFF00FFFFFF00FFFFFF00FFFFFF00FFFF302821FF302821FF302821FF302821FF302821FF302821FF302821FF302821FF302821FF302821FF302821FF302821FF302821FF302821FF302821FF302821FF302821
310
FF302821FF302821FF302821FF302821FF302821FF302821FF302821FF302821FF302821FF302821FF302821FF302821FF302821FF302821FF302821FF302821FF302821FF302821FF302821FF302821FF302821FF302821FF302821FF302821FF302821FF302821FF302821FF302821FF302821FF302821FF302821FF3028
310
21FF302821FF302821FF302821FF302821FF302821FF302821FF302821FF302821FF302821FF302821FF302821FF302821FF302821FF302821FF302821FF302821FF302821FF302821FF302821FF302821FF302821FF302821FF302821FF302821FF302821FF302821FF302821FF302821FF302821FF302821FF302821FF30
310
2821FF302821FF302821FF302821FF302821FF302821FF302821FF302821FF302821FF302821FF302821FF302821FF302821FF302821FF302821FF302821FF302821FF302821FF302821FF302821FF302821FF302821FF302821FF302821FF302821FF302821FF302821FF302821FF302821FF302821FF302821FF302821FF
310
302821FF302821FF302821FF302821FF302821FF302821FF302821FF302821FF302821FF302821FF302821FF302821FF302821FF302821FF302821FF302821FF302821FF302821FF302821FF302821FF302821FF302821FF302821FF302821FF302821FF302821FF302821FF302821FF302821FF302821FF302821FF302821
310
FF302821FF302821FF302821FF302821FF302821FF302821FF302821FF302821FF302821FF302821FF302821FF302821FF302821FF302821FF302821FF302821FF302821FF302821FF302821FF302821FF302821FF302821FF302821FF302821FF302821FF302821FF302821FF302821FF302821FF302821FF302821FF3028
310
21FF302821FF302821FF302821FF302821FF302821FF302821FF302821FF302821FF302821FF302821FF302821FF302821FF302821FF302821FF302821FF302821FF302821FF302821FF302821FF302821FF302821FF302821FF302821FF302821FF302821FF302821FF302821FF302821FF302821FF302821FF302821FF30
310
2821FF302821FF302821FF302821FF302821FF302821FF302821FF302821FF302821FF302821FF302821FF302821FF302821FF302821FF302821FF302821FF302821FF302821FF302821FF302821FF302821FF302821FF302821FF302821FF302821FF302821FF302821FF302821FF302821FF302821FF302821FF302821FF
310
302821FF302821FF302821FF302821FF302821FF302821FF302821FF302821FF302821FF302821FF302821FF302821FF302821FF302821FF302821FF302821FF302821FF302821FF302821FF302821FF302821FF302821FF302821FF302821FF302821FF302821FF302821FF302821FF302821FF302821FF302821FF302821
310
FF302821FF302821FF302821FF302821FF302821FF302821FF302821FF302821FF302821FF302821FF302821FF302821FF302821FF302821FF302821FF302821FF302821FF302821FF302821FF302821FF302821FF302821FF302821FF302821FF302821FF302821FF302821FF302821FF302821FF302821FF302821FF3028
310
21FF302821FF302821FF302821FF302821FF302821FF302821FF302821FF302821FF302821FF302821FF302821FF302821FF302821FF302821FF302821FF302821FF302821FF302821FF302821FF302821FF302821FF302821FF302821FF302821FF302821FF302821FF302821FF302821FF302821FF302821FF302821FF30
310
2821FF302821FF302821FF302821FF302821FF302821FF302821FF302821FF302821FF302821FF302821FF302821FF302821FF302821FF302821FF302821FF302821FF302821FF302821FF302821FF302821FF302821FF302821FF302821FF302821FF302821FF302821FF302821FF302821FF302821FF302821FF302821FF
310
302821FF302821FF302821FF302821FF302821FF302821FF302821FF302821FF302821FF302821FF302821FF302821FF302821FF302821FF302821FF302821FF302821FF302821FF302821FF302821FF302821FF302821FF302821FF302821FF302821FF302821FF302821FF302821FF302821FF302821FF302821FF302821
310
FF302821FF302821FF302821FF302821FF302821FF302821FF302821FF302821FF302821FF302821FF302821FF302821FF302821FF302821FF302821FF302821FF302821FF302821FF302821FF302821FF302821FF302821FF302821FF302821FF302821FF302821FF302821FF302821FF302821FF302821FF302821FF3028
310
21FF302821FF302821FF302821FF302821FF302821FF302821FF302821FF302821FF302821FF302821FF302821FF302821FF302821FF302821FF302821FF302821FF302821FF302821FF302821FF302821FF302821FF302821FF302821FF302821FF302821FF302821FF302821FF302821FF302821FF302821FF302821FF30
310
2821FF302821FF302821FF302821FF302821FF302821FF302821FF302821FF302821FF302821FF302821FF302821FF302821FF302821FF302821FF302821FF302821FF302821FF302821FF302821FF302821FF302821FF302821FF302821FF302821FF302821FF302821FF302821FF302821FF302821FF302821FF302821FF
310
302821FF302821FF302821FF302821FF302821FF302821FF302821FF302821FF302821FF302821FF302821FF302821FF302821FF302821FF302821FF302821FF302821FF302821FF302821FF302821FF302821FF302821FF302821FF302821FF302821FF302821FF302821FF302821FF302821FF302821FF302821FF302821
310
FF302821FF302821FF302821FF302821FF302821FF302821FF302821FF302821FF302821FF302821FF302821FF302821FF302821FF302821FF302821FF302821FF302821FF302821FF302821FF302821FF302821FF302821FF302821FF302821FF302821FF302821FF302821FF302821FF302821FF302821FF302821FF3028
310
21FF302821FF302821FF302821FF302821FF302821FF302821FF302821FF302821FF302821FF302821FF302821FF302821FF302821FF302821FF302821FF302821FF302821FF302821FF302821FF302821FF302821FF302821FF302821FF302821FF302821FF302821FF302821FF302821FF302821FF302821FF302821FF30
310
2821FF302821FF302821FF302821FF302821FF302821FF302821FF302821FF302821FF302821FF302821FF302821FF302821FF302821FF302821FF302821FF302821FF302821FF302821FF302821FF302821FF302821FF302821FF302821FF302821FF302821FF302821FF302821FF302821FF302821FF302821FF302821FF
310
302821FF302821FF302821FF302821FF302821FF302821FF302821FF302821FF302821FF302821FF302821FF302821FF302821FF302821FF302821FF302821FF302821FF302821FF302821FF302821FF302821FF302821FF302821FF302821FF302821FF302821FF302821FF302821FF302821FF302821FF302821FF302821
310
FF302821FF302821FF302821FF302821FF302821FF302821FF302821FF302821FF302821FF302821FF302821FF302821FF302821FF302821FF302821FF302821FF302821FF302821FF302821FF302821FF302821FF302821FF302821FF302821FF302821FF302821FF302821FF302821FF302821FF302821FF302821FF3028
310
21FF302821FF302821FF302821FF302821FF302821FF302821FF302821FF302821FF302821FF302821FF302821FF302821FF302821FF302821FF302821FF302821FF302821FF302821FF302821FF302821FF302821FF302821FF302821FF302821FF302821FF302821FF302821FF302821FF302821FF302821FF302821FF30
310
2821FF302821FF302821FF302821FF302821FF302821FF302821FF302821FF302821FF302821FF302821FF302821FF302821FF302821FF302821FF302821FF302821FF302821FF302821FF302821FF302821FF302821FF302821FF302821FF302821FF302821FF302821FF302821FF302821FF302821FF302821FF302821FF
310
302821FF302821FF302821FF302821FF302821FF302821FF302821FF302821FF302821FF302821FF302821FF302821FF302821FF302821FF302821FF302821FF302821FF302821FF302821FF302821FF302821FF302821FF302821FF302821FF302821FF302821FF302821FF302821FF302821FF302821FF302821FF302821
310
FF302821FF302821FF302821FF302821FF302821FF302821FF302821FF302821FF302821FF302821FF302821FF302821FF302821FF302821FF302821FF302821FF302821FF302821FF302821FF302821FF302821FF302821FF302821FF302821FF302821FF302821FF302821FF302821FF302821FF302821FF302821FF3028
310
21FF302821FF302821FF302821FF302821FF302821FF302821FF302821FF302821FF302821FF302821FF302821FF302821FF302821FF302821FF302821FF302821FF302821FF302821FF302821FF302821FF302821FF302821FF302821FF302821FF302821FF302821FF302821FF302821FF302821FF302821FF302821FF30
310
2821FF302821FF302821FF302821FF302821FF302821FF302821FF302821FF302821FF302821FF302821FF302821FF302821FF302821FF302821FF302821FF302821FF302821FF302821FF302821FF302821FF302821FF302821FF302821FF302821FF302821FF302821FF302821FF302821FF302821FF302821FF302821FF
310
302821FF302821FF302821FF302821FF302821FF302821FF302821FF302821FF302821FF302821FF302821FF302821FF302821FF302821FF302821FF302821FF302821FF302821FF302821FF302821FF302821FF302821FF302821FF302821FF302821FF302821FF302821FF302821FF
102
{BLKREFS
331
FA
102
}
 70
     0
280
     1
281
     0
  0
ENDTAB
  0
ENDSEC
  0
SECTION
  2
BLOCKS
  0
BLOCK
  5
3
330
2
100
AcDbEntity
  8
0
100
AcDbBlockBegin
  2
*MODEL_SPACE
 70
     0
 10
0.0
 20
0.0
 30
0.0
  3
*MODEL_SPACE
  1

  0
ENDBLK
  5
9
330
2
100
AcDbEntity
  8
0
100
AcDbBlockEnd
  0
BLOCK
  5
D
330
C
100
AcDbEntity
 67
     1
  8
0
100
AcDbBlockBegin
  2
*PAPER_SPACE
 70
     0
 10
0.0
 20
0.0
 30
0.0
  3
*PAPER_SPACE
  1

  0
ENDBLK
  5
E
330
C
100
AcDbEntity
 67
     1
  8
0
100
AcDbBlockEnd
  0
BLOCK
  5
6E
330
63
100
AcDbEntity
  8
0
100
AcDbBlockBegin
  2
*D0
 70
     1
 10
0.0
 20
0.0
 30
0.0
  3
*D0
  1

  0
LINE
  5
64
330
63
100
AcDbEntity
  8
0
  6
ByBlock
 62
     0
440
 16777216
100
AcDbLine
 10
-70.07604400729405
 20
-142.9886030004412
 30
0.0
 11
-70.07604400729405
 21
-178.4712955159772
 31
0.0
  0
LINE
  5
65
330
63
100
AcDbEntity
  8
0
  6
ByBlock
 62
     0
440
 16777216
100
AcDbLine
 10
70.07604400729405
 20
-143.0113969995587
 30
0.0
 11
70.07604400729405
 21
-178.4712955159772
 31
0.0
  0
LINE
  5
66
330
63
100
AcDbEntity
  8
0
  6
ByBlock
 62
     0
440
 16777216
100
AcDbLine
 10
-66.07604400729406
 20
-175.4712955159772
 30
0.0
 11
66.07604400729406
 21
-175.4712955159772
 31
0.0
  0
SOLID
  5
67
330
63
100
AcDbEntity
  8
0
  6
ByBlock
 62
     0
440
 16777216
100
AcDbTrace
 10
-66.07604400729406
 20
-174.8046288493105
 30
0.0
 11
-66.07604400729406
 21
-176.1379621826438
 31
0.0
 12
-70.07604400729405
 22
-175.4712955159772
 32
0.0
 13
-70.07604400729405
 23
-175.4712955159772
 33
0.0
  0
SOLID
  5
68
330
63
100
AcDbEntity
  8
0
  6
ByBlock
 62
     0
440
 16777216
100
AcDbTrace
 10
66.07604400729406
 20
-174.8046288493105
 30
0.0
 11
66.07604400729406
 21
-176.1379621826438
 31
0.0
 12
70.07604400729405
 22
-175.4712955159772
 32
0.0
 13
70.07604400729405
 23
-175.4712955159772
 33
0.0
  0
TEXT
  5
69
330
63
100
AcDbEntity
  8
0
  6
ByBlock
 62
     0
440
 16777216
100
AcDbText
 10
-4.499999999999999
 20
-173.9712955159772
 30
0.0
 40
3.0
  1
140
  7
ROMANS
 72
     1
 11
0.0
 21
-172.4712955159772
 31
0.0
100
AcDbText
 73
     2
  0
POINT
  5
6A
330
63
100
AcDbEntity
  8
DEFPOINTS
  6
ByBlock
 62
     0
440
 16777216
100
AcDbPoint
 10
-70.07604400729405
 20
-139.9886030004412
 30
0.0
  0
POINT
  5
6C
330
63
100
AcDbEntity
  8
DEFPOINTS
  6
ByBlock
 62
     0
440
 16777216
100
AcDbPoint
 10
70.07604400729405
 20
-140.0113969995587
 30
0.0
  0
POINT
  5
6D
330
63
100
AcDbEntity
  8
DEFPOINTS
  6
ByBlock
 62
     0
440
 16777216
100
AcDbPoint
 10
70.07604400729405
 20
-175.4712955159772
 30
0.0
  0
ENDBLK
  5
6F
330
63
100
AcDbEntity
  8
0
100
AcDbBlockEnd
  0
BLOCK
  5
7C
330
72
100
AcDbEntity
  8
0
100
AcDbBlockBegin
  2
*D1
 70
     1
 10
0.0
 20
0.0
 30
0.0
  3
*D1
  1

  0
LINE
  5
73
330
72
100
AcDbEntity
  8
0
  6
ByBlock
 62
     0
440
 16777216
100
AcDbLine
 10
-92.42395599270594
 20
-13.01139699955867
 30
0.0
 11
-92.42395599270594
 21
-205.4986421478387
 31
0.0
  0
LINE
  5
74
330
72
100
AcDbEntity
  8
0
  6
ByBlock
 62
     0
440
 16777216
100
AcDbLine
 10
87.57604400729405
 20
-13.01139699955867
 30
0.0
 11
87.57604400729405
 21
-205.4986421478387
 31
0.0
  0
LINE
  5
75
330
72
100
AcDbEntity
  8
0
  6
ByBlock
 62
     0
440
 16777216
100
AcDbLine
 10
-88.42395599270593
 20
-202.4986421478387
 30
0.0
 11
83.57604400729405
 21
-202.4986421478387
 31
0.0
  0
SOLID
  5
76
330
72
100
AcDbEntity
  8
0
  6
ByBlock
 62
     0
440
 16777216
100
AcDbTrace
 10
-88.42395599270593
 20
-201.8319754811721
 30
0.0
 11
-88.42395599270593
 21
-203.1653088145054
 31
0.0
 12
-92.42395599270594
 22
-202.4986421478387
 32
0.0
 13
-92.42395599270594
 23
-202.4986421478387
 33
0.0
  0
SOLID
  5
77
330
72
100
AcDbEntity
  8
0
  6
ByBlock
 62
     0
440
 16777216
100
AcDbTrace
 10
83.57604400729405
 20
-201.8319754811721
 30
0.0
 11
83.57604400729405
 21
-203.1653088145054
 31
0.0
 12
87.57604400729405
 22
-202.4986421478387
 32
0.0
 13
87.57604400729405
 23
-202.4986421478387
 33
0.0
  0
TEXT
  5
78
330
72
100
AcDbEntity
  8
0
  6
ByBlock
 62
     0
440
 16777216
100
AcDbText
 10
-6.923955992705941
 20
-200.9986421478387
 30
0.0
 40
3.0
  1
180
  7
ROMANS
 72
     1
 11
-2.423955992705941
 21
-199.4986421478387
 31
0.0
100
AcDbText
 73
     2
  0
POINT
  5
79
330
72
100
AcDbEntity
  8
DEFPOINTS
  6
ByBlock
 62
     0
440
 16777216
100
AcDbPoint
 10
-92.42395599270594
 20
-10.01139699955867
 30
0.0
  0
POINT
  5
7A
330
72
100
AcDbEntity
  8
DEFPOINTS
  6
ByBlock
 62
     0
440
 16777216
100
AcDbPoint
 10
87.57604400729405
 20
-10.01139699955867
 30
0.0
  0
POINT
  5
7B
330
72
100
AcDbEntity
  8
DEFPOINTS
  6
ByBlock
 62
     0
440
 16777216
100
AcDbPoint
 10
87.57604400729405
 20
-202.4986421478387
 30
0.0
  0
ENDBLK
  5
7D
330
72
100
AcDbEntity
  8
0
100
AcDbBlockEnd
  0
BLOCK
  5
89
330
7F
100
AcDbEntity
  8
0
100
AcDbBlockBegin
  2
*D2
 70
     1
 10
0.0
 20
0.0
 30
0.0
  3
*D2
  1

  0
LINE
  5
80
330
7F
100
AcDbEntity
  8
0
  6
ByBlock
 62
     0
440
 16777216
100
AcDbLine
 10
-177.4239559927059
 20
-13.01251055423093
 30
0.0
 11
-177.4239559927059
 21
-228.2334678576694
 31
0.0
  0
LINE
  5
81
330
7F
100
AcDbEntity
  8
0
  6
ByBlock
 62
     0
440
 16777216
100
AcDbLine
 10
172.576044007294
 20
-13.01139699955867
 30
0.0
 11
172.576044007294
 21
-228.2334678576694
 31
0.0
  0
LINE
  5
82
330
7F
100
AcDbEntity
  8
0
  6
ByBlock
 62
     0
440
 16777216
100
AcDbLine
 10
-173.4239559927059
 20
-225.2334678576694
 30
0.0
 11
168.576044007294
 21
-225.2334678576694
 31
0.0
  0
SOLID
  5
83
330
7F
100
AcDbEntity
  8
0
  6
ByBlock
 62
     0
440
 16777216
100
AcDbTrace
 10
-173.4239559927059
 20
-224.5668011910028
 30
0.0
 11
-173.4239559927059
 21
-225.9001345243361
 31
0.0
 12
-177.4239559927059
 22
-225.2334678576694
 32
0.0
 13
-177.4239559927059
 23
-225.2334678576694
 33
0.0
  0
SOLID
  5
84
330
7F
100
AcDbEntity
  8
0
  6
ByBlock
 62
     0
440
 16777216
100
AcDbTrace
 10
168.576044007294
 20
-224.5668011910028
 30
0.0
 11
168.576044007294
 21
-225.9001345243361
 31
0.0
 12
172.576044007294
 22
-225.2334678576694
 32
0.0
 13
172.576044007294
 23
-225.2334678576694
 33
0.0
  0
TEXT
  5
85
330
7F
100
AcDbEntity
  8
0
  6
ByBlock
 62
     0
440
 16777216
100
AcDbText
 10
-6.709670278420228
 20
-223.7334678576694
 30
0.0
 40
3.0
  1
350
  7
ROMANS
 72
     1
 11
-2.423955992705941
 21
-222.2334678576694
 31
0.0
100
AcDbText
 73
     2
  0
POINT
  5
86
330
7F
100
AcDbEntity
  8
DEFPOINTS
  6
ByBlock
 62
     0
440
 16777216
100
AcDbPoint
 10
-177.4239559927059
 20
-10.01251055423093
 30
0.0
  0
POINT
  5
87
330
7F
100
AcDbEntity
  8
DEFPOINTS
  6
ByBlock
 62
     0
440
 16777216
100
AcDbPoint
 10
172.576044007294
 20
-10.01139699955867
 30
0.0
  0
POINT
  5
88
330
7F
100
AcDbEntity
  8
DEFPOINTS
  6
ByBlock
 62
     0
440
 16777216
100
AcDbPoint
 10
172.576044007294
 20
-225.2334678576694
 30
0.0
  0
ENDBLK
  5
8A
330
7F
100
AcDbEntity
  8
0
100
AcDbBlockEnd
  0
BLOCK
  5
E9
330
E6
100
AcDbEntity
  8
0
100
AcDbBlockBegin
  2
A$Ca8201df8
 70
     0
 10
0.0
 20
0.0
 30
0.0
  3
A$Ca8201df8
  1

  0
MTEXT
  5
EA
330
E6
100
AcDbEntity
  8
ANCON-TEXT
100
AcDbMText
 10
1.996562336607325
 20
26.15617988065412
 30
0.0
 40
4.0
 41
95.73209882442336
 46
0.0
 71
     1
 72
     5
  1
{\fArial|b0|i0|c0|p34;Leviat \PTel:  1300 304 320\PEmail: technical.au@leviat.com\PWeb: ancon.com.au / Leviat.com}
 73
     1
 44
1.0
101
Embedded Object
 70
     1
 10
1.0
 20
0.0
 30
0.0
 11
1.996562336607325
 21
26.15617988065412
 31
0.0
 40
95.73209882442336
 41
0.0
 42
80.94679399727148
 43
24.22646657571624
 71
     2
 72
     1
 44
95.73209882442336
 45
0.5
 73
     0
 74
     0
 46
0.0
  0
ENDBLK
  5
EB
330
E6
100
AcDbEntity
  8
0
100
AcDbBlockEnd
  0
BLOCK
  5
ED
330
EC
100
AcDbEntity
  8
0
100
AcDbBlockBegin
  2
Leviat info
 70
     0
 10
0.0
 20
0.0
 30
0.0
  3
Leviat info
  1

  0
INSERT
  5
EE
330
EC
100
AcDbEntity
  8
ANCON-TEXT
100
AcDbBlockReference
  2
A$Ca8201df8
 10
-36.77513213385328
 20
-15.28978574702376
 30
0.0
  0
ENDBLK
  5
EF
330
EC
100
AcDbEntity
  8
0
100
AcDbBlockEnd
  0
ENDSEC
  0
SECTION
  2
ENTITIES
  0
TEXT
  5
26
102
{ACAD_XDICTIONARY
360
189
102
}
330
2
100
AcDbEntity
  8
ANCON-TEXT
 62
     6
100
AcDbText
 10
224.053003056506
 20
128.1017379108787
 30
0.0
 40
4.0
  1
SERVICEABILITY
  7
ARIAL
 72
     4
 11
246.7228529882932
 21
130.1017379108788
 31
0.0
100
AcDbText
1001
AcadAnnotative
1000
AnnotativeData
1002
{
1070
     1
1070
     1
1002
}
  0
TEXT
  5
28
102
{ACAD_XDICTIONARY
360
185
102
}
330
2
100
AcDbEntity
  8
ANCON-TEXT
 62
     6
100
AcDbText
 10
242.0611885953873
 20
96.04582812028917
 30
0.0
 40
4.0
  1
???
  7
ARIAL
 72
     4
 11
246.7228529882932
 21
98.07993453229464
 31
0.0
100
AcDbText
1001
AcadAnnotative
1000
AnnotativeData
1002
{
1070
     1
1070
     1
1002
}
  0
LINE
  5
29
330
2
100
AcDbEntity
  8
ANCON-TEXT
 62
     6
100
AcDbLine
 10
278.216066568127
 20
137.8626235732888
 30
0.0
 11
278.216066568127
 21
84.76437743919602
 31
0.0
  0
LINE
  5
2A
330
2
100
AcDbEntity
  8
ANCON-TEXT
 62
     6
100
AcDbLine
 10
213.3454824333274
 20
137.8626235732888
 30
0.0
 11
213.3454824333274
 21
84.76437743919602
 31
0.0
  0
TEXT
  5
2B
102
{ACAD_XDICTIONARY
360
181
102
}
330
2
100
AcDbEntity
  8
ANCON-TEXT
 62
     6
100
AcDbText
 10
231.5100289773791
 20
117.3538399896459
 30
0.0
 40
4.0
  1
LOAD ( kN )
  7
ARIAL
 72
     4
 11
246.7228529882932
 21
118.8013161151575
 31
0.0
100
AcDbText
1001
AcadAnnotative
1000
AnnotativeData
1002
{
1070
     1
1070
     1
1002
}
  0
LINE
  5
2C
330
2
100
AcDbEntity
  8
SPECD
 62
     6
100
AcDbLine
 10
561.1075076284947
 20
-166.4804720042259
 30
0.0
 11
561.1075076284947
 21
-219.5141645897762
 31
0.0
  0
LINE
  5
2E
330
2
100
AcDbEntity
  8
SPECP
 62
     6
100
AcDbLine
 10
426.2104084446162
 20
-137.1139583371321
 30
0.0
 11
426.2104084446162
 21
-149.0319336291333
 31
0.0
  0
TEXT
  5
30
102
{ACAD_XDICTIONARY
360
17D
102
}
330
2
100
AcDbEntity
  8
SPECP
 62
     6
100
AcDbText
 10
371.5225149182375
 20
-145.2510684529755
 30
0.0
 40
4.0
  1
STAIFIX DSD ??
  7
ARIAL
 72
     4
 11
392.638476719056
 21
-143.2510684529755
 31
0.0
100
AcDbText
1001
AcadAnnotative
1000
AnnotativeData
1002
{
1070
     1
1070
     1
1002
}
  0
LINE
  5
31
330
2
100
AcDbEntity
  8
SPECP
 62
     6
100
AcDbLine
 10
358.6205575218544
 20
-137.1139583371321
 30
0.0
 11
358.6205575218544
 21
-149.0319336291333
 31
0.0
  0
LINE
  5
32
330
2
100
AcDbEntity
  8
SPECD
 62
     6
100
AcDbLine
 10
358.6205575218544
 20
-166.4804720042259
 30
0.0
 11
358.6205575218544
 21
-219.5141645897762
 31
0.0
  0
TEXT
  5
33
102
{ACAD_XDICTIONARY
360
179
102
}
330
2
100
AcDbEntity
  8
SPECD
 62
     1
100
AcDbText
 10
245.0379531989775
 20
-175.1868871739519
 30
0.0
 40
4.0
  1
SPECIFICATION BY DESCRIPTION
  7
ARIAL
 72
     4
 11
290.834678983425
 21
-173.1855229174717
 31
0.0
100
AcDbText
1001
AcadAnnotative
1000
AnnotativeData
1002
{
1070
     1
1070
     1
1002
}
  0
TEXT
  5
34
102
{ACAD_XDICTIONARY
360
175
102
}
330
2
100
AcDbEntity
  8
SPECP
 62
     1
100
AcDbText
 10
243.9835129773197
 20
-145.2524327094558
 30
0.0
 40
4.0
  1
SPECIFICATION BY PRODUCT
  7
ARIAL
 72
     4
 11
284.5005661833225
 21
-143.2510684529755
 31
0.0
100
AcDbText
1001
AcadAnnotative
1000
AnnotativeData
1002
{
1070
     1
1070
     1
1002
}
  0
TEXT
  5
35
102
{ACAD_XDICTIONARY
360
171
102
}
330
2
100
AcDbEntity
  8
SPECD
 62
     6
100
AcDbText
 10
383.7950075577577
 20
-175.0460805807286
 30
0.0
 40
4.0
  1
TWO PART STAINLESS STEEL SHEAR CONNECTOR
  7
ARIAL
 72
     4
 11
453.5003281580305
 21
-173.0447163242484
 31
0.0
100
AcDbText
1001
AcadAnnotative
1000
AnnotativeData
1002
{
1070
     1
1070
     1
1002
}
  0
TEXT
  5
36
102
{ACAD_XDICTIONARY
360
16D
102
}
330
2
100
AcDbEntity
  8
SPECD
 62
     6
100
AcDbText
 10
383.8780744230224
 20
-185.3273481262667
 30
0.0
 40
4.0
  1
COMPRISING SLEEVE AND DOWEL COMPONENT
  7
ARIAL
 72
     4
 11
450.1672967968287
 21
-183.3259838697865
 31
0.0
100
AcDbText
1001
AcadAnnotative
1000
AnnotativeData
1002
{
1070
     1
1070
     1
1002
}
  0
TEXT
  5
37
102
{ACAD_XDICTIONARY
360
169
102
}
330
2
100
AcDbEntity
  8
SPECD
 62
     6
100
AcDbText
 10
384.049713415317
 20
-205.1892772936572
 30
0.0
 40
4.0
  1
AND CAPABLE OF TRANSFERRING A SERVICEABILITY
  7
ARIAL
 72
     4
 11
457.1711322420563
 21
-203.1879130371769
 31
0.0
100
AcDbText
1001
AcadAnnotative
1000
AnnotativeData
1002
{
1070
     1
1070
     1
1002
}
  0
LINE
  5
38
330
2
100
AcDbEntity
  8
SPECD
 62
     6
100
AcDbLine
 10
358.6205575218544
 20
-219.5141645897762
 30
0.0
 11
561.1075076284947
 21
-219.5141645897762
 31
0.0
  0
LINE
  5
39
330
2
100
AcDbEntity
  8
SPECD
 62
     6
100
AcDbLine
 10
358.6205575218544
 20
-166.4804720042259
 30
0.0
 11
561.1075076284947
 21
-166.4804720042259
 31
0.0
  0
TEXT
  5
3A
102
{ACAD_XDICTIONARY
360
165
102
}
330
2
100
AcDbEntity
  8
SPECD
 62
     6
100
AcDbText
 10
383.7997230400386
 20
-195.3167734458103
 30
0.0
 40
4.0
  1
SUITABLE FOR A DESIGN JOINT WIDTH OF ?? MM
  7
ARIAL
 72
     4
 11
450.8611145816484
 21
-193.3154091893301
 31
0.0
100
AcDbText
1001
AcadAnnotative
1000
AnnotativeData
1002
{
1070
     1
1070
     1
1002
}
  0
TEXT
  5
3B
102
{ACAD_XDICTIONARY
360
161
102
}
330
2
100
AcDbEntity
  8
SPECD
 62
     6
100
AcDbText
 10
384.3290122341295
 20
-216.1069735963611
 30
0.0
 40
4.0
  1
LOAD OF ??? kN
  7
ARIAL
 72
     4
 11
406.2226002286725
 21
-214.1056093398808
 31
0.0
100
AcDbText
1001
AcadAnnotative
1000
AnnotativeData
1002
{
1070
     1
1070
     1
1002
}
  0
LINE
  5
3C
330
2
100
AcDbEntity
  8
SPECP
 62
     6
100
AcDbLine
 10
358.6205575218544
 20
-137.1139583371321
 30
0.0
 11
426.2104084446162
 21
-137.1139583371321
 31
0.0
  0
LINE
  5
3D
330
2
100
AcDbEntity
  8
SPECP
 62
     6
100
AcDbLine
 10
358.6205575218544
 20
-149.0319336291333
 30
0.0
 11
426.2104084446162
 21
-149.0319336291332
 31
0.0
  0
TEXT
  5
3E
102
{ACAD_XDICTIONARY
360
15D
102
}
330
2
100
AcDbEntity
  8
ANCON-TEXT
 62
     6
100
AcDbText
 10
114.9664000636
 20
128.0969074137472
 30
0.0
 40
4.0
  1
DSD REF:
  7
ARIAL
 72
     4
 11
128.0059635015263
 21
130.0969074137472
 31
0.0
100
AcDbText
1001
AcadAnnotative
1000
AnnotativeData
1002
{
1070
     1
1070
     1
1002
}
  0
TEXT
  5
3F
102
{ACAD_XDICTIONARY
360
159
102
}
330
2
100
AcDbEntity
  8
ANCON-TEXT
 62
     6
100
AcDbText
 10
116.1621435749234
 20
96.07993453229463
 30
0.0
 40
4.0
  1
DSD450
  7
ARIAL
 72
     4
 11
126.7228529882931
 21
98.07993453229464
 31
0.0
100
AcDbText
1001
AcadAnnotative
1000
AnnotativeData
1002
{
1070
     1
1070
     1
1002
}
  0
LINE
  5
40
330
2
100
AcDbEntity
  8
ANCON-TEXT
 62
     6
100
AcDbLine
 10
152.8373888762645
 20
137.8626235732888
 30
0.0
 11
152.8373888762645
 21
84.76437743919602
 31
0.0
  0
LINE
  5
41
330
2
100
AcDbEntity
  8
ANCON-TEXT
 62
     6
100
AcDbLine
 10
102.8373888762645
 20
137.8626235732888
 30
0.0
 11
102.8373888762645
 21
84.76437743919602
 31
0.0
  0
LINE
  5
42
330
2
100
AcDbEntity
  8
DIMS
  6
CENTER2
100
AcDbLine
 10
60.07604400729405
 20
136.2416290135125
 30
0.0
 11
60.0760440072936
 21
123.7383978500995
 31
0.0
  0
CIRCLE
  5
45
330
2
100
AcDbEntity
  8
ANCON-DSD
100
AcDbCircle
 10
60.07604400729405
 20
129.9902292441783
 30
0.0
 40
2.5
  0
LINE
  5
46
330
2
100
AcDbEntity
  8
DIMS
  6
CENTER2
100
AcDbLine
 10
53.82442851293854
 20
129.9910585011445
 30
0.0
 11
66.32765950164958
 21
129.9889683624676
 31
0.0
  0
LINE
  5
47
330
2
100
AcDbEntity
  8
DIMS
  6
CENTER2
100
AcDbLine
 10
-39.999999309447
 20
80.00735339973061
 30
0.0
 11
39.999999309447
 21
79.99248810600156
 31
0.0
  0
CIRCLE
  5
48
330
2
100
AcDbEntity
  8
ANCON-DSD
100
AcDbCircle
 10
0.0
 20
79.99992075286609
 30
0.0
 40
35.0
  0
CIRCLE
  5
49
330
2
100
AcDbEntity
  8
ANCON-DSD
100
AcDbCircle
 10
0.0
 20
79.99992075286609
 30
0.0
 40
33.0
  0
LINE
  5
4A
330
2
100
AcDbEntity
  8
DIMS
  6
CENTER2
100
AcDbLine
 10
0.0
 20
119.999920752866
 30
0.0
 11
0.0
 21
39.99992075286609
 31
0.0
  0
CIRCLE
  5
4B
330
2
100
AcDbEntity
  8
ANCON-DSD
100
AcDbCircle
 10
-60.07604400729405
 20
130.0097704913119
 30
0.0
 40
2.5
  0
LINE
  5
4C
330
2
100
AcDbEntity
  8
DIMS
  6
CENTER2
100
AcDbLine
 10
-60.07604400729405
 20
136.2617145839142
 30
0.0
 11
-60.07604400729405
 21
123.7584834205012
 31
0.0
  0
LINE
  5
4D
330
2
100
AcDbEntity
  8
DIMS
  6
CENTER2
100
AcDbLine
 10
-66.32765950164958
 20
130.0111440715462
 30
0.0
 11
-53.82442851293854
 21
130.0090539328692
 31
0.0
  0
LINE
  5
4E
330
2
100
AcDbEntity
  8
ANCON-DSD
100
AcDbLine
 10
-70.07604400729405
 20
140.0113969995588
 30
0.0
 11
70.07604400729405
 21
139.9886030004413
 31
0.0
  0
LINE
  5
4F
330
2
100
AcDbEntity
  8
ANCON-DSD
100
AcDbLine
 10
172.576044007294
 20
9.988603000441329
 30
0.0
 11
172.576044007294
 21
-10.01139699955867
 31
0.0
  0
LINE
  5
50
330
2
100
AcDbEntity
  8
ANCON-DSD
100
AcDbLine
 10
87.57604400729405
 20
9.988603000441329
 30
0.0
 11
87.57604400729405
 21
-10.01139699955867
 31
0.0
  0
LINE
  5
51
330
2
100
AcDbEntity
  8
DIMS
  6
CENTER2
100
AcDbLine
 10
-37.99999933504934
 20
-79.99240446712639
 30
0.0
 11
37.99999933504935
 21
-80.00662223762466
 31
0.0
  0
LINE
  5
52
330
2
100
AcDbEntity
  8
DIMS
  6
CENTER2
100
AcDbLine
 10
0.0
 20
-41.99951335237552
 30
0.0
 11
0.0
 21
-117.9995133523755
 31
0.0
  0
CIRCLE
  5
53
330
2
100
AcDbEntity
  8
ANCON-DSD
100
AcDbCircle
 10
0.0
 20
-79.99951335237551
 30
0.0
 40
35.0
  0
CIRCLE
  5
54
330
2
100
AcDbEntity
  8
ANCON-DSD
100
AcDbCircle
 10
0.0
 20
-79.99951335237551
 30
0.0
 40
33.0
  0
LINE
  5
55
330
2
100
AcDbEntity
  8
ANCON-DSD
100
AcDbLine
 10
70.07604400729405
 20
9.988603000441329
 30
0.0
 11
172.576044007294
 21
9.988603000441329
 31
0.0
  0
LINE
  5
56
330
2
100
AcDbEntity
  8
ANCON-DSD
100
AcDbLine
 10
70.07604400729405
 20
-10.01139699955867
 30
0.0
 11
172.576044007294
 21
-10.01139699955867
 31
0.0
  0
LINE
  5
57
330
2
100
AcDbEntity
  8
DIMS
  6
CENTER2
100
AcDbLine
 10
53.82442851660972
 20
-130.0095243990744
 30
0.0
 11
66.32765949797795
 21
-130.0116580059756
 31
0.0
  0
CIRCLE
  5
58
330
2
100
AcDbEntity
  8
ANCON-DSD
100
AcDbCircle
 10
60.07604400729405
 20
-130.0097704913117
 30
0.0
 40
2.5
  0
LINE
  5
59
330
2
100
AcDbEntity
  8
DIMS
  6
CENTER2
100
AcDbLine
 10
60.07604400729405
 20
-123.7589756208185
 30
0.0
 11
60.07604400729405
 21
-136.2622067842315
 31
0.0
  0
LINE
  5
5A
330
2
100
AcDbEntity
  8
ANCON-DSD
100
AcDbLine
 10
-92.42395599270594
 20
9.988603000441329
 30
0.0
 11
-92.42395599270594
 21
-10.01139699955867
 31
0.0
  0
LINE
  5
5B
330
2
100
AcDbEntity
  8
ANCON-DSD
100
AcDbLine
 10
-177.4239559927059
 20
9.988603000441329
 30
0.0
 11
-177.4239559927059
 21
-10.01251055423093
 31
0.0
  0
LINE
  5
5C
330
2
100
AcDbEntity
  8
ANCON-DSD
100
AcDbLine
 10
-177.4239559927059
 20
9.987489445769067
 30
0.0
 11
-70.07604400729405
 21
10.01139699955887
 31
0.0
  0
LINE
  5
5D
330
2
100
AcDbEntity
  8
ANCON-DSD
100
AcDbLine
 10
-177.4239559927059
 20
-10.01251055423093
 30
0.0
 11
-70.07604400729405
 21
-9.988603000441131
 31
0.0
  0
LINE
  5
5E
330
2
100
AcDbEntity
  8
DIMS
  6
CENTER2
100
AcDbLine
 10
-66.3276594979784
 20
-129.9890211127985
 30
0.0
 11
-53.82442851660925
 21
-129.9911547196998
 31
0.0
  0
CIRCLE
  5
5F
330
2
100
AcDbEntity
  8
ANCON-DSD
100
AcDbCircle
 10
-60.07604400729405
 20
-129.9902292441782
 30
0.0
 40
2.5
  0
LINE
  5
60
330
2
100
AcDbEntity
  8
DIMS
  6
CENTER2
100
AcDbLine
 10
-60.07604400729405
 20
-123.7384723345426
 30
0.0
 11
-60.07604400729405
 21
-136.2417034979557
 31
0.0
  0
LINE
  5
61
330
2
100
AcDbEntity
  8
ANCON-DSD
100
AcDbLine
 10
-70.07604400729405
 20
-139.9886030004412
 30
0.0
 11
70.07604400729405
 21
-140.0113969995587
 31
0.0
  0
DIMENSION
  5
62
330
2
100
AcDbEntity
  8
DIMS
100
AcDbDimension
280
     0
  2
*D0
 10
70.07604400729405
 20
-175.4712955159772
 30
0.0
 11
0.0
 21
-172.4712955159772
 31
0.0
  1
140
 71
     5
 42
-1.0
 73
     0
 74
     0
 75
     0
  3
1-5
100
AcDbAlignedDimension
 13
-70.07604400729405
 23
-139.9886030004412
 33
0.0
 14
70.07604400729405
 24
-140.0113969995587
 34
0.0
100
AcDbRotatedDimension
  0
LINE
  5
70
330
2
100
AcDbEntity
  8
DIMS
  6
CENTER2
100
AcDbLine
 10
-182.4239559927059
 20
-0.01139699955867
 30
0.0
 11
177.576044007294
 21
-0.01139699955867
 31
0.0
  0
DIMENSION
  5
71
330
2
100
AcDbEntity
  8
DIMS
100
AcDbDimension
280
     0
  2
*D1
 10
87.57604400729405
 20
-202.4986421478387
 30
0.0
 11
-2.423955992705941
 21
-199.4986421478387
 31
0.0
 71
     5
 42
-1.0
 73
     0
 74
     0
 75
     0
  3
1-5
100
AcDbAlignedDimension
 13
-92.42395599270594
 23
-10.01139699955867
 33
0.0
 14
87.57604400729405
 24
-10.01139699955867
 34
0.0
100
AcDbRotatedDimension
  0
DIMENSION
  5
7E
330
2
100
AcDbEntity
  8
DIMS
100
AcDbDimension
280
     0
  2
*D2
 10
172.576044007294
 20
-225.2334678576694
 30
0.0
 11
-2.423955992705941
 21
-222.2334678576694
 31
0.0
 71
     5
 42
-1.0
 73
     0
 74
     0
 75
     0
  3
1-5
100
AcDbAlignedDimension
 13
-177.4239559927059
 23
-10.01251055423093
 33
0.0
 14
172.576044007294
 24
-10.01139699955867
 34
0.0
100
AcDbRotatedDimension
  0
LINE
  5
8B
330
2
100
AcDbEntity
  8
ANCON-DSD
100
AcDbLine
 10
-70.07604400729405
 20
140.0113969995588
 30
0.0
 11
-70.07604400729405
 21
-139.9886030004412
 31
0.0
  0
LINE
  5
8C
330
2
100
AcDbEntity
  8
ANCON-DSD
100
AcDbLine
 10
70.07604400729405
 20
139.9886030004413
 30
0.0
 11
70.07604400729405
 21
-140.0113969995587
 31
0.0
  0
TEXT
  5
8D
102
{ACAD_XDICTIONARY
360
155
102
}
330
2
100
AcDbEntity
  8
ANCON-TEXT
 62
     6
100
AcDbText
 10
164.4531406556925
 20
128.095543157267
 30
0.0
 40
4.0
  1
DESIGN JOINT
  7
ARIAL
 72
     4
 11
184.012485812582
 21
130.0969074137472
 31
0.0
100
AcDbText
1001
AcadAnnotative
1000
AnnotativeData
1002
{
1070
     1
1070
     1
1002
}
  0
TEXT
  5
8E
102
{ACAD_XDICTIONARY
360
151
102
}
330
2
100
AcDbEntity
  8
ANCON-TEXT
 62
     6
100
AcDbText
 10
178.1839716786069
 20
96.04719237676938
 30
0.0
 40
4.0
  1
?? MM
  7
ARIAL
 72
     4
 11
186.7228529882931
 21
98.07993453229464
 31
0.0
100
AcDbText
1001
AcadAnnotative
1000
AnnotativeData
1002
{
1070
     1
1070
     1
1002
}
  0
LINE
  5
8F
330
2
100
AcDbEntity
  8
ANCON-TEXT
 62
     6
100
AcDbLine
 10
102.8373888762645
 20
137.8626235732888
 30
0.0
 11
278.216066568127
 21
137.8626235732888
 31
0.0
  0
LINE
  5
90
330
2
100
AcDbEntity
  8
ANCON-TEXT
 62
     6
100
AcDbLine
 10
102.8373888762645
 20
111.7918625142431
 30
0.0
 11
278.216066568127
 21
111.7918625142431
 31
0.0
  0
LINE
  5
91
330
2
100
AcDbEntity
  8
ANCON-TEXT
 62
     6
100
AcDbLine
 10
102.8373888762645
 20
84.76437743919607
 30
0.0
 11
278.216066568127
 21
84.76437743919602
 31
0.0
  0
TEXT
  5
92
102
{ACAD_XDICTIONARY
360
14D
102
}
330
2
100
AcDbEntity
  8
ANCON-TEXT
 62
     6
100
AcDbText
 10
174.8569605738371
 20
117.1992840261282
 30
0.0
 40
4.0
  1
WIDTH
  7
ARIAL
 72
     4
 11
184.012485812582
 21
119.1992840261282
 31
0.0
100
AcDbText
1001
AcadAnnotative
1000
AnnotativeData
1002
{
1070
     1
1070
     1
1002
}
  0
INSERT
  5
FA
330
2
100
AcDbEntity
  8
0
100
AcDbBlockReference
  2
Leviat info
 10
518.3507542089423
 20
-245.0972965472232
 30
0.0
  0
LWPOLYLINE
  5
105
330
2
100
AcDbEntity
  8
ANCON-DSD
 62
     0
100
AcDbPolyline
 90
        4
 70
     1
 43
0.0
 10
-213.9289433599283
 20
166.0147311608714
 10
571.3354402634813
 20
166.0147311608714
 10
571.3354402634813
 20
-269.1464517837305
 10
-213.9289433599283
 20
-269.1464517837305
  0
ENDSEC
  0
SECTION
  2
OBJECTS
  0
DICTIONARY
  5
7
330
0
100
AcDbDictionary
281
     1
  3
ACAD_CIP_PREVIOUS_PRODUCT_INFO
350
E5
  3
ACAD_COLOR
350
C7
  3
ACAD_DETAILVIEWSTYLE
350
E0
  3
ACAD_GROUP
350
1F
  3
ACAD_LAYOUT
350
B
  3
ACAD_MATERIAL
350
95
  3
ACAD_MLEADERSTYLE
350
DC
  3
ACAD_MLINESTYLE
350
20
  3
ACAD_PLOTSETTINGS
350
21
  3
ACAD_PLOTSTYLENAME
350
6
  3
ACAD_SCALELIST
350
CA
  3
ACAD_SECTIONVIEWSTYLE
350
DE
  3
ACAD_TABLESTYLE
350
C8
  3
ACAD_VISUALSTYLE
350
AE
  3
ACDB_RECOMPOSE_DATA
350
1AF
  3
AcDbVariableDictionary
350
1A3
  0
DICTIONARY
  5
F2
330
10
100
AcDbDictionary
280
     1
281
     1
  3
ACAD_LAYERSTATES
360
F3
  0
DICTIONARY
  5
197
330
4
100
AcDbDictionary
280
     1
281
     1
  3
ADSK_XREC_LAYER_RECONCILED
360
198
  0
DICTIONARY
  5
199
330
43
100
AcDbDictionary
280
     1
281
     1
  3
ADSK_XREC_LAYER_RECONCILED
360
19A
  0
DICTIONARY
  5
19B
330
22
100
AcDbDictionary
280
     1
281
     1
  3
ADSK_XREC_LAYER_RECONCILED
360
19C
  0
DICTIONARY
  5
19D
330
27
100
AcDbDictionary
280
     1
281
     1
  3
ADSK_XREC_LAYER_RECONCILED
360
19E
  0
DICTIONARY
  5
19F
330
2F
100
AcDbDictionary
280
     1
281
     1
  3
ADSK_XREC_LAYER_RECONCILED
360
1A0
  0
DICTIONARY
  5
1A1
330
2D
100
AcDbDictionary
280
     1
281
     1
  3
ADSK_XREC_LAYER_RECONCILED
360
1A2
  0
DICTIONARY
  5
E7
330
E6
100
AcDbDictionary
280
     1
281
     1
  3
ACAD_SORTENTS
360
E8
  0
DICTIONARY
  5
189
330
26
100
AcDbDictionary
280
     1
281
     1
  3
AcDbContextDataManager
360
18A
  0
DICTIONARY
  5
185
330
28
100
AcDbDictionary
280
     1
281
     1
  3
AcDbContextDataManager
360
186
  0
DICTIONARY
  5
181
330
2B
100
AcDbDictionary
280
     1
281
     1
  3
AcDbContextDataManager
360
182
  0
DICTIONARY
  5
17D
330
30
100
AcDbDictionary
280
     1
281
     1
  3
AcDbContextDataManager
360
17E
  0
DICTIONARY
  5
179
330
33
100
AcDbDictionary
280
     1
281
     1
  3
AcDbContextDataManager
360
17A
  0
DICTIONARY
  5
175
330
34
100
AcDbDictionary
280
     1
281
     1
  3
AcDbContextDataManager
360
176
  0
DICTIONARY
  5
171
330
35
100
AcDbDictionary
280
     1
281
     1
  3
AcDbContextDataManager
360
172
  0
DICTIONARY
  5
16D
330
36
100
AcDbDictionary
280
     1
281
     1
  3
AcDbContextDataManager
360
16E
  0
DICTIONARY
  5
169
330
37
100
AcDbDictionary
280
     1
281
     1
  3
AcDbContextDataManager
360
16A
  0
DICTIONARY
  5
165
330
3A
100
AcDbDictionary
280
     1
281
     1
  3
AcDbContextDataManager
360
166
  0
DICTIONARY
  5
161
330
3B
100
AcDbDictionary
280
     1
281
     1
  3
AcDbContextDataManager
360
162
  0
DICTIONARY
  5
15D
330
3E
100
AcDbDictionary
280
     1
281
     1
  3
AcDbContextDataManager
360
15E
  0
DICTIONARY
  5
159
330
3F
100
AcDbDictionary
280
     1
281
     1
  3
AcDbContextDataManager
360
15A
  0
DICTIONARY
  5
155
330
8D
100
AcDbDictionary
280
     1
281
     1
  3
AcDbContextDataManager
360
156
  0
DICTIONARY
  5
151
330
8E
100
AcDbDictionary
280
     1
281
     1
  3
AcDbContextDataManager
360
152
  0
DICTIONARY
  5
14D
330
92
100
AcDbDictionary
280
     1
281
     1
  3
AcDbContextDataManager
360
14E
  0
XRECORD
  5
E5
102
{ACAD_REACTORS
330
7
102
}
330
7
100
AcDbXrecord
280
     1
300
ACDLT
300
2020
300

  0
DICTIONARY
  5
C7
102
{ACAD_REACTORS
330
7
102
}
330
7
100
AcDbDictionary
281
     1
  0
DICTIONARY
  5
E0
102
{ACAD_REACTORS
330
7
102
}
330
7
100
AcDbDictionary
281
     1
  3
Imperial24
350
E1
  0
DICTIONARY
  5
1F
102
{ACAD_REACTORS
330
7
102
}
330
7
100
AcDbDictionary
281
     1
  0
DICTIONARY
  5
B
102
{ACAD_REACTORS
330
7
102
}
330
7
100
AcDbDictionary
281
     1
  3
Layout1
350
F
  3
Model
350
A
  0
DICTIONARY
  5
95
102
{ACAD_REACTORS
330
7
102
}
330
7
100
AcDbDictionary
281
     1
  3
ByBlock
350
9E
  3
ByLayer
350
96
  3
Global
350
A6
  0
DICTIONARY
  5
DC
102
{ACAD_REACTORS
330
7
102
}
330
7
100
AcDbDictionary
281
     1
  3
Standard
350
DD
  0
DICTIONARY
  5
20
102
{ACAD_REACTORS
330
7
102
}
330
7
100
AcDbDictionary
281
     1
  3
STANDARD
350
24
  0
DICTIONARY
  5
21
102
{ACAD_REACTORS
330
7
102
}
330
7
100
AcDbDictionary
281
     1
  0
ACDBDICTIONARYWDFLT
  5
6
102
{ACAD_REACTORS
330
7
102
}
330
7
100
AcDbDictionary
281
     1
  3
Normal
350
5
100
AcDbDictionaryWithDefault
340
5
  0
DICTIONARY
  5
CA
102
{ACAD_REACTORS
330
7
102
}
330
7
100
AcDbDictionary
281
     1
  3
A0
350
CB
  3
A1
350
CC
  3
A2
350
CD
  3
A3
350
CE
  3
A4
350
CF
  3
A5
350
D0
  3
A6
350
D1
  3
A7
350
D2
  3
A8
350
D3
  3
A9
350
D4
  3
B0
350
D5
  3
B1
350
D6
  3
B2
350
D7
  3
B3
350
D8
  3
B4
350
D9
  3
B5
350
DA
  3
B6
350
DB
  0
DICTIONARY
  5
DE
102
{ACAD_REACTORS
330
7
102
}
330
7
100
AcDbDictionary
281
     1
  3
Imperial24
350
DF
  0
DICTIONARY
  5
C8
102
{ACAD_REACTORS
330
7
102
}
330
7
100
AcDbDictionary
281
     1
  3
Standard
350
C9
  0
DICTIONARY
  5
AE
102
{ACAD_REACTORS
330
7
102
}
330
7
100
AcDbDictionary
281
     1
  3
2dWireframe
350
B4
  3
Basic
350
B3
  3
Brighten
350
BA
  3
ColorChange
350
BE
  3
Conceptual
350
B7
  3
Dim
350
B9
  3
EdgeColorOff
350
C6
  3
Facepattern
350
BD
  3
Flat
350
AF
  3
FlatWithEdges
350
B0
  3
Gouraud
350
B1
  3
GouraudWithEdges
350
B2
  3
Hidden
350
B6
  3
JitterOff
350
C4
  3
Linepattern
350
BC
  3
OverhangOff
350
C5
  3
Realistic
350
B8
  3
Shaded
350
C3
  3
Shaded with edges
350
C2
  3
Shades of Gray
350
BF
  3
Sketchy
350
C0
  3
Thicken
350
BB
  3
Wireframe
350
B5
  3
X-Ray
350
C1
  0
XRECORD
  5
1AF
102
{ACAD_REACTORS
330
7
102
}
330
7
100
AcDbXrecord
280
     1
 90
        1
330
C9
  0
DICTIONARY
  5
1A3
102
{ACAD_REACTORS
330
7
102
}
330
7
100
AcDbDictionary
281
     1
  3
CANNOSCALE
350
1A9
  3
CMLEADERSTYLE
350
1A5
  3
CTABLESTYLE
350
1A4
  3
CVIEWDETAILSTYLE
350
1A6
  3
CVIEWSECTIONSTYLE
350
1A7
  3
LAYEREVAL
350
1AB
  3
LAYERNOTIFY
350
1AC
  3
LIGHTINGUNITS
350
1AA
  3
MSLTSCALE
350
1A8
  0
DICTIONARY
  5
F3
102
{ACAD_REACTORS
330
F2
102
}
330
F2
100
AcDbDictionary
281
     1
  0
XRECORD
  5
198
102
{ACAD_REACTORS
330
197
102
}
330
197
100
AcDbXrecord
280
     1
290
     1
  0
XRECORD
  5
19A
102
{ACAD_REACTORS
330
199
102
}
330
199
100
AcDbXrecord
280
     1
290
     1
  0
XRECORD
  5
19C
102
{ACAD_REACTORS
330
19B
102
}
330
19B
100
AcDbXrecord
280
     1
290
     1
  0
XRECORD
  5
19E
102
{ACAD_REACTORS
330
19D
102
}
330
19D
100
AcDbXrecord
280
     1
290
     1
  0
XRECORD
  5
1A0
102
{ACAD_REACTORS
330
19F
102
}
330
19F
100
AcDbXrecord
280
     1
290
     1
  0
XRECORD
  5
1A2
102
{ACAD_REACTORS
330
1A1
102
}
330
1A1
100
AcDbXrecord
280
     1
290
     1
  0
SORTENTSTABLE
  5
E8
102
{ACAD_REACTORS
330
E7
102
}
330
E7
100
AcDbSortentsTable
330
E6
  0
DICTIONARY
  5
18A
102
{ACAD_REACTORS
330
189
102
}
330
189
100
AcDbDictionary
281
     1
  3
ACDB_ANNOTATIONSCALES
350
18B
  0
DICTIONARY
  5
186
102
{ACAD_REACTORS
330
185
102
}
330
185
100
AcDbDictionary
281
     1
  3
ACDB_ANNOTATIONSCALES
350
187
  0
DICTIONARY
  5
182
102
{ACAD_REACTORS
330
181
102
}
330
181
100
AcDbDictionary
281
     1
  3
ACDB_ANNOTATIONSCALES
350
183
  0
DICTIONARY
  5
17E
102
{ACAD_REACTORS
330
17D
102
}
330
17D
100
AcDbDictionary
281
     1
  3
ACDB_ANNOTATIONSCALES
350
17F
  0
DICTIONARY
  5
17A
102
{ACAD_REACTORS
330
179
102
}
330
179
100
AcDbDictionary
281
     1
  3
ACDB_ANNOTATIONSCALES
350
17B
  0
DICTIONARY
  5
176
102
{ACAD_REACTORS
330
175
102
}
330
175
100
AcDbDictionary
281
     1
  3
ACDB_ANNOTATIONSCALES
350
177
  0
DICTIONARY
  5
172
102
{ACAD_REACTORS
330
171
102
}
330
171
100
AcDbDictionary
281
     1
  3
ACDB_ANNOTATIONSCALES
350
173
  0
DICTIONARY
  5
16E
102
{ACAD_REACTORS
330
16D
102
}
330
16D
100
AcDbDictionary
281
     1
  3
ACDB_ANNOTATIONSCALES
350
16F
  0
DICTIONARY
  5
16A
102
{ACAD_REACTORS
330
169
102
}
330
169
100
AcDbDictionary
281
     1
  3
ACDB_ANNOTATIONSCALES
350
16B
  0
DICTIONARY
  5
166
102
{ACAD_REACTORS
330
165
102
}
330
165
100
AcDbDictionary
281
     1
  3
ACDB_ANNOTATIONSCALES
350
167
  0
DICTIONARY
  5
162
102
{ACAD_REACTORS
330
161
102
}
330
161
100
AcDbDictionary
281
     1
  3
ACDB_ANNOTATIONSCALES
350
163
  0
DICTIONARY
  5
15E
102
{ACAD_REACTORS
330
15D
102
}
330
15D
100
AcDbDictionary
281
     1
  3
ACDB_ANNOTATIONSCALES
350
15F
  0
DICTIONARY
  5
15A
102
{ACAD_REACTORS
330
159
102
}
330
159
100
AcDbDictionary
281
     1
  3
ACDB_ANNOTATIONSCALES
350
15B
  0
DICTIONARY
  5
156
102
{ACAD_REACTORS
330
155
102
}
330
155
100
AcDbDictionary
281
     1
  3
ACDB_ANNOTATIONSCALES
350
157
  0
DICTIONARY
  5
152
102
{ACAD_REACTORS
330
151
102
}
330
151
100
AcDbDictionary
281
     1
  3
ACDB_ANNOTATIONSCALES
350
153
  0
DICTIONARY
  5
14E
102
{ACAD_REACTORS
330
14D
102
}
330
14D
100
AcDbDictionary
281
     1
  3
ACDB_ANNOTATIONSCALES
350
14F
  0
ACDBDETAILVIEWSTYLE
  5
E1
102
{ACAD_REACTORS
330
E0
102
}
330
E0
100
AcDbModelDocViewStyle
 70
     0
  3
Imperial24
290
     1
300
Imperial24
 90
        0
100
AcDbDetailViewStyle
 70
     0
 71
     0
 90
        3
 71
     1
340
12
 62
   256
 40
0.24
340
0
 62
   256
 40
0.24
300

 40
0.36
280
     3
 71
     2
340
8
 90
       25
 62
   256
 71
     3
340
12
 62
   256
 40
0.24
 90
        1
 40
0.75
 90
        1
300
%<\AcVar ViewType \f "%tc1">% %<\AcVar ViewDetailId>%\PSCALE %<\AcVar ViewScale \f "%sn">%
 71
     4
340
8
 90
       25
 62
   256
340
8
 90
       25
 62
   256
280
     0
  0
LAYOUT
  5
F
102
{ACAD_REACTORS
330
B
102
}
330
B
100
AcDbPlotSettings
  1

  2
Ancon 2
  4

  6

 40
0.0
 41
0.0
 42
0.0
 43
0.0
 44
0.0
 45
0.0
 46
0.0
 47
0.0
 48
0.0
 49
0.0
140
0.0
141
0.0
142
1.0
143
1.0
 70
   688
 72
     0
 73
     0
 74
     5
  7

 75
    16
147
1.0
 76
     0
 77
     2
 78
   300
148
0.0
149
0.0
100
AcDbLayout
  1
Layout1
 70
     1
 71
     1
 10
0.0
 20
0.0
 11
420.0
 21
297.0
 12
0.0
 22
0.0
 32
0.0
 14
1.000000000000000E+20
 24
1.000000000000000E+20
 34
1.000000000000000E+20
 15
-1.000000000000000E+20
 25
-1.000000000000000E+20
 35
-1.000000000000000E+20
146
0.0
 13
0.0
 23
0.0
 33
0.0
 16
1.0
 26
0.0
 36
0.0
 17
0.0
 27
1.0
 37
0.0
 76
     0
330
C
  0
LAYOUT
  5
A
102
{ACAD_REACTORS
330
B
102
}
330
B
100
AcDbPlotSettings
  1

  2
Ancon 2
  4

  6

 40
0.0
 41
0.0
 42
0.0
 43
0.0
 44
0.0
 45
0.0
 46
0.0
 47
0.0
 48
0.0
 49
0.0
140
0.0
141
0.0
142
1.0
143
1.0
 70
  1712
 72
     0
 73
     0
 74
     0
  7

 75
     0
147
1.0
 76
     0
 77
     2
 78
   300
148
0.0
149
0.0
100
AcDbLayout
  1
Model
 70
     1
 71
     0
 10
0.0
 20
0.0
 11
12.0
 21
9.0
 12
0.0
 22
0.0
 32
0.0
 14
0.0
 24
0.0
 34
0.0
 15
0.0
 25
0.0
 35
0.0
146
0.0
 13
0.0
 23
0.0
 33
0.0
 16
1.0
 26
0.0
 36
0.0
 17
0.0
 27
1.0
 37
0.0
 76
     0
330
2
331
1A
  0
MATERIAL
  5
9E
102
{ACAD_XDICTIONARY
360
9F
102
}
102
{ACAD_REACTORS
330
95
102
}
330
95
100
AcDbMaterial
  1
ByBlock
 72
     0
 43
0.0208333333333333
 43
0.0
 43
0.0
 43
0.0
 43
0.0
 43
0.0208333333333333
 43
0.0
 43
0.0
 43
0.0
 43
0.0
 43
1.0
 43
0.0
 43
0.0
 43
0.0
 43
0.0
 43
1.0
 77
     0
 47
0.0208333333333333
 47
0.0
 47
0.0
 47
0.0
 47
0.0
 47
0.0208333333333333
 47
0.0
 47
0.0
 47
0.0
 47
0.0
 47
1.0
 47
0.0
 47
0.0
 47
0.0
 47
0.0
 47
1.0
171
     0
 49
0.0208333333333333
 49
0.0
 49
0.0
 49
0.0
 49
0.0
 49
0.0208333333333333
 49
0.0
 49
0.0
 49
0.0
 49
0.0
 49
1.0
 49
0.0
 49
0.0
 49
0.0
 49
0.0
 49
1.0
175
     0
142
0.0208333333333333
142
0.0
142
0.0
142
0.0
142
0.0
142
0.0208333333333333
142
0.0
142
0.0
142
0.0
142
0.0
142
1.0
142
0.0
142
0.0
142
0.0
142
0.0
142
1.0
179
     0
144
0.0208333333333333
144
0.0
144
0.0
144
0.0
144
0.0
144
0.0208333333333333
144
0.0
144
0.0
144
0.0
144
0.0
144
1.0
144
0.0
144
0.0
144
0.0
144
0.0
144
1.0
147
0.0208333333333333
147
0.0
147
0.0
147
0.0
147
0.0
147
0.0208333333333333
147
0.0
147
0.0
147
0.0
147
0.0
147
1.0
147
0.0
147
0.0
147
0.0
147
0.0
147
1.0
  0
MATERIAL
  5
96
102
{ACAD_XDICTIONARY
360
97
102
}
102
{ACAD_REACTORS
330
95
102
}
330
95
100
AcDbMaterial
  1
ByLayer
 72
     0
 43
0.0208333333333333
 43
0.0
 43
0.0
 43
0.0
 43
0.0
 43
0.0208333333333333
 43
0.0
 43
0.0
 43
0.0
 43
0.0
 43
1.0
 43
0.0
 43
0.0
 43
0.0
 43
0.0
 43
1.0
 77
     0
 47
0.0208333333333333
 47
0.0
 47
0.0
 47
0.0
 47
0.0
 47
0.0208333333333333
 47
0.0
 47
0.0
 47
0.0
 47
0.0
 47
1.0
 47
0.0
 47
0.0
 47
0.0
 47
0.0
 47
1.0
171
     0
 49
0.0208333333333333
 49
0.0
 49
0.0
 49
0.0
 49
0.0
 49
0.0208333333333333
 49
0.0
 49
0.0
 49
0.0
 49
0.0
 49
1.0
 49
0.0
 49
0.0
 49
0.0
 49
0.0
 49
1.0
175
     0
142
0.0208333333333333
142
0.0
142
0.0
142
0.0
142
0.0
142
0.0208333333333333
142
0.0
142
0.0
142
0.0
142
0.0
142
1.0
142
0.0
142
0.0
142
0.0
142
0.0
142
1.0
179
     0
144
0.0208333333333333
144
0.0
144
0.0
144
0.0
144
0.0
144
0.0208333333333333
144
0.0
144
0.0
144
0.0
144
0.0
144
1.0
144
0.0
144
0.0
144
0.0
144
0.0
144
1.0
147
0.0208333333333333
147
0.0
147
0.0
147
0.0
147
0.0
147
0.0208333333333333
147
0.0
147
0.0
147
0.0
147
0.0
147
1.0
147
0.0
147
0.0
147
0.0
147
0.0
147
1.0
  0
MATERIAL
  5
A6
102
{ACAD_XDICTIONARY
360
A7
102
}
102
{ACAD_REACTORS
330
95
102
}
330
95
100
AcDbMaterial
  1
Global
 72
     0
 43
0.0208333333333333
 43
0.0
 43
0.0
 43
0.0
 43
0.0
 43
0.0208333333333333
 43
0.0
 43
0.0
 43
0.0
 43
0.0
 43
1.0
 43
0.0
 43
0.0
 43
0.0
 43
0.0
 43
1.0
 77
     0
 47
0.0208333333333333
 47
0.0
 47
0.0
 47
0.0
 47
0.0
 47
0.0208333333333333
 47
0.0
 47
0.0
 47
0.0
 47
0.0
 47
1.0
 47
0.0
 47
0.0
 47
0.0
 47
0.0
 47
1.0
171
     0
 49
0.0208333333333333
 49
0.0
 49
0.0
 49
0.0
 49
0.0
 49
0.0208333333333333
 49
0.0
 49
0.0
 49
0.0
 49
0.0
 49
1.0
 49
0.0
 49
0.0
 49
0.0
 49
0.0
 49
1.0
175
     0
142
0.0208333333333333
142
0.0
142
0.0
142
0.0
142
0.0
142
0.0208333333333333
142
0.0
142
0.0
142
0.0
142
0.0
142
1.0
142
0.0
142
0.0
142
0.0
142
0.0
142
1.0
179
     0
144
0.0208333333333333
144
0.0
144
0.0
144
0.0
144
0.0
144
0.0208333333333333
144
0.0
144
0.0
144
0.0
144
0.0
144
1.0
144
0.0
144
0.0
144
0.0
144
0.0
144
1.0
147
0.0208333333333333
147
0.0
147
0.0
147
0.0
147
0.0
147
0.0208333333333333
147
0.0
147
0.0
147
0.0
147
0.0
147
1.0
147
0.0
147
0.0
147
0.0
147
0.0
147
1.0
  0
MLEADERSTYLE
  5
DD
102
{ACAD_REACTORS
330
DC
102
}
330
DC
100
AcDbMLeaderStyle
179
     2
170
     2
171
     1
172
     0
 90
        2
 40
0.0
 41
0.0
173
     1
 91
-1056964608
340
15
 92
       -2
290
     1
 42
0.09
291
     1
 43
0.36
  3
Standard
 44
0.18
300

342
12
174
     1
178
     6
175
     1
176
     0
 93
-1056964608
 45
0.18
292
     0
297
     0
 46
0.18
 94
-1056964608
 47
1.0
 49
1.0
140
1.0
293
     1
141
0.0
294
     1
177
     0
142
1.0
295
     1
296
     0
143
0.125
271
     0
272
     9
273
     9
298
     1
  0
MLINESTYLE
  5
24
102
{ACAD_REACTORS
330
20
102
}
330
20
100
AcDbMlineStyle
  2
STANDARD
 70
     0
  3

 62
   256
 51
90.0
 52
90.0
 71
     2
 49
0.5
 62
   256
  6
BYLAYER
 49
-0.5
 62
   256
  6
BYLAYER
  0
ACDBPLACEHOLDER
  5
5
102
{ACAD_REACTORS
330
6
102
}
330
6
  0
SCALE
  5
CB
102
{ACAD_REACTORS
330
CA
102
}
330
CA
100
AcDbScale
 70
     0
300
1:1
140
1.0
141
1.0
290
     1
  0
SCALE
  5
CC
102
{ACAD_REACTORS
330
CA
102
}
330
CA
100
AcDbScale
 70
     0
300
1/128" = 1'-0"
140
0.0078125
141
12.0
290
     0
  0
SCALE
  5
CD
102
{ACAD_REACTORS
330
CA
102
}
330
CA
100
AcDbScale
 70
     0
300
1/64" = 1'-0"
140
0.015625
141
12.0
290
     0
  0
SCALE
  5
CE
102
{ACAD_REACTORS
330
CA
102
}
330
CA
100
AcDbScale
 70
     0
300
1/32" = 1'-0"
140
0.03125
141
12.0
290
     0
  0
SCALE
  5
CF
102
{ACAD_REACTORS
330
CA
102
}
330
CA
100
AcDbScale
 70
     0
300
1/16" = 1'-0"
140
0.0625
141
12.0
290
     0
  0
SCALE
  5
D0
102
{ACAD_REACTORS
330
CA
102
}
330
CA
100
AcDbScale
 70
     0
300
3/32" = 1'-0"
140
0.09375
141
12.0
290
     0
  0
SCALE
  5
D1
102
{ACAD_REACTORS
330
CA
102
}
330
CA
100
AcDbScale
 70
     0
300
1/8" = 1'-0"
140
0.125
141
12.0
290
     0
  0
SCALE
  5
D2
102
{ACAD_REACTORS
330
CA
102
}
330
CA
100
AcDbScale
 70
     0
300
3/16" = 1'-0"
140
0.1875
141
12.0
290
     0
  0
SCALE
  5
D3
102
{ACAD_REACTORS
330
CA
102
}
330
CA
100
AcDbScale
 70
     0
300
1/4" = 1'-0"
140
0.25
141
12.0
290
     0
  0
SCALE
  5
D4
102
{ACAD_REACTORS
330
CA
102
}
330
CA
100
AcDbScale
 70
     0
300
3/8" = 1'-0"
140
0.375
141
12.0
290
     0
  0
SCALE
  5
D5
102
{ACAD_REACTORS
330
CA
102
}
330
CA
100
AcDbScale
 70
     0
300
1/2" = 1'-0"
140
0.5
141
12.0
290
     0
  0
SCALE
  5
D6
102
{ACAD_REACTORS
330
CA
102
}
330
CA
100
AcDbScale
 70
     0
300
3/4" = 1'-0"
140
0.75
141
12.0
290
     0
  0
SCALE
  5
D7
102
{ACAD_REACTORS
330
CA
102
}
330
CA
100
AcDbScale
 70
     0
300
1" = 1'-0"
140
1.0
141
12.0
290
     0
  0
SCALE
  5
D8
102
{ACAD_REACTORS
330
CA
102
}
330
CA
100
AcDbScale
 70
     0
300
1-1/2" = 1'-0"
140
1.5
141
12.0
290
     0
  0
SCALE
  5
D9
102
{ACAD_REACTORS
330
CA
102
}
330
CA
100
AcDbScale
 70
     0
300
3" = 1'-0"
140
3.0
141
12.0
290
     0
  0
SCALE
  5
DA
102
{ACAD_REACTORS
330
CA
102
}
330
CA
100
AcDbScale
 70
     0
300
6" = 1'-0"
140
6.0
141
12.0
290
     0
  0
SCALE
  5
DB
102
{ACAD_REACTORS
330
CA
102
}
330
CA
100
AcDbScale
 70
     0
300
1'-0" = 1'-0"
140
12.0
141
12.0
290
     0
  0
ACDBSECTIONVIEWSTYLE
  5
DF
102
{ACAD_REACTORS
330
DE
102
}
330
DE
100
AcDbModelDocViewStyle
 70
     0
  3
Imperial24
290
     1
300
Imperial24
 90
        0
100
AcDbSectionViewStyle
 70
     0
 71
     0
 90
       78
 71
     1
340
12
 62
   256
 40
0.24
340
0
340
0
 62
   256
 40
0.24
300
I, O, Q, S, X, Z
 40
0.48
 90
        3
 40
0.18
 90
        1
 71
     2
340
8
 90
       25
 62
   256
340
8
 90
       50
 62
   256
 40
0.24
 40
0.0
 40
0.24
 71
     3
340
12
 62
   256
 40
0.24
 90
        1
 40
0.75
 90
        1
300
%<\AcVar ViewType \f "%tc1">% %<\AcVar ViewSectionStartId>%-%<\AcVar ViewSectionEndId>%\PSCALE %<\AcVar ViewScale \f "%sn">%
 71
     4
 62
   256
 62
   257
300
ANSI31
 40
1.0
 90
        0
290
     0
290
     0
 90
        6
 40
0.0
 40
1.570796326794896
 40
0.2617993877991494
 40
1.308996938995747
 40
-0.2617993877991494
 40
1.832595714594046
  0
TABLESTYLE
  5
C9
102
{ACAD_XDICTIONARY
360
1AD
102
}
102
{ACAD_REACTORS
330
C8
102
}
330
C8
100
AcDbTableStyle
280
     0
  3
Standard
 70
     0
 71
     0
 40
0.06
 41
0.06
280
     0
281
     0
  7
STANDARD
140
0.18
170
     2
 62
     0
 63
     7
283
     0
 90
      512
 91
        0
  1

274
    -2
284
     1
 64
     0
275
    -2
285
     1
 65
     0
276
    -2
286
     1
 66
     0
277
    -2
287
     1
 67
     0
278
    -2
288
     1
 68
     0
279
    -2
289
     1
 69
     0
  7
STANDARD
140
0.25
170
     5
 62
     0
 63
     7
283
     0
 90
      512
 91
        0
  1

274
    -2
284
     1
 64
     0
275
    -2
285
     1
 65
     0
276
    -2
286
     1
 66
     0
277
    -2
287
     1
 67
     0
278
    -2
288
     1
 68
     0
279
    -2
289
     1
 69
     0
  7
STANDARD
140
0.18
170
     5
 62
     0
 63
     7
283
     0
 90
      512
 91
        0
  1

274
    -2
284
     1
 64
     0
275
    -2
285
     1
 65
     0
276
    -2
286
     1
 66
     0
277
    -2
287
     1
 67
     0
278
    -2
288
     1
 68
     0
279
    -2
289
     1
 69
     0
  0
VISUALSTYLE
  5
B4
102
{ACAD_REACTORS
330
AE
102
}
330
AE
100
AcDbVisualStyle
  2
2dWireframe
 70
     4
177
     3
291
     0
 70
    58
 90
        0
176
     1
 90
        2
176
     1
 90
        0
176
     1
 90
        0
176
     1
 40
0.6
176
     1
 40
30.0
176
     1
 62
     7
420
 16777215
176
     1
 90
        1
176
     1
 90
        4
176
     1
 62
     7
176
     1
 62
   257
176
     1
 90
        1
176
     1
 90
        1
176
     1
 40
1.0
176
     1
 90
        0
176
     1
 62
   257
176
     1
 40
1.0
176
     1
 90
        1
176
     1
 90
        6
176
     1
 90
        2
176
     1
 62
     7
176
     1
 90
        5
176
     1
 90
        0
176
     1
 90
        0
176
     1
290
     0
176
     1
 90
        1
176
     1
 40
0.0
176
     1
 90
        0
176
     1
290
     1
176
     1
290
     1
176
     1
290
     0
176
     1
290
     0
176
     1
290
     0
176
     1
290
     0
176
     1
290
     0
176
     1
290
     0
176
     1
290
     0
176
     1
 90
       50
176
     1
 40
0.0
176
     1
 40
1.0
176
     1
 90
        0
176
     1
 62
    18
420
        0
176
     1
 90
       50
176
     1
 90
        3
176
     1
 62
     5
420
      255
176
     1
290
     0
176
     1
 90
       50
176
     1
 90
       50
176
     1
 90
       50
176
     1
290
     0
176
     1
 90
       50
176
     1
 62
   256
176
     0
 40
1.0
176
     0
 90
        2
176
     1
  1
strokes_ogs.tif
176
     1
290
     0
176
     1
 40
1.0
176
     1
 40
1.0
176
     1
  0
VISUALSTYLE
  5
B3
102
{ACAD_REACTORS
330
AE
102
}
330
AE
100
AcDbVisualStyle
  2
Basic
 70
     7
177
     3
291
     1
 70
    58
 90
        1
176
     1
 90
        0
176
     1
 90
        1
176
     1
 90
        0
176
     1
 40
0.6
176
     1
 40
30.0
176
     1
 62
     7
420
 16777215
176
     1
 90
        0
176
     1
 90
        4
176
     1
 62
     7
176
     1
 62
   257
176
     1
 90
        1
176
     1
 90
        1
176
     1
 40
1.0
176
     1
 90
        8
176
     1
 62
     7
176
     1
 40
1.0
176
     1
 90
        1
176
     1
 90
        6
176
     1
 90
        2
176
     1
 62
     7
176
     1
 90
        5
176
     1
 90
        0
176
     1
 90
        0
176
     1
290
     0
176
     1
 90
        1
176
     1
 40
0.0
176
     1
 90
        0
176
     1
290
     0
176
     1
290
     1
176
     1
290
     1
176
     1
290
     0
176
     1
290
     0
176
     1
290
     0
176
     1
290
     0
176
     1
290
     0
176
     1
290
     0
176
     1
 90
       50
176
     1
 40
0.0
176
     1
 40
1.0
176
     1
 90
        0
176
     1
 62
    18
420
        0
176
     1
 90
       50
176
     1
 90
        3
176
     1
 62
     5
420
      255
176
     1
290
     0
176
     1
 90
       50
176
     1
 90
       50
176
     1
 90
       50
176
     1
290
     0
176
     1
 90
       50
176
     1
 62
   256
176
     0
 40
1.0
176
     0
 90
        2
176
     1
  1
strokes_ogs.tif
176
     1
290
     0
176
     1
 40
1.0
176
     1
 40
1.0
176
     1
  0
VISUALSTYLE
  5
BA
102
{ACAD_REACTORS
330
AE
102
}
330
AE
100
AcDbVisualStyle
  2
Brighten
 70
    12
177
     3
291
     1
 70
    58
 90
        2
176
     1
 90
        2
176
     1
 90
        0
176
     1
 90
        0
176
     1
 40
0.6
176
     1
 40
30.0
176
     1
 62
     7
420
 16777215
176
     1
 90
        1
176
     1
 90
        4
176
     1
 62
     7
176
     1
 62
   257
176
     1
 90
        1
176
     1
 90
        1
176
     1
 40
1.0
176
     1
 90
        8
176
     1
 62
     7
176
     1
 40
1.0
176
     1
 90
        1
176
     1
 90
        6
176
     1
 90
        2
176
     1
 62
     7
176
     1
 90
        5
176
     1
 90
        0
176
     1
 90
        0
176
     1
290
     0
176
     1
 90
        1
176
     1
 40
50.0
176
     1
 90
        0
176
     1
290
     0
176
     1
290
     1
176
     1
290
     1
176
     1
290
     0
176
     1
290
     0
176
     1
290
     0
176
     1
290
     0
176
     1
290
     0
176
     1
290
     0
176
     1
 90
       50
176
     1
 40
0.0
176
     1
 40
1.0
176
     1
 90
        0
176
     1
 62
    18
420
        0
176
     1
 90
       50
176
     1
 90
        3
176
     1
 62
     5
420
      255
176
     1
290
     0
176
     1
 90
       50
176
     1
 90
       50
176
     1
 90
       50
176
     1
290
     0
176
     1
 90
       50
176
     1
 62
   256
176
     0
 40
1.0
176
     0
 90
        2
176
     1
  1
strokes_ogs.tif
176
     1
290
     0
176
     1
 40
1.0
176
     1
 40
1.0
176
     1
  0
VISUALSTYLE
  5
BE
102
{ACAD_REACTORS
330
AE
102
}
330
AE
100
AcDbVisualStyle
  2
ColorChange
 70
    16
177
     3
291
     1
 70
    58
 90
        2
176
     1
 90
        2
176
     1
 90
        3
176
     1
 90
        0
176
     1
 40
0.6
176
     1
 40
30.0
176
     1
 62
     8
420
  8421504
176
     1
 90
        1
176
     1
 90
        4
176
     1
 62
     7
176
     1
 62
   257
176
     1
 90
        1
176
     1
 90
        1
176
     1
 40
1.0
176
     1
 90
        8
176
     1
 62
     8
420
  8421504
176
     1
 40
1.0
176
     1
 90
        1
176
     1
 90
        6
176
     1
 90
        2
176
     1
 62
     7
176
     1
 90
        5
176
     1
 90
        0
176
     1
 90
        0
176
     1
290
     0
176
     1
 90
        1
176
     1
 40
0.0
176
     1
 90
        0
176
     1
290
     0
176
     1
290
     1
176
     1
290
     1
176
     1
290
     0
176
     1
290
     0
176
     1
290
     0
176
     1
290
     0
176
     1
290
     0
176
     1
290
     0
176
     1
 90
       50
176
     1
 40
0.0
176
     1
 40
1.0
176
     1
 90
        0
176
     1
 62
    18
420
        0
176
     1
 90
       50
176
     1
 90
        3
176
     1
 62
     5
420
      255
176
     1
290
     0
176
     1
 90
       50
176
     1
 90
       50
176
     1
 90
       50
176
     1
290
     0
176
     1
 90
       50
176
     1
 62
   256
176
     0
 40
1.0
176
     0
 90
        2
176
     1
  1
strokes_ogs.tif
176
     1
290
     0
176
     1
 40
1.0
176
     1
 40
1.0
176
     1
  0
VISUALSTYLE
  5
B7
102
{ACAD_REACTORS
330
AE
102
}
330
AE
100
AcDbVisualStyle
  2
Conceptual
 70
     9
177
     3
291
     0
 70
    58
 90
        3
176
     1
 90
        2
176
     1
 90
        0
176
     1
 90
        0
176
     1
 40
0.6
176
     1
 40
30.0
176
     1
 62
     7
420
 16777215
176
     1
 90
        2
176
     1
 90
        2
176
     1
 62
     7
176
     1
 62
   257
176
     1
 90
        1
176
     1
 90
        1
176
     1
 40
179.0
176
     1
 90
        8
176
     1
 62
     7
176
     1
 40
1.0
176
     1
 90
        1
176
     1
 90
        6
176
     1
 90
        2
176
     1
 62
     7
176
     1
 90
        3
176
     1
 90
        0
176
     1
 90
        0
176
     1
290
     0
176
     1
 90
        1
176
     1
 40
0.0
176
     1
 90
        0
176
     1
290
     0
176
     1
290
     1
176
     1
290
     1
176
     1
290
     0
176
     1
290
     0
176
     1
290
     0
176
     1
290
     0
176
     1
290
     0
176
     1
290
     0
176
     1
 90
       50
176
     1
 40
0.0
176
     1
 40
1.0
176
     1
 90
        0
176
     1
 62
    18
420
        0
176
     1
 90
       50
176
     1
 90
        3
176
     1
 62
     5
420
      255
176
     1
290
     0
176
     1
 90
       50
176
     1
 90
       50
176
     1
 90
       50
176
     1
290
     0
176
     1
 90
       50
176
     1
 62
   256
176
     0
 40
1.0
176
     0
 90
        2
176
     1
  1
strokes_ogs.tif
176
     1
290
     0
176
     1
 40
1.0
176
     1
 40
1.0
176
     1
  0
VISUALSTYLE
  5
B9
102
{ACAD_REACTORS
330
AE
102
}
330
AE
100
AcDbVisualStyle
  2
Dim
 70
    11
177
     3
291
     1
 70
    58
 90
        2
176
     1
 90
        2
176
     1
 90
        0
176
     1
 90
        0
176
     1
 40
0.6
176
     1
 40
30.0
176
     1
 62
     7
420
 16777215
176
     1
 90
        1
176
     1
 90
        4
176
     1
 62
     7
176
     1
 62
   257
176
     1
 90
        1
176
     1
 90
        1
176
     1
 40
1.0
176
     1
 90
        8
176
     1
 62
     7
176
     1
 40
1.0
176
     1
 90
        1
176
     1
 90
        6
176
     1
 90
        2
176
     1
 62
     7
176
     1
 90
        5
176
     1
 90
        0
176
     1
 90
        0
176
     1
290
     0
176
     1
 90
        1
176
     1
 40
-50.0
176
     1
 90
        0
176
     1
290
     0
176
     1
290
     1
176
     1
290
     1
176
     1
290
     0
176
     1
290
     0
176
     1
290
     0
176
     1
290
     0
176
     1
290
     0
176
     1
290
     0
176
     1
 90
       50
176
     1
 40
0.0
176
     1
 40
1.0
176
     1
 90
        0
176
     1
 62
    18
420
        0
176
     1
 90
       50
176
     1
 90
        3
176
     1
 62
     5
420
      255
176
     1
290
     0
176
     1
 90
       50
176
     1
 90
       50
176
     1
 90
       50
176
     1
290
     0
176
     1
 90
       50
176
     1
 62
   256
176
     0
 40
1.0
176
     0
 90
        2
176
     1
  1
strokes_ogs.tif
176
     1
290
     0
176
     1
 40
1.0
176
     1
 40
1.0
176
     1
  0
VISUALSTYLE
  5
C6
102
{ACAD_REACTORS
330
AE
102
}
330
AE
100
AcDbVisualStyle
  2
EdgeColorOff
 70
    22
177
     3
291
     1
 70
    58
 90
        2
176
     0
 90
        2
176
     0
 90
        0
176
     0
 90
        0
176
     0
 40
0.6
176
     0
 40
30.0
176
     0
 62
     7
420
 16777215
176
     0
 90
        1
176
     0
 90
        4
176
     0
 62
     7
176
     0
 62
   257
176
     0
 90
        1
176
     0
 90
        1
176
     0
 40
1.0
176
     0
 90
        8
176
     2
 62
     7
176
     0
 40
1.0
176
     0
 90
        1
176
     0
 90
        6
176
     0
 90
        2
176
     0
 62
     7
176
     0
 90
        5
176
     0
 90
        0
176
     0
 90
        0
176
     0
290
     0
176
     0
 90
        1
176
     0
 40
0.0
176
     0
 90
        0
176
     0
290
     0
176
     0
290
     1
176
     0
290
     1
176
     0
290
     0
176
     0
290
     0
176
     0
290
     0
176
     0
290
     0
176
     0
290
     0
176
     0
290
     0
176
     0
 90
       50
176
     0
 40
0.0
176
     0
 40
1.0
176
     0
 90
        0
176
     0
 62
    18
420
        0
176
     0
 90
       50
176
     0
 90
        3
176
     0
 62
     5
420
      255
176
     0
290
     0
176
     0
 90
       50
176
     0
 90
       50
176
     0
 90
       50
176
     0
290
     0
176
     0
 90
       50
176
     0
 62
   256
176
     0
 40
1.0
176
     0
 90
        2
176
     0
  1
strokes_ogs.tif
176
     0
290
     0
176
     0
 40
1.0
176
     0
 40
1.0
176
     0
  0
VISUALSTYLE
  5
BD
102
{ACAD_REACTORS
330
AE
102
}
330
AE
100
AcDbVisualStyle
  2
Facepattern
 70
    15
177
     3
291
     1
 70
    58
 90
        2
176
     1
 90
        2
176
     1
 90
        0
176
     1
 90
        0
176
     1
 40
0.6
176
     1
 40
30.0
176
     1
 62
     7
420
 16777215
176
     1
 90
        1
176
     1
 90
        4
176
     1
 62
     7
176
     1
 62
   257
176
     1
 90
        1
176
     1
 90
        1
176
     1
 40
1.0
176
     1
 90
        8
176
     1
 62
     7
176
     1
 40
1.0
176
     1
 90
        1
176
     1
 90
        6
176
     1
 90
        2
176
     1
 62
     7
176
     1
 90
        5
176
     1
 90
        0
176
     1
 90
        0
176
     1
290
     0
176
     1
 90
        1
176
     1
 40
0.0
176
     1
 90
        0
176
     1
290
     0
176
     1
290
     1
176
     1
290
     1
176
     1
290
     0
176
     1
290
     0
176
     1
290
     0
176
     1
290
     0
176
     1
290
     0
176
     1
290
     0
176
     1
 90
       50
176
     1
 40
0.0
176
     1
 40
1.0
176
     1
 90
        0
176
     1
 62
    18
420
        0
176
     1
 90
       50
176
     1
 90
        3
176
     1
 62
     5
420
      255
176
     1
290
     0
176
     1
 90
       50
176
     1
 90
       50
176
     1
 90
       50
176
     1
290
     0
176
     1
 90
       50
176
     1
 62
   256
176
     0
 40
1.0
176
     0
 90
        2
176
     1
  1
strokes_ogs.tif
176
     1
290
     0
176
     1
 40
1.0
176
     1
 40
1.0
176
     1
  0
VISUALSTYLE
  5
AF
102
{ACAD_REACTORS
330
AE
102
}
330
AE
100
AcDbVisualStyle
  2
Flat
 70
     0
177
     3
291
     1
 70
    58
 90
        2
176
     1
 90
        1
176
     1
 90
        1
176
     1
 90
        2
176
     1
 40
0.6
176
     1
 40
30.0
176
     1
 62
     7
420
 16777215
176
     1
 90
        0
176
     1
 90
        0
176
     1
 62
     7
176
     1
 62
   257
176
     1
 90
        1
176
     1
 90
        1
176
     1
 40
1.0
176
     1
 90
        8
176
     1
 62
     7
176
     1
 40
1.0
176
     1
 90
        1
176
     1
 90
        6
176
     1
 90
        2
176
     1
 62
     7
176
     1
 90
        5
176
     1
 90
        0
176
     1
 90
        0
176
     1
290
     0
176
     1
 90
       13
176
     1
 40
0.0
176
     1
 90
        0
176
     1
290
     0
176
     1
290
     1
176
     1
290
     1
176
     1
290
     0
176
     1
290
     0
176
     1
290
     0
176
     1
290
     0
176
     1
290
     0
176
     1
290
     0
176
     1
 90
       50
176
     1
 40
0.0
176
     1
 40
1.0
176
     1
 90
        0
176
     1
 62
    18
420
        0
176
     1
 90
       50
176
     1
 90
        3
176
     1
 62
     5
420
      255
176
     1
290
     0
176
     1
 90
       50
176
     1
 90
       50
176
     1
 90
       50
176
     1
290
     0
176
     1
 90
       50
176
     1
 62
   256
176
     0
 40
1.0
176
     0
 90
        2
176
     1
  1
strokes_ogs.tif
176
     1
290
     0
176
     1
 40
1.0
176
     1
 40
1.0
176
     1
  0
VISUALSTYLE
  5
B0
102
{ACAD_REACTORS
330
AE
102
}
330
AE
100
AcDbVisualStyle
  2
FlatWithEdges
 70
     1
177
     3
291
     1
 70
    58
 90
        2
176
     1
 90
        1
176
     1
 90
        1
176
     1
 90
        2
176
     1
 40
0.6
176
     1
 40
30.0
176
     1
 62
     7
420
 16777215
176
     1
 90
        1
176
     1
 90
        0
176
     1
 62
     7
176
     1
 62
   257
176
     1
 90
        1
176
     1
 90
        1
176
     1
 40
1.0
176
     1
 90
        0
176
     1
 62
   257
176
     1
 40
1.0
176
     1
 90
        1
176
     1
 90
        6
176
     1
 90
        2
176
     1
 62
     7
176
     1
 90
        5
176
     1
 90
        0
176
     1
 90
        0
176
     1
290
     0
176
     1
 90
       13
176
     1
 40
0.0
176
     1
 90
        0
176
     1
290
     0
176
     1
290
     1
176
     1
290
     1
176
     1
290
     0
176
     1
290
     0
176
     1
290
     0
176
     1
290
     0
176
     1
290
     0
176
     1
290
     0
176
     1
 90
       50
176
     1
 40
0.0
176
     1
 40
1.0
176
     1
 90
        0
176
     1
 62
    18
420
        0
176
     1
 90
       50
176
     1
 90
        3
176
     1
 62
     5
420
      255
176
     1
290
     0
176
     1
 90
       50
176
     1
 90
       50
176
     1
 90
       50
176
     1
290
     0
176
     1
 90
       50
176
     1
 62
   256
176
     0
 40
1.0
176
     0
 90
        2
176
     1
  1
strokes_ogs.tif
176
     1
290
     0
176
     1
 40
1.0
176
     1
 40
1.0
176
     1
  0
VISUALSTYLE
  5
B1
102
{ACAD_REACTORS
330
AE
102
}
330
AE
100
AcDbVisualStyle
  2
Gouraud
 70
     2
177
     3
291
     1
 70
    58
 90
        2
176
     1
 90
        2
176
     1
 90
        1
176
     1
 90
        2
176
     1
 40
0.6
176
     1
 40
30.0
176
     1
 62
     7
420
 16777215
176
     1
 90
        0
176
     1
 90
        0
176
     1
 62
     7
176
     1
 62
   257
176
     1
 90
        1
176
     1
 90
        1
176
     1
 40
1.0
176
     1
 90
        0
176
     1
 62
     7
176
     1
 40
1.0
176
     1
 90
        1
176
     1
 90
        6
176
     1
 90
        2
176
     1
 62
     7
176
     1
 90
        5
176
     1
 90
        0
176
     1
 90
        0
176
     1
290
     0
176
     1
 90
       13
176
     1
 40
0.0
176
     1
 90
        0
176
     1
290
     0
176
     1
290
     1
176
     1
290
     1
176
     1
290
     0
176
     1
290
     0
176
     1
290
     0
176
     1
290
     0
176
     1
290
     0
176
     1
290
     0
176
     1
 90
       50
176
     1
 40
0.0
176
     1
 40
1.0
176
     1
 90
        0
176
     1
 62
    18
420
        0
176
     1
 90
       50
176
     1
 90
        3
176
     1
 62
     5
420
      255
176
     1
290
     0
176
     1
 90
       50
176
     1
 90
       50
176
     1
 90
       50
176
     1
290
     0
176
     1
 90
       50
176
     1
 62
   256
176
     0
 40
1.0
176
     0
 90
        2
176
     1
  1
strokes_ogs.tif
176
     1
290
     0
176
     1
 40
1.0
176
     1
 40
1.0
176
     1
  0
VISUALSTYLE
  5
B2
102
{ACAD_REACTORS
330
AE
102
}
330
AE
100
AcDbVisualStyle
  2
GouraudWithEdges
 70
     3
177
     3
291
     1
 70
    58
 90
        2
176
     1
 90
        2
176
     1
 90
        1
176
     1
 90
        2
176
     1
 40
0.6
176
     1
 40
30.0
176
     1
 62
     7
420
 16777215
176
     1
 90
        1
176
     1
 90
        0
176
     1
 62
     7
176
     1
 62
   257
176
     1
 90
        1
176
     1
 90
        1
176
     1
 40
1.0
176
     1
 90
        0
176
     1
 62
   257
176
     1
 40
1.0
176
     1
 90
        1
176
     1
 90
        6
176
     1
 90
        2
176
     1
 62
     7
176
     1
 90
        5
176
     1
 90
        0
176
     1
 90
        0
176
     1
290
     0
176
     1
 90
       13
176
     1
 40
0.0
176
     1
 90
        0
176
     1
290
     0
176
     1
290
     1
176
     1
290
     1
176
     1
290
     0
176
     1
290
     0
176
     1
290
     0
176
     1
290
     0
176
     1
290
     0
176
     1
290
     0
176
     1
 90
       50
176
     1
 40
0.0
176
     1
 40
1.0
176
     1
 90
        0
176
     1
 62
    18
420
        0
176
     1
 90
       50
176
     1
 90
        3
176
     1
 62
     5
420
      255
176
     1
290
     0
176
     1
 90
       50
176
     1
 90
       50
176
     1
 90
       50
176
     1
290
     0
176
     1
 90
       50
176
     1
 62
   256
176
     0
 40
1.0
176
     0
 90
        2
176
     1
  1
strokes_ogs.tif
176
     1
290
     0
176
     1
 40
1.0
176
     1
 40
1.0
176
     1
  0
VISUALSTYLE
  5
B6
102
{ACAD_REACTORS
330
AE
102
}
330
AE
100
AcDbVisualStyle
  2
Hidden
 70
     6
177
     3
291
     0
 70
    58
 90
        1
176
     1
 90
        2
176
     1
 90
        2
176
     1
 90
        0
176
     1
 40
0.6
176
     1
 40
30.0
176
     1
 62
     7
420
 16777215
176
     1
 90
        2
176
     1
 90
        2
176
     1
 62
     7
176
     1
 62
   257
176
     1
 90
        2
176
     1
 90
        1
176
     1
 40
40.0
176
     1
 90
        0
176
     1
 62
   257
176
     1
 40
1.0
176
     1
 90
        1
176
     1
 90
        6
176
     1
 90
        2
176
     1
 62
     7
176
     1
 90
        3
176
     1
 90
        0
176
     1
 90
        0
176
     1
290
     0
176
     1
 90
        1
176
     1
 40
0.0
176
     1
 90
        0
176
     1
290
     0
176
     1
290
     1
176
     1
290
     1
176
     1
290
     0
176
     1
290
     0
176
     1
290
     0
176
     1
290
     0
176
     1
290
     0
176
     1
290
     0
176
     1
 90
       50
176
     1
 40
0.0
176
     1
 40
1.0
176
     1
 90
        0
176
     1
 62
    18
420
        0
176
     1
 90
       50
176
     1
 90
        3
176
     1
 62
     5
420
      255
176
     1
290
     0
176
     1
 90
       50
176
     1
 90
       50
176
     1
 90
       50
176
     1
290
     0
176
     1
 90
       50
176
     1
 62
   256
176
     0
 40
1.0
176
     0
 90
        2
176
     1
  1
strokes_ogs.tif
176
     1
290
     0
176
     1
 40
1.0
176
     1
 40
1.0
176
     1
  0
VISUALSTYLE
  5
C4
102
{ACAD_REACTORS
330
AE
102
}
330
AE
100
AcDbVisualStyle
  2
JitterOff
 70
    20
177
     3
291
     1
 70
    58
 90
        2
176
     0
 90
        2
176
     0
 90
        0
176
     0
 90
        0
176
     0
 40
0.6
176
     0
 40
30.0
176
     0
 62
     7
420
 16777215
176
     0
 90
        1
176
     0
 90
        4
176
     0
 62
     7
176
     0
 62
   257
176
     0
 90
        1
176
     0
 90
        1
176
     0
 40
1.0
176
     0
 90
       10
176
     2
 62
     7
176
     0
 40
1.0
176
     0
 90
        1
176
     0
 90
        6
176
     0
 90
        2
176
     0
 62
     7
176
     0
 90
        5
176
     0
 90
        0
176
     0
 90
        0
176
     0
290
     0
176
     0
 90
        1
176
     0
 40
0.0
176
     0
 90
        0
176
     0
290
     0
176
     0
290
     1
176
     0
290
     1
176
     0
290
     0
176
     0
290
     0
176
     0
290
     0
176
     0
290
     0
176
     0
290
     0
176
     0
290
     0
176
     0
 90
       50
176
     0
 40
0.0
176
     0
 40
1.0
176
     0
 90
        0
176
     0
 62
    18
420
        0
176
     0
 90
       50
176
     0
 90
        3
176
     0
 62
     5
420
      255
176
     0
290
     0
176
     0
 90
       50
176
     0
 90
       50
176
     0
 90
       50
176
     0
290
     0
176
     0
 90
       50
176
     0
 62
   256
176
     0
 40
1.0
176
     0
 90
        2
176
     0
  1
strokes_ogs.tif
176
     0
290
     0
176
     0
 40
1.0
176
     0
 40
1.0
176
     0
  0
VISUALSTYLE
  5
BC
102
{ACAD_REACTORS
330
AE
102
}
330
AE
100
AcDbVisualStyle
  2
Linepattern
 70
    14
177
     3
291
     1
 70
    58
 90
        2
176
     1
 90
        2
176
     1
 90
        0
176
     1
 90
        0
176
     1
 40
0.6
176
     1
 40
30.0
176
     1
 62
     7
420
 16777215
176
     1
 90
        1
176
     1
 90
        4
176
     1
 62
     7
176
     1
 62
   257
176
     1
 90
        7
176
     1
 90
        7
176
     1
 40
1.0
176
     1
 90
        8
176
     1
 62
     7
176
     1
 40
1.0
176
     1
 90
        1
176
     1
 90
        6
176
     1
 90
        2
176
     1
 62
     7
176
     1
 90
        5
176
     1
 90
        0
176
     1
 90
        0
176
     1
290
     0
176
     1
 90
        1
176
     1
 40
0.0
176
     1
 90
        0
176
     1
290
     0
176
     1
290
     1
176
     1
290
     1
176
     1
290
     0
176
     1
290
     0
176
     1
290
     0
176
     1
290
     0
176
     1
290
     0
176
     1
290
     0
176
     1
 90
       50
176
     1
 40
0.0
176
     1
 40
1.0
176
     1
 90
        0
176
     1
 62
    18
420
        0
176
     1
 90
       50
176
     1
 90
        3
176
     1
 62
     5
420
      255
176
     1
290
     0
176
     1
 90
       50
176
     1
 90
       50
176
     1
 90
       50
176
     1
290
     0
176
     1
 90
       50
176
     1
 62
   256
176
     0
 40
1.0
176
     0
 90
        2
176
     1
  1
strokes_ogs.tif
176
     1
290
     0
176
     1
 40
1.0
176
     1
 40
1.0
176
     1
  0
VISUALSTYLE
  5
C5
102
{ACAD_REACTORS
330
AE
102
}
330
AE
100
AcDbVisualStyle
  2
OverhangOff
 70
    21
177
     3
291
     1
 70
    58
 90
        2
176
     0
 90
        2
176
     0
 90
        0
176
     0
 90
        0
176
     0
 40
0.6
176
     0
 40
30.0
176
     0
 62
     7
420
 16777215
176
     0
 90
        1
176
     0
 90
        4
176
     0
 62
     7
176
     0
 62
   257
176
     0
 90
        1
176
     0
 90
        1
176
     0
 40
1.0
176
     0
 90
        9
176
     2
 62
     7
176
     0
 40
1.0
176
     0
 90
        1
176
     0
 90
        6
176
     0
 90
        2
176
     0
 62
     7
176
     0
 90
        5
176
     0
 90
        0
176
     0
 90
        0
176
     0
290
     0
176
     0
 90
        1
176
     0
 40
0.0
176
     0
 90
        0
176
     0
290
     0
176
     0
290
     1
176
     0
290
     1
176
     0
290
     0
176
     0
290
     0
176
     0
290
     0
176
     0
290
     0
176
     0
290
     0
176
     0
290
     0
176
     0
 90
       50
176
     0
 40
0.0
176
     0
 40
1.0
176
     0
 90
        0
176
     0
 62
    18
420
        0
176
     0
 90
       50
176
     0
 90
        3
176
     0
 62
     5
420
      255
176
     0
290
     0
176
     0
 90
       50
176
     0
 90
       50
176
     0
 90
       50
176
     0
290
     0
176
     0
 90
       50
176
     0
 62
   256
176
     0
 40
1.0
176
     0
 90
        2
176
     0
  1
strokes_ogs.tif
176
     0
290
     0
176
     0
 40
1.0
176
     0
 40
1.0
176
     0
  0
VISUALSTYLE
  5
B8
102
{ACAD_REACTORS
330
AE
102
}
330
AE
100
AcDbVisualStyle
  2
Realistic
 70
     8
177
     3
291
     0
 70
    58
 90
        2
176
     1
 90
        3
176
     1
 90
        0
176
     1
 90
        2
176
     1
 40
0.6
176
     1
 40
30.0
176
     1
 62
     7
420
 16777215
176
     1
 90
        0
176
     1
 90
        0
176
     1
 62
     7
176
     1
 62
   257
176
     1
 90
        1
176
     1
 90
        1
176
     1
 40
1.0
176
     1
 90
        8
176
     1
 62
   257
176
     1
 40
1.0
176
     1
 90
        1
176
     1
 90
        6
176
     1
 90
        2
176
     1
 62
     7
176
     1
 90
        3
176
     1
 90
        0
176
     1
 90
        0
176
     1
290
     0
176
     1
 90
       13
176
     1
 40
0.0
176
     1
 90
        0
176
     1
290
     0
176
     1
290
     1
176
     1
290
     1
176
     1
290
     0
176
     1
290
     0
176
     1
290
     0
176
     1
290
     0
176
     1
290
     0
176
     1
290
     0
176
     1
 90
       50
176
     1
 40
0.0
176
     1
 40
1.0
176
     1
 90
        0
176
     1
 62
    18
420
        0
176
     1
 90
       50
176
     1
 90
        3
176
     1
 62
     5
420
      255
176
     1
290
     0
176
     1
 90
       50
176
     1
 90
       50
176
     1
 90
       50
176
     1
290
     0
176
     1
 90
       50
176
     1
 62
   256
176
     0
 40
1.0
176
     0
 90
        2
176
     1
  1
strokes_ogs.tif
176
     1
290
     0
176
     1
 40
1.0
176
     1
 40
1.0
176
     1
  0
VISUALSTYLE
  5
C3
102
{ACAD_REACTORS
330
AE
102
}
330
AE
100
AcDbVisualStyle
  2
Shaded
 70
    27
177
     3
291
     0
 70
    58
 90
        2
176
     1
 90
        2
176
     1
 90
        1
176
     1
 90
        2
176
     1
 40
0.6
176
     1
 40
30.0
176
     1
 62
     7
420
 16777215
176
     1
 90
        0
176
     1
 90
        4
176
     1
 62
     7
176
     1
 62
   257
176
     1
 90
        1
176
     1
 90
        1
176
     1
 40
1.0
176
     1
 90
        8
176
     1
 62
   257
176
     1
 40
1.0
176
     1
 90
        1
176
     1
 90
        6
176
     1
 90
        2
176
     1
 62
     8
420
  7895160
176
     1
 90
        3
176
     1
 90
        0
176
     1
 90
        0
176
     1
290
     0
176
     1
 90
        5
176
     1
 40
0.0
176
     1
 90
        0
176
     1
290
     0
176
     1
290
     1
176
     1
290
     1
176
     1
290
     0
176
     1
290
     0
176
     1
290
     0
176
     1
290
     0
176
     1
290
     0
176
     1
290
     0
176
     1
 90
       50
176
     1
 40
0.0
176
     1
 40
1.0
176
     1
 90
        0
176
     1
 62
    18
420
        0
176
     1
 90
       50
176
     1
 90
        3
176
     1
 62
     5
420
      255
176
     1
290
     0
176
     1
 90
       50
176
     1
 90
       50
176
     1
 90
       50
176
     1
290
     0
176
     1
 90
       50
176
     1
 62
   256
176
     0
 40
1.0
176
     0
 90
        2
176
     1
  1
strokes_ogs.tif
176
     1
290
     0
176
     1
 40
1.0
176
     1
 40
1.0
176
     1
  0
VISUALSTYLE
  5
C2
102
{ACAD_REACTORS
330
AE
102
}
330
AE
100
AcDbVisualStyle
  2
Shaded with edges
 70
    26
177
     3
291
     0
 70
    58
 90
        2
176
     1
 90
        2
176
     1
 90
        1
176
     1
 90
        2
176
     1
 40
0.6
176
     1
 40
30.0
176
     1
 62
     7
420
 16777215
176
     1
 90
        1
176
     1
 90
        2
176
     1
 62
     7
176
     1
 62
   257
176
     1
 90
        2
176
     1
 90
        1
176
     1
 40
1.0
176
     1
 90
        8
176
     1
 62
   257
176
     1
 40
1.0
176
     1
 90
        1
176
     1
 90
        6
176
     1
 90
        2
176
     1
 62
     7
176
     1
 90
        3
176
     1
 90
        0
176
     1
 90
        0
176
     1
290
     0
176
     1
 90
        5
176
     1
 40
0.0
176
     1
 90
        0
176
     1
290
     0
176
     1
290
     1
176
     1
290
     1
176
     1
290
     0
176
     1
290
     0
176
     1
290
     0
176
     1
290
     0
176
     1
290
     0
176
     1
290
     0
176
     1
 90
       50
176
     1
 40
0.0
176
     1
 40
1.0
176
     1
 90
        0
176
     1
 62
    18
420
        0
176
     1
 90
       50
176
     1
 90
        3
176
     1
 62
     5
420
      255
176
     1
290
     0
176
     1
 90
       50
176
     1
 90
       50
176
     1
 90
       50
176
     1
290
     0
176
     1
 90
       50
176
     1
 62
   256
176
     0
 40
1.0
176
     0
 90
        2
176
     1
  1
strokes_ogs.tif
176
     1
290
     0
176
     1
 40
1.0
176
     1
 40
1.0
176
     1
  0
VISUALSTYLE
  5
BF
102
{ACAD_REACTORS
330
AE
102
}
330
AE
100
AcDbVisualStyle
  2
Shades of Gray
 70
    23
177
     3
291
     0
 70
    58
 90
        2
176
     1
 90
        2
176
     1
 90
        3
176
     1
 90
        0
176
     1
 40
0.6
176
     1
 40
30.0
176
     1
 62
     7
420
 16777215
176
     1
 90
        2
176
     1
 90
        2
176
     1
 62
     7
176
     1
 62
     7
176
     1
 90
        1
176
     1
 90
        1
176
     1
 40
40.0
176
     1
 90
        8
176
     1
 62
     7
176
     1
 40
1.0
176
     1
 90
        1
176
     1
 90
        6
176
     1
 90
        2
176
     1
 62
     7
176
     1
 90
        3
176
     1
 90
        0
176
     1
 90
        0
176
     1
290
     0
176
     1
 90
        1
176
     1
 40
0.0
176
     1
 90
        0
176
     1
290
     0
176
     1
290
     1
176
     1
290
     1
176
     1
290
     0
176
     1
290
     0
176
     1
290
     0
176
     1
290
     0
176
     1
290
     0
176
     1
290
     0
176
     1
 90
       50
176
     1
 40
0.0
176
     1
 40
1.0
176
     1
 90
        0
176
     1
 62
    18
420
        0
176
     1
 90
       50
176
     1
 90
        3
176
     1
 62
     5
420
      255
176
     1
290
     0
176
     1
 90
       50
176
     1
 90
       50
176
     1
 90
       50
176
     1
290
     0
176
     1
 90
       50
176
     1
 62
   256
176
     0
 40
1.0
176
     0
 90
        2
176
     1
  1
strokes_ogs.tif
176
     1
290
     0
176
     1
 40
1.0
176
     1
 40
1.0
176
     1
  0
VISUALSTYLE
  5
C0
102
{ACAD_REACTORS
330
AE
102
}
330
AE
100
AcDbVisualStyle
  2
Sketchy
 70
    24
177
     3
291
     0
 70
    58
 90
        1
176
     1
 90
        2
176
     1
 90
        2
176
     1
 90
        0
176
     1
 40
0.6
176
     1
 40
30.0
176
     1
 62
     7
420
 16777215
176
     1
 90
        2
176
     1
 90
        2
176
     1
 62
     7
176
     1
 62
     7
176
     1
 90
        1
176
     1
 90
        1
176
     1
 40
40.0
176
     1
 90
       11
176
     1
 62
     7
176
     1
 40
1.0
176
     1
 90
        1
176
     1
 90
        6
176
     1
 90
        2
176
     1
 62
     7
176
     1
 90
        6
176
     1
 90
        0
176
     1
 90
        0
176
     1
290
     0
176
     1
 90
        1
176
     1
 40
0.0
176
     1
 90
        0
176
     1
290
     0
176
     1
290
     1
176
     1
290
     1
176
     1
290
     0
176
     1
290
     0
176
     1
290
     0
176
     1
290
     0
176
     1
290
     0
176
     1
290
     0
176
     1
 90
       50
176
     1
 40
0.0
176
     1
 40
1.0
176
     1
 90
        0
176
     1
 62
    18
420
        0
176
     1
 90
       50
176
     1
 90
        3
176
     1
 62
     5
420
      255
176
     1
290
     0
176
     1
 90
       50
176
     1
 90
       50
176
     1
 90
       50
176
     1
290
     0
176
     1
 90
       50
176
     1
 62
   256
176
     0
 40
1.0
176
     0
 90
        2
176
     1
  1
strokes_ogs.tif
176
     1
290
     0
176
     1
 40
1.0
176
     1
 40
1.0
176
     1
  0
VISUALSTYLE
  5
BB
102
{ACAD_REACTORS
330
AE
102
}
330
AE
100
AcDbVisualStyle
  2
Thicken
 70
    13
177
     3
291
     1
 70
    58
 90
        2
176
     1
 90
        2
176
     1
 90
        0
176
     1
 90
        0
176
     1
 40
0.6
176
     1
 40
30.0
176
     1
 62
     7
420
 16777215
176
     1
 90
        1
176
     1
 90
        4
176
     1
 62
     7
176
     1
 62
   257
176
     1
 90
        1
176
     1
 90
        1
176
     1
 40
1.0
176
     1
 90
       12
176
     1
 62
     7
176
     1
 40
1.0
176
     1
 90
        1
176
     1
 90
        6
176
     1
 90
        2
176
     1
 62
     7
176
     1
 90
        5
176
     1
 90
        0
176
     1
 90
        0
176
     1
290
     0
176
     1
 90
        1
176
     1
 40
0.0
176
     1
 90
        0
176
     1
290
     0
176
     1
290
     1
176
     1
290
     1
176
     1
290
     0
176
     1
290
     0
176
     1
290
     0
176
     1
290
     0
176
     1
290
     0
176
     1
290
     0
176
     1
 90
       50
176
     1
 40
0.0
176
     1
 40
1.0
176
     1
 90
        0
176
     1
 62
    18
420
        0
176
     1
 90
       50
176
     1
 90
        3
176
     1
 62
     5
420
      255
176
     1
290
     0
176
     1
 90
       50
176
     1
 90
       50
176
     1
 90
       50
176
     1
290
     0
176
     1
 90
       50
176
     1
 62
   256
176
     0
 40
1.0
176
     0
 90
        2
176
     1
  1
strokes_ogs.tif
176
     1
290
     0
176
     1
 40
1.0
176
     1
 40
1.0
176
     1
  0
VISUALSTYLE
  5
B5
102
{ACAD_REACTORS
330
AE
102
}
330
AE
100
AcDbVisualStyle
  2
Wireframe
 70
     5
177
     3
291
     0
 70
    58
 90
        0
176
     1
 90
        2
176
     1
 90
        0
176
     1
 90
        0
176
     1
 40
0.6
176
     1
 40
30.0
176
     1
 62
     7
420
 16777215
176
     1
 90
        1
176
     1
 90
        4
176
     1
 62
     7
176
     1
 62
   257
176
     1
 90
        1
176
     1
 90
        1
176
     1
 40
1.0
176
     1
 90
        0
176
     1
 62
   257
176
     1
 40
1.0
176
     1
 90
        1
176
     1
 90
        6
176
     1
 90
        2
176
     1
 62
     7
176
     1
 90
        3
176
     1
 90
        0
176
     1
 90
        0
176
     1
290
     0
176
     1
 90
        1
176
     1
 40
0.0
176
     1
 90
        0
176
     1
290
     0
176
     1
290
     1
176
     1
290
     1
176
     1
290
     0
176
     1
290
     0
176
     1
290
     0
176
     1
290
     0
176
     1
290
     0
176
     1
290
     0
176
     1
 90
       50
176
     1
 40
0.0
176
     1
 40
1.0
176
     1
 90
        0
176
     1
 62
    18
420
        0
176
     1
 90
       50
176
     1
 90
        3
176
     1
 62
     5
420
      255
176
     1
290
     0
176
     1
 90
       50
176
     1
 90
       50
176
     1
 90
       50
176
     1
290
     0
176
     1
 90
       50
176
     1
 62
   256
176
     0
 40
1.0
176
     0
 90
        2
176
     1
  1
strokes_ogs.tif
176
     1
290
     0
176
     1
 40
1.0
176
     1
 40
1.0
176
     1
  0
VISUALSTYLE
  5
C1
102
{ACAD_REACTORS
330
AE
102
}
330
AE
100
AcDbVisualStyle
  2
X-Ray
 70
    25
177
     3
291
     0
 70
    58
 90
        2
176
     1
 90
        2
176
     1
 90
        1
176
     1
 90
        1
176
     1
 40
0.5
176
     1
 40
30.0
176
     1
 62
     7
420
 16777215
176
     1
 90
        1
176
     1
 90
        0
176
     1
 62
     7
176
     1
 62
   257
176
     1
 90
        1
176
     1
 90
        1
176
     1
 40
1.0
176
     1
 90
        8
176
     1
 62
     7
176
     1
 40
1.0
176
     1
 90
        1
176
     1
 90
        6
176
     1
 90
        2
176
     1
 62
     7
176
     1
 90
        3
176
     1
 90
        0
176
     1
 90
        0
176
     1
290
     0
176
     1
 90
       13
176
     1
 40
0.0
176
     1
 90
        0
176
     1
290
     0
176
     1
290
     1
176
     1
290
     1
176
     1
290
     0
176
     1
290
     0
176
     1
290
     0
176
     1
290
     0
176
     1
290
     0
176
     1
290
     0
176
     1
 90
       50
176
     1
 40
0.0
176
     1
 40
1.0
176
     1
 90
        0
176
     1
 62
    18
420
        0
176
     1
 90
       50
176
     1
 90
        3
176
     1
 62
     5
420
      255
176
     1
290
     0
176
     1
 90
       50
176
     1
 90
       50
176
     1
 90
       50
176
     1
290
     0
176
     1
 90
       50
176
     1
 62
   256
176
     0
 40
1.0
176
     0
 90
        2
176
     1
  1
strokes_ogs.tif
176
     1
290
     0
176
     1
 40
1.0
176
     1
 40
1.0
176
     1
  0
DICTIONARYVAR
  5
1A9
102
{ACAD_REACTORS
330
1A3
102
}
330
1A3
100
DictionaryVariables
280
     0
  1
1:1
  0
DICTIONARYVAR
  5
1A5
102
{ACAD_REACTORS
330
1A3
102
}
330
1A3
100
DictionaryVariables
280
     0
  1
STANDARD
  0
DICTIONARYVAR
  5
1A4
102
{ACAD_REACTORS
330
1A3
102
}
330
1A3
100
DictionaryVariables
280
     0
  1
STANDARD
  0
DICTIONARYVAR
  5
1A6
102
{ACAD_REACTORS
330
1A3
102
}
330
1A3
100
DictionaryVariables
280
     0
  1
Imperial24
  0
DICTIONARYVAR
  5
1A7
102
{ACAD_REACTORS
330
1A3
102
}
330
1A3
100
DictionaryVariables
280
     0
  1
Imperial24
  0
DICTIONARYVAR
  5
1AB
102
{ACAD_REACTORS
330
1A3
102
}
330
1A3
100
DictionaryVariables
280
     0
  1
1
  0
DICTIONARYVAR
  5
1AC
102
{ACAD_REACTORS
330
1A3
102
}
330
1A3
100
DictionaryVariables
280
     0
  1
15
  0
DICTIONARYVAR
  5
1AA
102
{ACAD_REACTORS
330
1A3
102
}
330
1A3
100
DictionaryVariables
280
     0
  1
0
  0
DICTIONARYVAR
  5
1A8
102
{ACAD_REACTORS
330
1A3
102
}
330
1A3
100
DictionaryVariables
280
     0
  1
0
  0
DICTIONARY
  5
18B
102
{ACAD_REACTORS
330
18A
102
}
330
18A
100
AcDbDictionary
281
     1
  3
*A1
350
18C
  0
DICTIONARY
  5
187
102
{ACAD_REACTORS
330
186
102
}
330
186
100
AcDbDictionary
281
     1
  3
*A1
350
188
  0
DICTIONARY
  5
183
102
{ACAD_REACTORS
330
182
102
}
330
182
100
AcDbDictionary
281
     1
  3
*A1
350
184
  0
DICTIONARY
  5
17F
102
{ACAD_REACTORS
330
17E
102
}
330
17E
100
AcDbDictionary
281
     1
  3
*A1
350
180
  0
DICTIONARY
  5
17B
102
{ACAD_REACTORS
330
17A
102
}
330
17A
100
AcDbDictionary
281
     1
  3
*A1
350
17C
  0
DICTIONARY
  5
177
102
{ACAD_REACTORS
330
176
102
}
330
176
100
AcDbDictionary
281
     1
  3
*A1
350
178
  0
DICTIONARY
  5
173
102
{ACAD_REACTORS
330
172
102
}
330
172
100
AcDbDictionary
281
     1
  3
*A1
350
174
  0
DICTIONARY
  5
16F
102
{ACAD_REACTORS
330
16E
102
}
330
16E
100
AcDbDictionary
281
     1
  3
*A1
350
170
  0
DICTIONARY
  5
16B
102
{ACAD_REACTORS
330
16A
102
}
330
16A
100
AcDbDictionary
281
     1
  3
*A1
350
16C
  0
DICTIONARY
  5
167
102
{ACAD_REACTORS
330
166
102
}
330
166
100
AcDbDictionary
281
     1
  3
*A1
350
168
  0
DICTIONARY
  5
163
102
{ACAD_REACTORS
330
162
102
}
330
162
100
AcDbDictionary
281
     1
  3
*A1
350
164
  0
DICTIONARY
  5
15F
102
{ACAD_REACTORS
330
15E
102
}
330
15E
100
AcDbDictionary
281
     1
  3
*A1
350
160
  0
DICTIONARY
  5
15B
102
{ACAD_REACTORS
330
15A
102
}
330
15A
100
AcDbDictionary
281
     1
  3
*A1
350
15C
  0
DICTIONARY
  5
157
102
{ACAD_REACTORS
330
156
102
}
330
156
100
AcDbDictionary
281
     1
  3
*A1
350
158
  0
DICTIONARY
  5
153
102
{ACAD_REACTORS
330
152
102
}
330
152
100
AcDbDictionary
281
     1
  3
*A1
350
154
  0
DICTIONARY
  5
14F
102
{ACAD_REACTORS
330
14E
102
}
330
14E
100
AcDbDictionary
281
     1
  3
*A1
350
150
  0
DICTIONARY
  5
9F
330
9E
100
AcDbDictionary
280
     1
281
     1
  3
BUMPTILE
360
A1
  3
DIFFUSETILE
360
A0
  3
OPACITYTILE
360
A4
  3
REFLECTIONTILE
360
A3
  3
REFRACTIONTILE
360
A5
  3
SPECULARTILE
360
A2
  0
DICTIONARY
  5
97
330
96
100
AcDbDictionary
280
     1
281
     1
  3
BUMPTILE
360
99
  3
DIFFUSETILE
360
98
  3
OPACITYTILE
360
9C
  3
REFLECTIONTILE
360
9B
  3
REFRACTIONTILE
360
9D
  3
SPECULARTILE
360
9A
  0
DICTIONARY
  5
A7
330
A6
100
AcDbDictionary
280
     1
281
     1
  3
BUMPTILE
360
A9
  3
DIFFUSETILE
360
A8
  3
OPACITYTILE
360
AC
  3
REFLECTIONTILE
360
AB
  3
REFRACTIONTILE
360
AD
  3
SPECULARTILE
360
AA
  0
DICTIONARY
  5
1AD
330
C9
100
AcDbDictionary
280
     1
281
     1
  3
ACAD_ROUNDTRIP_2008_TABLESTYLE_CELLSTYLEMAP
360
1AE
  0
ACDB_TEXTOBJECTCONTEXTDATA_CLASS
  5
18C
102
{ACAD_REACTORS
330
18B
102
}
330
18B
100
AcDbObjectContextData
 70
     4
290
     1
100
AcDbAnnotScaleObjectContextData
340
CB
 70
     4
 50
0.0
 10
224.053003056506
 20
128.1017379108787
 11
246.7228529882932
 21
130.1017379108788
  0
ACDB_TEXTOBJECTCONTEXTDATA_CLASS
  5
188
102
{ACAD_REACTORS
330
187
102
}
330
187
100
AcDbObjectContextData
 70
     4
290
     1
100
AcDbAnnotScaleObjectContextData
340
CB
 70
     4
 50
0.0
 10
242.0611885953873
 20
96.04582812028917
 11
246.7228529882932
 21
98.07993453229464
  0
ACDB_TEXTOBJECTCONTEXTDATA_CLASS
  5
184
102
{ACAD_REACTORS
330
183
102
}
330
183
100
AcDbObjectContextData
 70
     4
290
     1
100
AcDbAnnotScaleObjectContextData
340
CB
 70
     4
 50
0.0
 10
231.5100289773791
 20
117.3538399896459
 11
246.7228529882932
 21
118.8013161151575
  0
ACDB_TEXTOBJECTCONTEXTDATA_CLASS
  5
180
102
{ACAD_REACTORS
330
17F
102
}
330
17F
100
AcDbObjectContextData
 70
     4
290
     1
100
AcDbAnnotScaleObjectContextData
340
CB
 70
     4
 50
0.0
 10
371.5225149182375
 20
-145.2510684529755
 11
392.638476719056
 21
-143.2510684529755
  0
ACDB_TEXTOBJECTCONTEXTDATA_CLASS
  5
17C
102
{ACAD_REACTORS
330
17B
102
}
330
17B
100
AcDbObjectContextData
 70
     4
290
     1
100
AcDbAnnotScaleObjectContextData
340
CB
 70
     4
 50
0.0
 10
245.0379531989775
 20
-175.1868871739519
 11
290.834678983425
 21
-173.1855229174717
  0
ACDB_TEXTOBJECTCONTEXTDATA_CLASS
  5
178
102
{ACAD_REACTORS
330
177
102
}
330
177
100
AcDbObjectContextData
 70
     4
290
     1
100
AcDbAnnotScaleObjectContextData
340
CB
 70
     4
 50
0.0
 10
243.9835129773197
 20
-145.2524327094558
 11
284.5005661833225
 21
-143.2510684529755
  0
ACDB_TEXTOBJECTCONTEXTDATA_CLASS
  5
174
102
{ACAD_REACTORS
330
173
102
}
330
173
100
AcDbObjectContextData
 70
     4
290
     1
100
AcDbAnnotScaleObjectContextData
340
CB
 70
     4
 50
0.0
 10
383.7950075577577
 20
-175.0460805807286
 11
453.5003281580305
 21
-173.0447163242484
  0
ACDB_TEXTOBJECTCONTEXTDATA_CLASS
  5
170
102
{ACAD_REACTORS
330
16F
102
}
330
16F
100
AcDbObjectContextData
 70
     4
290
     1
100
AcDbAnnotScaleObjectContextData
340
CB
 70
     4
 50
0.0
 10
383.8780744230224
 20
-185.3273481262667
 11
450.1672967968287
 21
-183.3259838697865
  0
ACDB_TEXTOBJECTCONTEXTDATA_CLASS
  5
16C
102
{ACAD_REACTORS
330
16B
102
}
330
16B
100
AcDbObjectContextData
 70
     4
290
     1
100
AcDbAnnotScaleObjectContextData
340
CB
 70
     4
 50
0.0
 10
384.049713415317
 20
-205.1892772936572
 11
457.1711322420563
 21
-203.1879130371769
  0
ACDB_TEXTOBJECTCONTEXTDATA_CLASS
  5
168
102
{ACAD_REACTORS
330
167
102
}
330
167
100
AcDbObjectContextData
 70
     4
290
     1
100
AcDbAnnotScaleObjectContextData
340
CB
 70
     4
 50
0.0
 10
383.7997230400386
 20
-195.3167734458103
 11
450.8611145816484
 21
-193.3154091893301
  0
ACDB_TEXTOBJECTCONTEXTDATA_CLASS
  5
164
102
{ACAD_REACTORS
330
163
102
}
330
163
100
AcDbObjectContextData
 70
     4
290
     1
100
AcDbAnnotScaleObjectContextData
340
CB
 70
     4
 50
0.0
 10
384.3290122341295
 20
-216.1069735963611
 11
406.2226002286725
 21
-214.1056093398808
  0
ACDB_TEXTOBJECTCONTEXTDATA_CLASS
  5
160
102
{ACAD_REACTORS
330
15F
102
}
330
15F
100
AcDbObjectContextData
 70
     4
290
     1
100
AcDbAnnotScaleObjectContextData
340
CB
 70
     4
 50
0.0
 10
114.9664000636
 20
128.0969074137472
 11
128.0059635015263
 21
130.0969074137472
  0
ACDB_TEXTOBJECTCONTEXTDATA_CLASS
  5
15C
102
{ACAD_REACTORS
330
15B
102
}
330
15B
100
AcDbObjectContextData
 70
     4
290
     1
100
AcDbAnnotScaleObjectContextData
340
CB
 70
     4
 50
0.0
 10
116.1621435749234
 20
96.07993453229463
 11
126.7228529882931
 21
98.07993453229464
  0
ACDB_TEXTOBJECTCONTEXTDATA_CLASS
  5
158
102
{ACAD_REACTORS
330
157
102
}
330
157
100
AcDbObjectContextData
 70
     4
290
     1
100
AcDbAnnotScaleObjectContextData
340
CB
 70
     4
 50
0.0
 10
164.4531406556925
 20
128.095543157267
 11
184.012485812582
 21
130.0969074137472
  0
ACDB_TEXTOBJECTCONTEXTDATA_CLASS
  5
154
102
{ACAD_REACTORS
330
153
102
}
330
153
100
AcDbObjectContextData
 70
     4
290
     1
100
AcDbAnnotScaleObjectContextData
340
CB
 70
     4
 50
0.0
 10
178.1839716786069
 20
96.04719237676938
 11
186.7228529882931
 21
98.07993453229464
  0
ACDB_TEXTOBJECTCONTEXTDATA_CLASS
  5
150
102
{ACAD_REACTORS
330
14F
102
}
330
14F
100
AcDbObjectContextData
 70
     4
290
     1
100
AcDbAnnotScaleObjectContextData
340
CB
 70
     4
 50
0.0
 10
174.8569605738371
 20
117.1992840261282
 11
184.012485812582
 21
119.1992840261282
  0
XRECORD
  5
A1
102
{ACAD_REACTORS
330
9F
102
}
330
9F
100
AcDbXrecord
280
     1
270
     1
271
     1
  0
XRECORD
  5
A0
102
{ACAD_REACTORS
330
9F
102
}
330
9F
100
AcDbXrecord
280
     1
270
     1
271
     1
  0
XRECORD
  5
A4
102
{ACAD_REACTORS
330
9F
102
}
330
9F
100
AcDbXrecord
280
     1
270
     1
271
     1
  0
XRECORD
  5
A3
102
{ACAD_REACTORS
330
9F
102
}
330
9F
100
AcDbXrecord
280
     1
270
     1
271
     1
  0
XRECORD
  5
A5
102
{ACAD_REACTORS
330
9F
102
}
330
9F
100
AcDbXrecord
280
     1
270
     1
271
     1
  0
XRECORD
  5
A2
102
{ACAD_REACTORS
330
9F
102
}
330
9F
100
AcDbXrecord
280
     1
270
     1
271
     1
  0
XRECORD
  5
99
102
{ACAD_REACTORS
330
97
102
}
330
97
100
AcDbXrecord
280
     1
270
     1
271
     1
  0
XRECORD
  5
98
102
{ACAD_REACTORS
330
97
102
}
330
97
100
AcDbXrecord
280
     1
270
     1
271
     1
  0
XRECORD
  5
9C
102
{ACAD_REACTORS
330
97
102
}
330
97
100
AcDbXrecord
280
     1
270
     1
271
     1
  0
XRECORD
  5
9B
102
{ACAD_REACTORS
330
97
102
}
330
97
100
AcDbXrecord
280
     1
270
     1
271
     1
  0
XRECORD
  5
9D
102
{ACAD_REACTORS
330
97
102
}
330
97
100
AcDbXrecord
280
     1
270
     1
271
     1
  0
XRECORD
  5
9A
102
{ACAD_REACTORS
330
97
102
}
330
97
100
AcDbXrecord
280
     1
270
     1
271
     1
  0
XRECORD
  5
A9
102
{ACAD_REACTORS
330
A7
102
}
330
A7
100
AcDbXrecord
280
     1
270
     1
271
     1
  0
XRECORD
  5
A8
102
{ACAD_REACTORS
330
A7
102
}
330
A7
100
AcDbXrecord
280
     1
270
     1
271
     1
  0
XRECORD
  5
AC
102
{ACAD_REACTORS
330
A7
102
}
330
A7
100
AcDbXrecord
280
     1
270
     1
271
     1
  0
XRECORD
  5
AB
102
{ACAD_REACTORS
330
A7
102
}
330
A7
100
AcDbXrecord
280
     1
270
     1
271
     1
  0
XRECORD
  5
AD
102
{ACAD_REACTORS
330
A7
102
}
330
A7
100
AcDbXrecord
280
     1
270
     1
271
     1
  0
XRECORD
  5
AA
102
{ACAD_REACTORS
330
A7
102
}
330
A7
100
AcDbXrecord
280
     1
270
     1
271
     1
  0
CELLSTYLEMAP
  5
1AE
102
{ACAD_REACTORS
330
1AD
102
}
330
1AD
100
AcDbCellStyleMap
 90
        3
300
CELLSTYLE
  1
TABLEFORMAT_BEGIN
 90
        5
170
     1
 91
        0
 92
    32768
 62
   257
 93
        1
300
CONTENTFORMAT
  1
CONTENTFORMAT_BEGIN
 90
        0
 91
        0
 92
      512
 93
        0
300

 40
0.0
140
1.0
 94
        5
 62
     0
340
12
144
0.25
309
CONTENTFORMAT_END
171
     0
 94
        0
309
TABLEFORMAT_END
  1
CELLSTYLE_BEGIN
 90
        1
 91
        1
300
_TITLE
309
CELLSTYLE_END
300
CELLSTYLE
  1
TABLEFORMAT_BEGIN
 90
        5
170
     1
 91
        0
 92
        0
 62
   257
 93
        1
300
CONTENTFORMAT
  1
CONTENTFORMAT_BEGIN
 90
        0
 91
        0
 92
      512
 93
        0
300

 40
0.0
140
1.0
 94
        5
 62
     0
340
12
144
0.18
309
CONTENTFORMAT_END
171
     0
 94
        0
309
TABLEFORMAT_END
  1
CELLSTYLE_BEGIN
 90
        2
 91
        1
300
_HEADER
309
CELLSTYLE_END
300
CELLSTYLE
  1
TABLEFORMAT_BEGIN
 90
        5
170
     1
 91
        0
 92
        0
 62
   257
 93
        1
300
CONTENTFORMAT
  1
CONTENTFORMAT_BEGIN
 90
        0
 91
        0
 92
      512
 93
        0
300

 40
0.0
140
1.0
 94
        2
 62
     0
340
12
144
0.18
309
CONTENTFORMAT_END
171
     0
 94
        0
309
TABLEFORMAT_END
  1
CELLSTYLE_BEGIN
 90
        3
 91
        2
300
_DATA
309
CELLSTYLE_END
  0
ENDSEC
  0
EOF
