  0
SECTION
  2
HEADER
  9
$ACADVER
  1
AC1032
  9
$ACADMAINTVER
 90
      155
  9
$DWGCODEPAGE
  3
ANSI_1252
  9
$LASTSAVEDBY
  1
falinoori
  9
$REQUIREDVERSIONS
160
                 0
  9
$INSBASE
 10
0.0000000000000284
 20
0.0000000000000711
 30
0.0
  9
$EXTMIN
 10
-237.8837866179038
 20
-153.2661167629339
 30
0.0
  9
$EXTMAX
 10
345.7629541965334
 20
170.1761843752192
 30
0.0
  9
$LIMMIN
 10
0.0
 20
0.0
  9
$LIMMAX
 10
420.0
 20
297.0
  9
$ORTHOMODE
 70
     1
  9
$REGENMODE
 70
     1
  9
$FILLMODE
 70
     1
  9
$QTEXTMODE
 70
     0
  9
$MIRRTEXT
 70
     1
  9
$LTSCALE
 40
0.25
  9
$ATTMODE
 70
     1
  9
$TEXTSIZE
 40
5.0
  9
$TRACEWID
 40
10.0
  9
$TEXTSTYLE
  7
arial
  9
$CLAYER
  8
DIMS
  9
$CELTYPE
  6
BYLAYER
  9
$CECOLOR
 62
     0
  9
$CELTSCALE
 40
1.0
  9
$DISPSILH
 70
     0
  9
$DIMSCALE
 40
0.0
  9
$DIMASZ
 40
4.0
  9
$DIMEXO
 40
3.0
  9
$DIMDLI
 40
10.0
  9
$DIMRND
 40
0.0
  9
$DIMDLE
 40
1.25
  9
$DIMEXE
 40
3.0
  9
$DIMTP
 40
0.0
  9
$DIMTM
 40
0.0
  9
$DIMTXT
 40
3.0
  9
$DIMCEN
 40
-3.0
  9
$DIMTSZ
 40
0.0
  9
$DIMTOL
 70
     0
  9
$DIMLIM
 70
     0
  9
$DIMTIH
 70
     0
  9
$DIMTOH
 70
     0
  9
$DIMSE1
 70
     0
  9
$DIMSE2
 70
     0
  9
$DIMTAD
 70
     1
  9
$DIMZIN
 70
    12
  9
$DIMBLK
  1

  9
$DIMASO
 70
     1
  9
$DIMSHO
 70
     0
  9
$DIMPOST
  1

  9
$DIMAPOST
  1

  9
$DIMALT
 70
     0
  9
$DIMALTD
 70
     2
  9
$DIMALTF
 40
0.039
  9
$DIMLFAC
 40
1.0
  9
$DIMTOFL
 70
     0
  9
$DIMTVP
 40
1.5
  9
$DIMTIX
 70
     0
  9
$DIMSOXD
 70
     0
  9
$DIMSAH
 70
     0
  9
$DIMBLK1
  1

  9
$DIMBLK2
  1

  9
$DIMSTYLE
  2
1-2
  9
$DIMCLRD
 70
     0
  9
$DIMCLRE
 70
     0
  9
$DIMCLRT
 70
     0
  9
$DIMTFAC
 40
0.75
  9
$DIMGAP
 40
1.5
  9
$DIMJUST
 70
     0
  9
$DIMSD1
 70
     0
  9
$DIMSD2
 70
     0
  9
$DIMTOLJ
 70
     1
  9
$DIMTZIN
 70
    12
  9
$DIMALTZ
 70
    12
  9
$DIMALTTZ
 70
    12
  9
$DIMUPT
 70
     0
  9
$DIMDEC
 70
     2
  9
$DIMTDEC
 70
     2
  9
$DIMALTU
 70
     2
  9
$DIMALTTD
 70
     2
  9
$DIMTXSTY
  7
ROMANS
  9
$DIMAUNIT
 70
     0
  9
$DIMADEC
 70
     0
  9
$DIMALTRND
 40
0.0
  9
$DIMAZIN
 70
     0
  9
$DIMDSEP
 70
    46
  9
$DIMATFIT
 70
     3
  9
$DIMFRAC
 70
     0
  9
$DIMLDRBLK
  1

  9
$DIMLUNIT
 70
     2
  9
$DIMLWD
 70
    -2
  9
$DIMLWE
 70
    -2
  9
$DIMTMOVE
 70
     2
  9
$DIMFXL
 40
1.0
  9
$DIMFXLON
 70
     0
  9
$DIMJOGANG
 40
0.7853981633974483
  9
$DIMTFILL
 70
     0
  9
$DIMTFILLCLR
 70
     0
  9
$DIMARCSYM
 70
     0
  9
$DIMLTYPE
  6

  9
$DIMLTEX1
  6

  9
$DIMLTEX2
  6

  9
$DIMTXTDIRECTION
 70
     0
  9
$LUNITS
 70
     2
  9
$LUPREC
 70
     2
  9
$SKETCHINC
 40
1.0
  9
$FILLETRAD
 40
0.0
  9
$AUNITS
 70
     0
  9
$AUPREC
 70
     4
  9
$MENU
  1
acad
  9
$ELEVATION
 40
0.0
  9
$PELEVATION
 40
0.0
  9
$THICKNESS
 40
0.0
  9
$LIMCHECK
 70
     0
  9
$CHAMFERA
 40
0.0
  9
$CHAMFERB
 40
0.0
  9
$CHAMFERC
 40
0.0
  9
$CHAMFERD
 40
0.0
  9
$SKPOLY
 70
     0
  9
$TDCREATE
 40
2449527.946145833
  9
$TDUCREATE
 40
2449527.529488426
  9
$TDUPDATE
 40
2459587.621111111
  9
$TDUUPDATE
 40
2459587.162777778
  9
$TDINDWG
 40
0.3203637153
  9
$TDUSRTIMER
 40
0.3203637153
  9
$USRTIMER
 70
     1
  9
$ANGBASE
 50
0.0
  9
$ANGDIR
 70
     0
  9
$PDMODE
 70
     0
  9
$PDSIZE
 40
0.0
  9
$PLINEWID
 40
0.0
  9
$SPLFRAME
 70
     0
  9
$SPLINETYPE
 70
     6
  9
$SPLINESEGS
 70
     8
  9
$HANDSEED
  5
272
  9
$SURFTAB1
 70
    18
  9
$SURFTAB2
 70
    18
  9
$SURFTYPE
 70
     6
  9
$SURFU
 70
    18
  9
$SURFV
 70
    18
  9
$UCSBASE
  2

  9
$UCSNAME
  2

  9
$UCSORG
 10
0.0
 20
0.0
 30
0.0
  9
$UCSXDIR
 10
1.0
 20
0.0
 30
0.0
  9
$UCSYDIR
 10
0.0
 20
1.0
 30
0.0
  9
$UCSORTHOREF
  2

  9
$UCSORTHOVIEW
 70
     0
  9
$UCSORGTOP
 10
0.0
 20
0.0
 30
0.0
  9
$UCSORGBOTTOM
 10
0.0
 20
0.0
 30
0.0
  9
$UCSORGLEFT
 10
0.0
 20
0.0
 30
0.0
  9
$UCSORGRIGHT
 10
0.0
 20
0.0
 30
0.0
  9
$UCSORGFRONT
 10
0.0
 20
0.0
 30
0.0
  9
$UCSORGBACK
 10
0.0
 20
0.0
 30
0.0
  9
$PUCSBASE
  2

  9
$PUCSNAME
  2

  9
$PUCSORG
 10
0.0
 20
0.0
 30
0.0
  9
$PUCSXDIR
 10
1.0
 20
0.0
 30
0.0
  9
$PUCSYDIR
 10
0.0
 20
1.0
 30
0.0
  9
$PUCSORTHOREF
  2

  9
$PUCSORTHOVIEW
 70
     0
  9
$PUCSORGTOP
 10
0.0
 20
0.0
 30
0.0
  9
$PUCSORGBOTTOM
 10
0.0
 20
0.0
 30
0.0
  9
$PUCSORGLEFT
 10
0.0
 20
0.0
 30
0.0
  9
$PUCSORGRIGHT
 10
0.0
 20
0.0
 30
0.0
  9
$PUCSORGFRONT
 10
0.0
 20
0.0
 30
0.0
  9
$PUCSORGBACK
 10
0.0
 20
0.0
 30
0.0
  9
$USERI1
 70
     0
  9
$USERI2
 70
     0
  9
$USERI3
 70
     0
  9
$USERI4
 70
     0
  9
$USERI5
 70
     0
  9
$USERR1
 40
0.0
  9
$USERR2
 40
0.0
  9
$USERR3
 40
0.0
  9
$USERR4
 40
0.0
  9
$USERR5
 40
0.0
  9
$WORLDVIEW
 70
     1
  9
$SHADEDGE
 70
     3
  9
$SHADEDIF
 70
    70
  9
$TILEMODE
 70
     1
  9
$MAXACTVP
 70
    16
  9
$PINSBASE
 10
0.0
 20
0.0
 30
0.0
  9
$PLIMCHECK
 70
     0
  9
$PEXTMIN
 10
1.000000000000000E+20
 20
1.000000000000000E+20
 30
1.000000000000000E+20
  9
$PEXTMAX
 10
-1.000000000000000E+20
 20
-1.000000000000000E+20
 30
-1.000000000000000E+20
  9
$PLIMMIN
 10
0.0
 20
0.0
  9
$PLIMMAX
 10
420.0
 20
297.0
  9
$UNITMODE
 70
     0
  9
$VISRETAIN
 70
     0
  9
$PLINEGEN
 70
     0
  9
$PSLTSCALE
 70
     1
  9
$TREEDEPTH
 70
  3020
  9
$CMLSTYLE
  2
STANDARD
  9
$CMLJUST
 70
     0
  9
$CMLSCALE
 40
1.0
  9
$PROXYGRAPHICS
 70
     1
  9
$MEASUREMENT
 70
     0
  9
$CELWEIGHT
370
    -1
  9
$ENDCAPS
280
     0
  9
$JOINSTYLE
280
     0
  9
$LWDISPLAY
290
     0
  9
$INSUNITS
 70
     0
  9
$HYPERLINKBASE
  1

  9
$STYLESHEET
  1

  9
$XEDIT
290
     1
  9
$CEPSNTYPE
380
     0
  9
$PSTYLEMODE
290
     1
  9
$FINGERPRINTGUID
  2
{249E67AD-11A9-4F8C-9CBE-1388FF87EDF9}
  9
$VERSIONGUID
  2
{D023D6E1-0EE1-D04F-BA8A-12B42661C96C}
  9
$EXTNAMES
290
     1
  9
$PSVPSCALE
 40
0.0
  9
$OLESTARTUP
290
     0
  9
$SORTENTS
280
   127
  9
$INDEXCTL
280
     0
  9
$HIDETEXT
280
     0
  9
$XCLIPFRAME
280
     2
  9
$HALOGAP
280
     0
  9
$OBSCOLOR
 70
   257
  9
$OBSLTYPE
280
     0
  9
$INTERSECTIONDISPLAY
280
     0
  9
$INTERSECTIONCOLOR
 70
   257
  9
$DIMASSOC
280
     1
  9
$PROJECTNAME
  1

  9
$CAMERADISPLAY
290
     0
  9
$LENSLENGTH
 40
50.0
  9
$CAMERAHEIGHT
 40
0.0
  9
$STEPSPERSEC
 40
2.0
  9
$STEPSIZE
 40
6.0
  9
$3DDWFPREC
 40
2.0
  9
$PSOLWIDTH
 40
0.25
  9
$PSOLHEIGHT
 40
4.0
  9
$LOFTANG1
 40
1.570796326794896
  9
$LOFTANG2
 40
1.570796326794896
  9
$LOFTMAG1
 40
0.0
  9
$LOFTMAG2
 40
0.0
  9
$LOFTPARAM
 70
     7
  9
$LOFTNORMALS
280
     1
  9
$LATITUDE
 40
37.795
  9
$LONGITUDE
 40
-122.394
  9
$NORTHDIRECTION
 40
0.0
  9
$TIMEZONE
 70
 -8000
  9
$LIGHTGLYPHDISPLAY
280
     1
  9
$TILEMODELIGHTSYNCH
280
     1
  9
$CMATERIAL
347
14E
  9
$SOLIDHIST
280
     0
  9
$SHOWHIST
280
     1
  9
$DWFFRAME
280
     2
  9
$DGNFRAME
280
     0
  9
$REALWORLDSCALE
290
     1
  9
$INTERFERECOLOR
 62
     1
  9
$INTERFEREOBJVS
345
170
  9
$INTERFEREVPVS
346
16D
  9
$CSHADOW
280
     0
  9
$SHADOWPLANELOCATION
 40
0.0
  0
ENDSEC
  0
SECTION
  2
CLASSES
  0
CLASS
  1
DICTIONARYVAR
  2
AcDbDictionaryVar
  3
ObjectDBX Classes
 90
        0
 91
       36
280
     0
281
     0
  0
CLASS
  1
ACDBDICTIONARYWDFLT
  2
AcDbDictionaryWithDefault
  3
ObjectDBX Classes
 90
        0
 91
        1
280
     0
281
     0
  0
CLASS
  1
MATERIAL
  2
AcDbMaterial
  3
ObjectDBX Classes
 90
     1153
 91
        3
280
     0
281
     0
  0
CLASS
  1
VISUALSTYLE
  2
AcDbVisualStyle
  3
ObjectDBX Classes
 90
     4095
 91
       24
280
     0
281
     0
  0
CLASS
  1
TABLESTYLE
  2
AcDbTableStyle
  3
ObjectDBX Classes
 90
     4095
 91
        1
280
     0
281
     0
  0
CLASS
  1
SCALE
  2
AcDbScale
  3
ObjectDBX Classes
 90
     1153
 91
       17
280
     0
281
     0
  0
CLASS
  1
MLEADERSTYLE
  2
AcDbMLeaderStyle
  3
ACDB_MLEADERSTYLE_CLASS
 90
     4095
 91
        1
280
     0
281
     0
  0
CLASS
  1
ACDBSECTIONVIEWSTYLE
  2
AcDbSectionViewStyle
  3
ObjectDBX Classes
 90
     1025
 91
        1
280
     0
281
     0
  0
CLASS
  1
ACDBDETAILVIEWSTYLE
  2
AcDbDetailViewStyle
  3
ObjectDBX Classes
 90
     1025
 91
        1
280
     0
281
     0
  0
CLASS
  1
SORTENTSTABLE
  2
AcDbSortentsTable
  3
ObjectDBX Classes
 90
        0
 91
        1
280
     0
281
     0
  0
CLASS
  1
ACDB_TEXTOBJECTCONTEXTDATA_CLASS
  2
AcDbTextObjectContextData
  3
ObjectDBX Classes
 90
     1153
 91
       31
280
     0
281
     0
  0
CLASS
  1
CELLSTYLEMAP
  2
AcDbCellStyleMap
  3
ObjectDBX Classes
 90
     1152
 91
        1
280
     0
281
     0
  0
ENDSEC
  0
SECTION
  2
TABLES
  0
TABLE
  2
VPORT
  5
1D
330
0
100
AcDbSymbolTable
 70
     1
  0
VPORT
  5
1E
330
1D
100
AcDbSymbolTableRecord
100
AcDbViewportTableRecord
  2
*Active
 70
     0
 10
0.0
 20
0.0
 11
1.0
 21
1.0
 12
123.7512563175228
 22
-1.719136798755698
 13
0.0
 23
0.0
 14
5.0
 24
5.0
 15
10.0
 25
10.0
 16
0.0
 26
0.0
 36
1.0
 17
0.0
 27
0.0
 37
0.0
 40
447.8853433411699
 41
1.787234042553191
 42
50.0
 43
0.0
 44
0.0
 50
0.0
 51
0.0
 71
     0
 72
   100
 73
     1
 74
     1
 75
     0
 76
     0
 77
     0
 78
     0
281
     0
 65
     1
110
0.0
120
0.0
130
0.0
111
1.0
121
0.0
131
0.0
112
0.0
122
1.0
132
0.0
 79
     0
146
0.0
348
16C
 60
     3
 61
     5
292
     1
282
     1
141
0.0
142
0.0
 63
   250
421
  3355443
1001
ACAD_NAV_VCDISPLAY
1070
     3
  0
ENDTAB
  0
TABLE
  2
LTYPE
  5
18
330
0
100
AcDbSymbolTable
 70
     3
  0
LTYPE
  5
19
330
18
100
AcDbSymbolTableRecord
100
AcDbLinetypeTableRecord
  2
BYBLOCK
 70
     0
  3

 72
    65
 73
     0
 40
0.0
  0
LTYPE
  5
1A
330
18
100
AcDbSymbolTableRecord
100
AcDbLinetypeTableRecord
  2
BYLAYER
 70
     0
  3

 72
    65
 73
     0
 40
0.0
  0
LTYPE
  5
A
330
18
100
AcDbSymbolTableRecord
100
AcDbLinetypeTableRecord
  2
CONTINUOUS
 70
     0
  3
Solid line
 72
    65
 73
     0
 40
0.0
  0
LTYPE
  5
81
330
18
100
AcDbSymbolTableRecord
100
AcDbLinetypeTableRecord
  2
CENTER2
 70
     0
  3
___ _ ___ _ ___ _ ___ _ ___ _ ___ _ ___ _ ___ _
 72
    65
 73
     4
 40
28.575
 49
19.05
 74
     0
 49
-3.174999999999999
 74
     0
 49
3.174999999999999
 74
     0
 49
-3.174999999999999
 74
     0
  0
LTYPE
  5
3C
330
18
100
AcDbSymbolTableRecord
100
AcDbLinetypeTableRecord
  2
HIDDEN
 70
     0
  3
__ __ __ __ __ __ __ __ __ __ __ __ __ __ __ __
 72
    65
 73
     2
 40
9.524999999999998
 49
6.349999999999999
 74
     0
 49
-3.174999999999999
 74
     0
  0
ENDTAB
  0
TABLE
  2
LAYER
  5
14
102
{ACAD_XDICTIONARY
360
1AA
102
}
330
0
100
AcDbSymbolTable
 70
    10
  0
LAYER
  5
6
102
{ACAD_XDICTIONARY
360
253
102
}
330
14
100
AcDbSymbolTableRecord
100
AcDbLayerTableRecord
  2
0
 70
     0
 62
     7
  6
CONTINUOUS
370
    -3
390
7
347
15E
348
0
  0
LAYER
  5
26
102
{ACAD_XDICTIONARY
360
255
102
}
330
14
100
AcDbSymbolTableRecord
100
AcDbLayerTableRecord
  2
DIMS
 70
     0
 62
     1
  6
CONTINUOUS
370
    -3
390
7
347
15E
348
0
  0
LAYER
  5
3E
102
{ACAD_XDICTIONARY
360
257
102
}
330
14
100
AcDbSymbolTableRecord
100
AcDbLayerTableRecord
  2
ANCON-DSD
 70
     0
 62
     3
  6
CONTINUOUS
370
    -3
390
7
347
15E
348
0
  0
LAYER
  5
4A
330
14
100
AcDbSymbolTableRecord
100
AcDbLayerTableRecord
  2
DEFPOINTS
 70
     0
 62
     7
  6
CONTINUOUS
290
     0
370
    -3
390
7
347
15E
348
0
  0
LAYER
  5
121
102
{ACAD_XDICTIONARY
360
259
102
}
330
14
100
AcDbSymbolTableRecord
100
AcDbLayerTableRecord
  2
CONCRETE
 70
     0
 62
     2
  6
CONTINUOUS
370
    -3
390
7
347
15E
348
0
  0
LAYER
  5
3B
102
{ACAD_XDICTIONARY
360
25B
102
}
330
14
100
AcDbSymbolTableRecord
100
AcDbLayerTableRecord
  2
20MM-JOINT
 70
     0
 62
     7
  6
CONTINUOUS
370
    -3
390
7
347
15E
348
0
  0
LAYER
  5
2D
102
{ACAD_XDICTIONARY
360
25D
102
}
330
14
100
AcDbSymbolTableRecord
100
AcDbLayerTableRecord
  2
SPECP
 70
     0
 62
     6
  6
CONTINUOUS
370
    -3
390
7
347
15E
348
0
  0
LAYER
  5
2B
102
{ACAD_XDICTIONARY
360
25F
102
}
330
14
100
AcDbSymbolTableRecord
100
AcDbLayerTableRecord
  2
SPECD
 70
     0
 62
     6
  6
CONTINUOUS
370
    -3
390
7
347
15E
348
0
  0
LAYER
  5
BE
102
{ACAD_XDICTIONARY
360
261
102
}
330
14
100
AcDbSymbolTableRecord
100
AcDbLayerTableRecord
  2
20MM-DIMS
 70
     0
 62
     1
  6
CONTINUOUS
370
    -3
390
7
347
15E
348
0
  0
LAYER
  5
1A8
102
{ACAD_XDICTIONARY
360
263
102
}
330
14
100
AcDbSymbolTableRecord
100
AcDbLayerTableRecord
  2
ANCON-TEXT
 70
     0
 62
     6
  6
CONTINUOUS
370
    -3
390
7
347
15E
348
0
  0
ENDTAB
  0
TABLE
  2
STYLE
  5
15
330
0
100
AcDbSymbolTable
 70
     3
  0
STYLE
  5
16
330
15
100
AcDbSymbolTableRecord
100
AcDbTextStyleTableRecord
  2
STANDARD
 70
     0
 40
0.0
 41
1.0
 50
0.0
 71
     0
 42
6.0
  3
txt.shx
  4

  0
STYLE
  5
27
330
15
100
AcDbSymbolTableRecord
100
AcDbTextStyleTableRecord
  2
ROMANS
 70
     0
 40
0.0
 41
1.0
 50
0.0
 71
     0
 42
5.0
  3
romans
  4

  0
STYLE
  5
1C8
330
15
100
AcDbSymbolTableRecord
100
AcDbTextStyleTableRecord
  2
arial
 70
     0
 40
0.0
 41
1.0
 50
0.0
 71
     0
 42
5.0
  3
arial.ttf
  4

1001
AcadAnnotative
1000
AnnotativeData
1002
{
1070
     1
1070
     1
1002
}
1001
ACAD
1000
Arial
1071
       34
  0
ENDTAB
  0
TABLE
  2
VIEW
  5
1B
330
0
100
AcDbSymbolTable
 70
     0
  0
ENDTAB
  0
TABLE
  2
UCS
  5
1C
330
0
100
AcDbSymbolTable
 70
     0
  0
ENDTAB
  0
TABLE
  2
APPID
  5
1F
330
0
100
AcDbSymbolTable
 70
     4
  0
APPID
  5
20
330
1F
100
AcDbSymbolTableRecord
100
AcDbRegAppTableRecord
  2
ACAD
 70
     0
  0
APPID
  5
1A9
330
1F
100
AcDbSymbolTableRecord
100
AcDbRegAppTableRecord
  2
ACAD_NAV_VCDISPLAY
 70
     0
  0
APPID
  5
1C9
330
1F
100
AcDbSymbolTableRecord
100
AcDbRegAppTableRecord
  2
AcadAnnoPO
 70
     0
  0
APPID
  5
1CC
330
1F
100
AcDbSymbolTableRecord
100
AcDbRegAppTableRecord
  2
AcadAnnotative
 70
     0
  0
ENDTAB
  0
TABLE
  2
DIMSTYLE
  5
21
330
0
100
AcDbSymbolTable
 70
     1
100
AcDbDimStyleTable
 71
     0
  0
DIMSTYLE
105
29
102
{ACAD_REACTORS
330
9D
330
129
330
136
330
AA
330
41
330
4F
330
6D
330
5C
330
BD
330
CB
330
D8
330
110
330
EB
330
F8
102
}
330
21
100
AcDbSymbolTableRecord
100
AcDbDimStyleTableRecord
  2
1-2
 70
     0
 40
0.0
 41
4.0
 42
3.0
 43
10.0
 44
3.0
 46
1.25
 73
     0
 74
     0
 77
     1
 78
    12
140
3.0
141
-3.0
143
0.039
145
1.5
146
0.75
147
1.5
271
     2
272
     2
279
     2
284
    12
285
    12
286
    12
340
27
  0
ENDTAB
  0
TABLE
  2
BLOCK_RECORD
  5
1
330
0
100
AcDbSymbolTable
 70
    17
  0
BLOCK_RECORD
  5
2
102
{ACAD_XDICTIONARY
360
3
102
}
330
1
100
AcDbSymbolTableRecord
100
AcDbBlockTableRecord
  2
*MODEL_SPACE
340
C
 70
     0
280
     1
281
     0
  0
BLOCK_RECORD
  5
E
102
{ACAD_XDICTIONARY
360
F
102
}
330
1
100
AcDbSymbolTableRecord
100
AcDbBlockTableRecord
  2
*PAPER_SPACE
340
13
 70
     0
280
     1
281
     0
  0
BLOCK_RECORD
  5
9E
330
1
100
AcDbSymbolTableRecord
100
AcDbBlockTableRecord
  2
*D0
340
0
 70
     0
280
     1
281
     0
  0
BLOCK_RECORD
  5
12A
330
1
100
AcDbSymbolTableRecord
100
AcDbBlockTableRecord
  2
*D1
340
0
 70
     0
280
     1
281
     0
  0
BLOCK_RECORD
  5
137
330
1
100
AcDbSymbolTableRecord
100
AcDbBlockTableRecord
  2
*D2
340
0
 70
     0
280
     1
281
     0
  0
BLOCK_RECORD
  5
AB
330
1
100
AcDbSymbolTableRecord
100
AcDbBlockTableRecord
  2
*D3
340
0
 70
     0
280
     1
281
     0
  0
BLOCK_RECORD
  5
42
330
1
100
AcDbSymbolTableRecord
100
AcDbBlockTableRecord
  2
*D4
340
0
 70
     0
280
     1
281
     0
  0
BLOCK_RECORD
  5
50
330
1
100
AcDbSymbolTableRecord
100
AcDbBlockTableRecord
  2
*D5
340
0
 70
     0
280
     1
281
     0
  0
BLOCK_RECORD
  5
6E
330
1
100
AcDbSymbolTableRecord
100
AcDbBlockTableRecord
  2
*D6
340
0
 70
     0
280
     1
281
     0
  0
BLOCK_RECORD
  5
5D
330
1
100
AcDbSymbolTableRecord
100
AcDbBlockTableRecord
  2
*D7
340
0
 70
     0
280
     1
281
     0
  0
BLOCK_RECORD
  5
BF
330
1
100
AcDbSymbolTableRecord
100
AcDbBlockTableRecord
  2
*D8
340
0
 70
     0
280
     1
281
     0
  0
BLOCK_RECORD
  5
CC
330
1
100
AcDbSymbolTableRecord
100
AcDbBlockTableRecord
  2
*D9
340
0
 70
     0
280
     1
281
     0
  0
BLOCK_RECORD
  5
D9
330
1
100
AcDbSymbolTableRecord
100
AcDbBlockTableRecord
  2
*D10
340
0
 70
     0
280
     1
281
     0
  0
BLOCK_RECORD
  5
111
330
1
100
AcDbSymbolTableRecord
100
AcDbBlockTableRecord
  2
*D11
340
0
 70
     0
280
     1
281
     0
  0
BLOCK_RECORD
  5
EC
330
1
100
AcDbSymbolTableRecord
100
AcDbBlockTableRecord
  2
*D12
340
0
 70
     0
280
     1
281
     0
  0
BLOCK_RECORD
  5
F9
330
1
100
AcDbSymbolTableRecord
100
AcDbBlockTableRecord
  2
*D13
340
0
 70
     0
280
     1
281
     0
  0
BLOCK_RECORD
  5
19E
102
{ACAD_XDICTIONARY
360
19F
102
}
330
1
100
AcDbSymbolTableRecord
100
AcDbBlockTableRecord
  2
A$Ca8201df8
340
0
102
{BLKREFS
331
1A6
102
}
 70
     0
280
     1
281
     0
  0
BLOCK_RECORD
  5
1A4
330
1
100
AcDbSymbolTableRecord
100
AcDbBlockTableRecord
  2
Leviat info
340
0
310
28000000300000003000000001002000000000000024000001000000010000000000000000000000302821FF302821FF302821FF302821FF302821FF302821FF302821FF302821FF302821FF302821FF302821FF302821FF302821FF302821FF302821FF302821FF302821FF302821FF302821FF302821FF302821FF302821
310
FF302821FF302821FF302821FF302821FF302821FF302821FF302821FF302821FF302821FF302821FF302821FF302821FF302821FF302821FF302821FF302821FF302821FF302821FF302821FF302821FF302821FF302821FF302821FF302821FF302821FF302821FF302821FF302821FF302821FF302821FF302821FF3028
310
21FF302821FF302821FF302821FF302821FF302821FF302821FF302821FF302821FF302821FF302821FF302821FF302821FF302821FF302821FF302821FF302821FF302821FF302821FF302821FF302821FF302821FF302821FF302821FF302821FF302821FF302821FF302821FF302821FF302821FF302821FF302821FF30
310
2821FF302821FF302821FF302821FF302821FF302821FF302821FF302821FF302821FF302821FF302821FF302821FF302821FF302821FF302821FF302821FF302821FF302821FF302821FF302821FF302821FF302821FF302821FF302821FF302821FF302821FF302821FF302821FF302821FF302821FF302821FF302821FF
310
302821FF302821FF302821FF302821FF302821FF302821FF302821FF302821FF302821FF302821FF302821FF302821FF302821FF302821FF302821FF302821FF302821FF302821FF302821FF302821FF302821FF302821FF302821FF302821FF302821FF302821FF302821FF302821FF302821FF302821FF302821FF302821
310
FF302821FF302821FF302821FF302821FF302821FF302821FF302821FF302821FF302821FF302821FF302821FF302821FF302821FF302821FF302821FF302821FF302821FF302821FF302821FF302821FF302821FF302821FF302821FF302821FF302821FF302821FF302821FF302821FF302821FF302821FF302821FF3028
310
21FF302821FF302821FF302821FF302821FF302821FF302821FF302821FF302821FF302821FF302821FF302821FF302821FF302821FF302821FF302821FF302821FF302821FF302821FF302821FF302821FF302821FF302821FF302821FF302821FF302821FF302821FF302821FF302821FF302821FF302821FF302821FF30
310
2821FF302821FF302821FF302821FF302821FF302821FF302821FF302821FF302821FF302821FF302821FF302821FF302821FF302821FF302821FF302821FF302821FF302821FF302821FF302821FF302821FF302821FF302821FF302821FF302821FF302821FF302821FF302821FF302821FF302821FF302821FF302821FF
310
302821FF302821FF302821FF302821FF302821FF302821FF302821FF302821FF302821FF302821FF302821FF302821FF302821FF302821FF302821FF302821FF302821FF302821FF302821FF302821FF302821FF302821FF302821FF302821FF302821FF302821FF302821FF302821FF302821FF302821FF302821FF302821
310
FF302821FF302821FF302821FF302821FF302821FF302821FF302821FF302821FF302821FF302821FF302821FF302821FF302821FF302821FF302821FF302821FF302821FF302821FF302821FF302821FF302821FF302821FF302821FF302821FF302821FF302821FF302821FF302821FF302821FF302821FF302821FF3028
310
21FF302821FF302821FF302821FF302821FF302821FF302821FF302821FF302821FF302821FF302821FF302821FF302821FF302821FF302821FF302821FF302821FF302821FF302821FF302821FF302821FF302821FF302821FF302821FF302821FF302821FF302821FF302821FF302821FF302821FF302821FF302821FF30
310
2821FF302821FF302821FF302821FF302821FF302821FF302821FF302821FF302821FF302821FF302821FF302821FF302821FF302821FF302821FF302821FF302821FF302821FF302821FF302821FF302821FF302821FF302821FF302821FF302821FF302821FF302821FF302821FF302821FF302821FF302821FF302821FF
310
302821FF302821FF302821FF302821FF302821FF302821FF302821FF302821FF302821FF302821FF302821FF302821FF302821FF302821FF302821FF302821FF302821FF302821FF302821FF302821FF302821FF302821FF302821FF302821FF302821FF302821FF302821FF302821FF302821FF302821FF302821FF302821
310
FF302821FF302821FF302821FF302821FF302821FF302821FF302821FF302821FF302821FF302821FF302821FF302821FF302821FF302821FF302821FF302821FF302821FF302821FF302821FF302821FF302821FF302821FF302821FF302821FF302821FF302821FF302821FF302821FF302821FF302821FF302821FF3028
310
21FF302821FF302821FF302821FF302821FF302821FF302821FF302821FF302821FF302821FF302821FF302821FF302821FF302821FF302821FF302821FF302821FF302821FF302821FF302821FF302821FF302821FF302821FF302821FF302821FF302821FF302821FF302821FF302821FF302821FF302821FF302821FF30
310
2821FF302821FF302821FF302821FF302821FF302821FF302821FF302821FF302821FF302821FF302821FF302821FF302821FF302821FF302821FF302821FF302821FF302821FF302821FF302821FF302821FF302821FF302821FF302821FF302821FF302821FF302821FF302821FF302821FF302821FF302821FF302821FF
310
302821FF302821FF302821FF302821FF302821FF302821FF302821FF302821FF302821FF302821FF302821FF302821FF302821FF302821FF302821FF302821FF302821FF302821FF302821FF302821FF302821FF302821FF302821FF302821FF302821FF302821FF302821FF302821FF302821FF302821FF302821FF302821
310
FF302821FF302821FF302821FF302821FF302821FF302821FF302821FF302821FF302821FF302821FF302821FF302821FF302821FF302821FF302821FF302821FF302821FF302821FF302821FF302821FF302821FF302821FF302821FF302821FF302821FF302821FF302821FF302821FF302821FF302821FF302821FF3028
310
21FF302821FF302821FF302821FF302821FF302821FF302821FF302821FF302821FF302821FF302821FF302821FF302821FF302821FF302821FF302821FF302821FF302821FF302821FF302821FF302821FF302821FF302821FF302821FF302821FF302821FF302821FF302821FF302821FF302821FF302821FF302821FF30
310
2821FF302821FF302821FF302821FF302821FF302821FF302821FF302821FF302821FF302821FF302821FF302821FF302821FF302821FF302821FF302821FF302821FF302821FF302821FF302821FF302821FF302821FF302821FF302821FF302821FF302821FF302821FF302821FF302821FF302821FF302821FF302821FF
310
302821FF302821FF302821FF302821FF302821FF302821FF302821FF302821FF302821FF302821FF302821FF302821FF302821FF302821FF302821FF302821FF302821FF302821FF302821FF302821FF302821FF302821FF302821FF302821FF302821FF302821FF302821FF302821FF302821FF302821FF302821FF302821
310
FF302821FF302821FF302821FF302821FF302821FF302821FF302821FF302821FF302821FF302821FF302821FF302821FF302821FF302821FF302821FF302821FF302821FF302821FF302821FF302821FF302821FF302821FF302821FF302821FF302821FF302821FF302821FF302821FF302821FF302821FF302821FF3028
310
21FF302821FF302821FF302821FF302821FF302821FF302821FF302821FF302821FF302821FF302821FF302821FF302821FF302821FF302821FF302821FF302821FF302821FF302821FF302821FF302821FF302821FF302821FF302821FF302821FF302821FF302821FF302821FF302821FF302821FF302821FF302821FF30
310
2821FF302821FF302821FF302821FF302821FF302821FF302821FF302821FF302821FF302821FF302821FF302821FF302821FF302821FF302821FF302821FF302821FF302821FF302821FF302821FF302821FF302821FF302821FF302821FF302821FF302821FF302821FF302821FF302821FF302821FF302821FF302821FF
310
302821FF302821FF302821FF302821FF302821FF302821FF302821FF302821FF302821FF302821FF302821FF302821FF302821FF302821FF302821FF302821FF302821FF302821FF302821FF302821FF302821FF302821FF302821FF302821FF302821FF302821FF302821FF302821FF302821FF302821FF302821FF302821
310
FF302821FF302821FF302821FF302821FF302821FF302821FF302821FF302821FF302821FF302821FF302821FF302821FF302821FF302821FF302821FF302821FF302821FF302821FF302821FF302821FF302821FF302821FF302821FF302821FF302821FF302821FF302821FF302821FF302821FF302821FF302821FF3028
310
21FF302821FF302821FF302821FF302821FF302821FF302821FF302821FF302821FF302821FF302821FF302821FF302821FF302821FF302821FF302821FF302821FF302821FF302821FF302821FF302821FF302821FF302821FF302821FF302821FF302821FF302821FF302821FF302821FF302821FF302821FF302821FF30
310
2821FF302821FF302821FF302821FF302821FF302821FF302821FF302821FF302821FF302821FF302821FF302821FF302821FF302821FF302821FF302821FF302821FF302821FF302821FF302821FFFF00FFFFFF00FFFFFF00FFFFFF00FFFFFF00FFFFFF00FFFFFF00FFFFFF00FFFFFF00FFFFFF00FFFFFF00FFFFFF00FFFF
310
FF00FFFFFF00FFFFFF00FFFFFF00FFFFFF00FFFFFF00FFFFFF00FFFFFF00FFFFFF00FFFFFF00FFFFFF00FFFF302821FFFF00FFFFFF00FFFFFF00FFFFFF00FFFFFF00FFFFFF00FFFFFF00FFFFFF00FFFFFF00FFFFFF00FFFFFF00FFFFFF00FFFF302821FF302821FF302821FF302821FF302821FF302821FF302821FF302821
310
FF302821FF302821FF302821FF302821FFFF00FFFFFF00FFFFFF00FFFFFF00FFFFFF00FFFFFF00FFFFFF00FFFFFF00FFFFFF00FFFFFF00FFFFFF00FFFFFF00FFFFFF00FFFFFF00FFFFFF00FFFFFF00FFFFFF00FFFFFF00FFFFFF00FFFFFF00FFFFFF00FFFFFF00FFFF302821FFFF00FFFFFF00FFFFFF00FFFFFF00FFFFFF00
310
FFFFFF00FFFFFF00FFFFFF00FFFFFF00FFFFFF00FFFFFF00FFFFFF00FFFFFF00FFFF302821FF302821FF302821FF302821FF302821FF302821FF302821FF302821FF302821FF302821FF302821FFFF00FFFFFF00FFFFFF00FFFFFF00FFFFFF00FFFFFF00FFFFFF00FFFFFF00FFFFFF00FFFFFF00FFFFFF00FFFFFF00FFFFFF
310
00FFFFFF00FFFFFF00FFFFFF00FFFFFF00FFFFFF00FFFFFF00FFFF302821FFFF00FFFFFF00FFFFFF00FFFF302821FFFF00FFFFFF00FFFFFF00FFFFFF00FFFFFF00FFFFFF00FFFFFF00FFFFFF00FFFFFF00FFFF302821FFFF00FFFFFF00FFFFFF00FFFF302821FF302821FF302821FF302821FF302821FF302821FF302821FF
310
302821FF302821FF302821FF302821FFFF00FFFFFF00FFFFFF00FFFFFF00FFFFFF00FFFFFF00FFFFFF00FFFFFF00FFFFFF00FFFFFF00FFFFFF00FFFFFF00FFFFFF00FFFFFF00FFFFFF00FFFFFF00FFFFFF00FFFFFF00FFFFFF00FFFFFF00FFFFFF00FFFFFF00FFFFFF00FFFFFF00FFFFFF00FFFFFF00FFFFFF00FFFFFF00FF
310
FFFF00FFFFFF00FFFFFF00FFFFFF00FFFFFF00FFFFFF00FFFFFF00FFFF302821FF302821FF302821FF302821FF302821FF302821FF302821FF302821FF302821FF302821FF302821FF302821FF302821FFFF00FFFFFF00FFFFFF00FFFFFF00FFFFFF00FFFFFF00FFFFFF00FFFFFF00FFFFFF00FFFFFF00FFFFFF00FFFFFF00
310
FFFFFF00FFFFFF00FFFFFF00FFFFFF00FFFFFF00FFFFFF00FFFFFF00FFFFFF00FFFFFF00FFFFFF00FFFFFF00FFFFFF00FFFFFF00FFFFFF00FFFFFF00FFFFFF00FFFFFF00FFFFFF00FFFFFF00FFFFFF00FFFFFF00FFFFFF00FFFFFF00FFFF302821FF302821FF302821FF302821FF302821FF302821FF302821FF302821FF30
310
2821FF302821FF302821FF302821FF302821FFFF00FFFFFF00FFFFFF00FFFFFF00FFFFFF00FFFFFF00FFFFFF00FFFFFF00FFFFFF00FFFFFF00FFFFFF00FFFFFF00FFFFFF00FFFFFF00FFFFFF00FFFFFF00FFFFFF00FFFFFF00FFFF302821FFFF00FFFFFF00FFFFFF00FFFFFF00FFFFFF00FFFFFF00FFFFFF00FFFFFF00FFFF
310
FF00FFFFFF00FFFFFF00FFFFFF00FFFFFF00FFFFFF00FFFFFF00FFFFFF00FFFF302821FF302821FF302821FF302821FF302821FF302821FF302821FF302821FF302821FF302821FF302821FF302821FF302821FF302821FFFF00FFFFFF00FFFFFF00FFFFFF00FFFF302821FFFF00FFFFFF00FFFFFF00FFFFFF00FFFFFF00FF
310
FFFF00FFFFFF00FFFFFF00FFFFFF00FFFF302821FFFF00FFFFFF00FFFFFF00FFFFFF00FFFFFF00FFFFFF00FFFF302821FF302821FF302821FF302821FF302821FF302821FF302821FF302821FF302821FF302821FF302821FF302821FF302821FF302821FF302821FF302821FF302821FF302821FF302821FF302821FF3028
310
21FF302821FF302821FF302821FF302821FF302821FF302821FFFF00FFFFFF00FFFFFF00FFFFFF00FFFF302821FFFF00FFFFFF00FFFFFF00FFFFFF00FFFFFF00FFFFFF00FFFFFF00FFFFFF00FFFFFF00FFFFFF00FFFFFF00FFFFFF00FFFFFF00FFFFFF00FFFFFF00FFFFFF00FFFF302821FF302821FF302821FF302821FF30
310
2821FF302821FF302821FF302821FF302821FF302821FF302821FF302821FF302821FF302821FF302821FF302821FF302821FF302821FF302821FF302821FF302821FF302821FF302821FF302821FF302821FF302821FFFF00FFFFFF00FFFFFF00FFFFFF00FFFFFF00FFFF302821FFFF00FFFFFF00FFFFFF00FFFFFF00FFFF
310
FF00FFFFFF00FFFFFF00FFFFFF00FFFFFF00FFFF302821FFFF00FFFFFF00FFFFFF00FFFFFF00FFFFFF00FFFFFF00FFFF302821FF302821FF302821FF302821FF302821FF302821FF302821FF302821FF302821FF302821FF302821FF302821FF302821FF302821FF302821FF302821FF302821FF302821FF302821FF302821
310
FF302821FF302821FF302821FF302821FF302821FF302821FFFF00FFFFFF00FFFFFF00FFFFFF00FFFFFF00FFFFFF00FFFFFF00FFFFFF00FFFF302821FF302821FF302821FF302821FF302821FF302821FF302821FF302821FF302821FF302821FF302821FF302821FF302821FF302821FF302821FF302821FF302821FF3028
310
21FF302821FF302821FF302821FF302821FF302821FF302821FF302821FF302821FF302821FF302821FF302821FF302821FF302821FF302821FF302821FF302821FF302821FF302821FF302821FF302821FF302821FF302821FFFF00FFFF302821FFFF00FFFFFF00FFFFFF00FFFFFF00FFFFFF00FFFFFF00FFFF302821FF30
310
2821FF302821FF302821FF302821FF302821FF302821FF302821FF302821FF302821FF302821FF302821FF302821FF302821FF302821FF302821FF302821FF302821FF302821FF302821FF302821FF302821FF302821FF302821FF302821FF302821FF302821FF302821FF302821FF302821FF302821FF302821FF302821FF
310
302821FF302821FF302821FF302821FF302821FF302821FF302821FFFF00FFFF302821FFFF00FFFFFF00FFFFFF00FFFFFF00FFFFFF00FFFFFF00FFFF302821FF302821FF302821FF302821FF302821FF302821FF302821FF302821FF302821FF302821FF302821FF302821FF302821FF302821FF302821FF302821FF302821
310
FF302821FF302821FF302821FF302821FF302821FF302821FF302821FF302821FF302821FF302821FF302821FF302821FF302821FF302821FF302821FF302821FF302821FF302821FF302821FF302821FF302821FF302821FF302821FF302821FF302821FF302821FF302821FF302821FF302821FF302821FF302821FF3028
310
21FF302821FF302821FF302821FF302821FF302821FF302821FF302821FF302821FF302821FF302821FF302821FF302821FF302821FF302821FF302821FF302821FF302821FF302821FF302821FF302821FF302821FF302821FF302821FF302821FF302821FF302821FF302821FF302821FF302821FF302821FF302821FF30
310
2821FF302821FF302821FF302821FF302821FF302821FF302821FF302821FF302821FF302821FF302821FF302821FF302821FF302821FF302821FF302821FF302821FF302821FF302821FF302821FF302821FF302821FF302821FF302821FF302821FF302821FF302821FF302821FF302821FF302821FF302821FF302821FF
310
302821FF302821FF302821FF302821FF302821FF302821FF302821FF302821FF302821FF302821FF302821FF302821FF302821FF302821FF302821FF302821FF302821FF302821FF302821FF302821FF302821FF302821FF302821FF302821FF302821FF302821FF302821FF302821FF302821FF302821FF302821FF302821
310
FF302821FF302821FF302821FF302821FF302821FF302821FF302821FF302821FF302821FF302821FF302821FF302821FF302821FF302821FF302821FF302821FF302821FF302821FF302821FF302821FF302821FF302821FF302821FF302821FF302821FF302821FF302821FF302821FF302821FF302821FF302821FF3028
310
21FF302821FF302821FF302821FF302821FF302821FF302821FF302821FF302821FF302821FF302821FF302821FF302821FF302821FF302821FF302821FF302821FF302821FF302821FF302821FF302821FF302821FF302821FF302821FF302821FF302821FF302821FF302821FF302821FF302821FF302821FF302821FF30
310
2821FF302821FF302821FF302821FF302821FF302821FF302821FF302821FF302821FF302821FF302821FF302821FF302821FF302821FF302821FF302821FF302821FF302821FF302821FF302821FF302821FF302821FF302821FF302821FF302821FF302821FF302821FF302821FF302821FF302821FF302821FF302821FF
310
302821FF302821FF302821FF302821FF302821FF302821FF302821FF302821FF302821FF302821FF302821FF302821FF302821FF302821FF302821FF302821FF302821FF302821FF302821FF302821FF302821FF302821FF302821FF302821FF302821FF302821FF302821FF302821FF302821FF302821FF302821FF302821
310
FF302821FF302821FF302821FF302821FF302821FF302821FF302821FF302821FF302821FF302821FF302821FF302821FF302821FF302821FF302821FF302821FF302821FF302821FF302821FF302821FF302821FF302821FF302821FF302821FF302821FF302821FF302821FF302821FF302821FF302821FF302821FF3028
310
21FF302821FF302821FF302821FF302821FF302821FF302821FF302821FF302821FF302821FF302821FF302821FF302821FF302821FF302821FF302821FF302821FF302821FF302821FF302821FF302821FF302821FF302821FF302821FF302821FF302821FF302821FF302821FF302821FF302821FF302821FF302821FF30
310
2821FF302821FF302821FF302821FF302821FF302821FF302821FF302821FF302821FF302821FF302821FF302821FF302821FF302821FF302821FF302821FF302821FF302821FF302821FF302821FF302821FF302821FF302821FF302821FF302821FF302821FF302821FF302821FF302821FF302821FF302821FF302821FF
310
302821FF302821FF302821FF302821FF302821FF302821FF302821FF302821FF302821FF302821FF302821FF302821FF302821FF302821FF302821FF302821FF302821FF302821FF302821FF302821FF302821FF302821FF302821FF302821FF302821FF302821FF302821FF302821FF302821FF302821FF302821FF302821
310
FF302821FF302821FF302821FF302821FF302821FF302821FF302821FF302821FF302821FF302821FF302821FF302821FF302821FF302821FF302821FF302821FF302821FF302821FF302821FF302821FF302821FF302821FF302821FF302821FF302821FF302821FF302821FF302821FF302821FF302821FF302821FF3028
310
21FF302821FF302821FF302821FF302821FF302821FF302821FF302821FF302821FF302821FF302821FF302821FF302821FF302821FF302821FF302821FF302821FF302821FF302821FF302821FF302821FF302821FF302821FF302821FF302821FF302821FF302821FF302821FF302821FF302821FF302821FF302821FF30
310
2821FF302821FF302821FF302821FF302821FF302821FF302821FF302821FF302821FF302821FF302821FF302821FF302821FF302821FF302821FF302821FF302821FF302821FF302821FF302821FF302821FF302821FF302821FF302821FF302821FF302821FF302821FF302821FF302821FF302821FF302821FF302821FF
310
302821FF302821FF302821FF302821FF302821FF302821FF302821FF302821FF302821FF302821FF302821FF302821FF302821FF302821FF302821FF302821FF302821FF302821FF302821FF302821FF302821FF302821FF302821FF302821FF302821FF302821FF302821FF302821FF302821FF302821FF302821FF302821
310
FF302821FF302821FF302821FF302821FF302821FF302821FF302821FF302821FF302821FF302821FF302821FF302821FF302821FF302821FF302821FF302821FF302821FF302821FF302821FF302821FF302821FF302821FF302821FF302821FF302821FF302821FF302821FF302821FF302821FF302821FF302821FF3028
310
21FF302821FF302821FF302821FF302821FF302821FF302821FF302821FF302821FF302821FF302821FF302821FF302821FF302821FF302821FF302821FF302821FF302821FF302821FF302821FF302821FF302821FF302821FF302821FF302821FF302821FF302821FF302821FF302821FF302821FF302821FF302821FF30
310
2821FF302821FF302821FF302821FF302821FF302821FF302821FF302821FF302821FF302821FF302821FF302821FF302821FF302821FF302821FF302821FF302821FF302821FF302821FF302821FF302821FF302821FF302821FF302821FF302821FF302821FF302821FF302821FF302821FF302821FF302821FF302821FF
310
302821FF302821FF302821FF302821FF302821FF302821FF302821FF302821FF302821FF302821FF302821FF302821FF302821FF302821FF302821FF302821FF302821FF302821FF302821FF302821FF302821FF302821FF302821FF302821FF302821FF302821FF302821FF302821FF302821FF302821FF302821FF302821
310
FF302821FF302821FF302821FF302821FF302821FF302821FF302821FF302821FF302821FF302821FF302821FF302821FF302821FF302821FF302821FF302821FF302821FF302821FF302821FF302821FF302821FF302821FF302821FF302821FF302821FF302821FF302821FF302821FF302821FF302821FF302821FF3028
310
21FF302821FF302821FF302821FF302821FF302821FF302821FF302821FF302821FF302821FF302821FF302821FF302821FF302821FF302821FF302821FF302821FF302821FF302821FF302821FF302821FF302821FF302821FF302821FF302821FF302821FF302821FF302821FF302821FF302821FF302821FF302821FF30
310
2821FF302821FF302821FF302821FF302821FF302821FF302821FF302821FF302821FF302821FF302821FF302821FF302821FF302821FF302821FF302821FF302821FF302821FF302821FF302821FF302821FF302821FF302821FF302821FF302821FF302821FF302821FF302821FF302821FF302821FF302821FF302821FF
310
302821FF302821FF302821FF302821FF302821FF302821FF302821FF302821FF302821FF302821FF302821FF302821FF302821FF302821FF302821FF302821FF302821FF302821FF302821FF302821FF302821FF302821FF302821FF302821FF302821FF302821FF302821FF302821FF302821FF302821FF302821FF302821
310
FF302821FF302821FF302821FF302821FF302821FF302821FF302821FF302821FF302821FF302821FF302821FF302821FF302821FF302821FF302821FF302821FF302821FF302821FF302821FF302821FF302821FF302821FF302821FF302821FF302821FF302821FF302821FF302821FF302821FF302821FF302821FF3028
310
21FF302821FF302821FF302821FF302821FF302821FF302821FF302821FF302821FF302821FF302821FF302821FF302821FF302821FF302821FF302821FF302821FF302821FF302821FF302821FF302821FF302821FF302821FF302821FF302821FF302821FF302821FF302821FF302821FF302821FF302821FF302821FF30
310
2821FF302821FF302821FF302821FF302821FF302821FF302821FF302821FF302821FF302821FF302821FF302821FF302821FF302821FF302821FF302821FF302821FF302821FF302821FF302821FF302821FF302821FF302821FF302821FF302821FF302821FF302821FF302821FF302821FF302821FF302821FF302821FF
310
302821FF302821FF302821FF302821FF302821FF302821FF302821FF302821FF302821FF302821FF302821FF302821FF302821FF302821FF302821FF302821FF302821FF302821FF302821FF302821FF302821FF302821FF302821FF302821FF302821FF302821FF302821FF302821FF
102
{BLKREFS
331
1B2
102
}
 70
     0
280
     1
281
     0
  0
ENDTAB
  0
ENDSEC
  0
SECTION
  2
BLOCKS
  0
BLOCK
  5
5
330
2
100
AcDbEntity
  8
0
 62
     1
100
AcDbBlockBegin
  2
*MODEL_SPACE
 70
     0
 10
0.0
 20
0.0
 30
0.0
  3
*MODEL_SPACE
  1

  0
ENDBLK
  5
B
330
2
100
AcDbEntity
  8
0
 62
     1
100
AcDbBlockEnd
  0
BLOCK
  5
11
330
E
100
AcDbEntity
 67
     1
  8
0
 62
     1
100
AcDbBlockBegin
  2
*PAPER_SPACE
 70
     0
 10
0.0
 20
0.0
 30
0.0
  3
*PAPER_SPACE
  1

  0
ENDBLK
  5
12
330
E
100
AcDbEntity
 67
     1
  8
0
 62
     1
100
AcDbBlockEnd
  0
BLOCK
  5
A8
330
9E
100
AcDbEntity
  8
0
100
AcDbBlockBegin
  2
*D0
 70
     1
 10
0.0
 20
0.0
 30
0.0
  3
*D0
  1

  0
LINE
  5
9F
330
9E
100
AcDbEntity
  8
0
  6
ByBlock
 62
     0
440
 16777216
100
AcDbLine
 10
2.0
 20
-52.99999999999989
 30
0.0
 11
2.0
 21
-82.4216187508091
 31
0.0
  0
LINE
  5
A0
330
9E
100
AcDbEntity
  8
0
  6
ByBlock
 62
     0
440
 16777216
100
AcDbLine
 10
28.00000000000006
 20
-11.00204976588691
 30
0.0
 11
28.00000000000006
 21
-82.4216187508091
 31
0.0
  0
LINE
  5
A1
330
9E
100
AcDbEntity
  8
0
  6
ByBlock
 62
     0
440
 16777216
100
AcDbLine
 10
6.0
 20
-79.4216187508091
 30
0.0
 11
24.00000000000006
 21
-79.4216187508091
 31
0.0
  0
SOLID
  5
A2
330
9E
100
AcDbEntity
  8
0
  6
ByBlock
 62
     0
440
 16777216
100
AcDbTrace
 10
6.0
 20
-78.75495208414243
 30
0.0
 11
6.0
 21
-80.08828541747577
 31
0.0
 12
2.0
 22
-79.4216187508091
 32
0.0
 13
2.0
 23
-79.4216187508091
 33
0.0
  0
SOLID
  5
A3
330
9E
100
AcDbEntity
  8
0
  6
ByBlock
 62
     0
440
 16777216
100
AcDbTrace
 10
24.00000000000006
 20
-78.75495208414243
 30
0.0
 11
24.00000000000006
 21
-80.08828541747577
 31
0.0
 12
28.00000000000006
 22
-79.4216187508091
 32
0.0
 13
28.00000000000006
 23
-79.4216187508091
 33
0.0
  0
TEXT
  5
A4
330
9E
100
AcDbEntity
  8
0
  6
ByBlock
 62
     0
440
 16777216
100
AcDbText
 10
12.14285714285717
 20
-77.9216187508091
 30
0.0
 40
3.0
  1
26
  7
ROMANS
 72
     1
 11
15.00000000000003
 21
-76.4216187508091
 31
0.0
100
AcDbText
 73
     2
  0
POINT
  5
A5
330
9E
100
AcDbEntity
  8
DEFPOINTS
  6
ByBlock
 62
     0
440
 16777216
100
AcDbPoint
 10
2.0
 20
-49.99999999999989
 30
0.0
  0
POINT
  5
A6
330
9E
100
AcDbEntity
  8
DEFPOINTS
  6
ByBlock
 62
     0
440
 16777216
100
AcDbPoint
 10
28.00000000000006
 20
-8.002049765886908
 30
0.0
  0
POINT
  5
A7
330
9E
100
AcDbEntity
  8
DEFPOINTS
  6
ByBlock
 62
     0
440
 16777216
100
AcDbPoint
 10
28.00000000000006
 20
-79.4216187508091
 30
0.0
  0
ENDBLK
  5
A9
330
9E
100
AcDbEntity
  8
0
100
AcDbBlockEnd
  0
BLOCK
  5
134
330
12A
100
AcDbEntity
  8
0
100
AcDbBlockBegin
  2
*D1
 70
     1
 10
0.0
 20
0.0
 30
0.0
  3
*D1
  1

  0
LINE
  5
12B
330
12A
100
AcDbEntity
  8
0
  6
ByBlock
 62
     0
440
 16777216
100
AcDbLine
 10
0.0
 20
-52.99999999999989
 30
0.0
 11
0.0
 21
-100.834439924742
 31
0.0
  0
LINE
  5
12C
330
12A
100
AcDbEntity
  8
0
  6
ByBlock
 62
     0
440
 16777216
100
AcDbLine
 10
135.0
 20
-31.99999999999989
 30
0.0
 11
135.0
 21
-100.834439924742
 31
0.0
  0
LINE
  5
12D
330
12A
100
AcDbEntity
  8
0
  6
ByBlock
 62
     0
440
 16777216
100
AcDbLine
 10
4.0
 20
-97.83443992474206
 30
0.0
 11
131.0
 21
-97.83443992474206
 31
0.0
  0
SOLID
  5
12E
330
12A
100
AcDbEntity
  8
0
  6
ByBlock
 62
     0
440
 16777216
100
AcDbTrace
 10
4.0
 20
-97.16777325807539
 30
0.0
 11
4.0
 21
-98.50110659140874
 31
0.0
 12
0.0
 22
-97.83443992474206
 32
0.0
 13
0.0
 23
-97.83443992474206
 33
0.0
  0
SOLID
  5
12F
330
12A
100
AcDbEntity
  8
0
  6
ByBlock
 62
     0
440
 16777216
100
AcDbTrace
 10
131.0
 20
-97.16777325807539
 30
0.0
 11
131.0
 21
-98.50110659140874
 31
0.0
 12
135.0
 22
-97.83443992474206
 32
0.0
 13
135.0
 23
-97.83443992474206
 33
0.0
  0
TEXT
  5
130
330
12A
100
AcDbEntity
  8
0
  6
ByBlock
 62
     0
440
 16777216
100
AcDbText
 10
63.0
 20
-96.33443992474205
 30
0.0
 40
3.0
  1
135
  7
ROMANS
 72
     1
 11
67.5
 21
-94.83443992474205
 31
0.0
100
AcDbText
 73
     2
  0
POINT
  5
131
330
12A
100
AcDbEntity
  8
DEFPOINTS
  6
ByBlock
 62
     0
440
 16777216
100
AcDbPoint
 10
0.0
 20
-49.99999999999989
 30
0.0
  0
POINT
  5
132
330
12A
100
AcDbEntity
  8
DEFPOINTS
  6
ByBlock
 62
     0
440
 16777216
100
AcDbPoint
 10
135.0
 20
-28.99999999999989
 30
0.0
  0
POINT
  5
133
330
12A
100
AcDbEntity
  8
DEFPOINTS
  6
ByBlock
 62
     0
440
 16777216
100
AcDbPoint
 10
135.0
 20
-97.83443992474206
 30
0.0
  0
ENDBLK
  5
135
330
12A
100
AcDbEntity
  8
0
100
AcDbBlockEnd
  0
BLOCK
  5
141
330
137
100
AcDbEntity
  8
0
100
AcDbBlockBegin
  2
*D2
 70
     1
 10
0.0
 20
0.0
 30
0.0
  3
*D2
  1

  0
LINE
  5
138
330
137
100
AcDbEntity
  8
0
  6
ByBlock
 62
     0
440
 16777216
100
AcDbLine
 10
5.0
 20
50.01812056130592
 30
0.0
 11
207.670974502782
 21
50.01812056130592
 31
0.0
  0
LINE
  5
139
330
137
100
AcDbEntity
  8
0
  6
ByBlock
 62
     0
440
 16777216
100
AcDbLine
 10
5.0
 20
-49.99999999999989
 30
0.0
 11
207.670974502782
 21
-49.99999999999989
 31
0.0
  0
LINE
  5
13A
330
137
100
AcDbEntity
  8
0
  6
ByBlock
 62
     0
440
 16777216
100
AcDbLine
 10
204.670974502782
 20
46.01812056130592
 30
0.0
 11
204.670974502782
 21
-45.99999999999988
 31
0.0
  0
SOLID
  5
13B
330
137
100
AcDbEntity
  8
0
  6
ByBlock
 62
     0
440
 16777216
100
AcDbTrace
 10
204.0043078361154
 20
46.01812056130592
 30
0.0
 11
205.3376411694487
 21
46.01812056130592
 31
0.0
 12
204.670974502782
 22
50.01812056130592
 32
0.0
 13
204.670974502782
 23
50.01812056130592
 33
0.0
  0
SOLID
  5
13C
330
137
100
AcDbEntity
  8
0
  6
ByBlock
 62
     0
440
 16777216
100
AcDbTrace
 10
204.0043078361154
 20
-45.99999999999988
 30
0.0
 11
205.3376411694487
 21
-45.99999999999988
 31
0.0
 12
204.670974502782
 22
-49.99999999999989
 32
0.0
 13
204.670974502782
 23
-49.99999999999989
 33
0.0
  0
TEXT
  5
13D
330
137
100
AcDbEntity
  8
0
  6
ByBlock
 62
     0
440
 16777216
100
AcDbText
 10
203.170974502782
 20
-4.490939719346982
 30
0.0
 40
3.0
  1
100
 50
90.0
  7
ROMANS
 72
     1
 11
201.670974502782
 21
0.0090602806530171
 31
0.0
100
AcDbText
 73
     2
  0
POINT
  5
13E
330
137
100
AcDbEntity
  8
DEFPOINTS
  6
ByBlock
 62
     0
440
 16777216
100
AcDbPoint
 10
2.0
 20
50.01812056130592
 30
0.0
  0
POINT
  5
13F
330
137
100
AcDbEntity
  8
DEFPOINTS
  6
ByBlock
 62
     0
440
 16777216
100
AcDbPoint
 10
2.0
 20
-49.99999999999989
 30
0.0
  0
POINT
  5
140
330
137
100
AcDbEntity
  8
DEFPOINTS
  6
ByBlock
 62
     0
440
 16777216
100
AcDbPoint
 10
204.670974502782
 20
-49.99999999999989
 30
0.0
  0
ENDBLK
  5
142
330
137
100
AcDbEntity
  8
0
100
AcDbBlockEnd
  0
BLOCK
  5
B5
330
AB
100
AcDbEntity
  8
0
100
AcDbBlockBegin
  2
*D3
 70
     1
 10
0.0
 20
0.0
 30
0.0
  3
*D3
  1

  0
LINE
  5
AC
330
AB
100
AcDbEntity
  8
0
  6
ByBlock
 62
     0
440
 16777216
100
AcDbLine
 10
28.00000000000006
 20
-11.00204976588691
 30
0.0
 11
28.00000000000006
 21
-82.4216187508091
 31
0.0
  0
LINE
  5
AD
330
AB
100
AcDbEntity
  8
0
  6
ByBlock
 62
     0
440
 16777216
100
AcDbLine
 10
58.00000000000006
 20
-11.00204976588691
 30
0.0
 11
58.00000000000006
 21
-82.4216187508091
 31
0.0
  0
LINE
  5
AE
330
AB
100
AcDbEntity
  8
0
  6
ByBlock
 62
     0
440
 16777216
100
AcDbLine
 10
32.00000000000006
 20
-79.4216187508091
 30
0.0
 11
54.00000000000005
 21
-79.4216187508091
 31
0.0
  0
SOLID
  5
AF
330
AB
100
AcDbEntity
  8
0
  6
ByBlock
 62
     0
440
 16777216
100
AcDbTrace
 10
32.00000000000006
 20
-78.75495208414243
 30
0.0
 11
32.00000000000006
 21
-80.08828541747577
 31
0.0
 12
28.00000000000006
 22
-79.4216187508091
 32
0.0
 13
28.00000000000006
 23
-79.4216187508091
 33
0.0
  0
SOLID
  5
B0
330
AB
100
AcDbEntity
  8
0
  6
ByBlock
 62
     0
440
 16777216
100
AcDbTrace
 10
54.00000000000005
 20
-78.75495208414243
 30
0.0
 11
54.00000000000005
 21
-80.08828541747577
 31
0.0
 12
58.00000000000006
 22
-79.4216187508091
 32
0.0
 13
58.00000000000006
 23
-79.4216187508091
 33
0.0
  0
TEXT
  5
B1
330
AB
100
AcDbEntity
  8
0
  6
ByBlock
 62
     0
440
 16777216
100
AcDbText
 10
40.1428571428572
 20
-77.9216187508091
 30
0.0
 40
3.0
  1
30
  7
ROMANS
 72
     1
 11
43.00000000000006
 21
-76.4216187508091
 31
0.0
100
AcDbText
 73
     2
  0
POINT
  5
B2
330
AB
100
AcDbEntity
  8
DEFPOINTS
  6
ByBlock
 62
     0
440
 16777216
100
AcDbPoint
 10
28.00000000000006
 20
-8.002049765886908
 30
0.0
  0
POINT
  5
B3
330
AB
100
AcDbEntity
  8
DEFPOINTS
  6
ByBlock
 62
     0
440
 16777216
100
AcDbPoint
 10
58.00000000000006
 20
-8.002049765886908
 30
0.0
  0
POINT
  5
B4
330
AB
100
AcDbEntity
  8
DEFPOINTS
  6
ByBlock
 62
     0
440
 16777216
100
AcDbPoint
 10
58.00000000000006
 20
-79.4216187508091
 30
0.0
  0
ENDBLK
  5
B6
330
AB
100
AcDbEntity
  8
0
100
AcDbBlockEnd
  0
BLOCK
  5
4D
330
42
100
AcDbEntity
  8
0
100
AcDbBlockBegin
  2
*D4
 70
     1
 10
0.0
 20
0.0
 30
0.0
  3
*D4
  1

  0
LINE
  5
43
330
42
100
AcDbEntity
  8
0
  6
ByBlock
 62
     0
440
 16777216
100
AcDbLine
 10
141.6754711809827
 20
-23.99999999999989
 30
0.0
 11
181.1211112767737
 21
-23.99999999999989
 31
0.0
  0
LINE
  5
44
330
42
100
AcDbEntity
  8
0
  6
ByBlock
 62
     0
440
 16777216
100
AcDbLine
 10
141.6754711809827
 20
24.00000000000011
 30
0.0
 11
181.1211112767737
 21
24.00000000000011
 31
0.0
  0
LINE
  5
45
330
42
100
AcDbEntity
  8
0
  6
ByBlock
 62
     0
440
 16777216
100
AcDbLine
 10
178.1211112767737
 20
-19.99999999999988
 30
0.0
 11
178.1211112767737
 21
20.00000000000011
 31
0.0
  0
SOLID
  5
46
330
42
100
AcDbEntity
  8
0
  6
ByBlock
 62
     0
440
 16777216
100
AcDbTrace
 10
177.454444610107
 20
-19.99999999999988
 30
0.0
 11
178.7877779434404
 21
-19.99999999999988
 31
0.0
 12
178.1211112767737
 22
-23.99999999999989
 32
0.0
 13
178.1211112767737
 23
-23.99999999999989
 33
0.0
  0
SOLID
  5
47
330
42
100
AcDbEntity
  8
0
  6
ByBlock
 62
     0
440
 16777216
100
AcDbTrace
 10
177.454444610107
 20
20.00000000000011
 30
0.0
 11
178.7877779434404
 21
20.00000000000011
 31
0.0
 12
178.1211112767737
 22
24.00000000000011
 32
0.0
 13
178.1211112767737
 23
24.00000000000011
 33
0.0
  0
TEXT
  5
48
330
42
100
AcDbEntity
  8
0
  6
ByBlock
 62
     0
440
 16777216
100
AcDbText
 10
176.6211112767737
 20
-2.857142857142743
 30
0.0
 40
3.0
  1
48
 50
90.0
  7
ROMANS
 72
     1
 11
175.1211112767737
 21
0.0000000000001137
 31
0.0
100
AcDbText
 73
     2
  0
POINT
  5
49
330
42
100
AcDbEntity
  8
DEFPOINTS
  6
ByBlock
 62
     0
440
 16777216
100
AcDbPoint
 10
138.6754711809827
 20
-23.99999999999989
 30
0.0
  0
POINT
  5
4B
330
42
100
AcDbEntity
  8
DEFPOINTS
  6
ByBlock
 62
     0
440
 16777216
100
AcDbPoint
 10
138.6754711809827
 20
24.00000000000011
 30
0.0
  0
POINT
  5
4C
330
42
100
AcDbEntity
  8
DEFPOINTS
  6
ByBlock
 62
     0
440
 16777216
100
AcDbPoint
 10
178.1211112767737
 20
24.00000000000011
 30
0.0
  0
ENDBLK
  5
4E
330
42
100
AcDbEntity
  8
0
100
AcDbBlockEnd
  0
BLOCK
  5
5A
330
50
100
AcDbEntity
  8
0
100
AcDbBlockBegin
  2
*D5
 70
     1
 10
0.0
 20
0.0
 30
0.0
  3
*D5
  1

  0
LINE
  5
51
330
50
100
AcDbEntity
  8
0
  6
ByBlock
 62
     0
440
 16777216
100
AcDbLine
 10
138.0
 20
-13.99999999999989
 30
0.0
 11
166.3692739392588
 21
-13.99999999999989
 31
0.0
  0
LINE
  5
52
330
50
100
AcDbEntity
  8
0
  6
ByBlock
 62
     0
440
 16777216
100
AcDbLine
 10
138.0
 20
14.00000000000011
 30
0.0
 11
166.3692739392588
 21
14.00000000000011
 31
0.0
  0
LINE
  5
53
330
50
100
AcDbEntity
  8
0
  6
ByBlock
 62
     0
440
 16777216
100
AcDbLine
 10
163.3692739392588
 20
-9.999999999999891
 30
0.0
 11
163.3692739392588
 21
10.00000000000011
 31
0.0
  0
SOLID
  5
54
330
50
100
AcDbEntity
  8
0
  6
ByBlock
 62
     0
440
 16777216
100
AcDbTrace
 10
162.7026072725921
 20
-9.999999999999891
 30
0.0
 11
164.0359406059254
 21
-9.999999999999891
 31
0.0
 12
163.3692739392588
 22
-13.99999999999989
 32
0.0
 13
163.3692739392588
 23
-13.99999999999989
 33
0.0
  0
SOLID
  5
55
330
50
100
AcDbEntity
  8
0
  6
ByBlock
 62
     0
440
 16777216
100
AcDbTrace
 10
162.7026072725921
 20
10.00000000000011
 30
0.0
 11
164.0359406059254
 21
10.00000000000011
 31
0.0
 12
163.3692739392588
 22
14.00000000000011
 32
0.0
 13
163.3692739392588
 23
14.00000000000011
 33
0.0
  0
TEXT
  5
56
330
50
100
AcDbEntity
  8
0
  6
ByBlock
 62
     0
440
 16777216
100
AcDbText
 10
161.8692739392588
 20
-2.857142857142745
 30
0.0
 40
3.0
  1
28
 50
90.0
  7
ROMANS
 72
     1
 11
160.3692739392588
 21
0.0000000000001119
 31
0.0
100
AcDbText
 73
     2
  0
POINT
  5
57
330
50
100
AcDbEntity
  8
DEFPOINTS
  6
ByBlock
 62
     0
440
 16777216
100
AcDbPoint
 10
135.0
 20
-13.99999999999989
 30
0.0
  0
POINT
  5
58
330
50
100
AcDbEntity
  8
DEFPOINTS
  6
ByBlock
 62
     0
440
 16777216
100
AcDbPoint
 10
135.0
 20
14.00000000000011
 30
0.0
  0
POINT
  5
59
330
50
100
AcDbEntity
  8
DEFPOINTS
  6
ByBlock
 62
     0
440
 16777216
100
AcDbPoint
 10
163.3692739392588
 20
14.00000000000011
 30
0.0
  0
ENDBLK
  5
5B
330
50
100
AcDbEntity
  8
0
100
AcDbBlockEnd
  0
BLOCK
  5
7A
330
6E
100
AcDbEntity
  8
0
100
AcDbBlockBegin
  2
*D6
 70
     1
 10
0.0
 20
0.0
 30
0.0
  3
*D6
  1

  0
LINE
  5
6F
330
6E
100
AcDbEntity
  8
0
  6
ByBlock
 62
     0
440
 16777216
100
AcDbLine
 10
138.0
 20
14.00000000000011
 30
0.0
 11
166.3692739392588
 21
14.00000000000011
 31
0.0
  0
LINE
  5
70
330
6E
100
AcDbEntity
  8
0
  6
ByBlock
 62
     0
440
 16777216
100
AcDbLine
 10
141.6754711809827
 20
24.00000000000011
 30
0.0
 11
166.3692739392588
 21
24.00000000000011
 31
0.0
  0
LINE
  5
71
330
6E
100
AcDbEntity
  8
0
  6
ByBlock
 62
     0
440
 16777216
100
AcDbLine
 10
163.3692739392588
 20
10.00000000000011
 30
0.0
 11
163.3692739392588
 21
6.000000000000115
 31
0.0
  0
LINE
  5
72
330
6E
100
AcDbEntity
  8
0
  6
ByBlock
 62
     0
440
 16777216
100
AcDbLine
 10
163.3692739392588
 20
28.00000000000011
 30
0.0
 11
163.3692739392588
 21
32.00000000000012
 31
0.0
  0
LINE
  5
73
330
6E
100
AcDbEntity
  8
0
  6
ByBlock
 62
     0
440
 16777216
100
AcDbLine
 10
163.3692739392588
 20
32.00000000000012
 30
0.0
 11
163.3692739392588
 21
37.92857142857155
 31
0.0
  0
SOLID
  5
74
330
6E
100
AcDbEntity
  8
0
  6
ByBlock
 62
     0
440
 16777216
100
AcDbTrace
 10
162.7026072725921
 20
10.00000000000011
 30
0.0
 11
164.0359406059254
 21
10.00000000000011
 31
0.0
 12
163.3692739392588
 22
14.00000000000011
 32
0.0
 13
163.3692739392588
 23
14.00000000000011
 33
0.0
  0
SOLID
  5
75
330
6E
100
AcDbEntity
  8
0
  6
ByBlock
 62
     0
440
 16777216
100
AcDbTrace
 10
162.7026072725921
 20
28.00000000000011
 30
0.0
 11
164.0359406059254
 21
28.00000000000011
 31
0.0
 12
163.3692739392588
 22
24.00000000000011
 32
0.0
 13
163.3692739392588
 23
24.00000000000011
 33
0.0
  0
TEXT
  5
76
330
6E
100
AcDbEntity
  8
0
  6
ByBlock
 62
     0
440
 16777216
100
AcDbText
 10
161.8692739392588
 20
32.64285714285726
 30
0.0
 40
3.0
  1
10
 50
90.0
  7
ROMANS
 72
     1
 11
160.3692739392588
 21
35.71428571428583
 31
0.0
100
AcDbText
 73
     2
  0
POINT
  5
77
330
6E
100
AcDbEntity
  8
DEFPOINTS
  6
ByBlock
 62
     0
440
 16777216
100
AcDbPoint
 10
135.0
 20
14.00000000000011
 30
0.0
  0
POINT
  5
78
330
6E
100
AcDbEntity
  8
DEFPOINTS
  6
ByBlock
 62
     0
440
 16777216
100
AcDbPoint
 10
138.6754711809827
 20
24.00000000000011
 30
0.0
  0
POINT
  5
79
330
6E
100
AcDbEntity
  8
DEFPOINTS
  6
ByBlock
 62
     0
440
 16777216
100
AcDbPoint
 10
163.3692739392588
 20
24.00000000000011
 30
0.0
  0
ENDBLK
  5
7B
330
6E
100
AcDbEntity
  8
0
100
AcDbBlockEnd
  0
BLOCK
  5
69
330
5D
100
AcDbEntity
  8
0
100
AcDbBlockBegin
  2
*D7
 70
     1
 10
0.0
 20
0.0
 30
0.0
  3
*D7
  1

  0
LINE
  5
5E
330
5D
100
AcDbEntity
  8
0
  6
ByBlock
 62
     0
440
 16777216
100
AcDbLine
 10
141.6754711809827
 20
-23.99999999999989
 30
0.0
 11
166.3692739392588
 21
-23.99999999999989
 31
0.0
  0
LINE
  5
5F
330
5D
100
AcDbEntity
  8
0
  6
ByBlock
 62
     0
440
 16777216
100
AcDbLine
 10
137.9999999999999
 20
-33.99999999999989
 30
0.0
 11
166.3692739392588
 21
-33.99999999999989
 31
0.0
  0
LINE
  5
60
330
5D
100
AcDbEntity
  8
0
  6
ByBlock
 62
     0
440
 16777216
100
AcDbLine
 10
163.3692739392588
 20
-19.99999999999988
 30
0.0
 11
163.3692739392588
 21
-15.99999999999988
 31
0.0
  0
LINE
  5
61
330
5D
100
AcDbEntity
  8
0
  6
ByBlock
 62
     0
440
 16777216
100
AcDbLine
 10
163.3692739392588
 20
-37.99999999999989
 30
0.0
 11
163.3692739392588
 21
-41.99999999999988
 31
0.0
  0
LINE
  5
62
330
5D
100
AcDbEntity
  8
0
  6
ByBlock
 62
     0
440
 16777216
100
AcDbLine
 10
163.3692739392588
 20
-41.99999999999988
 30
0.0
 11
163.3692739392588
 21
-47.92857142857132
 31
0.0
  0
SOLID
  5
63
330
5D
100
AcDbEntity
  8
0
  6
ByBlock
 62
     0
440
 16777216
100
AcDbTrace
 10
162.7026072725921
 20
-19.99999999999988
 30
0.0
 11
164.0359406059254
 21
-19.99999999999988
 31
0.0
 12
163.3692739392588
 22
-23.99999999999989
 32
0.0
 13
163.3692739392588
 23
-23.99999999999989
 33
0.0
  0
SOLID
  5
64
330
5D
100
AcDbEntity
  8
0
  6
ByBlock
 62
     0
440
 16777216
100
AcDbTrace
 10
162.7026072725921
 20
-37.99999999999989
 30
0.0
 11
164.0359406059254
 21
-37.99999999999989
 31
0.0
 12
163.3692739392588
 22
-33.99999999999989
 32
0.0
 13
163.3692739392588
 23
-33.99999999999989
 33
0.0
  0
TEXT
  5
65
330
5D
100
AcDbEntity
  8
0
  6
ByBlock
 62
     0
440
 16777216
100
AcDbText
 10
161.8692739392588
 20
-48.78571428571417
 30
0.0
 40
3.0
  1
10
 50
90.0
  7
ROMANS
 72
     1
 11
160.3692739392588
 21
-45.7142857142856
 31
0.0
100
AcDbText
 73
     2
  0
POINT
  5
66
330
5D
100
AcDbEntity
  8
DEFPOINTS
  6
ByBlock
 62
     0
440
 16777216
100
AcDbPoint
 10
138.6754711809827
 20
-23.99999999999989
 30
0.0
  0
POINT
  5
67
330
5D
100
AcDbEntity
  8
DEFPOINTS
  6
ByBlock
 62
     0
440
 16777216
100
AcDbPoint
 10
134.9999999999999
 20
-33.99999999999989
 30
0.0
  0
POINT
  5
68
330
5D
100
AcDbEntity
  8
DEFPOINTS
  6
ByBlock
 62
     0
440
 16777216
100
AcDbPoint
 10
163.3692739392588
 20
-33.99999999999989
 30
0.0
  0
ENDBLK
  5
6A
330
5D
100
AcDbEntity
  8
0
100
AcDbBlockEnd
  0
BLOCK
  5
C9
330
BF
100
AcDbEntity
  8
0
100
AcDbBlockBegin
  2
*D8
 70
     1
 10
0.0
 20
0.0
 30
0.0
  3
*D8
  1

  0
LINE
  5
C0
330
BF
100
AcDbEntity
  8
0
  6
ByBlock
 62
     0
440
 16777216
100
AcDbLine
 10
-80.99999999999992
 20
-12.17572101688975
 30
0.0
 11
-80.99999999999992
 21
-82.48556520284353
 31
0.0
  0
LINE
  5
C1
330
BF
100
AcDbEntity
  8
0
  6
ByBlock
 62
     0
440
 16777216
100
AcDbLine
 10
-50.99999999999991
 20
-12.17572101688975
 30
0.0
 11
-50.99999999999991
 21
-82.48556520284353
 31
0.0
  0
LINE
  5
C2
330
BF
100
AcDbEntity
  8
0
  6
ByBlock
 62
     0
440
 16777216
100
AcDbLine
 10
-76.99999999999992
 20
-79.48556520284353
 30
0.0
 11
-54.99999999999992
 21
-79.48556520284353
 31
0.0
  0
SOLID
  5
C3
330
BF
100
AcDbEntity
  8
0
  6
ByBlock
 62
     0
440
 16777216
100
AcDbTrace
 10
-76.99999999999992
 20
-78.81889853617686
 30
0.0
 11
-76.99999999999992
 21
-80.1522318695102
 31
0.0
 12
-80.99999999999992
 22
-79.48556520284353
 32
0.0
 13
-80.99999999999992
 23
-79.48556520284353
 33
0.0
  0
SOLID
  5
C4
330
BF
100
AcDbEntity
  8
0
  6
ByBlock
 62
     0
440
 16777216
100
AcDbTrace
 10
-54.99999999999992
 20
-78.81889853617686
 30
0.0
 11
-54.99999999999992
 21
-80.1522318695102
 31
0.0
 12
-50.99999999999991
 22
-79.48556520284353
 32
0.0
 13
-50.99999999999991
 23
-79.48556520284353
 33
0.0
  0
TEXT
  5
C5
330
BF
100
AcDbEntity
  8
0
  6
ByBlock
 62
     0
440
 16777216
100
AcDbText
 10
-68.85714285714278
 20
-77.98556520284353
 30
0.0
 40
3.0
  1
30
  7
ROMANS
 72
     1
 11
-65.99999999999991
 21
-76.48556520284353
 31
0.0
100
AcDbText
 73
     2
  0
POINT
  5
C6
330
BF
100
AcDbEntity
  8
DEFPOINTS
  6
ByBlock
 62
     0
440
 16777216
100
AcDbPoint
 10
-80.99999999999992
 20
-9.175721016889752
 30
0.0
  0
POINT
  5
C7
330
BF
100
AcDbEntity
  8
DEFPOINTS
  6
ByBlock
 62
     0
440
 16777216
100
AcDbPoint
 10
-50.99999999999991
 20
-9.175721016889752
 30
0.0
  0
POINT
  5
C8
330
BF
100
AcDbEntity
  8
DEFPOINTS
  6
ByBlock
 62
     0
440
 16777216
100
AcDbPoint
 10
-50.99999999999991
 20
-79.48556520284353
 30
0.0
  0
ENDBLK
  5
CA
330
BF
100
AcDbEntity
  8
0
100
AcDbBlockEnd
  0
BLOCK
  5
D6
330
CC
100
AcDbEntity
  8
0
100
AcDbBlockBegin
  2
*D9
 70
     1
 10
0.0
 20
0.0
 30
0.0
  3
*D9
  1

  0
LINE
  5
CD
330
CC
100
AcDbEntity
  8
0
  6
ByBlock
 62
     0
440
 16777216
100
AcDbLine
 10
-50.99999999999991
 20
-12.17572101688975
 30
0.0
 11
-50.99999999999991
 21
-82.48556520284353
 31
0.0
  0
LINE
  5
CE
330
CC
100
AcDbEntity
  8
0
  6
ByBlock
 62
     0
440
 16777216
100
AcDbLine
 10
-25.00000000000003
 20
-43.00000000000003
 30
0.0
 11
-25.00000000000003
 21
-82.48556520284353
 31
0.0
  0
LINE
  5
CF
330
CC
100
AcDbEntity
  8
0
  6
ByBlock
 62
     0
440
 16777216
100
AcDbLine
 10
-46.99999999999991
 20
-79.48556520284353
 30
0.0
 11
-29.00000000000003
 21
-79.48556520284353
 31
0.0
  0
SOLID
  5
D0
330
CC
100
AcDbEntity
  8
0
  6
ByBlock
 62
     0
440
 16777216
100
AcDbTrace
 10
-46.99999999999991
 20
-78.81889853617686
 30
0.0
 11
-46.99999999999991
 21
-80.1522318695102
 31
0.0
 12
-50.99999999999991
 22
-79.48556520284353
 32
0.0
 13
-50.99999999999991
 23
-79.48556520284353
 33
0.0
  0
SOLID
  5
D1
330
CC
100
AcDbEntity
  8
0
  6
ByBlock
 62
     0
440
 16777216
100
AcDbTrace
 10
-29.00000000000003
 20
-78.81889853617686
 30
0.0
 11
-29.00000000000003
 21
-80.1522318695102
 31
0.0
 12
-25.00000000000003
 22
-79.48556520284353
 32
0.0
 13
-25.00000000000003
 23
-79.48556520284353
 33
0.0
  0
TEXT
  5
D2
330
CC
100
AcDbEntity
  8
0
  6
ByBlock
 62
     0
440
 16777216
100
AcDbText
 10
-40.85714285714282
 20
-77.98556520284353
 30
0.0
 40
3.0
  1
26
  7
ROMANS
 72
     1
 11
-37.99999999999997
 21
-76.48556520284353
 31
0.0
100
AcDbText
 73
     2
  0
POINT
  5
D3
330
CC
100
AcDbEntity
  8
DEFPOINTS
  6
ByBlock
 62
     0
440
 16777216
100
AcDbPoint
 10
-50.99999999999991
 20
-9.175721016889752
 30
0.0
  0
POINT
  5
D4
330
CC
100
AcDbEntity
  8
DEFPOINTS
  6
ByBlock
 62
     0
440
 16777216
100
AcDbPoint
 10
-25.00000000000003
 20
-40.00000000000002
 30
0.0
  0
POINT
  5
D5
330
CC
100
AcDbEntity
  8
DEFPOINTS
  6
ByBlock
 62
     0
440
 16777216
100
AcDbPoint
 10
-25.00000000000003
 20
-79.48556520284353
 30
0.0
  0
ENDBLK
  5
D7
330
CC
100
AcDbEntity
  8
0
100
AcDbBlockEnd
  0
BLOCK
  5
E5
330
D9
100
AcDbEntity
  8
0
100
AcDbBlockBegin
  2
*D10
 70
     1
 10
0.0
 20
0.0
 30
0.0
  3
*D10
  1

  0
LINE
  5
DA
330
D9
100
AcDbEntity
  8
0
  6
ByBlock
 62
     0
440
 16777216
100
AcDbLine
 10
-25.00000000000003
 20
-43.00000000000003
 30
0.0
 11
-25.00000000000003
 21
-82.48556520284353
 31
0.0
  0
LINE
  5
DB
330
D9
100
AcDbEntity
  8
0
  6
ByBlock
 62
     0
440
 16777216
100
AcDbLine
 10
-19.99999999999997
 20
-43.00000000000003
 30
0.0
 11
-19.99999999999997
 21
-82.48556520284353
 31
0.0
  0
LINE
  5
DC
330
D9
100
AcDbEntity
  8
0
  6
ByBlock
 62
     0
440
 16777216
100
AcDbLine
 10
-29.00000000000003
 20
-79.48556520284353
 30
0.0
 11
-33.00000000000003
 21
-79.48556520284353
 31
0.0
  0
LINE
  5
DD
330
D9
100
AcDbEntity
  8
0
  6
ByBlock
 62
     0
440
 16777216
100
AcDbLine
 10
-15.99999999999997
 20
-79.48556520284353
 30
0.0
 11
-11.99999999999997
 21
-79.48556520284353
 31
0.0
  0
LINE
  5
DE
330
D9
100
AcDbEntity
  8
0
  6
ByBlock
 62
     0
440
 16777216
100
AcDbLine
 10
-11.99999999999997
 20
-79.48556520284353
 30
0.0
 11
-8.499999999999971
 21
-79.48556520284353
 31
0.0
  0
SOLID
  5
DF
330
D9
100
AcDbEntity
  8
0
  6
ByBlock
 62
     0
440
 16777216
100
AcDbTrace
 10
-29.00000000000003
 20
-78.81889853617686
 30
0.0
 11
-29.00000000000003
 21
-80.1522318695102
 31
0.0
 12
-25.00000000000003
 22
-79.48556520284353
 32
0.0
 13
-25.00000000000003
 23
-79.48556520284353
 33
0.0
  0
SOLID
  5
E0
330
D9
100
AcDbEntity
  8
0
  6
ByBlock
 62
     0
440
 16777216
100
AcDbTrace
 10
-15.99999999999997
 20
-78.81889853617686
 30
0.0
 11
-15.99999999999997
 21
-80.1522318695102
 31
0.0
 12
-19.99999999999997
 22
-79.48556520284353
 32
0.0
 13
-19.99999999999997
 23
-79.48556520284353
 33
0.0
  0
TEXT
  5
E1
330
D9
100
AcDbEntity
  8
0
  6
ByBlock
 62
     0
440
 16777216
100
AcDbText
 10
-10.9285714285714
 20
-77.98556520284353
 30
0.0
 40
3.0
  1
5
  7
ROMANS
 72
     1
 11
-9.499999999999971
 21
-76.48556520284353
 31
0.0
100
AcDbText
 73
     2
  0
POINT
  5
E2
330
D9
100
AcDbEntity
  8
DEFPOINTS
  6
ByBlock
 62
     0
440
 16777216
100
AcDbPoint
 10
-25.00000000000003
 20
-40.00000000000002
 30
0.0
  0
POINT
  5
E3
330
D9
100
AcDbEntity
  8
DEFPOINTS
  6
ByBlock
 62
     0
440
 16777216
100
AcDbPoint
 10
-19.99999999999997
 20
-40.00000000000002
 30
0.0
  0
POINT
  5
E4
330
D9
100
AcDbEntity
  8
DEFPOINTS
  6
ByBlock
 62
     0
440
 16777216
100
AcDbPoint
 10
-19.99999999999997
 20
-79.48556520284353
 30
0.0
  0
ENDBLK
  5
E6
330
D9
100
AcDbEntity
  8
0
100
AcDbBlockEnd
  0
BLOCK
  5
11B
330
111
100
AcDbEntity
  8
0
100
AcDbBlockBegin
  2
*D11
 70
     1
 10
0.0
 20
0.0
 30
0.0
  3
*D11
  1

  0
LINE
  5
112
330
111
100
AcDbEntity
  8
0
  6
ByBlock
 62
     0
440
 16777216
100
AcDbLine
 10
-160.0
 20
-32.99093971934715
 30
0.0
 11
-160.0
 21
-100.834439924742
 31
0.0
  0
LINE
  5
113
330
111
100
AcDbEntity
  8
0
  6
ByBlock
 62
     0
440
 16777216
100
AcDbLine
 10
-19.99999999999997
 20
-43.00000000000003
 30
0.0
 11
-19.99999999999997
 21
-100.834439924742
 31
0.0
  0
LINE
  5
114
330
111
100
AcDbEntity
  8
0
  6
ByBlock
 62
     0
440
 16777216
100
AcDbLine
 10
-156.0
 20
-97.83443992474206
 30
0.0
 11
-23.99999999999997
 21
-97.83443992474206
 31
0.0
  0
SOLID
  5
115
330
111
100
AcDbEntity
  8
0
  6
ByBlock
 62
     0
440
 16777216
100
AcDbTrace
 10
-156.0
 20
-97.16777325807539
 30
0.0
 11
-156.0
 21
-98.50110659140874
 31
0.0
 12
-160.0
 22
-97.83443992474206
 32
0.0
 13
-160.0
 23
-97.83443992474206
 33
0.0
  0
SOLID
  5
116
330
111
100
AcDbEntity
  8
0
  6
ByBlock
 62
     0
440
 16777216
100
AcDbTrace
 10
-23.99999999999997
 20
-97.16777325807539
 30
0.0
 11
-23.99999999999997
 21
-98.50110659140874
 31
0.0
 12
-19.99999999999997
 22
-97.83443992474206
 32
0.0
 13
-19.99999999999997
 23
-97.83443992474206
 33
0.0
  0
TEXT
  5
117
330
111
100
AcDbEntity
  8
0
  6
ByBlock
 62
     0
440
 16777216
100
AcDbText
 10
-94.50000000000001
 20
-96.33443992474205
 30
0.0
 40
3.0
  1
140
  7
ROMANS
 72
     1
 11
-90.0
 21
-94.83443992474205
 31
0.0
100
AcDbText
 73
     2
  0
POINT
  5
118
330
111
100
AcDbEntity
  8
DEFPOINTS
  6
ByBlock
 62
     0
440
 16777216
100
AcDbPoint
 10
-160.0
 20
-29.99093971934716
 30
0.0
  0
POINT
  5
119
330
111
100
AcDbEntity
  8
DEFPOINTS
  6
ByBlock
 62
     0
440
 16777216
100
AcDbPoint
 10
-19.99999999999997
 20
-40.00000000000002
 30
0.0
  0
POINT
  5
11A
330
111
100
AcDbEntity
  8
DEFPOINTS
  6
ByBlock
 62
     0
440
 16777216
100
AcDbPoint
 10
-19.99999999999997
 20
-97.83443992474206
 30
0.0
  0
ENDBLK
  5
11C
330
111
100
AcDbEntity
  8
0
100
AcDbBlockEnd
  0
BLOCK
  5
F6
330
EC
100
AcDbEntity
  8
0
100
AcDbBlockBegin
  2
*D12
 70
     1
 10
0.0
 20
0.0
 30
0.0
  3
*D12
  1

  0
LINE
  5
ED
330
EC
100
AcDbEntity
  8
0
  6
ByBlock
 62
     0
440
 16777216
100
AcDbLine
 10
-19.99999999999997
 20
-43.00000000000003
 30
0.0
 11
-19.99999999999997
 21
-100.834439924742
 31
0.0
  0
LINE
  5
EE
330
EC
100
AcDbEntity
  8
0
  6
ByBlock
 62
     0
440
 16777216
100
AcDbLine
 10
0.0
 20
-52.99999999999989
 30
0.0
 11
0.0
 21
-100.834439924742
 31
0.0
  0
LINE
  5
EF
330
EC
100
AcDbEntity
  8
0
  6
ByBlock
 62
     0
440
 16777216
100
AcDbLine
 10
-15.99999999999997
 20
-97.83443992474206
 30
0.0
 11
-4.0
 21
-97.83443992474206
 31
0.0
  0
SOLID
  5
F0
330
EC
100
AcDbEntity
  8
0
  6
ByBlock
 62
     0
440
 16777216
100
AcDbTrace
 10
-15.99999999999997
 20
-97.16777325807539
 30
0.0
 11
-15.99999999999997
 21
-98.50110659140874
 31
0.0
 12
-19.99999999999997
 22
-97.83443992474206
 32
0.0
 13
-19.99999999999997
 23
-97.83443992474206
 33
0.0
  0
SOLID
  5
F1
330
EC
100
AcDbEntity
  8
0
  6
ByBlock
 62
     0
440
 16777216
100
AcDbTrace
 10
-4.0
 20
-97.16777325807539
 30
0.0
 11
-4.0
 21
-98.50110659140874
 31
0.0
 12
0.0
 22
-97.83443992474206
 32
0.0
 13
0.0
 23
-97.83443992474206
 33
0.0
  0
TEXT
  5
F2
330
EC
100
AcDbEntity
  8
0
  6
ByBlock
 62
     0
440
 16777216
100
AcDbText
 10
-12.85714285714284
 20
-96.33443992474205
 30
0.0
 40
3.0
  1
20
  7
ROMANS
 72
     1
 11
-9.999999999999985
 21
-94.83443992474205
 31
0.0
100
AcDbText
 73
     2
  0
POINT
  5
F3
330
EC
100
AcDbEntity
  8
DEFPOINTS
  6
ByBlock
 62
     0
440
 16777216
100
AcDbPoint
 10
-19.99999999999997
 20
-40.00000000000002
 30
0.0
  0
POINT
  5
F4
330
EC
100
AcDbEntity
  8
DEFPOINTS
  6
ByBlock
 62
     0
440
 16777216
100
AcDbPoint
 10
0.0
 20
-49.99999999999989
 30
0.0
  0
POINT
  5
F5
330
EC
100
AcDbEntity
  8
DEFPOINTS
  6
ByBlock
 62
     0
440
 16777216
100
AcDbPoint
 10
0.0
 20
-97.83443992474206
 30
0.0
  0
ENDBLK
  5
F7
330
EC
100
AcDbEntity
  8
0
100
AcDbBlockEnd
  0
BLOCK
  5
105
330
F9
100
AcDbEntity
  8
0
100
AcDbBlockBegin
  2
*D13
 70
     1
 10
0.0
 20
0.0
 30
0.0
  3
*D13
  1

  0
LINE
  5
FA
330
F9
100
AcDbEntity
  8
0
  6
ByBlock
 62
     0
440
 16777216
100
AcDbLine
 10
0.0000000000000382
 20
-52.99999999999989
 30
0.0
 11
0.0000000000000382
 21
-93.10784729516148
 31
0.0
  0
LINE
  5
FB
330
F9
100
AcDbEntity
  8
0
  6
ByBlock
 62
     0
440
 16777216
100
AcDbLine
 10
2.0
 20
-52.99999999999989
 30
0.0
 11
2.0
 21
-93.10784729516148
 31
0.0
  0
LINE
  5
FC
330
F9
100
AcDbEntity
  8
0
  6
ByBlock
 62
     0
440
 16777216
100
AcDbLine
 10
-3.999999999999961
 20
-90.10784729516149
 30
0.0
 11
-7.999999999999961
 21
-90.10784729516149
 31
0.0
  0
LINE
  5
FD
330
F9
100
AcDbEntity
  8
0
  6
ByBlock
 62
     0
440
 16777216
100
AcDbLine
 10
6.0
 20
-90.10784729516149
 30
0.0
 11
10.0
 21
-90.10784729516149
 31
0.0
  0
LINE
  5
FE
330
F9
100
AcDbEntity
  8
0
  6
ByBlock
 62
     0
440
 16777216
100
AcDbLine
 10
10.0
 20
-90.10784729516149
 30
0.0
 11
13.5
 21
-90.10784729516149
 31
0.0
  0
SOLID
  5
FF
330
F9
100
AcDbEntity
  8
0
  6
ByBlock
 62
     0
440
 16777216
100
AcDbTrace
 10
-3.999999999999961
 20
-89.44118062849481
 30
0.0
 11
-3.999999999999961
 21
-90.77451396182816
 31
0.0
 12
0.0000000000000382
 22
-90.10784729516149
 32
0.0
 13
0.0000000000000382
 23
-90.10784729516149
 33
0.0
  0
SOLID
  5
100
330
F9
100
AcDbEntity
  8
0
  6
ByBlock
 62
     0
440
 16777216
100
AcDbTrace
 10
6.0
 20
-89.44118062849481
 30
0.0
 11
6.0
 21
-90.77451396182816
 31
0.0
 12
2.0
 22
-90.10784729516149
 32
0.0
 13
2.0
 23
-90.10784729516149
 33
0.0
  0
TEXT
  5
101
330
F9
100
AcDbEntity
  8
0
  6
ByBlock
 62
     0
440
 16777216
100
AcDbText
 10
11.07142857142857
 20
-88.60784729516149
 30
0.0
 40
3.0
  1
2
  7
ROMANS
 72
     1
 11
12.5
 21
-87.10784729516149
 31
0.0
100
AcDbText
 73
     2
  0
POINT
  5
102
330
F9
100
AcDbEntity
  8
DEFPOINTS
  6
ByBlock
 62
     0
440
 16777216
100
AcDbPoint
 10
0.0000000000000382
 20
-49.99999999999989
 30
0.0
  0
POINT
  5
103
330
F9
100
AcDbEntity
  8
DEFPOINTS
  6
ByBlock
 62
     0
440
 16777216
100
AcDbPoint
 10
2.0
 20
-49.99999999999989
 30
0.0
  0
POINT
  5
104
330
F9
100
AcDbEntity
  8
DEFPOINTS
  6
ByBlock
 62
     0
440
 16777216
100
AcDbPoint
 10
2.0
 20
-90.10784729516149
 30
0.0
  0
ENDBLK
  5
106
330
F9
100
AcDbEntity
  8
0
100
AcDbBlockEnd
  0
BLOCK
  5
1A1
330
19E
100
AcDbEntity
  8
0
100
AcDbBlockBegin
  2
A$Ca8201df8
 70
     0
 10
0.0
 20
0.0
 30
0.0
  3
A$Ca8201df8
  1

  0
MTEXT
  5
1A2
330
19E
100
AcDbEntity
  8
ANCON-TEXT
100
AcDbMText
 10
1.996562336607325
 20
26.15617988065412
 30
0.0
 40
4.0
 41
95.73209882442336
 46
0.0
 71
     1
 72
     5
  1
{\fArial|b0|i0|c0|p34;Leviat \PTel:  1300 304 320\PEmail: technical.au@leviat.com\PWeb: ancon.com.au / Leviat.com}
 73
     1
 44
1.0
101
Embedded Object
 70
     1
 10
1.0
 20
0.0
 30
0.0
 11
1.996562336607325
 21
26.15617988065412
 31
0.0
 40
95.73209882442336
 41
0.0
 42
80.94679399727148
 43
24.22646657571624
 71
     2
 72
     1
 44
95.73209882442336
 45
0.5
 73
     0
 74
     0
 46
0.0
  0
ENDBLK
  5
1A3
330
19E
100
AcDbEntity
  8
0
100
AcDbBlockEnd
  0
BLOCK
  5
1A5
330
1A4
100
AcDbEntity
  8
0
100
AcDbBlockBegin
  2
Leviat info
 70
     0
 10
0.0
 20
0.0
 30
0.0
  3
Leviat info
  1

  0
INSERT
  5
1A6
330
1A4
100
AcDbEntity
  8
ANCON-TEXT
100
AcDbBlockReference
  2
A$Ca8201df8
 10
-36.77513213385328
 20
-15.28978574702376
 30
0.0
  0
ENDBLK
  5
1A7
330
1A4
100
AcDbEntity
  8
0
100
AcDbBlockEnd
  0
ENDSEC
  0
SECTION
  2
ENTITIES
  0
LINE
  5
2A
330
2
100
AcDbEntity
  8
SPECD
 62
     6
100
AcDbLine
 10
339.4838796203883
 20
135.0269886145541
 30
0.0
 11
339.4838796203883
 21
81.99329602900373
 31
0.0
  0
LINE
  5
2C
330
2
100
AcDbEntity
  8
SPECP
 62
     6
100
AcDbLine
 10
204.5867804365098
 20
164.3935022816479
 30
0.0
 11
204.5867804365098
 21
152.4755269896466
 31
0.0
  0
LINE
  5
2E
330
2
100
AcDbEntity
  8
SPECP
 62
     6
100
AcDbLine
 10
136.9969295137479
 20
164.3935022816479
 30
0.0
 11
136.9969295137479
 21
152.4755269896466
 31
0.0
  0
LINE
  5
2F
330
2
100
AcDbEntity
  8
SPECD
 62
     6
100
AcDbLine
 10
136.9969295137479
 20
135.0269886145541
 30
0.0
 11
136.9969295137479
 21
81.99329602900373
 31
0.0
  0
TEXT
  5
30
102
{ACAD_XDICTIONARY
360
245
102
}
330
2
100
AcDbEntity
  8
SPECP
 62
     6
100
AcDbText
 10
144.6198964599263
 20
155.7563921658044
 30
0.0
 40
5.0
  1
STAIFIX DSD ??
  7
arial
 72
     4
 11
171.0148487109495
 21
158.2563921658044
 31
0.0
100
AcDbText
1001
AcadAnnotative
1000
AnnotativeData
1002
{
1070
     1
1070
     1
1002
}
  0
LINE
  5
31
330
2
100
AcDbEntity
  8
SPECP
 62
     6
100
AcDbLine
 10
136.9969295137479
 20
152.4755269896466
 30
0.0
 11
204.5867804365098
 21
152.4755269896466
 31
0.0
  0
LINE
  5
32
330
2
100
AcDbEntity
  8
SPECP
 62
     6
100
AcDbLine
 10
136.9969295137479
 20
164.3935022816479
 30
0.0
 11
204.5867804365098
 21
164.3935022816479
 31
0.0
  0
TEXT
  5
33
102
{ACAD_XDICTIONARY
360
241
102
}
330
2
100
AcDbEntity
  8
SPECD
 62
     6
100
AcDbText
 10
147.5184536247514
 20
85.69464113983205
 30
0.0
 40
5.0
  1
LOAD OF ??? kN
  7
arial
 72
     4
 11
174.8854386179301
 21
88.19634646043231
 31
0.0
100
AcDbText
1001
AcadAnnotative
1000
AnnotativeData
1002
{
1070
     1
1070
     1
1002
}
  0
TEXT
  5
34
102
{ACAD_XDICTIONARY
360
23D
102
}
330
2
100
AcDbEntity
  8
SPECD
 62
     6
100
AcDbText
 10
145.9688595815912
 20
105.7786237187234
 30
0.0
 40
5.0
  1
SUITABLE FOR A DESIGN JOINT WIDTH OF ?? MM
  7
arial
 72
     4
 11
229.7955990086035
 21
108.2803290393236
 31
0.0
100
AcDbText
1001
AcadAnnotative
1000
AnnotativeData
1002
{
1070
     1
1070
     1
1002
}
  0
LINE
  5
35
330
2
100
AcDbEntity
  8
SPECD
 62
     6
100
AcDbLine
 10
136.9969295137479
 20
135.0269886145541
 30
0.0
 11
339.4838796203883
 21
135.0269886145541
 31
0.0
  0
LINE
  5
36
330
2
100
AcDbEntity
  8
SPECD
 62
     6
100
AcDbLine
 10
136.9969295137479
 20
81.99329602900373
 30
0.0
 11
339.4838796203883
 21
81.99329602900373
 31
0.0
  0
TEXT
  5
37
102
{ACAD_XDICTIONARY
360
239
102
}
330
2
100
AcDbEntity
  8
SPECD
 62
     6
100
AcDbText
 10
147.0597890900675
 20
95.7295663047943
 30
0.0
 40
5.0
  1
AND CAPABLE OF TRANSFERRING A SERVICEABILITY
  7
arial
 72
     4
 11
238.4615626234918
 21
98.23127162539458
 31
0.0
100
AcDbText
1001
AcadAnnotative
1000
AnnotativeData
1002
{
1070
     1
1070
     1
1002
}
  0
TEXT
  5
38
102
{ACAD_XDICTIONARY
360
235
102
}
330
2
100
AcDbEntity
  8
SPECD
 62
     6
100
AcDbText
 10
145.6821408214644
 20
115.6797714283931
 30
0.0
 40
5.0
  1
COMPRISING SLEEVE AND DOWEL COMPONENT
  7
arial
 72
     4
 11
228.5436687887223
 21
118.1814767489934
 31
0.0
100
AcDbText
1001
AcadAnnotative
1000
AnnotativeData
1002
{
1070
     1
1070
     1
1002
}
  0
TEXT
  5
39
102
{ACAD_XDICTIONARY
360
231
102
}
330
2
100
AcDbEntity
  8
SPECD
 62
     6
100
AcDbText
 10
146.7760595872942
 20
125.7844837541837
 30
0.0
 40
5.0
  1
TWO PART STAINLESS STEEL SHEAR CONNECTOR
  7
arial
 72
     4
 11
233.9077103376353
 21
128.286189074784
 31
0.0
100
AcDbText
1001
AcadAnnotative
1000
AnnotativeData
1002
{
1070
     1
1070
     1
1002
}
  0
LINE
  5
3A
330
2
100
AcDbEntity
  8
20MM-JOINT
  6
HIDDEN
 62
     3
100
AcDbLine
 10
99.99999999999998
 20
32.00906028065288
 30
0.0
 11
100.0
 21
16.00906028065284
 31
0.0
  0
LINE
  5
3D
330
2
100
AcDbEntity
  8
ANCON-DSD
100
AcDbLine
 10
135.0
 20
-13.99999999999989
 30
0.0
 11
134.9999999999999
 21
-33.99999999999988
 31
0.0
  0
ARC
  5
3F
330
2
100
AcDbEntity
  8
ANCON-DSD
100
AcDbCircle
 10
109.2540786071004
 20
-23.9999999999999
 30
0.0
 40
27.61978400294555
100
AcDbArc
 50
338.7732805876968
 51
21.22671941230314
  0
LINE
  5
40
330
2
100
AcDbEntity
  8
20MM-JOINT
  6
HIDDEN
 62
     3
100
AcDbLine
 10
99.99999999999996
 20
-15.99093971934715
 30
0.0
 11
99.99999999999998
 21
-31.99093971934715
 31
0.0
  0
DIMENSION
  5
41
330
2
100
AcDbEntity
  8
DIMS
100
AcDbDimension
280
     0
  2
*D4
 10
178.1211112767737
 20
24.00000000000011
 30
0.0
 11
175.1211112767737
 21
0.0000000000001137
 31
0.0
 71
     5
 42
-1.0
 73
     0
 74
     0
 75
     0
  3
1-2
100
AcDbAlignedDimension
 13
138.6754711809827
 23
-23.99999999999989
 33
0.0
 14
138.6754711809827
 24
24.00000000000011
 34
0.0
 50
90.0
100
AcDbRotatedDimension
  0
DIMENSION
  5
4F
330
2
100
AcDbEntity
  8
DIMS
100
AcDbDimension
280
     0
  2
*D5
 10
163.3692739392588
 20
14.00000000000011
 30
0.0
 11
160.3692739392588
 21
0.0000000000001119
 31
0.0
 71
     5
 42
-1.0
 73
     0
 74
     0
 75
     0
  3
1-2
100
AcDbAlignedDimension
 13
135.0
 23
-13.99999999999989
 33
0.0
 14
135.0
 24
14.00000000000011
 34
0.0
 50
90.0
100
AcDbRotatedDimension
  0
DIMENSION
  5
5C
330
2
100
AcDbEntity
  8
DIMS
100
AcDbDimension
280
     0
  2
*D7
 10
163.3692739392588
 20
-33.99999999999989
 30
0.0
 11
160.3692739392588
 21
-45.7142857142856
 31
0.0
 71
     5
 42
-1.0
 73
     0
 74
     0
 75
     0
  3
1-2
100
AcDbAlignedDimension
 13
138.6754711809827
 23
-23.99999999999989
 33
0.0
 14
134.9999999999999
 24
-33.99999999999989
 34
0.0
 50
90.0
100
AcDbRotatedDimension
  0
LINE
  5
6B
330
2
100
AcDbEntity
  8
ANCON-DSD
100
AcDbLine
 10
135.0
 20
34.00000000000011
 30
0.0
 11
135.0
 21
14.00000000000011
 31
0.0
  0
ARC
  5
6C
330
2
100
AcDbEntity
  8
ANCON-DSD
100
AcDbCircle
 10
109.2540786071003
 20
24.00000000000011
 30
0.0
 40
27.61978400294555
100
AcDbArc
 50
338.7732805876968
 51
21.22671941230314
  0
DIMENSION
  5
6D
330
2
100
AcDbEntity
  8
DIMS
100
AcDbDimension
280
     0
  2
*D6
 10
163.3692739392588
 20
24.00000000000011
 30
0.0
 11
160.3692739392588
 21
35.71428571428583
 31
0.0
 71
     5
 42
-1.0
 73
     0
 74
     0
 75
     0
  3
1-2
100
AcDbAlignedDimension
 13
135.0
 23
14.00000000000011
 33
0.0
 14
138.6754711809827
 24
24.00000000000011
 34
0.0
 50
90.0
100
AcDbRotatedDimension
  0
LINE
  5
7C
330
2
100
AcDbEntity
  8
ANCON-DSD
100
AcDbLine
 10
0.0
 20
50.00000000000011
 30
0.0
 11
2.0
 21
50.00000000000011
 31
0.0
  0
LINE
  5
7D
330
2
100
AcDbEntity
  8
ANCON-DSD
100
AcDbLine
 10
0.0
 20
50.00000000000011
 30
0.0
 11
0.0
 21
50.01812056130592
 31
0.0
  0
ARC
  5
7E
330
2
100
AcDbEntity
  8
ANCON-DSD
100
AcDbCircle
 10
-0.0624999999999432
 20
43.00000000000011
 30
0.0
 40
4.062499999999995
100
AcDbArc
 50
300.5102374061147
 51
59.48976259388494
  0
TEXT
  5
7F
102
{ACAD_XDICTIONARY
360
22D
102
}
330
2
100
AcDbEntity
  8
20MM-JOINT
 62
     6
100
AcDbText
 10
-89.20579893851552
 20
121.8268747781314
 30
0.0
 40
5.0
  1
33.7
  7
arial
 72
     4
 11
-82.40839102582794
 21
124.2927683661259
 31
0.0
100
AcDbText
1001
AcadAnnotative
1000
AnnotativeData
1002
{
1070
     1
1070
     1
1002
}
  0
LINE
  5
80
330
2
100
AcDbEntity
  8
20MM-JOINT
  6
CENTER2
 62
     3
100
AcDbLine
 10
-24.99999999999997
 20
40.0
 30
0.0
 11
-19.99999999999997
 21
40.0
 31
0.0
  0
LINE
  5
82
330
2
100
AcDbEntity
  8
20MM-JOINT
 62
     6
100
AcDbLine
 10
-50.91517744599414
 20
164.0754574071201
 30
0.0
 11
-50.91517744599414
 21
110.9772112730273
 31
0.0
  0
TEXT
  5
83
102
{ACAD_XDICTIONARY
360
229
102
}
330
2
100
AcDbEntity
  8
20MM-JOINT
 62
     6
100
AcDbText
 10
-156.5631647499702
 20
142.9121178599595
 30
0.0
 40
5.0
  1
WIDTH
  7
arial
 72
     4
 11
-145.1187582015391
 21
145.4121178599595
 31
0.0
100
AcDbText
1001
AcadAnnotative
1000
AnnotativeData
1002
{
1070
     1
1070
     1
1002
}
  0
TEXT
  5
84
102
{ACAD_XDICTIONARY
360
225
102
}
330
2
100
AcDbEntity
  8
20MM-JOINT
 62
     6
100
AcDbText
 10
-153.0819926629357
 20
121.8251694575311
 30
0.0
 40
5.0
  1
20 MM
  7
arial
 72
     4
 11
-142.4083910258279
 21
124.2927683661259
 31
0.0
100
AcDbText
1001
AcadAnnotative
1000
AnnotativeData
1002
{
1070
     1
1070
     1
1002
}
  0
TEXT
  5
85
102
{ACAD_XDICTIONARY
360
221
102
}
330
2
100
AcDbEntity
  8
20MM-JOINT
 62
     6
100
AcDbText
 10
-169.567939647651
 20
153.8080359269782
 30
0.0
 40
5.0
  1
DESIGN JOINT
  7
arial
 72
     4
 11
-145.1187582015391
 21
156.3097412475785
 31
0.0
100
AcDbText
1001
AcadAnnotative
1000
AnnotativeData
1002
{
1070
     1
1070
     1
1002
}
  0
LINE
  5
86
330
2
100
AcDbEntity
  8
20MM-JOINT
 62
     6
100
AcDbLine
 10
-176.2938551378566
 20
164.0754574071201
 30
0.0
 11
-176.2938551378566
 21
110.9772112730273
 31
0.0
  0
LINE
  5
87
330
2
100
AcDbEntity
  8
20MM-JOINT
 62
     6
100
AcDbLine
 10
-115.7857615807937
 20
164.0754574071201
 30
0.0
 11
-115.7857615807937
 21
110.9772112730273
 31
0.0
  0
LINE
  5
88
330
2
100
AcDbEntity
  8
20MM-JOINT
 62
     6
100
AcDbLine
 10
-226.2938551378566
 20
164.0754574071201
 30
0.0
 11
-226.2938551378566
 21
110.9772112730273
 31
0.0
  0
TEXT
  5
89
102
{ACAD_XDICTIONARY
360
21D
102
}
330
2
100
AcDbEntity
  8
20MM-JOINT
 62
     6
100
AcDbText
 10
-213.6669176288293
 20
121.7944736867262
 30
0.0
 40
5.0
  1
DSD30
  7
arial
 72
     4
 11
-202.4083910258279
 21
124.2927683661259
 31
0.0
100
AcDbText
1001
AcadAnnotative
1000
AnnotativeData
1002
{
1070
     1
1070
     1
1002
}
  0
TEXT
  5
8A
102
{ACAD_XDICTIONARY
360
219
102
}
330
2
100
AcDbEntity
  8
20MM-JOINT
 62
     6
100
AcDbText
 10
-217.4247348100027
 20
153.8097412475785
 30
0.0
 40
5.0
  1
DSD REF:
  7
arial
 72
     4
 11
-201.1252805125948
 21
156.3097412475785
 31
0.0
100
AcDbText
1001
AcadAnnotative
1000
AnnotativeData
1002
{
1070
     1
1070
     1
1002
}
  0
TEXT
  5
8B
102
{ACAD_XDICTIONARY
360
215
102
}
330
2
100
AcDbEntity
  8
20MM-JOINT
 62
     6
100
AcDbText
 10
-110.7457034405619
 20
153.81457174471
 30
0.0
 40
5.0
  1
SERVICEABILITY
  7
arial
 72
     4
 11
-82.40839102582794
 21
156.31457174471
 31
0.0
100
AcDbText
1001
AcadAnnotative
1000
AnnotativeData
1002
{
1070
     1
1070
     1
1002
}
  0
LINE
  5
8C
330
2
100
AcDbEntity
  8
20MM-JOINT
 62
     6
100
AcDbLine
 10
-226.2938551378566
 20
110.9772112730273
 30
0.0
 11
-50.91517744599414
 21
110.9772112730273
 31
0.0
  0
LINE
  5
8D
330
2
100
AcDbEntity
  8
20MM-JOINT
 62
     6
100
AcDbLine
 10
-226.2938551378566
 20
138.0046963480744
 30
0.0
 11
-50.91517744599411
 21
138.0046963480744
 31
0.0
  0
LINE
  5
8E
330
2
100
AcDbEntity
  8
20MM-JOINT
 62
     6
100
AcDbLine
 10
-226.2938551378566
 20
164.0754574071201
 30
0.0
 11
-50.91517744599414
 21
164.0754574071201
 31
0.0
  0
TEXT
  5
8F
102
{ACAD_XDICTIONARY
360
211
102
}
330
2
100
AcDbEntity
  8
20MM-JOINT
 62
     6
100
AcDbText
 10
-101.4244210394705
 20
143.2048047920993
 30
0.0
 40
5.0
  1
LOAD ( kN )
  7
arial
 72
     4
 11
-82.40839102582794
 21
145.0141499489888
 31
0.0
100
AcDbText
1001
AcadAnnotative
1000
AnnotativeData
1002
{
1070
     1
1070
     1
1002
}
  0
ARC
  5
90
330
2
100
AcDbEntity
  8
ANCON-DSD
100
AcDbCircle
 10
82.0
 20
12.00000000000017
 30
0.0
 40
2.0
100
AcDbArc
 50
0.0
 51
90.0
  0
LINE
  5
91
330
2
100
AcDbEntity
  8
DIMS
  6
CENTER2
100
AcDbLine
 10
50.29297035588252
 20
0.0000000000001137
 30
0.0
 11
67.63579944019602
 21
0.0000000000001137
 31
0.0
  0
CIRCLE
  5
92
330
2
100
AcDbEntity
  8
ANCON-DSD
100
AcDbCircle
 10
58.00000000000006
 20
0.0000000000001137
 30
0.0
 40
6.0
  0
ARC
  5
93
330
2
100
AcDbEntity
  8
ANCON-DSD
100
AcDbCircle
 10
82.0
 20
-11.99999999999988
 30
0.0
 40
2.0
100
AcDbArc
 50
270.0
 51
0.0
  0
LINE
  5
94
330
2
100
AcDbEntity
  8
ANCON-DSD
100
AcDbLine
 10
84.0
 20
12.00000000000017
 30
0.0
 11
84.0
 21
-11.99999999999988
 31
0.0
  0
LINE
  5
95
330
2
100
AcDbEntity
  8
DIMS
  6
CENTER2
100
AcDbLine
 10
58.00000000000006
 20
7.519269495116532
 30
0.0
 11
58.00000000000006
 21
-8.002049765886908
 31
0.0
  0
CIRCLE
  5
96
330
2
100
AcDbEntity
  8
ANCON-DSD
100
AcDbCircle
 10
28.00000000000006
 20
0.0000000000001137
 30
0.0
 40
6.0
  0
LINE
  5
97
330
2
100
AcDbEntity
  8
DIMS
  6
CENTER2
100
AcDbLine
 10
19.81827397710071
 20
0.0000000000001137
 30
0.0
 11
36.45933020106105
 21
0.0000000000001137
 31
0.0
  0
ARC
  5
98
330
2
100
AcDbEntity
  8
ANCON-DSD
100
AcDbCircle
 10
2.0
 20
-33.49999999999989
 30
0.0
 40
2.0
100
AcDbArc
 50
270.0
 51
0.0
  0
ARC
  5
99
330
2
100
AcDbEntity
  8
ANCON-DSD
100
AcDbCircle
 10
-0.0625
 20
-42.99999999999989
 30
0.0
 40
4.0625
100
AcDbArc
 50
300.5102374061156
 51
59.48976259388445
  0
LINE
  5
9A
330
2
100
AcDbEntity
  8
ANCON-DSD
100
AcDbLine
 10
4.0
 20
33.50000000000012
 30
0.0
 11
4.000000000000056
 21
-33.49999999999989
 31
0.0
  0
LINE
  5
9B
330
2
100
AcDbEntity
  8
DIMS
  6
CENTER2
100
AcDbLine
 10
28.00000000000006
 20
7.519269495116532
 30
0.0
 11
28.00000000000006
 21
-8.002049765886908
 31
0.0
  0
LINE
  5
9C
330
2
100
AcDbEntity
  8
ANCON-DSD
100
AcDbLine
 10
0.0
 20
-49.99999999999989
 30
0.0
 11
2.0
 21
-49.99999999999989
 31
0.0
  0
DIMENSION
  5
9D
330
2
100
AcDbEntity
  8
DIMS
100
AcDbDimension
280
     0
  2
*D0
 10
28.00000000000006
 20
-79.4216187508091
 30
0.0
 11
15.00000000000003
 21
-76.4216187508091
 31
0.0
 71
     5
 42
-1.0
 73
     0
 74
     0
 75
     0
  3
1-2
100
AcDbAlignedDimension
 13
2.0
 23
-49.99999999999989
 33
0.0
 14
28.00000000000006
 24
-8.002049765886908
 34
0.0
100
AcDbRotatedDimension
  0
DIMENSION
  5
AA
330
2
100
AcDbEntity
  8
DIMS
100
AcDbDimension
280
     0
  2
*D3
 10
58.00000000000006
 20
-79.4216187508091
 30
0.0
 11
43.00000000000006
 21
-76.4216187508091
 31
0.0
 71
     5
 42
-1.0
 73
     0
 74
     0
 75
     0
  3
1-2
100
AcDbAlignedDimension
 13
28.00000000000006
 23
-8.002049765886908
 33
0.0
 14
58.00000000000006
 24
-8.002049765886908
 34
0.0
100
AcDbRotatedDimension
  0
LINE
  5
B7
330
2
100
AcDbEntity
  8
20MM-JOINT
  6
CENTER2
 62
     3
100
AcDbLine
 10
-25.00000000000003
 20
-40.00000000000002
 30
0.0
 11
-19.99999999999997
 21
-40.00000000000002
 31
0.0
  0
LINE
  5
B8
330
2
100
AcDbEntity
  8
20MM-JOINT
  6
CENTER2
 62
     1
100
AcDbLine
 10
-50.99999999999997
 20
8.123906300273375
 30
0.0
 11
-50.99999999999991
 21
-9.175721016889752
 31
0.0
  0
CIRCLE
  5
B9
330
2
100
AcDbEntity
  8
20MM-JOINT
 62
     3
100
AcDbCircle
 10
-80.99999999999997
 20
-0.0000000000000284
 30
0.0
 40
6.0
  0
LINE
  5
BA
330
2
100
AcDbEntity
  8
20MM-JOINT
  6
CENTER2
 62
     1
100
AcDbLine
 10
-80.99999999999997
 20
8.123906300273375
 30
0.0
 11
-80.99999999999992
 21
-9.175721016889752
 31
0.0
  0
LINE
  5
BB
330
2
100
AcDbEntity
  8
20MM-JOINT
  6
CENTER2
 62
     1
100
AcDbLine
 10
-88.99999999999998
 20
-0.0000000000000284
 30
0.0
 11
-42.99999999999997
 21
-0.0000000000000284
 31
0.0
  0
CIRCLE
  5
BC
330
2
100
AcDbEntity
  8
20MM-JOINT
 62
     3
100
AcDbCircle
 10
-50.99999999999997
 20
-0.0000000000000284
 30
0.0
 40
6.0
  0
DIMENSION
  5
BD
330
2
100
AcDbEntity
  8
20MM-DIMS
 62
     1
100
AcDbDimension
280
     0
  2
*D8
 10
-50.99999999999991
 20
-79.48556520284353
 30
0.0
 11
-65.99999999999991
 21
-76.48556520284353
 31
0.0
 71
     5
 42
-1.0
 73
     0
 74
     0
 75
     0
  3
1-2
100
AcDbAlignedDimension
 13
-80.99999999999992
 23
-9.175721016889752
 33
0.0
 14
-50.99999999999991
 24
-9.175721016889752
 34
0.0
100
AcDbRotatedDimension
  0
DIMENSION
  5
CB
330
2
100
AcDbEntity
  8
20MM-DIMS
 62
     1
100
AcDbDimension
280
     0
  2
*D9
 10
-25.00000000000003
 20
-79.48556520284353
 30
0.0
 11
-37.99999999999997
 21
-76.48556520284353
 31
0.0
 71
     5
 42
-1.0
 73
     0
 74
     0
 75
     0
  3
1-2
100
AcDbAlignedDimension
 13
-50.99999999999991
 23
-9.175721016889752
 33
0.0
 14
-25.00000000000003
 24
-40.00000000000002
 34
0.0
100
AcDbRotatedDimension
  0
DIMENSION
  5
D8
330
2
100
AcDbEntity
  8
20MM-DIMS
 62
     1
100
AcDbDimension
280
     0
  2
*D10
 10
-19.99999999999997
 20
-79.48556520284353
 30
0.0
 11
-9.499999999999971
 21
-76.48556520284353
 31
0.0
 71
     5
 42
-1.0
 73
     0
 74
     0
 75
     0
  3
1-2
100
AcDbAlignedDimension
 13
-25.00000000000003
 23
-40.00000000000002
 33
0.0
 14
-19.99999999999997
 24
-40.00000000000002
 34
0.0
100
AcDbRotatedDimension
  0
LINE
  5
E7
330
2
100
AcDbEntity
  8
20MM-JOINT
 62
     3
100
AcDbLine
 10
-19.99999999999996
 20
16.00906028065284
 30
0.0
 11
0.0000000000000253
 21
16.00906028065284
 31
0.0
  0
LINE
  5
E8
330
2
100
AcDbEntity
  8
20MM-JOINT
 62
     3
100
AcDbLine
 10
-19.99999999999996
 20
32.00906028065288
 30
0.0
 11
0.0000000000000221
 21
32.00906028065288
 31
0.0
  0
LINE
  5
E9
330
2
100
AcDbEntity
  8
20MM-JOINT
 62
     3
100
AcDbLine
 10
-19.99999999999997
 20
-15.99093971934715
 30
0.0
 11
0.0000000000000316
 21
-15.99093971934715
 31
0.0
  0
LINE
  5
EA
330
2
100
AcDbEntity
  8
20MM-JOINT
 62
     3
100
AcDbLine
 10
-19.99999999999997
 20
-31.99093971934715
 30
0.0
 11
0.0000000000000347
 21
-31.99093971934715
 31
0.0
  0
DIMENSION
  5
EB
330
2
100
AcDbEntity
  8
20MM-DIMS
 62
     1
100
AcDbDimension
280
     0
  2
*D12
 10
0.0
 20
-97.83443992474206
 30
0.0
 11
-9.999999999999985
 21
-94.83443992474205
 31
0.0
 71
     5
 42
-1.0
 73
     0
 74
     0
 75
     0
  3
1-2
100
AcDbAlignedDimension
 13
-19.99999999999997
 23
-40.00000000000002
 33
0.0
 14
0.0
 24
-49.99999999999989
 34
0.0
100
AcDbRotatedDimension
  0
DIMENSION
  5
F8
330
2
100
AcDbEntity
  8
DIMS
 62
     1
100
AcDbDimension
280
     0
  2
*D13
 10
2.0
 20
-90.10784729516149
 30
0.0
 11
12.5
 21
-87.10784729516149
 31
0.0
 71
     5
 42
-1.0
 73
     0
 74
     0
 75
     0
  3
1-2
100
AcDbAlignedDimension
 13
0.0000000000000382
 23
-49.99999999999989
 33
0.0
 14
2.0
 24
-49.99999999999989
 34
0.0
100
AcDbRotatedDimension
  0
LINE
  5
107
330
2
100
AcDbEntity
  8
20MM-JOINT
 62
     3
100
AcDbLine
 10
-107.0
 20
16.00906028065284
 30
0.0
 11
-107.0
 21
-15.99093971934715
 31
0.0
  0
LINE
  5
108
330
2
100
AcDbEntity
  8
20MM-JOINT
 62
     3
100
AcDbLine
 10
-160.0
 20
32.00906028065289
 30
0.0
 11
-160.0
 21
16.00906028065285
 31
0.0
  0
LINE
  5
109
330
2
100
AcDbEntity
  8
20MM-JOINT
 62
     3
100
AcDbLine
 10
-160.0
 20
-15.99093971934714
 30
0.0
 11
-160.0
 21
-31.99093971934714
 31
0.0
  0
LINE
  5
10A
330
2
100
AcDbEntity
  8
20MM-JOINT
 62
     3
100
AcDbLine
 10
-160.0
 20
-31.99093971934715
 30
0.0
 11
-25.00000000000003
 21
-31.99093971934715
 31
0.0
  0
LINE
  5
10B
330
2
100
AcDbEntity
  8
20MM-JOINT
 62
     3
100
AcDbLine
 10
-160.0
 20
-15.99093971934715
 30
0.0
 11
-25.00000000000003
 21
-15.99093971934715
 31
0.0
  0
LINE
  5
10C
330
2
100
AcDbEntity
  8
20MM-JOINT
 62
     3
100
AcDbLine
 10
-160.0
 20
16.00906028065284
 30
0.0
 11
-24.99999999999996
 21
16.00906028065284
 31
0.0
  0
LINE
  5
10D
330
2
100
AcDbEntity
  8
20MM-JOINT
 62
     3
100
AcDbLine
 10
-160.0
 20
32.00906028065289
 30
0.0
 11
-24.99999999999996
 21
32.00906028065288
 31
0.0
  0
LINE
  5
10E
330
2
100
AcDbEntity
  8
20MM-JOINT
  6
CENTER2
 62
     1
100
AcDbLine
 10
-165.0
 20
24.0
 30
0.0
 11
0.0000000000000237
 21
24.0
 31
0.0
  0
LINE
  5
10F
330
2
100
AcDbEntity
  8
20MM-JOINT
  6
CENTER2
 62
     1
100
AcDbLine
 10
-165.0
 20
-24.00000000000003
 30
0.0
 11
0.0000000000000331
 21
-24.00000000000003
 31
0.0
  0
DIMENSION
  5
110
330
2
100
AcDbEntity
  8
20MM-DIMS
 62
     1
100
AcDbDimension
280
     0
  2
*D11
 10
-19.99999999999997
 20
-97.83443992474206
 30
0.0
 11
-90.0
 21
-94.83443992474205
 31
0.0
 71
     5
 42
-1.0
 73
     0
 74
     0
 75
     0
  3
1-2
100
AcDbAlignedDimension
 13
-160.0
 23
-29.99093971934716
 33
0.0
 14
-19.99999999999997
 24
-40.00000000000002
 34
0.0
100
AcDbRotatedDimension
  0
LINE
  5
11D
330
2
100
AcDbEntity
  8
ANCON-DSD
100
AcDbLine
 10
0.0
 20
50.01812056130592
 30
0.0
 11
0.0
 21
-49.99999999999989
 31
0.0
  0
LINE
  5
11E
330
2
100
AcDbEntity
  8
ANCON-DSD
100
AcDbLine
 10
2.0
 20
50.01812056130592
 30
0.0
 11
2.0
 21
-49.99999999999989
 31
0.0
  0
ARC
  5
11F
330
2
100
AcDbEntity
  8
ANCON-DSD
100
AcDbCircle
 10
2.0
 20
33.50000000000012
 30
0.0
 40
1.997220966142208
100
AcDbArc
 50
0.0
 51
90.0
  0
LINE
  5
120
330
2
100
AcDbEntity
  8
CONCRETE
100
AcDbLine
 10
0.0000000000000568
 20
-144.7370045323585
 30
0.0
 11
0.0
 21
144.7370045323587
 31
0.0
  0
LINE
  5
122
330
2
100
AcDbEntity
  8
20MM-JOINT
 62
     2
100
AcDbLine
 10
-19.99999999999994
 20
-144.7460648130115
 30
0.0
 11
-20.0
 21
144.7279442517058
 31
0.0
  0
LINE
  5
123
330
2
100
AcDbEntity
  8
20MM-JOINT
 62
     3
100
AcDbLine
 10
-19.99999999999997
 20
40.0
 30
0.0
 11
-19.99999999999997
 21
-40.00000000000002
 31
0.0
  0
LINE
  5
124
330
2
100
AcDbEntity
  8
20MM-JOINT
 62
     3
100
AcDbLine
 10
-24.99999999999997
 20
40.0
 30
0.0
 11
-25.00000000000003
 21
-40.00000000000002
 31
0.0
  0
LINE
  5
125
330
2
100
AcDbEntity
  8
ANCON-DSD
100
AcDbLine
 10
4.0
 20
34.00000000000011
 30
0.0
 11
135.0
 21
34.00000000000011
 31
0.0
  0
LINE
  5
126
330
2
100
AcDbEntity
  8
ANCON-DSD
100
AcDbLine
 10
4.000000000000056
 20
-33.99999999999989
 30
0.0
 11
134.9999999999999
 21
-33.99999999999989
 31
0.0
  0
LINE
  5
127
330
2
100
AcDbEntity
  8
ANCON-DSD
100
AcDbLine
 10
4.000000000000016
 20
14.00000000000011
 30
0.0
 11
135.0
 21
14.00000000000011
 31
0.0
  0
LINE
  5
128
330
2
100
AcDbEntity
  8
ANCON-DSD
100
AcDbLine
 10
4.00000000000004
 20
-13.99999999999989
 30
0.0
 11
135.0
 21
-13.99999999999989
 31
0.0
  0
DIMENSION
  5
129
330
2
100
AcDbEntity
  8
DIMS
100
AcDbDimension
280
     0
  2
*D1
 10
135.0
 20
-97.83443992474206
 30
0.0
 11
67.5
 21
-94.83443992474205
 31
0.0
 71
     5
 42
-1.0
 73
     0
 74
     0
 75
     0
  3
1-2
100
AcDbAlignedDimension
 13
0.0
 23
-49.99999999999989
 33
0.0
 14
135.0
 24
-28.99999999999989
 34
0.0
100
AcDbRotatedDimension
  0
DIMENSION
  5
136
330
2
100
AcDbEntity
  8
DIMS
100
AcDbDimension
280
     0
  2
*D2
 10
204.670974502782
 20
-49.99999999999989
 30
0.0
 11
201.670974502782
 21
0.0090602806530171
 31
0.0
  1
100
 71
     5
 42
-1.0
 73
     0
 74
     0
 75
     0
  3
1-2
100
AcDbAlignedDimension
 13
2.0
 23
50.01812056130592
 33
0.0
 14
2.0
 24
-49.99999999999989
 34
0.0
 50
90.0
100
AcDbRotatedDimension
  0
TEXT
  5
143
102
{ACAD_XDICTIONARY
360
20D
102
}
330
2
100
AcDbEntity
  8
DIMS
 62
     1
100
AcDbText
 10
12.23062166771258
 20
155.7546868452041
 30
0.0
 40
5.0
  1
SPECIFICATION BY PRODUCT
  7
arial
 72
     4
 11
62.87693817521599
 21
158.2563921658044
 31
0.0
100
AcDbText
1001
AcadAnnotative
1000
AnnotativeData
1002
{
1070
     1
1070
     1
1002
}
  0
TEXT
  5
144
102
{ACAD_XDICTIONARY
360
209
102
}
330
2
100
AcDbEntity
  8
DIMS
 62
     1
100
AcDbText
 10
11.96514374475914
 20
125.820232380708
 30
0.0
 40
5.0
  1
SPECIFICATION BY DESCRIPTION
  7
arial
 72
     4
 11
69.21105097531849
 21
128.3219377013082
 31
0.0
100
AcDbText
1001
AcadAnnotative
1000
AnnotativeData
1002
{
1070
     1
1070
     1
1002
}
  0
LINE
  5
145
330
2
100
AcDbEntity
  8
DIMS
  6
CENTER2
100
AcDbLine
 10
0.0000000000000142
 20
24.00000000000011
 30
0.0
 11
138.6754711809827
 21
24.00000000000011
 31
0.0
  0
LINE
  5
146
330
2
100
AcDbEntity
  8
DIMS
  6
CENTER2
100
AcDbLine
 10
0.0000000000000284
 20
-23.99999999999989
 30
0.0
 11
138.6754711809827
 21
-23.99999999999989
 31
0.0
  0
LINE
  5
147
330
2
100
AcDbEntity
  8
20MM-JOINT
  6
HIDDEN
 62
     3
100
AcDbLine
 10
0.0000000000000347
 20
-31.99093971934715
 30
0.0
 11
99.99999999999998
 21
-31.99093971934715
 31
0.0
  0
LINE
  5
148
330
2
100
AcDbEntity
  8
20MM-JOINT
  6
HIDDEN
 62
     3
100
AcDbLine
 10
0.0000000000000316
 20
-15.99093971934715
 30
0.0
 11
99.99999999999996
 21
-15.99093971934715
 31
0.0
  0
LINE
  5
149
330
2
100
AcDbEntity
  8
20MM-JOINT
  6
HIDDEN
 62
     3
100
AcDbLine
 10
0.0000000000000253
 20
16.00906028065284
 30
0.0
 11
100.0
 21
16.00906028065284
 31
0.0
  0
LINE
  5
14A
330
2
100
AcDbEntity
  8
20MM-JOINT
  6
HIDDEN
 62
     3
100
AcDbLine
 10
0.0000000000000221
 20
32.00906028065288
 30
0.0
 11
99.99999999999998
 21
32.00906028065288
 31
0.0
  0
INSERT
  5
1B2
330
2
100
AcDbEntity
  8
0
100
AcDbBlockReference
  2
Leviat info
 10
274.2232114320159
 20
-133.6428806575776
 30
0.0
  0
LWPOLYLINE
  5
1BD
330
2
100
AcDbEntity
  8
DIMS
 62
     0
100
AcDbPolyline
 90
        4
 70
     1
 43
0.0
 10
-237.8837866179038
 20
170.1761843752192
 10
345.7629541965334
 20
170.1761843752192
 10
345.7629541965334
 20
-153.2661167629339
 10
-237.8837866179038
 20
-153.2661167629339
  0
ENDSEC
  0
SECTION
  2
OBJECTS
  0
DICTIONARY
  5
9
330
0
100
AcDbDictionary
281
     1
  3
ACAD_CIP_PREVIOUS_PRODUCT_INFO
350
19D
  3
ACAD_COLOR
350
17F
  3
ACAD_DETAILVIEWSTYLE
350
198
  3
ACAD_GROUP
350
23
  3
ACAD_LAYOUT
350
D
  3
ACAD_MATERIAL
350
14D
  3
ACAD_MLEADERSTYLE
350
194
  3
ACAD_MLINESTYLE
350
24
  3
ACAD_PLOTSETTINGS
350
25
  3
ACAD_PLOTSTYLENAME
350
8
  3
ACAD_SCALELIST
350
182
  3
ACAD_SECTIONVIEWSTYLE
350
196
  3
ACAD_TABLESTYLE
350
180
  3
ACAD_VISUALSTYLE
350
166
  3
ACDB_RECOMPOSE_DATA
350
271
  3
AcDbVariableDictionary
350
265
  0
DICTIONARY
  5
1AA
330
14
100
AcDbDictionary
280
     1
281
     1
  3
ACAD_LAYERSTATES
360
1AB
  0
DICTIONARY
  5
253
330
6
100
AcDbDictionary
280
     1
281
     1
  3
ADSK_XREC_LAYER_RECONCILED
360
254
  0
DICTIONARY
  5
255
330
26
100
AcDbDictionary
280
     1
281
     1
  3
ADSK_XREC_LAYER_RECONCILED
360
256
  0
DICTIONARY
  5
257
330
3E
100
AcDbDictionary
280
     1
281
     1
  3
ADSK_XREC_LAYER_RECONCILED
360
258
  0
DICTIONARY
  5
259
330
121
100
AcDbDictionary
280
     1
281
     1
  3
ADSK_XREC_LAYER_RECONCILED
360
25A
  0
DICTIONARY
  5
25B
330
3B
100
AcDbDictionary
280
     1
281
     1
  3
ADSK_XREC_LAYER_RECONCILED
360
25C
  0
DICTIONARY
  5
25D
330
2D
100
AcDbDictionary
280
     1
281
     1
  3
ADSK_XREC_LAYER_RECONCILED
360
25E
  0
DICTIONARY
  5
25F
330
2B
100
AcDbDictionary
280
     1
281
     1
  3
ADSK_XREC_LAYER_RECONCILED
360
260
  0
DICTIONARY
  5
261
330
BE
100
AcDbDictionary
280
     1
281
     1
  3
ADSK_XREC_LAYER_RECONCILED
360
262
  0
DICTIONARY
  5
263
330
1A8
100
AcDbDictionary
280
     1
281
     1
  3
ADSK_XREC_LAYER_RECONCILED
360
264
  0
DICTIONARY
  5
3
330
2
100
AcDbDictionary
280
     1
281
     1
  3
ACAD_LAYOUTSELFREF
360
4
  0
DICTIONARY
  5
F
330
E
100
AcDbDictionary
280
     1
281
     1
  3
ACAD_LAYOUTSELFREF
360
10
  0
DICTIONARY
  5
19F
330
19E
100
AcDbDictionary
280
     1
281
     1
  3
ACAD_SORTENTS
360
1A0
  0
DICTIONARY
  5
245
330
30
100
AcDbDictionary
280
     1
281
     1
  3
AcDbContextDataManager
360
246
  0
DICTIONARY
  5
241
330
33
100
AcDbDictionary
280
     1
281
     1
  3
AcDbContextDataManager
360
242
  0
DICTIONARY
  5
23D
330
34
100
AcDbDictionary
280
     1
281
     1
  3
AcDbContextDataManager
360
23E
  0
DICTIONARY
  5
239
330
37
100
AcDbDictionary
280
     1
281
     1
  3
AcDbContextDataManager
360
23A
  0
DICTIONARY
  5
235
330
38
100
AcDbDictionary
280
     1
281
     1
  3
AcDbContextDataManager
360
236
  0
DICTIONARY
  5
231
330
39
100
AcDbDictionary
280
     1
281
     1
  3
AcDbContextDataManager
360
232
  0
DICTIONARY
  5
22D
330
7F
100
AcDbDictionary
280
     1
281
     1
  3
AcDbContextDataManager
360
22E
  0
DICTIONARY
  5
229
330
83
100
AcDbDictionary
280
     1
281
     1
  3
AcDbContextDataManager
360
22A
  0
DICTIONARY
  5
225
330
84
100
AcDbDictionary
280
     1
281
     1
  3
AcDbContextDataManager
360
226
  0
DICTIONARY
  5
221
330
85
100
AcDbDictionary
280
     1
281
     1
  3
AcDbContextDataManager
360
222
  0
DICTIONARY
  5
21D
330
89
100
AcDbDictionary
280
     1
281
     1
  3
AcDbContextDataManager
360
21E
  0
DICTIONARY
  5
219
330
8A
100
AcDbDictionary
280
     1
281
     1
  3
AcDbContextDataManager
360
21A
  0
DICTIONARY
  5
215
330
8B
100
AcDbDictionary
280
     1
281
     1
  3
AcDbContextDataManager
360
216
  0
DICTIONARY
  5
211
330
8F
100
AcDbDictionary
280
     1
281
     1
  3
AcDbContextDataManager
360
212
  0
DICTIONARY
  5
20D
330
143
100
AcDbDictionary
280
     1
281
     1
  3
AcDbContextDataManager
360
20E
  0
DICTIONARY
  5
209
330
144
100
AcDbDictionary
280
     1
281
     1
  3
AcDbContextDataManager
360
20A
  0
XRECORD
  5
19D
102
{ACAD_REACTORS
330
9
102
}
330
9
100
AcDbXrecord
280
     1
300
ACDLT
300
2020
300

  0
DICTIONARY
  5
17F
102
{ACAD_REACTORS
330
9
102
}
330
9
100
AcDbDictionary
281
     1
  0
DICTIONARY
  5
198
102
{ACAD_REACTORS
330
9
102
}
330
9
100
AcDbDictionary
281
     1
  3
Imperial24
350
199
  0
DICTIONARY
  5
23
102
{ACAD_REACTORS
330
9
102
}
330
9
100
AcDbDictionary
281
     1
  0
DICTIONARY
  5
D
102
{ACAD_REACTORS
330
9
102
}
330
9
100
AcDbDictionary
281
     1
  3
Layout1
350
13
  3
Model
350
C
  0
DICTIONARY
  5
14D
102
{ACAD_REACTORS
330
9
102
}
330
9
100
AcDbDictionary
281
     1
  3
ByBlock
350
156
  3
ByLayer
350
14E
  3
Global
350
15E
  0
DICTIONARY
  5
194
102
{ACAD_REACTORS
330
9
102
}
330
9
100
AcDbDictionary
281
     1
  3
Standard
350
195
  0
DICTIONARY
  5
24
102
{ACAD_REACTORS
330
9
102
}
330
9
100
AcDbDictionary
281
     1
  3
STANDARD
350
28
  0
DICTIONARY
  5
25
102
{ACAD_REACTORS
330
9
102
}
330
9
100
AcDbDictionary
281
     1
  0
ACDBDICTIONARYWDFLT
  5
8
102
{ACAD_REACTORS
330
9
102
}
330
9
100
AcDbDictionary
281
     1
  3
Normal
350
7
100
AcDbDictionaryWithDefault
340
7
  0
DICTIONARY
  5
182
102
{ACAD_REACTORS
330
9
102
}
330
9
100
AcDbDictionary
281
     1
  3
A0
350
183
  3
A1
350
184
  3
A2
350
185
  3
A3
350
186
  3
A4
350
187
  3
A5
350
188
  3
A6
350
189
  3
A7
350
18A
  3
A8
350
18B
  3
A9
350
18C
  3
B0
350
18D
  3
B1
350
18E
  3
B2
350
18F
  3
B3
350
190
  3
B4
350
191
  3
B5
350
192
  3
B6
350
193
  0
DICTIONARY
  5
196
102
{ACAD_REACTORS
330
9
102
}
330
9
100
AcDbDictionary
281
     1
  3
Imperial24
350
197
  0
DICTIONARY
  5
180
102
{ACAD_REACTORS
330
9
102
}
330
9
100
AcDbDictionary
281
     1
  3
Standard
350
181
  0
DICTIONARY
  5
166
102
{ACAD_REACTORS
330
9
102
}
330
9
100
AcDbDictionary
281
     1
  3
2dWireframe
350
16C
  3
Basic
350
16B
  3
Brighten
350
172
  3
ColorChange
350
176
  3
Conceptual
350
16F
  3
Dim
350
171
  3
EdgeColorOff
350
17E
  3
Facepattern
350
175
  3
Flat
350
167
  3
FlatWithEdges
350
168
  3
Gouraud
350
169
  3
GouraudWithEdges
350
16A
  3
Hidden
350
16E
  3
JitterOff
350
17C
  3
Linepattern
350
174
  3
OverhangOff
350
17D
  3
Realistic
350
170
  3
Shaded
350
17B
  3
Shaded with edges
350
17A
  3
Shades of Gray
350
177
  3
Sketchy
350
178
  3
Thicken
350
173
  3
Wireframe
350
16D
  3
X-Ray
350
179
  0
XRECORD
  5
271
102
{ACAD_REACTORS
330
9
102
}
330
9
100
AcDbXrecord
280
     1
 90
        1
330
181
  0
DICTIONARY
  5
265
102
{ACAD_REACTORS
330
9
102
}
330
9
100
AcDbDictionary
281
     1
  3
CANNOSCALE
350
26B
  3
CMLEADERSTYLE
350
267
  3
CTABLESTYLE
350
266
  3
CVIEWDETAILSTYLE
350
268
  3
CVIEWSECTIONSTYLE
350
269
  3
LAYEREVAL
350
26D
  3
LAYERNOTIFY
350
26E
  3
LIGHTINGUNITS
350
26C
  3
MSLTSCALE
350
26A
  0
DICTIONARY
  5
1AB
102
{ACAD_REACTORS
330
1AA
102
}
330
1AA
100
AcDbDictionary
281
     1
  0
XRECORD
  5
254
102
{ACAD_REACTORS
330
253
102
}
330
253
100
AcDbXrecord
280
     1
290
     1
  0
XRECORD
  5
256
102
{ACAD_REACTORS
330
255
102
}
330
255
100
AcDbXrecord
280
     1
290
     1
  0
XRECORD
  5
258
102
{ACAD_REACTORS
330
257
102
}
330
257
100
AcDbXrecord
280
     1
290
     1
  0
XRECORD
  5
25A
102
{ACAD_REACTORS
330
259
102
}
330
259
100
AcDbXrecord
280
     1
290
     1
  0
XRECORD
  5
25C
102
{ACAD_REACTORS
330
25B
102
}
330
25B
100
AcDbXrecord
280
     1
290
     1
  0
XRECORD
  5
25E
102
{ACAD_REACTORS
330
25D
102
}
330
25D
100
AcDbXrecord
280
     1
290
     1
  0
XRECORD
  5
260
102
{ACAD_REACTORS
330
25F
102
}
330
25F
100
AcDbXrecord
280
     1
290
     1
  0
XRECORD
  5
262
102
{ACAD_REACTORS
330
261
102
}
330
261
100
AcDbXrecord
280
     1
290
     1
  0
XRECORD
  5
264
102
{ACAD_REACTORS
330
263
102
}
330
263
100
AcDbXrecord
280
     1
290
     1
  0
XRECORD
  5
4
102
{ACAD_REACTORS
330
3
102
}
330
3
100
AcDbXrecord
280
     1
340
2
  0
XRECORD
  5
10
102
{ACAD_REACTORS
330
F
102
}
330
F
100
AcDbXrecord
280
     1
340
E
  0
SORTENTSTABLE
  5
1A0
102
{ACAD_REACTORS
330
19F
102
}
330
19F
100
AcDbSortentsTable
330
19E
  0
DICTIONARY
  5
246
102
{ACAD_REACTORS
330
245
102
}
330
245
100
AcDbDictionary
281
     1
  3
ACDB_ANNOTATIONSCALES
350
247
  0
DICTIONARY
  5
242
102
{ACAD_REACTORS
330
241
102
}
330
241
100
AcDbDictionary
281
     1
  3
ACDB_ANNOTATIONSCALES
350
243
  0
DICTIONARY
  5
23E
102
{ACAD_REACTORS
330
23D
102
}
330
23D
100
AcDbDictionary
281
     1
  3
ACDB_ANNOTATIONSCALES
350
23F
  0
DICTIONARY
  5
23A
102
{ACAD_REACTORS
330
239
102
}
330
239
100
AcDbDictionary
281
     1
  3
ACDB_ANNOTATIONSCALES
350
23B
  0
DICTIONARY
  5
236
102
{ACAD_REACTORS
330
235
102
}
330
235
100
AcDbDictionary
281
     1
  3
ACDB_ANNOTATIONSCALES
350
237
  0
DICTIONARY
  5
232
102
{ACAD_REACTORS
330
231
102
}
330
231
100
AcDbDictionary
281
     1
  3
ACDB_ANNOTATIONSCALES
350
233
  0
DICTIONARY
  5
22E
102
{ACAD_REACTORS
330
22D
102
}
330
22D
100
AcDbDictionary
281
     1
  3
ACDB_ANNOTATIONSCALES
350
22F
  0
DICTIONARY
  5
22A
102
{ACAD_REACTORS
330
229
102
}
330
229
100
AcDbDictionary
281
     1
  3
ACDB_ANNOTATIONSCALES
350
22B
  0
DICTIONARY
  5
226
102
{ACAD_REACTORS
330
225
102
}
330
225
100
AcDbDictionary
281
     1
  3
ACDB_ANNOTATIONSCALES
350
227
  0
DICTIONARY
  5
222
102
{ACAD_REACTORS
330
221
102
}
330
221
100
AcDbDictionary
281
     1
  3
ACDB_ANNOTATIONSCALES
350
223
  0
DICTIONARY
  5
21E
102
{ACAD_REACTORS
330
21D
102
}
330
21D
100
AcDbDictionary
281
     1
  3
ACDB_ANNOTATIONSCALES
350
21F
  0
DICTIONARY
  5
21A
102
{ACAD_REACTORS
330
219
102
}
330
219
100
AcDbDictionary
281
     1
  3
ACDB_ANNOTATIONSCALES
350
21B
  0
DICTIONARY
  5
216
102
{ACAD_REACTORS
330
215
102
}
330
215
100
AcDbDictionary
281
     1
  3
ACDB_ANNOTATIONSCALES
350
217
  0
DICTIONARY
  5
212
102
{ACAD_REACTORS
330
211
102
}
330
211
100
AcDbDictionary
281
     1
  3
ACDB_ANNOTATIONSCALES
350
213
  0
DICTIONARY
  5
20E
102
{ACAD_REACTORS
330
20D
102
}
330
20D
100
AcDbDictionary
281
     1
  3
ACDB_ANNOTATIONSCALES
350
20F
  0
DICTIONARY
  5
20A
102
{ACAD_REACTORS
330
209
102
}
330
209
100
AcDbDictionary
281
     1
  3
ACDB_ANNOTATIONSCALES
350
20B
  0
ACDBDETAILVIEWSTYLE
  5
199
102
{ACAD_REACTORS
330
198
102
}
330
198
100
AcDbModelDocViewStyle
 70
     0
  3
Imperial24
290
     1
300
Imperial24
 90
        0
100
AcDbDetailViewStyle
 70
     0
 71
     0
 90
        3
 71
     1
340
16
 62
   256
 40
0.24
340
0
 62
   256
 40
0.24
300

 40
0.36
280
     3
 71
     2
340
A
 90
       25
 62
   256
 71
     3
340
16
 62
   256
 40
0.24
 90
        1
 40
0.75
 90
        1
300
%<\AcVar ViewType \f "%tc1">% %<\AcVar ViewDetailId>%\PSCALE %<\AcVar ViewScale \f "%sn">%
 71
     4
340
A
 90
       25
 62
   256
340
A
 90
       25
 62
   256
280
     0
  0
LAYOUT
  5
13
102
{ACAD_REACTORS
330
D
102
}
330
D
100
AcDbPlotSettings
  1

  2
None
  4

  6

 40
0.0
 41
0.0
 42
0.0
 43
0.0
 44
0.0
 45
0.0
 46
0.0
 47
0.0
 48
0.0
 49
0.0
140
0.0
141
0.0
142
1.0
143
1.0
 70
   688
 72
     0
 73
     0
 74
     5
  7
Std pen settings.ctb
 75
    16
147
1.0
 76
     0
 77
     2
 78
   300
148
0.0
149
0.0
100
AcDbLayout
  1
Layout1
 70
     1
 71
     1
 10
0.0
 20
0.0
 11
420.0
 21
297.0
 12
0.0
 22
0.0
 32
0.0
 14
1.000000000000000E+20
 24
1.000000000000000E+20
 34
1.000000000000000E+20
 15
-1.000000000000000E+20
 25
-1.000000000000000E+20
 35
-1.000000000000000E+20
146
0.0
 13
0.0
 23
0.0
 33
0.0
 16
1.0
 26
0.0
 36
0.0
 17
0.0
 27
1.0
 37
0.0
 76
     0
330
E
  0
LAYOUT
  5
C
102
{ACAD_REACTORS
330
D
102
}
330
D
100
AcDbPlotSettings
  1

  2
None
  4

  6

 40
0.0
 41
0.0
 42
0.0
 43
0.0
 44
0.0
 45
0.0
 46
0.0
 47
0.0
 48
0.0
 49
0.0
140
0.0
141
0.0
142
1.0
143
1.0
 70
  1712
 72
     0
 73
     0
 74
     0
  7
Std pen settings.ctb
 75
     0
147
1.0
 76
     0
 77
     2
 78
   300
148
0.0
149
0.0
100
AcDbLayout
  1
Model
 70
     1
 71
     0
 10
0.0
 20
0.0
 11
12.0
 21
9.0
 12
0.0
 22
0.0
 32
0.0
 14
0.0
 24
0.0
 34
0.0
 15
0.0
 25
0.0
 35
0.0
146
0.0
 13
0.0
 23
0.0
 33
0.0
 16
1.0
 26
0.0
 36
0.0
 17
0.0
 27
1.0
 37
0.0
 76
     0
330
2
331
1E
  0
MATERIAL
  5
156
102
{ACAD_XDICTIONARY
360
157
102
}
102
{ACAD_REACTORS
330
14D
102
}
330
14D
100
AcDbMaterial
  1
ByBlock
 72
     0
 43
0.0208333333333333
 43
0.0
 43
0.0
 43
0.0
 43
0.0
 43
0.0208333333333333
 43
0.0
 43
0.0
 43
0.0
 43
0.0
 43
1.0
 43
0.0
 43
0.0
 43
0.0
 43
0.0
 43
1.0
 77
     0
 47
0.0208333333333333
 47
0.0
 47
0.0
 47
0.0
 47
0.0
 47
0.0208333333333333
 47
0.0
 47
0.0
 47
0.0
 47
0.0
 47
1.0
 47
0.0
 47
0.0
 47
0.0
 47
0.0
 47
1.0
171
     0
 49
0.0208333333333333
 49
0.0
 49
0.0
 49
0.0
 49
0.0
 49
0.0208333333333333
 49
0.0
 49
0.0
 49
0.0
 49
0.0
 49
1.0
 49
0.0
 49
0.0
 49
0.0
 49
0.0
 49
1.0
175
     0
142
0.0208333333333333
142
0.0
142
0.0
142
0.0
142
0.0
142
0.0208333333333333
142
0.0
142
0.0
142
0.0
142
0.0
142
1.0
142
0.0
142
0.0
142
0.0
142
0.0
142
1.0
179
     0
144
0.0208333333333333
144
0.0
144
0.0
144
0.0
144
0.0
144
0.0208333333333333
144
0.0
144
0.0
144
0.0
144
0.0
144
1.0
144
0.0
144
0.0
144
0.0
144
0.0
144
1.0
147
0.0208333333333333
147
0.0
147
0.0
147
0.0
147
0.0
147
0.0208333333333333
147
0.0
147
0.0
147
0.0
147
0.0
147
1.0
147
0.0
147
0.0
147
0.0
147
0.0
147
1.0
  0
MATERIAL
  5
14E
102
{ACAD_XDICTIONARY
360
14F
102
}
102
{ACAD_REACTORS
330
14D
102
}
330
14D
100
AcDbMaterial
  1
ByLayer
 72
     0
 43
0.0208333333333333
 43
0.0
 43
0.0
 43
0.0
 43
0.0
 43
0.0208333333333333
 43
0.0
 43
0.0
 43
0.0
 43
0.0
 43
1.0
 43
0.0
 43
0.0
 43
0.0
 43
0.0
 43
1.0
 77
     0
 47
0.0208333333333333
 47
0.0
 47
0.0
 47
0.0
 47
0.0
 47
0.0208333333333333
 47
0.0
 47
0.0
 47
0.0
 47
0.0
 47
1.0
 47
0.0
 47
0.0
 47
0.0
 47
0.0
 47
1.0
171
     0
 49
0.0208333333333333
 49
0.0
 49
0.0
 49
0.0
 49
0.0
 49
0.0208333333333333
 49
0.0
 49
0.0
 49
0.0
 49
0.0
 49
1.0
 49
0.0
 49
0.0
 49
0.0
 49
0.0
 49
1.0
175
     0
142
0.0208333333333333
142
0.0
142
0.0
142
0.0
142
0.0
142
0.0208333333333333
142
0.0
142
0.0
142
0.0
142
0.0
142
1.0
142
0.0
142
0.0
142
0.0
142
0.0
142
1.0
179
     0
144
0.0208333333333333
144
0.0
144
0.0
144
0.0
144
0.0
144
0.0208333333333333
144
0.0
144
0.0
144
0.0
144
0.0
144
1.0
144
0.0
144
0.0
144
0.0
144
0.0
144
1.0
147
0.0208333333333333
147
0.0
147
0.0
147
0.0
147
0.0
147
0.0208333333333333
147
0.0
147
0.0
147
0.0
147
0.0
147
1.0
147
0.0
147
0.0
147
0.0
147
0.0
147
1.0
  0
MATERIAL
  5
15E
102
{ACAD_XDICTIONARY
360
15F
102
}
102
{ACAD_REACTORS
330
14D
102
}
330
14D
100
AcDbMaterial
  1
Global
 72
     0
 43
0.0208333333333333
 43
0.0
 43
0.0
 43
0.0
 43
0.0
 43
0.0208333333333333
 43
0.0
 43
0.0
 43
0.0
 43
0.0
 43
1.0
 43
0.0
 43
0.0
 43
0.0
 43
0.0
 43
1.0
 77
     0
 47
0.0208333333333333
 47
0.0
 47
0.0
 47
0.0
 47
0.0
 47
0.0208333333333333
 47
0.0
 47
0.0
 47
0.0
 47
0.0
 47
1.0
 47
0.0
 47
0.0
 47
0.0
 47
0.0
 47
1.0
171
     0
 49
0.0208333333333333
 49
0.0
 49
0.0
 49
0.0
 49
0.0
 49
0.0208333333333333
 49
0.0
 49
0.0
 49
0.0
 49
0.0
 49
1.0
 49
0.0
 49
0.0
 49
0.0
 49
0.0
 49
1.0
175
     0
142
0.0208333333333333
142
0.0
142
0.0
142
0.0
142
0.0
142
0.0208333333333333
142
0.0
142
0.0
142
0.0
142
0.0
142
1.0
142
0.0
142
0.0
142
0.0
142
0.0
142
1.0
179
     0
144
0.0208333333333333
144
0.0
144
0.0
144
0.0
144
0.0
144
0.0208333333333333
144
0.0
144
0.0
144
0.0
144
0.0
144
1.0
144
0.0
144
0.0
144
0.0
144
0.0
144
1.0
147
0.0208333333333333
147
0.0
147
0.0
147
0.0
147
0.0
147
0.0208333333333333
147
0.0
147
0.0
147
0.0
147
0.0
147
1.0
147
0.0
147
0.0
147
0.0
147
0.0
147
1.0
  0
MLEADERSTYLE
  5
195
102
{ACAD_REACTORS
330
194
102
}
330
194
100
AcDbMLeaderStyle
179
     2
170
     2
171
     1
172
     0
 90
        2
 40
0.0
 41
0.0
173
     1
 91
-1056964608
340
19
 92
       -2
290
     1
 42
0.09
291
     1
 43
0.36
  3
Standard
 44
0.18
300

342
16
174
     1
178
     6
175
     1
176
     0
 93
-1056964608
 45
0.18
292
     0
297
     0
 46
0.18
 94
-1056964608
 47
1.0
 49
1.0
140
1.0
293
     1
141
0.0
294
     1
177
     0
142
1.0
295
     1
296
     0
143
0.125
271
     0
272
     9
273
     9
298
     1
  0
MLINESTYLE
  5
28
102
{ACAD_REACTORS
330
24
102
}
330
24
100
AcDbMlineStyle
  2
STANDARD
 70
     0
  3

 62
   256
 51
90.0
 52
90.0
 71
     2
 49
0.5
 62
   256
  6
BYLAYER
 49
-0.5
 62
   256
  6
BYLAYER
  0
ACDBPLACEHOLDER
  5
7
102
{ACAD_REACTORS
330
8
102
}
330
8
  0
SCALE
  5
183
102
{ACAD_REACTORS
330
182
102
}
330
182
100
AcDbScale
 70
     0
300
1:1
140
1.0
141
1.0
290
     1
  0
SCALE
  5
184
102
{ACAD_REACTORS
330
182
102
}
330
182
100
AcDbScale
 70
     0
300
1/128" = 1'-0"
140
0.0078125
141
12.0
290
     0
  0
SCALE
  5
185
102
{ACAD_REACTORS
330
182
102
}
330
182
100
AcDbScale
 70
     0
300
1/64" = 1'-0"
140
0.015625
141
12.0
290
     0
  0
SCALE
  5
186
102
{ACAD_REACTORS
330
182
102
}
330
182
100
AcDbScale
 70
     0
300
1/32" = 1'-0"
140
0.03125
141
12.0
290
     0
  0
SCALE
  5
187
102
{ACAD_REACTORS
330
182
102
}
330
182
100
AcDbScale
 70
     0
300
1/16" = 1'-0"
140
0.0625
141
12.0
290
     0
  0
SCALE
  5
188
102
{ACAD_REACTORS
330
182
102
}
330
182
100
AcDbScale
 70
     0
300
3/32" = 1'-0"
140
0.09375
141
12.0
290
     0
  0
SCALE
  5
189
102
{ACAD_REACTORS
330
182
102
}
330
182
100
AcDbScale
 70
     0
300
1/8" = 1'-0"
140
0.125
141
12.0
290
     0
  0
SCALE
  5
18A
102
{ACAD_REACTORS
330
182
102
}
330
182
100
AcDbScale
 70
     0
300
3/16" = 1'-0"
140
0.1875
141
12.0
290
     0
  0
SCALE
  5
18B
102
{ACAD_REACTORS
330
182
102
}
330
182
100
AcDbScale
 70
     0
300
1/4" = 1'-0"
140
0.25
141
12.0
290
     0
  0
SCALE
  5
18C
102
{ACAD_REACTORS
330
182
102
}
330
182
100
AcDbScale
 70
     0
300
3/8" = 1'-0"
140
0.375
141
12.0
290
     0
  0
SCALE
  5
18D
102
{ACAD_REACTORS
330
182
102
}
330
182
100
AcDbScale
 70
     0
300
1/2" = 1'-0"
140
0.5
141
12.0
290
     0
  0
SCALE
  5
18E
102
{ACAD_REACTORS
330
182
102
}
330
182
100
AcDbScale
 70
     0
300
3/4" = 1'-0"
140
0.75
141
12.0
290
     0
  0
SCALE
  5
18F
102
{ACAD_REACTORS
330
182
102
}
330
182
100
AcDbScale
 70
     0
300
1" = 1'-0"
140
1.0
141
12.0
290
     0
  0
SCALE
  5
190
102
{ACAD_REACTORS
330
182
102
}
330
182
100
AcDbScale
 70
     0
300
1-1/2" = 1'-0"
140
1.5
141
12.0
290
     0
  0
SCALE
  5
191
102
{ACAD_REACTORS
330
182
102
}
330
182
100
AcDbScale
 70
     0
300
3" = 1'-0"
140
3.0
141
12.0
290
     0
  0
SCALE
  5
192
102
{ACAD_REACTORS
330
182
102
}
330
182
100
AcDbScale
 70
     0
300
6" = 1'-0"
140
6.0
141
12.0
290
     0
  0
SCALE
  5
193
102
{ACAD_REACTORS
330
182
102
}
330
182
100
AcDbScale
 70
     0
300
1'-0" = 1'-0"
140
12.0
141
12.0
290
     0
  0
ACDBSECTIONVIEWSTYLE
  5
197
102
{ACAD_REACTORS
330
196
102
}
330
196
100
AcDbModelDocViewStyle
 70
     0
  3
Imperial24
290
     1
300
Imperial24
 90
        0
100
AcDbSectionViewStyle
 70
     0
 71
     0
 90
       78
 71
     1
340
16
 62
   256
 40
0.24
340
0
340
0
 62
   256
 40
0.24
300
I, O, Q, S, X, Z
 40
0.48
 90
        3
 40
0.18
 90
        1
 71
     2
340
A
 90
       25
 62
   256
340
A
 90
       50
 62
   256
 40
0.24
 40
0.0
 40
0.24
 71
     3
340
16
 62
   256
 40
0.24
 90
        1
 40
0.75
 90
        1
300
%<\AcVar ViewType \f "%tc1">% %<\AcVar ViewSectionStartId>%-%<\AcVar ViewSectionEndId>%\PSCALE %<\AcVar ViewScale \f "%sn">%
 71
     4
 62
   256
 62
   257
300
ANSI31
 40
1.0
 90
        0
290
     0
290
     0
 90
        6
 40
0.0
 40
1.570796326794896
 40
0.2617993877991494
 40
1.308996938995747
 40
-0.2617993877991494
 40
1.832595714594046
  0
TABLESTYLE
  5
181
102
{ACAD_XDICTIONARY
360
26F
102
}
102
{ACAD_REACTORS
330
180
102
}
330
180
100
AcDbTableStyle
280
     0
  3
Standard
 70
     0
 71
     0
 40
0.06
 41
0.06
280
     0
281
     0
  7
STANDARD
140
0.18
170
     2
 62
     0
 63
     7
283
     0
 90
      512
 91
        0
  1

274
    -2
284
     1
 64
     0
275
    -2
285
     1
 65
     0
276
    -2
286
     1
 66
     0
277
    -2
287
     1
 67
     0
278
    -2
288
     1
 68
     0
279
    -2
289
     1
 69
     0
  7
STANDARD
140
0.25
170
     5
 62
     0
 63
     7
283
     0
 90
      512
 91
        0
  1

274
    -2
284
     1
 64
     0
275
    -2
285
     1
 65
     0
276
    -2
286
     1
 66
     0
277
    -2
287
     1
 67
     0
278
    -2
288
     1
 68
     0
279
    -2
289
     1
 69
     0
  7
STANDARD
140
0.18
170
     5
 62
     0
 63
     7
283
     0
 90
      512
 91
        0
  1

274
    -2
284
     1
 64
     0
275
    -2
285
     1
 65
     0
276
    -2
286
     1
 66
     0
277
    -2
287
     1
 67
     0
278
    -2
288
     1
 68
     0
279
    -2
289
     1
 69
     0
  0
VISUALSTYLE
  5
16C
102
{ACAD_REACTORS
330
166
102
}
330
166
100
AcDbVisualStyle
  2
2dWireframe
 70
     4
177
     3
291
     0
 70
    58
 90
        0
176
     1
 90
        2
176
     1
 90
        0
176
     1
 90
        0
176
     1
 40
0.6
176
     1
 40
30.0
176
     1
 62
     7
420
 16777215
176
     1
 90
        1
176
     1
 90
        4
176
     1
 62
     7
176
     1
 62
   257
176
     1
 90
        1
176
     1
 90
        1
176
     1
 40
1.0
176
     1
 90
        0
176
     1
 62
   257
176
     1
 40
1.0
176
     1
 90
        1
176
     1
 90
        6
176
     1
 90
        2
176
     1
 62
     7
176
     1
 90
        5
176
     1
 90
        0
176
     1
 90
        0
176
     1
290
     0
176
     1
 90
        1
176
     1
 40
0.0
176
     1
 90
        0
176
     1
290
     1
176
     1
290
     1
176
     1
290
     0
176
     1
290
     0
176
     1
290
     0
176
     1
290
     0
176
     1
290
     0
176
     1
290
     0
176
     1
290
     0
176
     1
 90
       50
176
     1
 40
0.0
176
     1
 40
1.0
176
     1
 90
        0
176
     1
 62
    18
420
        0
176
     1
 90
       50
176
     1
 90
        3
176
     1
 62
     5
420
      255
176
     1
290
     0
176
     1
 90
       50
176
     1
 90
       50
176
     1
 90
       50
176
     1
290
     0
176
     1
 90
       50
176
     1
 62
   256
176
     0
 40
1.0
176
     0
 90
        2
176
     1
  1
strokes_ogs.tif
176
     1
290
     0
176
     1
 40
1.0
176
     1
 40
1.0
176
     1
  0
VISUALSTYLE
  5
16B
102
{ACAD_REACTORS
330
166
102
}
330
166
100
AcDbVisualStyle
  2
Basic
 70
     7
177
     3
291
     1
 70
    58
 90
        1
176
     1
 90
        0
176
     1
 90
        1
176
     1
 90
        0
176
     1
 40
0.6
176
     1
 40
30.0
176
     1
 62
     7
420
 16777215
176
     1
 90
        0
176
     1
 90
        4
176
     1
 62
     7
176
     1
 62
   257
176
     1
 90
        1
176
     1
 90
        1
176
     1
 40
1.0
176
     1
 90
        8
176
     1
 62
     7
176
     1
 40
1.0
176
     1
 90
        1
176
     1
 90
        6
176
     1
 90
        2
176
     1
 62
     7
176
     1
 90
        5
176
     1
 90
        0
176
     1
 90
        0
176
     1
290
     0
176
     1
 90
        1
176
     1
 40
0.0
176
     1
 90
        0
176
     1
290
     0
176
     1
290
     1
176
     1
290
     1
176
     1
290
     0
176
     1
290
     0
176
     1
290
     0
176
     1
290
     0
176
     1
290
     0
176
     1
290
     0
176
     1
 90
       50
176
     1
 40
0.0
176
     1
 40
1.0
176
     1
 90
        0
176
     1
 62
    18
420
        0
176
     1
 90
       50
176
     1
 90
        3
176
     1
 62
     5
420
      255
176
     1
290
     0
176
     1
 90
       50
176
     1
 90
       50
176
     1
 90
       50
176
     1
290
     0
176
     1
 90
       50
176
     1
 62
   256
176
     0
 40
1.0
176
     0
 90
        2
176
     1
  1
strokes_ogs.tif
176
     1
290
     0
176
     1
 40
1.0
176
     1
 40
1.0
176
     1
  0
VISUALSTYLE
  5
172
102
{ACAD_REACTORS
330
166
102
}
330
166
100
AcDbVisualStyle
  2
Brighten
 70
    12
177
     3
291
     1
 70
    58
 90
        2
176
     1
 90
        2
176
     1
 90
        0
176
     1
 90
        0
176
     1
 40
0.6
176
     1
 40
30.0
176
     1
 62
     7
420
 16777215
176
     1
 90
        1
176
     1
 90
        4
176
     1
 62
     7
176
     1
 62
   257
176
     1
 90
        1
176
     1
 90
        1
176
     1
 40
1.0
176
     1
 90
        8
176
     1
 62
     7
176
     1
 40
1.0
176
     1
 90
        1
176
     1
 90
        6
176
     1
 90
        2
176
     1
 62
     7
176
     1
 90
        5
176
     1
 90
        0
176
     1
 90
        0
176
     1
290
     0
176
     1
 90
        1
176
     1
 40
50.0
176
     1
 90
        0
176
     1
290
     0
176
     1
290
     1
176
     1
290
     1
176
     1
290
     0
176
     1
290
     0
176
     1
290
     0
176
     1
290
     0
176
     1
290
     0
176
     1
290
     0
176
     1
 90
       50
176
     1
 40
0.0
176
     1
 40
1.0
176
     1
 90
        0
176
     1
 62
    18
420
        0
176
     1
 90
       50
176
     1
 90
        3
176
     1
 62
     5
420
      255
176
     1
290
     0
176
     1
 90
       50
176
     1
 90
       50
176
     1
 90
       50
176
     1
290
     0
176
     1
 90
       50
176
     1
 62
   256
176
     0
 40
1.0
176
     0
 90
        2
176
     1
  1
strokes_ogs.tif
176
     1
290
     0
176
     1
 40
1.0
176
     1
 40
1.0
176
     1
  0
VISUALSTYLE
  5
176
102
{ACAD_REACTORS
330
166
102
}
330
166
100
AcDbVisualStyle
  2
ColorChange
 70
    16
177
     3
291
     1
 70
    58
 90
        2
176
     1
 90
        2
176
     1
 90
        3
176
     1
 90
        0
176
     1
 40
0.6
176
     1
 40
30.0
176
     1
 62
     8
420
  8421504
176
     1
 90
        1
176
     1
 90
        4
176
     1
 62
     7
176
     1
 62
   257
176
     1
 90
        1
176
     1
 90
        1
176
     1
 40
1.0
176
     1
 90
        8
176
     1
 62
     8
420
  8421504
176
     1
 40
1.0
176
     1
 90
        1
176
     1
 90
        6
176
     1
 90
        2
176
     1
 62
     7
176
     1
 90
        5
176
     1
 90
        0
176
     1
 90
        0
176
     1
290
     0
176
     1
 90
        1
176
     1
 40
0.0
176
     1
 90
        0
176
     1
290
     0
176
     1
290
     1
176
     1
290
     1
176
     1
290
     0
176
     1
290
     0
176
     1
290
     0
176
     1
290
     0
176
     1
290
     0
176
     1
290
     0
176
     1
 90
       50
176
     1
 40
0.0
176
     1
 40
1.0
176
     1
 90
        0
176
     1
 62
    18
420
        0
176
     1
 90
       50
176
     1
 90
        3
176
     1
 62
     5
420
      255
176
     1
290
     0
176
     1
 90
       50
176
     1
 90
       50
176
     1
 90
       50
176
     1
290
     0
176
     1
 90
       50
176
     1
 62
   256
176
     0
 40
1.0
176
     0
 90
        2
176
     1
  1
strokes_ogs.tif
176
     1
290
     0
176
     1
 40
1.0
176
     1
 40
1.0
176
     1
  0
VISUALSTYLE
  5
16F
102
{ACAD_REACTORS
330
166
102
}
330
166
100
AcDbVisualStyle
  2
Conceptual
 70
     9
177
     3
291
     0
 70
    58
 90
        3
176
     1
 90
        2
176
     1
 90
        0
176
     1
 90
        0
176
     1
 40
0.6
176
     1
 40
30.0
176
     1
 62
     7
420
 16777215
176
     1
 90
        2
176
     1
 90
        2
176
     1
 62
     7
176
     1
 62
   257
176
     1
 90
        1
176
     1
 90
        1
176
     1
 40
179.0
176
     1
 90
        8
176
     1
 62
     7
176
     1
 40
1.0
176
     1
 90
        1
176
     1
 90
        6
176
     1
 90
        2
176
     1
 62
     7
176
     1
 90
        3
176
     1
 90
        0
176
     1
 90
        0
176
     1
290
     0
176
     1
 90
        1
176
     1
 40
0.0
176
     1
 90
        0
176
     1
290
     0
176
     1
290
     1
176
     1
290
     1
176
     1
290
     0
176
     1
290
     0
176
     1
290
     0
176
     1
290
     0
176
     1
290
     0
176
     1
290
     0
176
     1
 90
       50
176
     1
 40
0.0
176
     1
 40
1.0
176
     1
 90
        0
176
     1
 62
    18
420
        0
176
     1
 90
       50
176
     1
 90
        3
176
     1
 62
     5
420
      255
176
     1
290
     0
176
     1
 90
       50
176
     1
 90
       50
176
     1
 90
       50
176
     1
290
     0
176
     1
 90
       50
176
     1
 62
   256
176
     0
 40
1.0
176
     0
 90
        2
176
     1
  1
strokes_ogs.tif
176
     1
290
     0
176
     1
 40
1.0
176
     1
 40
1.0
176
     1
  0
VISUALSTYLE
  5
171
102
{ACAD_REACTORS
330
166
102
}
330
166
100
AcDbVisualStyle
  2
Dim
 70
    11
177
     3
291
     1
 70
    58
 90
        2
176
     1
 90
        2
176
     1
 90
        0
176
     1
 90
        0
176
     1
 40
0.6
176
     1
 40
30.0
176
     1
 62
     7
420
 16777215
176
     1
 90
        1
176
     1
 90
        4
176
     1
 62
     7
176
     1
 62
   257
176
     1
 90
        1
176
     1
 90
        1
176
     1
 40
1.0
176
     1
 90
        8
176
     1
 62
     7
176
     1
 40
1.0
176
     1
 90
        1
176
     1
 90
        6
176
     1
 90
        2
176
     1
 62
     7
176
     1
 90
        5
176
     1
 90
        0
176
     1
 90
        0
176
     1
290
     0
176
     1
 90
        1
176
     1
 40
-50.0
176
     1
 90
        0
176
     1
290
     0
176
     1
290
     1
176
     1
290
     1
176
     1
290
     0
176
     1
290
     0
176
     1
290
     0
176
     1
290
     0
176
     1
290
     0
176
     1
290
     0
176
     1
 90
       50
176
     1
 40
0.0
176
     1
 40
1.0
176
     1
 90
        0
176
     1
 62
    18
420
        0
176
     1
 90
       50
176
     1
 90
        3
176
     1
 62
     5
420
      255
176
     1
290
     0
176
     1
 90
       50
176
     1
 90
       50
176
     1
 90
       50
176
     1
290
     0
176
     1
 90
       50
176
     1
 62
   256
176
     0
 40
1.0
176
     0
 90
        2
176
     1
  1
strokes_ogs.tif
176
     1
290
     0
176
     1
 40
1.0
176
     1
 40
1.0
176
     1
  0
VISUALSTYLE
  5
17E
102
{ACAD_REACTORS
330
166
102
}
330
166
100
AcDbVisualStyle
  2
EdgeColorOff
 70
    22
177
     3
291
     1
 70
    58
 90
        2
176
     0
 90
        2
176
     0
 90
        0
176
     0
 90
        0
176
     0
 40
0.6
176
     0
 40
30.0
176
     0
 62
     7
420
 16777215
176
     0
 90
        1
176
     0
 90
        4
176
     0
 62
     7
176
     0
 62
   257
176
     0
 90
        1
176
     0
 90
        1
176
     0
 40
1.0
176
     0
 90
        8
176
     2
 62
     7
176
     0
 40
1.0
176
     0
 90
        1
176
     0
 90
        6
176
     0
 90
        2
176
     0
 62
     7
176
     0
 90
        5
176
     0
 90
        0
176
     0
 90
        0
176
     0
290
     0
176
     0
 90
        1
176
     0
 40
0.0
176
     0
 90
        0
176
     0
290
     0
176
     0
290
     1
176
     0
290
     1
176
     0
290
     0
176
     0
290
     0
176
     0
290
     0
176
     0
290
     0
176
     0
290
     0
176
     0
290
     0
176
     0
 90
       50
176
     0
 40
0.0
176
     0
 40
1.0
176
     0
 90
        0
176
     0
 62
    18
420
        0
176
     0
 90
       50
176
     0
 90
        3
176
     0
 62
     5
420
      255
176
     0
290
     0
176
     0
 90
       50
176
     0
 90
       50
176
     0
 90
       50
176
     0
290
     0
176
     0
 90
       50
176
     0
 62
   256
176
     0
 40
1.0
176
     0
 90
        2
176
     0
  1
strokes_ogs.tif
176
     0
290
     0
176
     0
 40
1.0
176
     0
 40
1.0
176
     0
  0
VISUALSTYLE
  5
175
102
{ACAD_REACTORS
330
166
102
}
330
166
100
AcDbVisualStyle
  2
Facepattern
 70
    15
177
     3
291
     1
 70
    58
 90
        2
176
     1
 90
        2
176
     1
 90
        0
176
     1
 90
        0
176
     1
 40
0.6
176
     1
 40
30.0
176
     1
 62
     7
420
 16777215
176
     1
 90
        1
176
     1
 90
        4
176
     1
 62
     7
176
     1
 62
   257
176
     1
 90
        1
176
     1
 90
        1
176
     1
 40
1.0
176
     1
 90
        8
176
     1
 62
     7
176
     1
 40
1.0
176
     1
 90
        1
176
     1
 90
        6
176
     1
 90
        2
176
     1
 62
     7
176
     1
 90
        5
176
     1
 90
        0
176
     1
 90
        0
176
     1
290
     0
176
     1
 90
        1
176
     1
 40
0.0
176
     1
 90
        0
176
     1
290
     0
176
     1
290
     1
176
     1
290
     1
176
     1
290
     0
176
     1
290
     0
176
     1
290
     0
176
     1
290
     0
176
     1
290
     0
176
     1
290
     0
176
     1
 90
       50
176
     1
 40
0.0
176
     1
 40
1.0
176
     1
 90
        0
176
     1
 62
    18
420
        0
176
     1
 90
       50
176
     1
 90
        3
176
     1
 62
     5
420
      255
176
     1
290
     0
176
     1
 90
       50
176
     1
 90
       50
176
     1
 90
       50
176
     1
290
     0
176
     1
 90
       50
176
     1
 62
   256
176
     0
 40
1.0
176
     0
 90
        2
176
     1
  1
strokes_ogs.tif
176
     1
290
     0
176
     1
 40
1.0
176
     1
 40
1.0
176
     1
  0
VISUALSTYLE
  5
167
102
{ACAD_REACTORS
330
166
102
}
330
166
100
AcDbVisualStyle
  2
Flat
 70
     0
177
     3
291
     1
 70
    58
 90
        2
176
     1
 90
        1
176
     1
 90
        1
176
     1
 90
        2
176
     1
 40
0.6
176
     1
 40
30.0
176
     1
 62
     7
420
 16777215
176
     1
 90
        0
176
     1
 90
        0
176
     1
 62
     7
176
     1
 62
   257
176
     1
 90
        1
176
     1
 90
        1
176
     1
 40
1.0
176
     1
 90
        8
176
     1
 62
     7
176
     1
 40
1.0
176
     1
 90
        1
176
     1
 90
        6
176
     1
 90
        2
176
     1
 62
     7
176
     1
 90
        5
176
     1
 90
        0
176
     1
 90
        0
176
     1
290
     0
176
     1
 90
       13
176
     1
 40
0.0
176
     1
 90
        0
176
     1
290
     0
176
     1
290
     1
176
     1
290
     1
176
     1
290
     0
176
     1
290
     0
176
     1
290
     0
176
     1
290
     0
176
     1
290
     0
176
     1
290
     0
176
     1
 90
       50
176
     1
 40
0.0
176
     1
 40
1.0
176
     1
 90
        0
176
     1
 62
    18
420
        0
176
     1
 90
       50
176
     1
 90
        3
176
     1
 62
     5
420
      255
176
     1
290
     0
176
     1
 90
       50
176
     1
 90
       50
176
     1
 90
       50
176
     1
290
     0
176
     1
 90
       50
176
     1
 62
   256
176
     0
 40
1.0
176
     0
 90
        2
176
     1
  1
strokes_ogs.tif
176
     1
290
     0
176
     1
 40
1.0
176
     1
 40
1.0
176
     1
  0
VISUALSTYLE
  5
168
102
{ACAD_REACTORS
330
166
102
}
330
166
100
AcDbVisualStyle
  2
FlatWithEdges
 70
     1
177
     3
291
     1
 70
    58
 90
        2
176
     1
 90
        1
176
     1
 90
        1
176
     1
 90
        2
176
     1
 40
0.6
176
     1
 40
30.0
176
     1
 62
     7
420
 16777215
176
     1
 90
        1
176
     1
 90
        0
176
     1
 62
     7
176
     1
 62
   257
176
     1
 90
        1
176
     1
 90
        1
176
     1
 40
1.0
176
     1
 90
        0
176
     1
 62
   257
176
     1
 40
1.0
176
     1
 90
        1
176
     1
 90
        6
176
     1
 90
        2
176
     1
 62
     7
176
     1
 90
        5
176
     1
 90
        0
176
     1
 90
        0
176
     1
290
     0
176
     1
 90
       13
176
     1
 40
0.0
176
     1
 90
        0
176
     1
290
     0
176
     1
290
     1
176
     1
290
     1
176
     1
290
     0
176
     1
290
     0
176
     1
290
     0
176
     1
290
     0
176
     1
290
     0
176
     1
290
     0
176
     1
 90
       50
176
     1
 40
0.0
176
     1
 40
1.0
176
     1
 90
        0
176
     1
 62
    18
420
        0
176
     1
 90
       50
176
     1
 90
        3
176
     1
 62
     5
420
      255
176
     1
290
     0
176
     1
 90
       50
176
     1
 90
       50
176
     1
 90
       50
176
     1
290
     0
176
     1
 90
       50
176
     1
 62
   256
176
     0
 40
1.0
176
     0
 90
        2
176
     1
  1
strokes_ogs.tif
176
     1
290
     0
176
     1
 40
1.0
176
     1
 40
1.0
176
     1
  0
VISUALSTYLE
  5
169
102
{ACAD_REACTORS
330
166
102
}
330
166
100
AcDbVisualStyle
  2
Gouraud
 70
     2
177
     3
291
     1
 70
    58
 90
        2
176
     1
 90
        2
176
     1
 90
        1
176
     1
 90
        2
176
     1
 40
0.6
176
     1
 40
30.0
176
     1
 62
     7
420
 16777215
176
     1
 90
        0
176
     1
 90
        0
176
     1
 62
     7
176
     1
 62
   257
176
     1
 90
        1
176
     1
 90
        1
176
     1
 40
1.0
176
     1
 90
        0
176
     1
 62
     7
176
     1
 40
1.0
176
     1
 90
        1
176
     1
 90
        6
176
     1
 90
        2
176
     1
 62
     7
176
     1
 90
        5
176
     1
 90
        0
176
     1
 90
        0
176
     1
290
     0
176
     1
 90
       13
176
     1
 40
0.0
176
     1
 90
        0
176
     1
290
     0
176
     1
290
     1
176
     1
290
     1
176
     1
290
     0
176
     1
290
     0
176
     1
290
     0
176
     1
290
     0
176
     1
290
     0
176
     1
290
     0
176
     1
 90
       50
176
     1
 40
0.0
176
     1
 40
1.0
176
     1
 90
        0
176
     1
 62
    18
420
        0
176
     1
 90
       50
176
     1
 90
        3
176
     1
 62
     5
420
      255
176
     1
290
     0
176
     1
 90
       50
176
     1
 90
       50
176
     1
 90
       50
176
     1
290
     0
176
     1
 90
       50
176
     1
 62
   256
176
     0
 40
1.0
176
     0
 90
        2
176
     1
  1
strokes_ogs.tif
176
     1
290
     0
176
     1
 40
1.0
176
     1
 40
1.0
176
     1
  0
VISUALSTYLE
  5
16A
102
{ACAD_REACTORS
330
166
102
}
330
166
100
AcDbVisualStyle
  2
GouraudWithEdges
 70
     3
177
     3
291
     1
 70
    58
 90
        2
176
     1
 90
        2
176
     1
 90
        1
176
     1
 90
        2
176
     1
 40
0.6
176
     1
 40
30.0
176
     1
 62
     7
420
 16777215
176
     1
 90
        1
176
     1
 90
        0
176
     1
 62
     7
176
     1
 62
   257
176
     1
 90
        1
176
     1
 90
        1
176
     1
 40
1.0
176
     1
 90
        0
176
     1
 62
   257
176
     1
 40
1.0
176
     1
 90
        1
176
     1
 90
        6
176
     1
 90
        2
176
     1
 62
     7
176
     1
 90
        5
176
     1
 90
        0
176
     1
 90
        0
176
     1
290
     0
176
     1
 90
       13
176
     1
 40
0.0
176
     1
 90
        0
176
     1
290
     0
176
     1
290
     1
176
     1
290
     1
176
     1
290
     0
176
     1
290
     0
176
     1
290
     0
176
     1
290
     0
176
     1
290
     0
176
     1
290
     0
176
     1
 90
       50
176
     1
 40
0.0
176
     1
 40
1.0
176
     1
 90
        0
176
     1
 62
    18
420
        0
176
     1
 90
       50
176
     1
 90
        3
176
     1
 62
     5
420
      255
176
     1
290
     0
176
     1
 90
       50
176
     1
 90
       50
176
     1
 90
       50
176
     1
290
     0
176
     1
 90
       50
176
     1
 62
   256
176
     0
 40
1.0
176
     0
 90
        2
176
     1
  1
strokes_ogs.tif
176
     1
290
     0
176
     1
 40
1.0
176
     1
 40
1.0
176
     1
  0
VISUALSTYLE
  5
16E
102
{ACAD_REACTORS
330
166
102
}
330
166
100
AcDbVisualStyle
  2
Hidden
 70
     6
177
     3
291
     0
 70
    58
 90
        1
176
     1
 90
        2
176
     1
 90
        2
176
     1
 90
        0
176
     1
 40
0.6
176
     1
 40
30.0
176
     1
 62
     7
420
 16777215
176
     1
 90
        2
176
     1
 90
        2
176
     1
 62
     7
176
     1
 62
   257
176
     1
 90
        2
176
     1
 90
        1
176
     1
 40
40.0
176
     1
 90
        0
176
     1
 62
   257
176
     1
 40
1.0
176
     1
 90
        1
176
     1
 90
        6
176
     1
 90
        2
176
     1
 62
     7
176
     1
 90
        3
176
     1
 90
        0
176
     1
 90
        0
176
     1
290
     0
176
     1
 90
        1
176
     1
 40
0.0
176
     1
 90
        0
176
     1
290
     0
176
     1
290
     1
176
     1
290
     1
176
     1
290
     0
176
     1
290
     0
176
     1
290
     0
176
     1
290
     0
176
     1
290
     0
176
     1
290
     0
176
     1
 90
       50
176
     1
 40
0.0
176
     1
 40
1.0
176
     1
 90
        0
176
     1
 62
    18
420
        0
176
     1
 90
       50
176
     1
 90
        3
176
     1
 62
     5
420
      255
176
     1
290
     0
176
     1
 90
       50
176
     1
 90
       50
176
     1
 90
       50
176
     1
290
     0
176
     1
 90
       50
176
     1
 62
   256
176
     0
 40
1.0
176
     0
 90
        2
176
     1
  1
strokes_ogs.tif
176
     1
290
     0
176
     1
 40
1.0
176
     1
 40
1.0
176
     1
  0
VISUALSTYLE
  5
17C
102
{ACAD_REACTORS
330
166
102
}
330
166
100
AcDbVisualStyle
  2
JitterOff
 70
    20
177
     3
291
     1
 70
    58
 90
        2
176
     0
 90
        2
176
     0
 90
        0
176
     0
 90
        0
176
     0
 40
0.6
176
     0
 40
30.0
176
     0
 62
     7
420
 16777215
176
     0
 90
        1
176
     0
 90
        4
176
     0
 62
     7
176
     0
 62
   257
176
     0
 90
        1
176
     0
 90
        1
176
     0
 40
1.0
176
     0
 90
       10
176
     2
 62
     7
176
     0
 40
1.0
176
     0
 90
        1
176
     0
 90
        6
176
     0
 90
        2
176
     0
 62
     7
176
     0
 90
        5
176
     0
 90
        0
176
     0
 90
        0
176
     0
290
     0
176
     0
 90
        1
176
     0
 40
0.0
176
     0
 90
        0
176
     0
290
     0
176
     0
290
     1
176
     0
290
     1
176
     0
290
     0
176
     0
290
     0
176
     0
290
     0
176
     0
290
     0
176
     0
290
     0
176
     0
290
     0
176
     0
 90
       50
176
     0
 40
0.0
176
     0
 40
1.0
176
     0
 90
        0
176
     0
 62
    18
420
        0
176
     0
 90
       50
176
     0
 90
        3
176
     0
 62
     5
420
      255
176
     0
290
     0
176
     0
 90
       50
176
     0
 90
       50
176
     0
 90
       50
176
     0
290
     0
176
     0
 90
       50
176
     0
 62
   256
176
     0
 40
1.0
176
     0
 90
        2
176
     0
  1
strokes_ogs.tif
176
     0
290
     0
176
     0
 40
1.0
176
     0
 40
1.0
176
     0
  0
VISUALSTYLE
  5
174
102
{ACAD_REACTORS
330
166
102
}
330
166
100
AcDbVisualStyle
  2
Linepattern
 70
    14
177
     3
291
     1
 70
    58
 90
        2
176
     1
 90
        2
176
     1
 90
        0
176
     1
 90
        0
176
     1
 40
0.6
176
     1
 40
30.0
176
     1
 62
     7
420
 16777215
176
     1
 90
        1
176
     1
 90
        4
176
     1
 62
     7
176
     1
 62
   257
176
     1
 90
        7
176
     1
 90
        7
176
     1
 40
1.0
176
     1
 90
        8
176
     1
 62
     7
176
     1
 40
1.0
176
     1
 90
        1
176
     1
 90
        6
176
     1
 90
        2
176
     1
 62
     7
176
     1
 90
        5
176
     1
 90
        0
176
     1
 90
        0
176
     1
290
     0
176
     1
 90
        1
176
     1
 40
0.0
176
     1
 90
        0
176
     1
290
     0
176
     1
290
     1
176
     1
290
     1
176
     1
290
     0
176
     1
290
     0
176
     1
290
     0
176
     1
290
     0
176
     1
290
     0
176
     1
290
     0
176
     1
 90
       50
176
     1
 40
0.0
176
     1
 40
1.0
176
     1
 90
        0
176
     1
 62
    18
420
        0
176
     1
 90
       50
176
     1
 90
        3
176
     1
 62
     5
420
      255
176
     1
290
     0
176
     1
 90
       50
176
     1
 90
       50
176
     1
 90
       50
176
     1
290
     0
176
     1
 90
       50
176
     1
 62
   256
176
     0
 40
1.0
176
     0
 90
        2
176
     1
  1
strokes_ogs.tif
176
     1
290
     0
176
     1
 40
1.0
176
     1
 40
1.0
176
     1
  0
VISUALSTYLE
  5
17D
102
{ACAD_REACTORS
330
166
102
}
330
166
100
AcDbVisualStyle
  2
OverhangOff
 70
    21
177
     3
291
     1
 70
    58
 90
        2
176
     0
 90
        2
176
     0
 90
        0
176
     0
 90
        0
176
     0
 40
0.6
176
     0
 40
30.0
176
     0
 62
     7
420
 16777215
176
     0
 90
        1
176
     0
 90
        4
176
     0
 62
     7
176
     0
 62
   257
176
     0
 90
        1
176
     0
 90
        1
176
     0
 40
1.0
176
     0
 90
        9
176
     2
 62
     7
176
     0
 40
1.0
176
     0
 90
        1
176
     0
 90
        6
176
     0
 90
        2
176
     0
 62
     7
176
     0
 90
        5
176
     0
 90
        0
176
     0
 90
        0
176
     0
290
     0
176
     0
 90
        1
176
     0
 40
0.0
176
     0
 90
        0
176
     0
290
     0
176
     0
290
     1
176
     0
290
     1
176
     0
290
     0
176
     0
290
     0
176
     0
290
     0
176
     0
290
     0
176
     0
290
     0
176
     0
290
     0
176
     0
 90
       50
176
     0
 40
0.0
176
     0
 40
1.0
176
     0
 90
        0
176
     0
 62
    18
420
        0
176
     0
 90
       50
176
     0
 90
        3
176
     0
 62
     5
420
      255
176
     0
290
     0
176
     0
 90
       50
176
     0
 90
       50
176
     0
 90
       50
176
     0
290
     0
176
     0
 90
       50
176
     0
 62
   256
176
     0
 40
1.0
176
     0
 90
        2
176
     0
  1
strokes_ogs.tif
176
     0
290
     0
176
     0
 40
1.0
176
     0
 40
1.0
176
     0
  0
VISUALSTYLE
  5
170
102
{ACAD_REACTORS
330
166
102
}
330
166
100
AcDbVisualStyle
  2
Realistic
 70
     8
177
     3
291
     0
 70
    58
 90
        2
176
     1
 90
        3
176
     1
 90
        0
176
     1
 90
        2
176
     1
 40
0.6
176
     1
 40
30.0
176
     1
 62
     7
420
 16777215
176
     1
 90
        0
176
     1
 90
        0
176
     1
 62
     7
176
     1
 62
   257
176
     1
 90
        1
176
     1
 90
        1
176
     1
 40
1.0
176
     1
 90
        8
176
     1
 62
   257
176
     1
 40
1.0
176
     1
 90
        1
176
     1
 90
        6
176
     1
 90
        2
176
     1
 62
     7
176
     1
 90
        3
176
     1
 90
        0
176
     1
 90
        0
176
     1
290
     0
176
     1
 90
       13
176
     1
 40
0.0
176
     1
 90
        0
176
     1
290
     0
176
     1
290
     1
176
     1
290
     1
176
     1
290
     0
176
     1
290
     0
176
     1
290
     0
176
     1
290
     0
176
     1
290
     0
176
     1
290
     0
176
     1
 90
       50
176
     1
 40
0.0
176
     1
 40
1.0
176
     1
 90
        0
176
     1
 62
    18
420
        0
176
     1
 90
       50
176
     1
 90
        3
176
     1
 62
     5
420
      255
176
     1
290
     0
176
     1
 90
       50
176
     1
 90
       50
176
     1
 90
       50
176
     1
290
     0
176
     1
 90
       50
176
     1
 62
   256
176
     0
 40
1.0
176
     0
 90
        2
176
     1
  1
strokes_ogs.tif
176
     1
290
     0
176
     1
 40
1.0
176
     1
 40
1.0
176
     1
  0
VISUALSTYLE
  5
17B
102
{ACAD_REACTORS
330
166
102
}
330
166
100
AcDbVisualStyle
  2
Shaded
 70
    27
177
     3
291
     0
 70
    58
 90
        2
176
     1
 90
        2
176
     1
 90
        1
176
     1
 90
        2
176
     1
 40
0.6
176
     1
 40
30.0
176
     1
 62
     7
420
 16777215
176
     1
 90
        0
176
     1
 90
        4
176
     1
 62
     7
176
     1
 62
   257
176
     1
 90
        1
176
     1
 90
        1
176
     1
 40
1.0
176
     1
 90
        8
176
     1
 62
   257
176
     1
 40
1.0
176
     1
 90
        1
176
     1
 90
        6
176
     1
 90
        2
176
     1
 62
     8
420
  7895160
176
     1
 90
        3
176
     1
 90
        0
176
     1
 90
        0
176
     1
290
     0
176
     1
 90
        5
176
     1
 40
0.0
176
     1
 90
        0
176
     1
290
     0
176
     1
290
     1
176
     1
290
     1
176
     1
290
     0
176
     1
290
     0
176
     1
290
     0
176
     1
290
     0
176
     1
290
     0
176
     1
290
     0
176
     1
 90
       50
176
     1
 40
0.0
176
     1
 40
1.0
176
     1
 90
        0
176
     1
 62
    18
420
        0
176
     1
 90
       50
176
     1
 90
        3
176
     1
 62
     5
420
      255
176
     1
290
     0
176
     1
 90
       50
176
     1
 90
       50
176
     1
 90
       50
176
     1
290
     0
176
     1
 90
       50
176
     1
 62
   256
176
     0
 40
1.0
176
     0
 90
        2
176
     1
  1
strokes_ogs.tif
176
     1
290
     0
176
     1
 40
1.0
176
     1
 40
1.0
176
     1
  0
VISUALSTYLE
  5
17A
102
{ACAD_REACTORS
330
166
102
}
330
166
100
AcDbVisualStyle
  2
Shaded with edges
 70
    26
177
     3
291
     0
 70
    58
 90
        2
176
     1
 90
        2
176
     1
 90
        1
176
     1
 90
        2
176
     1
 40
0.6
176
     1
 40
30.0
176
     1
 62
     7
420
 16777215
176
     1
 90
        1
176
     1
 90
        2
176
     1
 62
     7
176
     1
 62
   257
176
     1
 90
        2
176
     1
 90
        1
176
     1
 40
1.0
176
     1
 90
        8
176
     1
 62
   257
176
     1
 40
1.0
176
     1
 90
        1
176
     1
 90
        6
176
     1
 90
        2
176
     1
 62
     7
176
     1
 90
        3
176
     1
 90
        0
176
     1
 90
        0
176
     1
290
     0
176
     1
 90
        5
176
     1
 40
0.0
176
     1
 90
        0
176
     1
290
     0
176
     1
290
     1
176
     1
290
     1
176
     1
290
     0
176
     1
290
     0
176
     1
290
     0
176
     1
290
     0
176
     1
290
     0
176
     1
290
     0
176
     1
 90
       50
176
     1
 40
0.0
176
     1
 40
1.0
176
     1
 90
        0
176
     1
 62
    18
420
        0
176
     1
 90
       50
176
     1
 90
        3
176
     1
 62
     5
420
      255
176
     1
290
     0
176
     1
 90
       50
176
     1
 90
       50
176
     1
 90
       50
176
     1
290
     0
176
     1
 90
       50
176
     1
 62
   256
176
     0
 40
1.0
176
     0
 90
        2
176
     1
  1
strokes_ogs.tif
176
     1
290
     0
176
     1
 40
1.0
176
     1
 40
1.0
176
     1
  0
VISUALSTYLE
  5
177
102
{ACAD_REACTORS
330
166
102
}
330
166
100
AcDbVisualStyle
  2
Shades of Gray
 70
    23
177
     3
291
     0
 70
    58
 90
        2
176
     1
 90
        2
176
     1
 90
        3
176
     1
 90
        0
176
     1
 40
0.6
176
     1
 40
30.0
176
     1
 62
     7
420
 16777215
176
     1
 90
        2
176
     1
 90
        2
176
     1
 62
     7
176
     1
 62
     7
176
     1
 90
        1
176
     1
 90
        1
176
     1
 40
40.0
176
     1
 90
        8
176
     1
 62
     7
176
     1
 40
1.0
176
     1
 90
        1
176
     1
 90
        6
176
     1
 90
        2
176
     1
 62
     7
176
     1
 90
        3
176
     1
 90
        0
176
     1
 90
        0
176
     1
290
     0
176
     1
 90
        1
176
     1
 40
0.0
176
     1
 90
        0
176
     1
290
     0
176
     1
290
     1
176
     1
290
     1
176
     1
290
     0
176
     1
290
     0
176
     1
290
     0
176
     1
290
     0
176
     1
290
     0
176
     1
290
     0
176
     1
 90
       50
176
     1
 40
0.0
176
     1
 40
1.0
176
     1
 90
        0
176
     1
 62
    18
420
        0
176
     1
 90
       50
176
     1
 90
        3
176
     1
 62
     5
420
      255
176
     1
290
     0
176
     1
 90
       50
176
     1
 90
       50
176
     1
 90
       50
176
     1
290
     0
176
     1
 90
       50
176
     1
 62
   256
176
     0
 40
1.0
176
     0
 90
        2
176
     1
  1
strokes_ogs.tif
176
     1
290
     0
176
     1
 40
1.0
176
     1
 40
1.0
176
     1
  0
VISUALSTYLE
  5
178
102
{ACAD_REACTORS
330
166
102
}
330
166
100
AcDbVisualStyle
  2
Sketchy
 70
    24
177
     3
291
     0
 70
    58
 90
        1
176
     1
 90
        2
176
     1
 90
        2
176
     1
 90
        0
176
     1
 40
0.6
176
     1
 40
30.0
176
     1
 62
     7
420
 16777215
176
     1
 90
        2
176
     1
 90
        2
176
     1
 62
     7
176
     1
 62
     7
176
     1
 90
        1
176
     1
 90
        1
176
     1
 40
40.0
176
     1
 90
       11
176
     1
 62
     7
176
     1
 40
1.0
176
     1
 90
        1
176
     1
 90
        6
176
     1
 90
        2
176
     1
 62
     7
176
     1
 90
        6
176
     1
 90
        0
176
     1
 90
        0
176
     1
290
     0
176
     1
 90
        1
176
     1
 40
0.0
176
     1
 90
        0
176
     1
290
     0
176
     1
290
     1
176
     1
290
     1
176
     1
290
     0
176
     1
290
     0
176
     1
290
     0
176
     1
290
     0
176
     1
290
     0
176
     1
290
     0
176
     1
 90
       50
176
     1
 40
0.0
176
     1
 40
1.0
176
     1
 90
        0
176
     1
 62
    18
420
        0
176
     1
 90
       50
176
     1
 90
        3
176
     1
 62
     5
420
      255
176
     1
290
     0
176
     1
 90
       50
176
     1
 90
       50
176
     1
 90
       50
176
     1
290
     0
176
     1
 90
       50
176
     1
 62
   256
176
     0
 40
1.0
176
     0
 90
        2
176
     1
  1
strokes_ogs.tif
176
     1
290
     0
176
     1
 40
1.0
176
     1
 40
1.0
176
     1
  0
VISUALSTYLE
  5
173
102
{ACAD_REACTORS
330
166
102
}
330
166
100
AcDbVisualStyle
  2
Thicken
 70
    13
177
     3
291
     1
 70
    58
 90
        2
176
     1
 90
        2
176
     1
 90
        0
176
     1
 90
        0
176
     1
 40
0.6
176
     1
 40
30.0
176
     1
 62
     7
420
 16777215
176
     1
 90
        1
176
     1
 90
        4
176
     1
 62
     7
176
     1
 62
   257
176
     1
 90
        1
176
     1
 90
        1
176
     1
 40
1.0
176
     1
 90
       12
176
     1
 62
     7
176
     1
 40
1.0
176
     1
 90
        1
176
     1
 90
        6
176
     1
 90
        2
176
     1
 62
     7
176
     1
 90
        5
176
     1
 90
        0
176
     1
 90
        0
176
     1
290
     0
176
     1
 90
        1
176
     1
 40
0.0
176
     1
 90
        0
176
     1
290
     0
176
     1
290
     1
176
     1
290
     1
176
     1
290
     0
176
     1
290
     0
176
     1
290
     0
176
     1
290
     0
176
     1
290
     0
176
     1
290
     0
176
     1
 90
       50
176
     1
 40
0.0
176
     1
 40
1.0
176
     1
 90
        0
176
     1
 62
    18
420
        0
176
     1
 90
       50
176
     1
 90
        3
176
     1
 62
     5
420
      255
176
     1
290
     0
176
     1
 90
       50
176
     1
 90
       50
176
     1
 90
       50
176
     1
290
     0
176
     1
 90
       50
176
     1
 62
   256
176
     0
 40
1.0
176
     0
 90
        2
176
     1
  1
strokes_ogs.tif
176
     1
290
     0
176
     1
 40
1.0
176
     1
 40
1.0
176
     1
  0
VISUALSTYLE
  5
16D
102
{ACAD_REACTORS
330
166
102
}
330
166
100
AcDbVisualStyle
  2
Wireframe
 70
     5
177
     3
291
     0
 70
    58
 90
        0
176
     1
 90
        2
176
     1
 90
        0
176
     1
 90
        0
176
     1
 40
0.6
176
     1
 40
30.0
176
     1
 62
     7
420
 16777215
176
     1
 90
        1
176
     1
 90
        4
176
     1
 62
     7
176
     1
 62
   257
176
     1
 90
        1
176
     1
 90
        1
176
     1
 40
1.0
176
     1
 90
        0
176
     1
 62
   257
176
     1
 40
1.0
176
     1
 90
        1
176
     1
 90
        6
176
     1
 90
        2
176
     1
 62
     7
176
     1
 90
        3
176
     1
 90
        0
176
     1
 90
        0
176
     1
290
     0
176
     1
 90
        1
176
     1
 40
0.0
176
     1
 90
        0
176
     1
290
     0
176
     1
290
     1
176
     1
290
     1
176
     1
290
     0
176
     1
290
     0
176
     1
290
     0
176
     1
290
     0
176
     1
290
     0
176
     1
290
     0
176
     1
 90
       50
176
     1
 40
0.0
176
     1
 40
1.0
176
     1
 90
        0
176
     1
 62
    18
420
        0
176
     1
 90
       50
176
     1
 90
        3
176
     1
 62
     5
420
      255
176
     1
290
     0
176
     1
 90
       50
176
     1
 90
       50
176
     1
 90
       50
176
     1
290
     0
176
     1
 90
       50
176
     1
 62
   256
176
     0
 40
1.0
176
     0
 90
        2
176
     1
  1
strokes_ogs.tif
176
     1
290
     0
176
     1
 40
1.0
176
     1
 40
1.0
176
     1
  0
VISUALSTYLE
  5
179
102
{ACAD_REACTORS
330
166
102
}
330
166
100
AcDbVisualStyle
  2
X-Ray
 70
    25
177
     3
291
     0
 70
    58
 90
        2
176
     1
 90
        2
176
     1
 90
        1
176
     1
 90
        1
176
     1
 40
0.5
176
     1
 40
30.0
176
     1
 62
     7
420
 16777215
176
     1
 90
        1
176
     1
 90
        0
176
     1
 62
     7
176
     1
 62
   257
176
     1
 90
        1
176
     1
 90
        1
176
     1
 40
1.0
176
     1
 90
        8
176
     1
 62
     7
176
     1
 40
1.0
176
     1
 90
        1
176
     1
 90
        6
176
     1
 90
        2
176
     1
 62
     7
176
     1
 90
        3
176
     1
 90
        0
176
     1
 90
        0
176
     1
290
     0
176
     1
 90
       13
176
     1
 40
0.0
176
     1
 90
        0
176
     1
290
     0
176
     1
290
     1
176
     1
290
     1
176
     1
290
     0
176
     1
290
     0
176
     1
290
     0
176
     1
290
     0
176
     1
290
     0
176
     1
290
     0
176
     1
 90
       50
176
     1
 40
0.0
176
     1
 40
1.0
176
     1
 90
        0
176
     1
 62
    18
420
        0
176
     1
 90
       50
176
     1
 90
        3
176
     1
 62
     5
420
      255
176
     1
290
     0
176
     1
 90
       50
176
     1
 90
       50
176
     1
 90
       50
176
     1
290
     0
176
     1
 90
       50
176
     1
 62
   256
176
     0
 40
1.0
176
     0
 90
        2
176
     1
  1
strokes_ogs.tif
176
     1
290
     0
176
     1
 40
1.0
176
     1
 40
1.0
176
     1
  0
DICTIONARYVAR
  5
26B
102
{ACAD_REACTORS
330
265
102
}
330
265
100
DictionaryVariables
280
     0
  1
1:1
  0
DICTIONARYVAR
  5
267
102
{ACAD_REACTORS
330
265
102
}
330
265
100
DictionaryVariables
280
     0
  1
STANDARD
  0
DICTIONARYVAR
  5
266
102
{ACAD_REACTORS
330
265
102
}
330
265
100
DictionaryVariables
280
     0
  1
STANDARD
  0
DICTIONARYVAR
  5
268
102
{ACAD_REACTORS
330
265
102
}
330
265
100
DictionaryVariables
280
     0
  1
Imperial24
  0
DICTIONARYVAR
  5
269
102
{ACAD_REACTORS
330
265
102
}
330
265
100
DictionaryVariables
280
     0
  1
Imperial24
  0
DICTIONARYVAR
  5
26D
102
{ACAD_REACTORS
330
265
102
}
330
265
100
DictionaryVariables
280
     0
  1
1
  0
DICTIONARYVAR
  5
26E
102
{ACAD_REACTORS
330
265
102
}
330
265
100
DictionaryVariables
280
     0
  1
15
  0
DICTIONARYVAR
  5
26C
102
{ACAD_REACTORS
330
265
102
}
330
265
100
DictionaryVariables
280
     0
  1
0
  0
DICTIONARYVAR
  5
26A
102
{ACAD_REACTORS
330
265
102
}
330
265
100
DictionaryVariables
280
     0
  1
0
  0
DICTIONARY
  5
247
102
{ACAD_REACTORS
330
246
102
}
330
246
100
AcDbDictionary
281
     1
  3
*A1
350
248
  0
DICTIONARY
  5
243
102
{ACAD_REACTORS
330
242
102
}
330
242
100
AcDbDictionary
281
     1
  3
*A1
350
244
  0
DICTIONARY
  5
23F
102
{ACAD_REACTORS
330
23E
102
}
330
23E
100
AcDbDictionary
281
     1
  3
*A1
350
240
  0
DICTIONARY
  5
23B
102
{ACAD_REACTORS
330
23A
102
}
330
23A
100
AcDbDictionary
281
     1
  3
*A1
350
23C
  0
DICTIONARY
  5
237
102
{ACAD_REACTORS
330
236
102
}
330
236
100
AcDbDictionary
281
     1
  3
*A1
350
238
  0
DICTIONARY
  5
233
102
{ACAD_REACTORS
330
232
102
}
330
232
100
AcDbDictionary
281
     1
  3
*A1
350
234
  0
DICTIONARY
  5
22F
102
{ACAD_REACTORS
330
22E
102
}
330
22E
100
AcDbDictionary
281
     1
  3
*A1
350
230
  0
DICTIONARY
  5
22B
102
{ACAD_REACTORS
330
22A
102
}
330
22A
100
AcDbDictionary
281
     1
  3
*A1
350
22C
  0
DICTIONARY
  5
227
102
{ACAD_REACTORS
330
226
102
}
330
226
100
AcDbDictionary
281
     1
  3
*A1
350
228
  0
DICTIONARY
  5
223
102
{ACAD_REACTORS
330
222
102
}
330
222
100
AcDbDictionary
281
     1
  3
*A1
350
224
  0
DICTIONARY
  5
21F
102
{ACAD_REACTORS
330
21E
102
}
330
21E
100
AcDbDictionary
281
     1
  3
*A1
350
220
  0
DICTIONARY
  5
21B
102
{ACAD_REACTORS
330
21A
102
}
330
21A
100
AcDbDictionary
281
     1
  3
*A1
350
21C
  0
DICTIONARY
  5
217
102
{ACAD_REACTORS
330
216
102
}
330
216
100
AcDbDictionary
281
     1
  3
*A1
350
218
  0
DICTIONARY
  5
213
102
{ACAD_REACTORS
330
212
102
}
330
212
100
AcDbDictionary
281
     1
  3
*A1
350
214
  0
DICTIONARY
  5
20F
102
{ACAD_REACTORS
330
20E
102
}
330
20E
100
AcDbDictionary
281
     1
  3
*A1
350
210
  0
DICTIONARY
  5
20B
102
{ACAD_REACTORS
330
20A
102
}
330
20A
100
AcDbDictionary
281
     1
  3
*A1
350
20C
  0
DICTIONARY
  5
157
330
156
100
AcDbDictionary
280
     1
281
     1
  3
BUMPTILE
360
159
  3
DIFFUSETILE
360
158
  3
OPACITYTILE
360
15C
  3
REFLECTIONTILE
360
15B
  3
REFRACTIONTILE
360
15D
  3
SPECULARTILE
360
15A
  0
DICTIONARY
  5
14F
330
14E
100
AcDbDictionary
280
     1
281
     1
  3
BUMPTILE
360
151
  3
DIFFUSETILE
360
150
  3
OPACITYTILE
360
154
  3
REFLECTIONTILE
360
153
  3
REFRACTIONTILE
360
155
  3
SPECULARTILE
360
152
  0
DICTIONARY
  5
15F
330
15E
100
AcDbDictionary
280
     1
281
     1
  3
BUMPTILE
360
161
  3
DIFFUSETILE
360
160
  3
OPACITYTILE
360
164
  3
REFLECTIONTILE
360
163
  3
REFRACTIONTILE
360
165
  3
SPECULARTILE
360
162
  0
DICTIONARY
  5
26F
330
181
100
AcDbDictionary
280
     1
281
     1
  3
ACAD_ROUNDTRIP_2008_TABLESTYLE_CELLSTYLEMAP
360
270
  0
ACDB_TEXTOBJECTCONTEXTDATA_CLASS
  5
248
102
{ACAD_REACTORS
330
247
102
}
330
247
100
AcDbObjectContextData
 70
     4
290
     1
100
AcDbAnnotScaleObjectContextData
340
183
 70
     4
 50
0.0
 10
144.6198964599263
 20
155.7563921658044
 11
171.0148487109495
 21
158.2563921658044
  0
ACDB_TEXTOBJECTCONTEXTDATA_CLASS
  5
244
102
{ACAD_REACTORS
330
243
102
}
330
243
100
AcDbObjectContextData
 70
     4
290
     1
100
AcDbAnnotScaleObjectContextData
340
183
 70
     4
 50
0.0
 10
147.5184536247514
 20
85.69464113983205
 11
174.8854386179301
 21
88.19634646043231
  0
ACDB_TEXTOBJECTCONTEXTDATA_CLASS
  5
240
102
{ACAD_REACTORS
330
23F
102
}
330
23F
100
AcDbObjectContextData
 70
     4
290
     1
100
AcDbAnnotScaleObjectContextData
340
183
 70
     4
 50
0.0
 10
145.9688595815912
 20
105.7786237187234
 11
229.7955990086035
 21
108.2803290393236
  0
ACDB_TEXTOBJECTCONTEXTDATA_CLASS
  5
23C
102
{ACAD_REACTORS
330
23B
102
}
330
23B
100
AcDbObjectContextData
 70
     4
290
     1
100
AcDbAnnotScaleObjectContextData
340
183
 70
     4
 50
0.0
 10
147.0597890900675
 20
95.7295663047943
 11
238.4615626234918
 21
98.23127162539458
  0
ACDB_TEXTOBJECTCONTEXTDATA_CLASS
  5
238
102
{ACAD_REACTORS
330
237
102
}
330
237
100
AcDbObjectContextData
 70
     4
290
     1
100
AcDbAnnotScaleObjectContextData
340
183
 70
     4
 50
0.0
 10
145.6821408214644
 20
115.6797714283931
 11
228.5436687887223
 21
118.1814767489934
  0
ACDB_TEXTOBJECTCONTEXTDATA_CLASS
  5
234
102
{ACAD_REACTORS
330
233
102
}
330
233
100
AcDbObjectContextData
 70
     4
290
     1
100
AcDbAnnotScaleObjectContextData
340
183
 70
     4
 50
0.0
 10
146.7760595872942
 20
125.7844837541837
 11
233.9077103376353
 21
128.286189074784
  0
ACDB_TEXTOBJECTCONTEXTDATA_CLASS
  5
230
102
{ACAD_REACTORS
330
22F
102
}
330
22F
100
AcDbObjectContextData
 70
     4
290
     1
100
AcDbAnnotScaleObjectContextData
340
183
 70
     4
 50
0.0
 10
-89.20579893851552
 20
121.8268747781314
 11
-82.40839102582794
 21
124.2927683661259
  0
ACDB_TEXTOBJECTCONTEXTDATA_CLASS
  5
22C
102
{ACAD_REACTORS
330
22B
102
}
330
22B
100
AcDbObjectContextData
 70
     4
290
     1
100
AcDbAnnotScaleObjectContextData
340
183
 70
     4
 50
0.0
 10
-156.5631647499702
 20
142.9121178599595
 11
-145.1187582015391
 21
145.4121178599595
  0
ACDB_TEXTOBJECTCONTEXTDATA_CLASS
  5
228
102
{ACAD_REACTORS
330
227
102
}
330
227
100
AcDbObjectContextData
 70
     4
290
     1
100
AcDbAnnotScaleObjectContextData
340
183
 70
     4
 50
0.0
 10
-153.0819926629357
 20
121.8251694575311
 11
-142.4083910258279
 21
124.2927683661259
  0
ACDB_TEXTOBJECTCONTEXTDATA_CLASS
  5
224
102
{ACAD_REACTORS
330
223
102
}
330
223
100
AcDbObjectContextData
 70
     4
290
     1
100
AcDbAnnotScaleObjectContextData
340
183
 70
     4
 50
0.0
 10
-169.567939647651
 20
153.8080359269782
 11
-145.1187582015391
 21
156.3097412475785
  0
ACDB_TEXTOBJECTCONTEXTDATA_CLASS
  5
220
102
{ACAD_REACTORS
330
21F
102
}
330
21F
100
AcDbObjectContextData
 70
     4
290
     1
100
AcDbAnnotScaleObjectContextData
340
183
 70
     4
 50
0.0
 10
-213.6669176288293
 20
121.7944736867262
 11
-202.4083910258279
 21
124.2927683661259
  0
ACDB_TEXTOBJECTCONTEXTDATA_CLASS
  5
21C
102
{ACAD_REACTORS
330
21B
102
}
330
21B
100
AcDbObjectContextData
 70
     4
290
     1
100
AcDbAnnotScaleObjectContextData
340
183
 70
     4
 50
0.0
 10
-217.4247348100027
 20
153.8097412475785
 11
-201.1252805125948
 21
156.3097412475785
  0
ACDB_TEXTOBJECTCONTEXTDATA_CLASS
  5
218
102
{ACAD_REACTORS
330
217
102
}
330
217
100
AcDbObjectContextData
 70
     4
290
     1
100
AcDbAnnotScaleObjectContextData
340
183
 70
     4
 50
0.0
 10
-110.7457034405619
 20
153.81457174471
 11
-82.40839102582794
 21
156.31457174471
  0
ACDB_TEXTOBJECTCONTEXTDATA_CLASS
  5
214
102
{ACAD_REACTORS
330
213
102
}
330
213
100
AcDbObjectContextData
 70
     4
290
     1
100
AcDbAnnotScaleObjectContextData
340
183
 70
     4
 50
0.0
 10
-101.4244210394705
 20
143.2048047920993
 11
-82.40839102582794
 21
145.0141499489888
  0
ACDB_TEXTOBJECTCONTEXTDATA_CLASS
  5
210
102
{ACAD_REACTORS
330
20F
102
}
330
20F
100
AcDbObjectContextData
 70
     4
290
     1
100
AcDbAnnotScaleObjectContextData
340
183
 70
     4
 50
0.0
 10
12.23062166771258
 20
155.7546868452041
 11
62.87693817521599
 21
158.2563921658044
  0
ACDB_TEXTOBJECTCONTEXTDATA_CLASS
  5
20C
102
{ACAD_REACTORS
330
20B
102
}
330
20B
100
AcDbObjectContextData
 70
     4
290
     1
100
AcDbAnnotScaleObjectContextData
340
183
 70
     4
 50
0.0
 10
11.96514374475914
 20
125.820232380708
 11
69.21105097531849
 21
128.3219377013082
  0
XRECORD
  5
159
102
{ACAD_REACTORS
330
157
102
}
330
157
100
AcDbXrecord
280
     1
270
     1
271
     1
  0
XRECORD
  5
158
102
{ACAD_REACTORS
330
157
102
}
330
157
100
AcDbXrecord
280
     1
270
     1
271
     1
  0
XRECORD
  5
15C
102
{ACAD_REACTORS
330
157
102
}
330
157
100
AcDbXrecord
280
     1
270
     1
271
     1
  0
XRECORD
  5
15B
102
{ACAD_REACTORS
330
157
102
}
330
157
100
AcDbXrecord
280
     1
270
     1
271
     1
  0
XRECORD
  5
15D
102
{ACAD_REACTORS
330
157
102
}
330
157
100
AcDbXrecord
280
     1
270
     1
271
     1
  0
XRECORD
  5
15A
102
{ACAD_REACTORS
330
157
102
}
330
157
100
AcDbXrecord
280
     1
270
     1
271
     1
  0
XRECORD
  5
151
102
{ACAD_REACTORS
330
14F
102
}
330
14F
100
AcDbXrecord
280
     1
270
     1
271
     1
  0
XRECORD
  5
150
102
{ACAD_REACTORS
330
14F
102
}
330
14F
100
AcDbXrecord
280
     1
270
     1
271
     1
  0
XRECORD
  5
154
102
{ACAD_REACTORS
330
14F
102
}
330
14F
100
AcDbXrecord
280
     1
270
     1
271
     1
  0
XRECORD
  5
153
102
{ACAD_REACTORS
330
14F
102
}
330
14F
100
AcDbXrecord
280
     1
270
     1
271
     1
  0
XRECORD
  5
155
102
{ACAD_REACTORS
330
14F
102
}
330
14F
100
AcDbXrecord
280
     1
270
     1
271
     1
  0
XRECORD
  5
152
102
{ACAD_REACTORS
330
14F
102
}
330
14F
100
AcDbXrecord
280
     1
270
     1
271
     1
  0
XRECORD
  5
161
102
{ACAD_REACTORS
330
15F
102
}
330
15F
100
AcDbXrecord
280
     1
270
     1
271
     1
  0
XRECORD
  5
160
102
{ACAD_REACTORS
330
15F
102
}
330
15F
100
AcDbXrecord
280
     1
270
     1
271
     1
  0
XRECORD
  5
164
102
{ACAD_REACTORS
330
15F
102
}
330
15F
100
AcDbXrecord
280
     1
270
     1
271
     1
  0
XRECORD
  5
163
102
{ACAD_REACTORS
330
15F
102
}
330
15F
100
AcDbXrecord
280
     1
270
     1
271
     1
  0
XRECORD
  5
165
102
{ACAD_REACTORS
330
15F
102
}
330
15F
100
AcDbXrecord
280
     1
270
     1
271
     1
  0
XRECORD
  5
162
102
{ACAD_REACTORS
330
15F
102
}
330
15F
100
AcDbXrecord
280
     1
270
     1
271
     1
  0
CELLSTYLEMAP
  5
270
102
{ACAD_REACTORS
330
26F
102
}
330
26F
100
AcDbCellStyleMap
 90
        3
300
CELLSTYLE
  1
TABLEFORMAT_BEGIN
 90
        5
170
     1
 91
        0
 92
    32768
 62
   257
 93
        1
300
CONTENTFORMAT
  1
CONTENTFORMAT_BEGIN
 90
        0
 91
        0
 92
      512
 93
        0
300

 40
0.0
140
1.0
 94
        5
 62
     0
340
16
144
0.25
309
CONTENTFORMAT_END
171
     0
 94
        0
309
TABLEFORMAT_END
  1
CELLSTYLE_BEGIN
 90
        1
 91
        1
300
_TITLE
309
CELLSTYLE_END
300
CELLSTYLE
  1
TABLEFORMAT_BEGIN
 90
        5
170
     1
 91
        0
 92
        0
 62
   257
 93
        1
300
CONTENTFORMAT
  1
CONTENTFORMAT_BEGIN
 90
        0
 91
        0
 92
      512
 93
        0
300

 40
0.0
140
1.0
 94
        5
 62
     0
340
16
144
0.18
309
CONTENTFORMAT_END
171
     0
 94
        0
309
TABLEFORMAT_END
  1
CELLSTYLE_BEGIN
 90
        2
 91
        1
300
_HEADER
309
CELLSTYLE_END
300
CELLSTYLE
  1
TABLEFORMAT_BEGIN
 90
        5
170
     1
 91
        0
 92
        0
 62
   257
 93
        1
300
CONTENTFORMAT
  1
CONTENTFORMAT_BEGIN
 90
        0
 91
        0
 92
      512
 93
        0
300

 40
0.0
140
1.0
 94
        2
 62
     0
340
16
144
0.18
309
CONTENTFORMAT_END
171
     0
 94
        0
309
TABLEFORMAT_END
  1
CELLSTYLE_BEGIN
 90
        3
 91
        2
300
_DATA
309
CELLSTYLE_END
  0
ENDSEC
  0
EOF
