  0
SECTION
  2
HEADER
  9
$ACADVER
  1
AC1032
  9
$ACADMAINTVER
 90
      155
  9
$DWGCODEPAGE
  3
ANSI_1252
  9
$LASTSAVEDBY
  1
falinoori
  9
$REQUIREDVERSIONS
160
                 0
  9
$INSBASE
 10
0.0
 20
0.0
 30
0.0
  9
$EXTMIN
 10
209.5794450676089
 20
-2138.125041241574
 30
0.0
  9
$EXTMAX
 10
2883.629142401332
 20
487.286567567859
 30
0.0
  9
$LIMMIN
 10
0.0
 20
0.0
  9
$LIMMAX
 10
420.0
 20
297.0
  9
$ORTHOMODE
 70
     0
  9
$REGENMODE
 70
     1
  9
$FILLMODE
 70
     1
  9
$QTEXTMODE
 70
     0
  9
$MIRRTEXT
 70
     1
  9
$LTSCALE
 40
1.0
  9
$ATTMODE
 70
     1
  9
$TEXTSIZE
 40
2.5
  9
$TRACEWID
 40
1.0
  9
$TEXTSTYLE
  7
STANDARD
  9
$CLAYER
  8
Dimensions Table
  9
$CELTYPE
  6
BYLAYER
  9
$CECOLOR
 62
   256
  9
$CELTSCALE
 40
1.0
  9
$DISPSILH
 70
     0
  9
$DIMSCALE
 40
1.0
  9
$DIMASZ
 40
5.0
  9
$DIMEXO
 40
2.0
  9
$DIMDLI
 40
3.75
  9
$DIMRND
 40
0.0
  9
$DIMDLE
 40
0.0
  9
$DIMEXE
 40
2.0
  9
$DIMTP
 40
0.0
  9
$DIMTM
 40
0.0
  9
$DIMTXT
 40
5.0
  9
$DIMCEN
 40
2.0
  9
$DIMTSZ
 40
0.0
  9
$DIMTOL
 70
     0
  9
$DIMLIM
 70
     0
  9
$DIMTIH
 70
     0
  9
$DIMTOH
 70
     1
  9
$DIMSE1
 70
     0
  9
$DIMSE2
 70
     0
  9
$DIMTAD
 70
     0
  9
$DIMZIN
 70
    12
  9
$DIMBLK
  1

  9
$DIMASO
 70
     1
  9
$DIMSHO
 70
     1
  9
$DIMPOST
  1

  9
$DIMAPOST
  1

  9
$DIMALT
 70
     0
  9
$DIMALTD
 70
     4
  9
$DIMALTF
 40
0.0394
  9
$DIMLFAC
 40
1.0
  9
$DIMTOFL
 70
     1
  9
$DIMTVP
 40
0.0
  9
$DIMTIX
 70
     0
  9
$DIMSOXD
 70
     0
  9
$DIMSAH
 70
     0
  9
$DIMBLK1
  1

  9
$DIMBLK2
  1

  9
$DIMSTYLE
  2
STANDARD
  9
$DIMCLRD
 70
     3
  9
$DIMCLRE
 70
     3
  9
$DIMCLRT
 70
     2
  9
$DIMTFAC
 40
2.0
  9
$DIMGAP
 40
2.0
  9
$DIMJUST
 70
     0
  9
$DIMSD1
 70
     0
  9
$DIMSD2
 70
     0
  9
$DIMTOLJ
 70
     1
  9
$DIMTZIN
 70
    12
  9
$DIMALTZ
 70
     0
  9
$DIMALTTZ
 70
     0
  9
$DIMUPT
 70
     0
  9
$DIMDEC
 70
     1
  9
$DIMTDEC
 70
     1
  9
$DIMALTU
 70
     8
  9
$DIMALTTD
 70
     4
  9
$DIMTXSTY
  7
STANDARD
  9
$DIMAUNIT
 70
     0
  9
$DIMADEC
 70
     1
  9
$DIMALTRND
 40
0.0
  9
$DIMAZIN
 70
     3
  9
$DIMDSEP
 70
    46
  9
$DIMATFIT
 70
     3
  9
$DIMFRAC
 70
     0
  9
$DIMLDRBLK
  1

  9
$DIMLUNIT
 70
     2
  9
$DIMLWD
 70
    -2
  9
$DIMLWE
 70
    -2
  9
$DIMTMOVE
 70
     0
  9
$DIMFXL
 40
1.0
  9
$DIMFXLON
 70
     0
  9
$DIMJOGANG
 40
0.7853981633974483
  9
$DIMTFILL
 70
     0
  9
$DIMTFILLCLR
 70
     0
  9
$DIMARCSYM
 70
     0
  9
$DIMLTYPE
  6

  9
$DIMLTEX1
  6

  9
$DIMLTEX2
  6

  9
$DIMTXTDIRECTION
 70
     0
  9
$LUNITS
 70
     2
  9
$LUPREC
 70
     4
  9
$SKETCHINC
 40
1.0
  9
$FILLETRAD
 40
10.0
  9
$AUNITS
 70
     0
  9
$AUPREC
 70
     0
  9
$MENU
  1
.
  9
$ELEVATION
 40
0.0
  9
$PELEVATION
 40
0.0
  9
$THICKNESS
 40
0.0
  9
$LIMCHECK
 70
     0
  9
$CHAMFERA
 40
0.0
  9
$CHAMFERB
 40
0.0
  9
$CHAMFERC
 40
20.0
  9
$CHAMFERD
 40
0.0
  9
$SKPOLY
 70
     0
  9
$TDCREATE
 40
2451572.394884260
  9
$TDUCREATE
 40
2451571.936554862
  9
$TDUPDATE
 40
2459585.538182871
  9
$TDUUPDATE
 40
2459585.079849537
  9
$TDINDWG
 40
16.2575471528
  9
$TDUSRTIMER
 40
16.2575471528
  9
$USRTIMER
 70
     1
  9
$ANGBASE
 50
0.0
  9
$ANGDIR
 70
     0
  9
$PDMODE
 70
     0
  9
$PDSIZE
 40
0.0
  9
$PLINEWID
 40
0.0
  9
$SPLFRAME
 70
     0
  9
$SPLINETYPE
 70
     6
  9
$SPLINESEGS
 70
     8
  9
$HANDSEED
  5
147A2
  9
$SURFTAB1
 70
     6
  9
$SURFTAB2
 70
     6
  9
$SURFTYPE
 70
     6
  9
$SURFU
 70
     6
  9
$SURFV
 70
     6
  9
$UCSBASE
  2

  9
$UCSNAME
  2

  9
$UCSORG
 10
0.0
 20
0.0
 30
0.0
  9
$UCSXDIR
 10
1.0
 20
0.0
 30
0.0
  9
$UCSYDIR
 10
0.0
 20
1.0
 30
0.0
  9
$UCSORTHOREF
  2

  9
$UCSORTHOVIEW
 70
     1
  9
$UCSORGTOP
 10
0.0
 20
0.0
 30
0.0
  9
$UCSORGBOTTOM
 10
0.0
 20
0.0
 30
0.0
  9
$UCSORGLEFT
 10
0.0
 20
0.0
 30
0.0
  9
$UCSORGRIGHT
 10
0.0
 20
0.0
 30
0.0
  9
$UCSORGFRONT
 10
0.0
 20
0.0
 30
0.0
  9
$UCSORGBACK
 10
0.0
 20
0.0
 30
0.0
  9
$PUCSBASE
  2

  9
$PUCSNAME
  2

  9
$PUCSORG
 10
0.0
 20
0.0
 30
0.0
  9
$PUCSXDIR
 10
1.0
 20
0.0
 30
0.0
  9
$PUCSYDIR
 10
0.0
 20
1.0
 30
0.0
  9
$PUCSORTHOREF
  2

  9
$PUCSORTHOVIEW
 70
     0
  9
$PUCSORGTOP
 10
0.0
 20
0.0
 30
0.0
  9
$PUCSORGBOTTOM
 10
0.0
 20
0.0
 30
0.0
  9
$PUCSORGLEFT
 10
0.0
 20
0.0
 30
0.0
  9
$PUCSORGRIGHT
 10
0.0
 20
0.0
 30
0.0
  9
$PUCSORGFRONT
 10
0.0
 20
0.0
 30
0.0
  9
$PUCSORGBACK
 10
0.0
 20
0.0
 30
0.0
  9
$USERI1
 70
     0
  9
$USERI2
 70
     0
  9
$USERI3
 70
     0
  9
$USERI4
 70
     0
  9
$USERI5
 70
     0
  9
$USERR1
 40
0.0
  9
$USERR2
 40
0.0
  9
$USERR3
 40
0.0
  9
$USERR4
 40
0.0
  9
$USERR5
 40
0.0
  9
$WORLDVIEW
 70
     1
  9
$SHADEDGE
 70
     3
  9
$SHADEDIF
 70
    70
  9
$TILEMODE
 70
     1
  9
$MAXACTVP
 70
    48
  9
$PINSBASE
 10
0.0
 20
0.0
 30
0.0
  9
$PLIMCHECK
 70
     0
  9
$PEXTMIN
 10
0.0562293329639943
 20
0.4875676795637674
 30
-0.0015258207003583
  9
$PEXTMAX
 10
290.8883673873071
 20
203.4668462358437
 30
0.0000000349246037
  9
$PLIMMIN
 10
-3.17498779296875
 20
-3.174999952316284
  9
$PLIMMAX
 10
293.8250122070312
 20
206.8250000476837
  9
$UNITMODE
 70
     0
  9
$VISRETAIN
 70
     1
  9
$PLINEGEN
 70
     0
  9
$PSLTSCALE
 70
     1
  9
$TREEDEPTH
 70
  3020
  9
$CMLSTYLE
  2
STANDARD
  9
$CMLJUST
 70
     0
  9
$CMLSCALE
 40
20.0
  9
$PROXYGRAPHICS
 70
     1
  9
$MEASUREMENT
 70
     1
  9
$CELWEIGHT
370
    -1
  9
$ENDCAPS
280
     0
  9
$JOINSTYLE
280
     0
  9
$LWDISPLAY
290
     0
  9
$INSUNITS
 70
     0
  9
$HYPERLINKBASE
  1

  9
$STYLESHEET
  1
monochrome.ctb
  9
$XEDIT
290
     1
  9
$CEPSNTYPE
380
     0
  9
$PSTYLEMODE
290
     1
  9
$FINGERPRINTGUID
  2
{A577D464-EACF-11D3-8670-00A0C9E08C48}
  9
$VERSIONGUID
  2
{DEDB42E9-DC0B-0849-978F-A2964E216047}
  9
$EXTNAMES
290
     1
  9
$PSVPSCALE
 40
0.0
  9
$OLESTARTUP
290
     0
  9
$SORTENTS
280
    96
  9
$INDEXCTL
280
     0
  9
$HIDETEXT
280
     0
  9
$XCLIPFRAME
280
     0
  9
$HALOGAP
280
     0
  9
$OBSCOLOR
 70
   257
  9
$OBSLTYPE
280
     0
  9
$INTERSECTIONDISPLAY
280
     0
  9
$INTERSECTIONCOLOR
 70
   257
  9
$DIMASSOC
280
     1
  9
$PROJECTNAME
  1

  9
$CAMERADISPLAY
290
     0
  9
$LENSLENGTH
 40
50.0
  9
$CAMERAHEIGHT
 40
0.0
  9
$STEPSPERSEC
 40
2.0
  9
$STEPSIZE
 40
6.0
  9
$3DDWFPREC
 40
2.0
  9
$PSOLWIDTH
 40
0.25
  9
$PSOLHEIGHT
 40
4.0
  9
$LOFTANG1
 40
1.570796326794896
  9
$LOFTANG2
 40
1.570796326794896
  9
$LOFTMAG1
 40
0.0
  9
$LOFTMAG2
 40
0.0
  9
$LOFTPARAM
 70
     7
  9
$LOFTNORMALS
280
     1
  9
$LATITUDE
 40
37.795
  9
$LONGITUDE
 40
-122.394
  9
$NORTHDIRECTION
 40
0.0
  9
$TIMEZONE
 70
 -8000
  9
$LIGHTGLYPHDISPLAY
280
     1
  9
$TILEMODELIGHTSYNCH
280
     1
  9
$CMATERIAL
347
140CA
  9
$SOLIDHIST
280
     0
  9
$SHOWHIST
280
     1
  9
$DWFFRAME
280
     2
  9
$DGNFRAME
280
     0
  9
$REALWORLDSCALE
290
     1
  9
$INTERFERECOLOR
 62
     1
  9
$INTERFEREOBJVS
345
140EC
  9
$INTERFEREVPVS
346
140E9
  9
$CSHADOW
280
     0
  9
$SHADOWPLANELOCATION
 40
0.0
  0
ENDSEC
  0
SECTION
  2
CLASSES
  0
CLASS
  1
DICTIONARYVAR
  2
AcDbDictionaryVar
  3
ObjectDBX Classes
 90
        0
 91
       11
280
     0
281
     0
  0
CLASS
  1
ACDBDICTIONARYWDFLT
  2
AcDbDictionaryWithDefault
  3
ObjectDBX Classes
 90
        0
 91
        1
280
     0
281
     0
  0
CLASS
  1
MATERIAL
  2
AcDbMaterial
  3
ObjectDBX Classes
 90
     1153
 91
        3
280
     0
281
     0
  0
CLASS
  1
VISUALSTYLE
  2
AcDbVisualStyle
  3
ObjectDBX Classes
 90
     4095
 91
       24
280
     0
281
     0
  0
CLASS
  1
TABLESTYLE
  2
AcDbTableStyle
  3
ObjectDBX Classes
 90
     4095
 91
        1
280
     0
281
     0
  0
CLASS
  1
SCALE
  2
AcDbScale
  3
ObjectDBX Classes
 90
     1153
 91
       17
280
     0
281
     0
  0
CLASS
  1
MLEADERSTYLE
  2
AcDbMLeaderStyle
  3
ACDB_MLEADERSTYLE_CLASS
 90
     4095
 91
        1
280
     0
281
     0
  0
CLASS
  1
ACDBSECTIONVIEWSTYLE
  2
AcDbSectionViewStyle
  3
ObjectDBX Classes
 90
     1025
 91
        1
280
     0
281
     0
  0
CLASS
  1
ACDBDETAILVIEWSTYLE
  2
AcDbDetailViewStyle
  3
ObjectDBX Classes
 90
     1025
 91
        1
280
     0
281
     0
  0
CLASS
  1
SORTENTSTABLE
  2
AcDbSortentsTable
  3
ObjectDBX Classes
 90
        0
 91
        3
280
     0
281
     0
  0
CLASS
  1
CELLSTYLEMAP
  2
AcDbCellStyleMap
  3
ObjectDBX Classes
 90
     1152
 91
        1
280
     0
281
     0
  0
ENDSEC
  0
SECTION
  2
TABLES
  0
TABLE
  2
VPORT
  5
8
330
0
100
AcDbSymbolTable
 70
     1
  0
VPORT
  5
140C8
330
8
100
AcDbSymbolTableRecord
100
AcDbViewportTableRecord
  2
*Active
 70
     0
 10
0.0
 20
0.0
 11
1.0
 21
1.0
 12
1737.211525410672
 22
-1734.61539753527
 13
0.0
 23
0.0
 14
10.0
 24
10.0
 15
10.0
 25
10.0
 16
0.0
 26
0.0
 36
1.0
 17
0.0
 27
0.0
 37
0.0
 40
1997.096006988061
 41
2.0
 42
50.0
 43
0.0
 44
0.0
 50
0.0
 51
0.0
 71
     0
 72
   100
 73
     1
 74
     1
 75
     0
 76
     0
 77
     0
 78
     0
281
     0
 65
     1
110
0.0
120
0.0
130
0.0
111
1.0
121
0.0
131
0.0
112
0.0
122
1.0
132
0.0
 79
     0
146
0.0
348
140E8
 60
     3
 61
     5
292
     1
282
     1
141
0.0
142
0.0
 63
   250
421
  3355443
1001
ACAD_NAV_VCDISPLAY
1070
     3
  0
ENDTAB
  0
TABLE
  2
LTYPE
  5
5
330
0
100
AcDbSymbolTable
 70
    10
  0
LTYPE
  5
12
330
5
100
AcDbSymbolTableRecord
100
AcDbLinetypeTableRecord
  2
BYBLOCK
 70
     0
  3

 72
    65
 73
     0
 40
0.0
  0
LTYPE
  5
13
330
5
100
AcDbSymbolTableRecord
100
AcDbLinetypeTableRecord
  2
BYLAYER
 70
     0
  3

 72
    65
 73
     0
 40
0.0
  0
LTYPE
  5
14
330
5
100
AcDbSymbolTableRecord
100
AcDbLinetypeTableRecord
  2
CONTINUOUS
 70
     0
  3
Solid line
 72
    65
 73
     0
 40
0.0
  0
LTYPE
  5
42E
330
5
100
AcDbSymbolTableRecord
100
AcDbLinetypeTableRecord
  2
CENTER
 70
     0
  3
Center ____ _ ____ _ ____ _ ____ _ ____ _ ____
 72
    65
 73
     4
 40
50.8
 49
31.75
 74
     0
 49
-6.349999999999999
 74
     0
 49
6.349999999999999
 74
     0
 49
-6.349999999999999
 74
     0
  0
LTYPE
  5
D7C8
330
5
100
AcDbSymbolTableRecord
100
AcDbLinetypeTableRecord
  2
ACAD_ISO02W100
 70
     0
  3
ISO dash __ __ __ __ __ __ __ __ __ __ __ __ __
 72
    65
 73
     2
 40
15.0
 49
12.0
 74
     0
 49
-3.0
 74
     0
  0
LTYPE
  5
D7C9
330
5
100
AcDbSymbolTableRecord
100
AcDbLinetypeTableRecord
  2
DASHED2
 70
     0
  3
Dashed (.5x) _ _ _ _ _ _ _ _ _ _ _ _ _ _ _ _ _
 72
    65
 73
     2
 40
9.524999999999998
 49
6.349999999999999
 74
     0
 49
-3.174999999999999
 74
     0
  0
LTYPE
  5
D7CA
330
5
100
AcDbSymbolTableRecord
100
AcDbLinetypeTableRecord
  2
HIDDENX2
 70
     0
  3
Hidden (2x) ____ ____ ____ ____ ____ ____ ____
 72
    65
 73
     2
 40
19.05
 49
12.7
 74
     0
 49
-6.349999999999999
 74
     0
  0
LTYPE
  5
D7CB
330
5
100
AcDbSymbolTableRecord
100
AcDbLinetypeTableRecord
  2
ACAD_ISO03W100
 70
     0
  3
ISO dash space __    __    __    __    __    __
 72
    65
 73
     2
 40
30.0
 49
12.0
 74
     0
 49
-18.0
 74
     0
  0
LTYPE
  5
D84D
330
5
100
AcDbSymbolTableRecord
100
AcDbLinetypeTableRecord
  2
HIDDEN
 70
     0
  3
Hidden __ __ __ __ __ __ __ __ __ __ __ __ __ _
 72
    65
 73
     2
 40
9.524999999999998
 49
6.349999999999999
 74
     0
 49
-3.174999999999999
 74
     0
  0
LTYPE
  5
D84E
330
5
100
AcDbSymbolTableRecord
100
AcDbLinetypeTableRecord
  2
DOT2
 70
     0
  3
Dot (.5x) .....................................
 72
    65
 73
     2
 40
3.174999999999999
 49
0.0
 74
     0
 49
-3.174999999999999
 74
     0
  0
LTYPE
  5
D84F
330
5
100
AcDbSymbolTableRecord
100
AcDbLinetypeTableRecord
  2
HIDDEN2
 70
     0
  3
Hidden (.5x) _ _ _ _ _ _ _ _ _ _ _ _ _ _ _ _ _
 72
    65
 73
     2
 40
4.762499999999999
 49
3.174999999999999
 74
     0
 49
-1.587499999999999
 74
     0
  0
ENDTAB
  0
TABLE
  2
LAYER
  5
2
102
{ACAD_XDICTIONARY
360
13535
102
}
330
0
100
AcDbSymbolTable
 70
    13
  0
LAYER
  5
E
102
{ACAD_XDICTIONARY
360
14734
102
}
330
2
100
AcDbSymbolTableRecord
100
AcDbLayerTableRecord
  2
0
 70
     0
 62
     7
  6
CONTINUOUS
290
     0
370
    -3
390
26A6
347
140DA
348
0
  0
LAYER
  5
5B
330
2
100
AcDbSymbolTableRecord
100
AcDbLayerTableRecord
  2
DEFPOINTS
 70
     0
 62
     7
  6
CONTINUOUS
290
     0
370
    -3
390
26A6
347
140DA
348
0
  0
LAYER
  5
1600
102
{ACAD_XDICTIONARY
360
14736
102
}
330
2
100
AcDbSymbolTableRecord
100
AcDbLayerTableRecord
  2
Defpoint
 70
     0
 62
     9
  6
CONTINUOUS
370
    -3
390
26A6
347
140DA
348
0
  0
LAYER
  5
2D49
102
{ACAD_XDICTIONARY
360
14738
102
}
330
2
100
AcDbSymbolTableRecord
100
AcDbLayerTableRecord
  2
BORDER_A1
 70
     0
 62
     3
  6
CONTINUOUS
370
    -3
390
26A6
347
140DA
348
0
  0
LAYER
  5
2D4A
102
{ACAD_XDICTIONARY
360
1473A
102
}
330
2
100
AcDbSymbolTableRecord
100
AcDbLayerTableRecord
  2
BORDER_TEXT_A1
 70
     0
 62
     4
  6
CONTINUOUS
370
    -3
390
26A6
347
140DA
348
0
  0
LAYER
  5
2D4B
102
{ACAD_XDICTIONARY
360
1473C
102
}
330
2
100
AcDbSymbolTableRecord
100
AcDbLayerTableRecord
  2
BORDER_ITEM_LIST_A1
 70
     0
 62
     2
  6
CONTINUOUS
370
    -3
390
26A6
347
140DA
348
0
  0
LAYER
  5
D7C2
102
{ACAD_XDICTIONARY
360
1473E
102
}
330
2
100
AcDbSymbolTableRecord
100
AcDbLayerTableRecord
  2
Insert
 70
     0
 62
   210
  6
CONTINUOUS
370
    -3
390
26A6
347
140DA
348
0
  0
LAYER
  5
D7C3
102
{ACAD_XDICTIONARY
360
14740
102
}
330
2
100
AcDbSymbolTableRecord
100
AcDbLayerTableRecord
  2
InsertDims
 70
     0
 62
     3
  6
CONTINUOUS
370
    -3
390
26A6
347
140DA
348
0
  0
LAYER
  5
D806
102
{ACAD_XDICTIONARY
360
14742
102
}
330
2
100
AcDbSymbolTableRecord
100
AcDbLayerTableRecord
  2
Construction
 70
     0
 62
     7
  6
CONTINUOUS
370
    -3
390
26A6
347
140DA
348
0
  0
LAYER
  5
108F8
102
{ACAD_XDICTIONARY
360
14744
102
}
330
2
100
AcDbSymbolTableRecord
100
AcDbLayerTableRecord
  2
FootWeb
 70
     0
 62
    -7
  6
CONTINUOUS
370
    -3
390
26A6
347
140DA
348
0
  0
LAYER
  5
1356C
102
{ACAD_XDICTIONARY
360
14746
102
}
330
2
100
AcDbSymbolTableRecord
100
AcDbLayerTableRecord
  2
Dimensions Table
 70
     0
 62
     7
  6
CONTINUOUS
370
    -3
390
26A6
347
140DA
348
0
  0
LAYER
  5
14769
330
2
100
AcDbSymbolTableRecord
100
AcDbLayerTableRecord
  2
ANCON-TIE
 70
     0
 62
     1
  6
CONTINUOUS
370
    -3
390
26A6
347
140DA
348
0
1001
AcAecLayerStandard
1000

1000

  0
LAYER
  5
1476A
330
2
100
AcDbSymbolTableRecord
100
AcDbLayerTableRecord
  2
ANCON-TEXT
 70
     0
 62
     3
  6
CONTINUOUS
370
    -3
390
26A6
347
140DA
348
0
1001
AcAecLayerStandard
1000

1000

  0
ENDTAB
  0
TABLE
  2
STYLE
  5
3
330
0
100
AcDbSymbolTable
 70
     4
  0
STYLE
  5
F
330
3
100
AcDbSymbolTableRecord
100
AcDbTextStyleTableRecord
  2
STANDARD
 70
     0
 40
0.0
 41
1.0
 50
0.0
 71
     0
 42
2.5
  3
txt
  4

  0
STYLE
  5
D7C7
330
3
100
AcDbSymbolTableRecord
100
AcDbTextStyleTableRecord
  2

 70
     1
 40
0.0
 41
1.0
 50
0.0
 71
     0
 42
2.5
  3
ltypeshp.shx
  4

  0
STYLE
  5
1476B
330
3
100
AcDbSymbolTableRecord
100
AcDbTextStyleTableRecord
  2
ROMANS
 70
     0
 40
0.0
 41
1.0
 50
0.0
 71
     0
 42
5.0
  3
romans
  4

  0
STYLE
  5
1476C
330
3
100
AcDbSymbolTableRecord
100
AcDbTextStyleTableRecord
  2
Ancon
 70
     0
 40
12.5
 41
1.0
 50
0.0
 71
     0
 42
2.5
  3
arial.ttf
  4

1001
ACAD
1000
Arial
1071
       34
  0
ENDTAB
  0
TABLE
  2
VIEW
  5
6
330
0
100
AcDbSymbolTable
 70
     0
  0
ENDTAB
  0
TABLE
  2
UCS
  5
7
330
0
100
AcDbSymbolTable
 70
     0
  0
ENDTAB
  0
TABLE
  2
APPID
  5
9
330
0
100
AcDbSymbolTable
 70
     6
  0
APPID
  5
10
330
9
100
AcDbSymbolTableRecord
100
AcDbRegAppTableRecord
  2
ACAD
 70
     0
  0
APPID
  5
D4EE
330
9
100
AcDbSymbolTableRecord
100
AcDbRegAppTableRecord
  2
DCO15
 70
     0
  0
APPID
  5
145C4
330
9
100
AcDbSymbolTableRecord
100
AcDbRegAppTableRecord
  2
ACAD_EXEMPT_FROM_CAD_STANDARDS
 70
     0
  0
APPID
  5
14616
330
9
100
AcDbSymbolTableRecord
100
AcDbRegAppTableRecord
  2
ACAD_NAV_VCDISPLAY
 70
     0
  0
APPID
  5
1476E
330
9
100
AcDbSymbolTableRecord
100
AcDbRegAppTableRecord
  2
AcAecLayerStandard
 70
     0
  0
APPID
  5
1476F
330
9
100
AcDbSymbolTableRecord
100
AcDbRegAppTableRecord
  2
ACAD_PSEXT
 70
     0
  0
ENDTAB
  0
TABLE
  2
DIMSTYLE
  5
A
330
0
100
AcDbSymbolTable
 70
     2
100
AcDbDimStyleTable
 71
     1
340
1D
  0
DIMSTYLE
105
1D
102
{ACAD_REACTORS
330
D8D7
330
DD34
330
FB5C
102
}
330
A
100
AcDbSymbolTableRecord
100
AcDbDimStyleTableRecord
  2
STANDARD
 70
     0
 41
5.0
 42
2.0
 43
3.75
 44
2.0
 73
     0
 78
    12
 79
     3
140
5.0
141
2.0
143
0.0394
146
2.0
147
2.0
171
     4
172
     1
176
     3
177
     3
178
     2
179
     1
271
     1
272
     1
273
     8
274
     4
284
    12
340
F
  0
DIMSTYLE
105
1476D
330
A
100
AcDbSymbolTableRecord
100
AcDbDimStyleTableRecord
  2
1-1
 70
     0
 41
2.0
 42
4.5
 43
0.0
 44
1.5
 45
0.1
 73
     0
 74
     0
 77
     1
 78
    12
140
2.2
141
0.0
146
1.25
147
1.0
279
     2
284
    12
285
    12
286
    12
340
1476B
  0
ENDTAB
  0
TABLE
  2
BLOCK_RECORD
  5
1
330
0
100
AcDbSymbolTable
 70
   102
  0
BLOCK_RECORD
  5
18
102
{ACAD_XDICTIONARY
360
142FF
102
}
330
1
100
AcDbSymbolTableRecord
100
AcDbBlockTableRecord
  2
*MODEL_SPACE
340
26A9
 70
     0
280
     1
281
     0
  0
BLOCK_RECORD
  5
13654
330
1
100
AcDbSymbolTableRecord
100
AcDbBlockTableRecord
  2
*Paper_Space
340
13655
 70
     0
280
     1
281
     0
  0
BLOCK_RECORD
  5
D8D8
330
1
100
AcDbSymbolTableRecord
100
AcDbBlockTableRecord
  2
*D0
340
0
 70
     0
280
     1
281
     0
  0
BLOCK_RECORD
  5
DD89
330
1
100
AcDbSymbolTableRecord
100
AcDbBlockTableRecord
  2
*D1
340
0
 70
     0
280
     1
281
     0
  0
BLOCK_RECORD
  5
13F6A
330
1
100
AcDbSymbolTableRecord
100
AcDbBlockTableRecord
  2
*Paper_Space2
340
13F6B
 70
     0
280
     1
281
     0
  0
BLOCK_RECORD
  5
E14C
330
1
100
AcDbSymbolTableRecord
100
AcDbBlockTableRecord
  2
*D3
340
0
 70
     0
280
     1
281
     0
  0
BLOCK_RECORD
  5
E15A
330
1
100
AcDbSymbolTableRecord
100
AcDbBlockTableRecord
  2
*D4
340
0
 70
     0
280
     1
281
     0
  0
BLOCK_RECORD
  5
E166
330
1
100
AcDbSymbolTableRecord
100
AcDbBlockTableRecord
  2
*D5
340
0
 70
     0
280
     1
281
     0
  0
BLOCK_RECORD
  5
E171
330
1
100
AcDbSymbolTableRecord
100
AcDbBlockTableRecord
  2
*D6
340
0
 70
     0
280
     1
281
     0
  0
BLOCK_RECORD
  5
E17D
330
1
100
AcDbSymbolTableRecord
100
AcDbBlockTableRecord
  2
*D7
340
0
 70
     0
280
     1
281
     0
  0
BLOCK_RECORD
  5
E18B
330
1
100
AcDbSymbolTableRecord
100
AcDbBlockTableRecord
  2
*D8
340
0
 70
     0
280
     1
281
     0
  0
BLOCK_RECORD
  5
E199
330
1
100
AcDbSymbolTableRecord
100
AcDbBlockTableRecord
  2
*D9
340
0
 70
     0
280
     1
281
     0
  0
BLOCK_RECORD
  5
E1A7
330
1
100
AcDbSymbolTableRecord
100
AcDbBlockTableRecord
  2
*D10
340
0
 70
     0
280
     1
281
     0
  0
BLOCK_RECORD
  5
E1B4
330
1
100
AcDbSymbolTableRecord
100
AcDbBlockTableRecord
  2
*D11
340
0
 70
     0
280
     1
281
     0
  0
BLOCK_RECORD
  5
E1C1
330
1
100
AcDbSymbolTableRecord
100
AcDbBlockTableRecord
  2
*D12
340
0
 70
     0
280
     1
281
     0
  0
BLOCK_RECORD
  5
E1CE
330
1
100
AcDbSymbolTableRecord
100
AcDbBlockTableRecord
  2
*D13
340
0
 70
     0
280
     1
281
     0
  0
BLOCK_RECORD
  5
E1DD
330
1
100
AcDbSymbolTableRecord
100
AcDbBlockTableRecord
  2
*D14
340
0
 70
     0
280
     1
281
     0
  0
BLOCK_RECORD
  5
E1ED
330
1
100
AcDbSymbolTableRecord
100
AcDbBlockTableRecord
  2
*D15
340
0
 70
     0
280
     1
281
     0
  0
BLOCK_RECORD
  5
E1F9
330
1
100
AcDbSymbolTableRecord
100
AcDbBlockTableRecord
  2
*D16
340
0
 70
     0
280
     1
281
     0
  0
BLOCK_RECORD
  5
E207
330
1
100
AcDbSymbolTableRecord
100
AcDbBlockTableRecord
  2
*D17
340
0
 70
     0
280
     1
281
     0
  0
BLOCK_RECORD
  5
E217
330
1
100
AcDbSymbolTableRecord
100
AcDbBlockTableRecord
  2
*D18
340
0
 70
     0
280
     1
281
     0
  0
BLOCK_RECORD
  5
E225
330
1
100
AcDbSymbolTableRecord
100
AcDbBlockTableRecord
  2
*D19
340
0
 70
     0
280
     1
281
     0
  0
BLOCK_RECORD
  5
E234
330
1
100
AcDbSymbolTableRecord
100
AcDbBlockTableRecord
  2
*D20
340
0
 70
     0
280
     1
281
     0
  0
BLOCK_RECORD
  5
E240
330
1
100
AcDbSymbolTableRecord
100
AcDbBlockTableRecord
  2
*D21
340
0
 70
     0
280
     1
281
     0
  0
BLOCK_RECORD
  5
E24F
330
1
100
AcDbSymbolTableRecord
100
AcDbBlockTableRecord
  2
*D22
340
0
 70
     0
280
     1
281
     0
  0
BLOCK_RECORD
  5
E25E
330
1
100
AcDbSymbolTableRecord
100
AcDbBlockTableRecord
  2
*D23
340
0
 70
     0
280
     1
281
     0
  0
BLOCK_RECORD
  5
E26C
330
1
100
AcDbSymbolTableRecord
100
AcDbBlockTableRecord
  2
*D24
340
0
 70
     0
280
     1
281
     0
  0
BLOCK_RECORD
  5
E27B
330
1
100
AcDbSymbolTableRecord
100
AcDbBlockTableRecord
  2
*D25
340
0
 70
     0
280
     1
281
     0
  0
BLOCK_RECORD
  5
E28A
330
1
100
AcDbSymbolTableRecord
100
AcDbBlockTableRecord
  2
*D26
340
0
 70
     0
280
     1
281
     0
  0
BLOCK_RECORD
  5
E296
330
1
100
AcDbSymbolTableRecord
100
AcDbBlockTableRecord
  2
*D27
340
0
 70
     0
280
     1
281
     0
  0
BLOCK_RECORD
  5
E2A6
330
1
100
AcDbSymbolTableRecord
100
AcDbBlockTableRecord
  2
*D28
340
0
 70
     0
280
     1
281
     0
  0
BLOCK_RECORD
  5
E2B4
330
1
100
AcDbSymbolTableRecord
100
AcDbBlockTableRecord
  2
*D29
340
0
 70
     0
280
     1
281
     0
  0
BLOCK_RECORD
  5
E2C2
330
1
100
AcDbSymbolTableRecord
100
AcDbBlockTableRecord
  2
*D30
340
0
 70
     0
280
     1
281
     0
  0
BLOCK_RECORD
  5
E2CF
330
1
100
AcDbSymbolTableRecord
100
AcDbBlockTableRecord
  2
*D31
340
0
 70
     0
280
     1
281
     0
  0
BLOCK_RECORD
  5
E2DC
330
1
100
AcDbSymbolTableRecord
100
AcDbBlockTableRecord
  2
*D32
340
0
 70
     0
280
     1
281
     0
  0
BLOCK_RECORD
  5
E2EB
330
1
100
AcDbSymbolTableRecord
100
AcDbBlockTableRecord
  2
*D33
340
0
 70
     0
280
     1
281
     0
  0
BLOCK_RECORD
  5
E2F7
330
1
100
AcDbSymbolTableRecord
100
AcDbBlockTableRecord
  2
*D34
340
0
 70
     0
280
     1
281
     0
  0
BLOCK_RECORD
  5
E307
330
1
100
AcDbSymbolTableRecord
100
AcDbBlockTableRecord
  2
*D35
340
0
 70
     0
280
     1
281
     0
  0
BLOCK_RECORD
  5
E315
330
1
100
AcDbSymbolTableRecord
100
AcDbBlockTableRecord
  2
*D36
340
0
 70
     0
280
     1
281
     0
  0
BLOCK_RECORD
  5
E324
330
1
100
AcDbSymbolTableRecord
100
AcDbBlockTableRecord
  2
*D37
340
0
 70
     0
280
     1
281
     0
  0
BLOCK_RECORD
  5
E331
330
1
100
AcDbSymbolTableRecord
100
AcDbBlockTableRecord
  2
A$C50436803
340
0
 70
     0
280
     1
281
     0
  0
BLOCK_RECORD
  5
FCC4
330
1
100
AcDbSymbolTableRecord
100
AcDbBlockTableRecord
  2
*D39
340
0
 70
     0
280
     1
281
     0
  0
BLOCK_RECORD
  5
101A2
330
1
100
AcDbSymbolTableRecord
100
AcDbBlockTableRecord
  2
A$C469C7240
340
0
 70
     0
280
     1
281
     0
  0
BLOCK_RECORD
  5
118F1
330
1
100
AcDbSymbolTableRecord
100
AcDbBlockTableRecord
  2
*Paper_Space41
340
118F2
 70
     0
280
     1
281
     0
  0
BLOCK_RECORD
  5
10AFD
330
1
100
AcDbSymbolTableRecord
100
AcDbBlockTableRecord
  2
A$C4C0D4438
340
0
 70
     0
280
     1
281
     0
  0
BLOCK_RECORD
  5
13A41
330
1
100
AcDbSymbolTableRecord
100
AcDbBlockTableRecord
  2
*Paper_Space43
340
13A42
 70
     0
280
     1
281
     0
  0
BLOCK_RECORD
  5
12B0C
330
1
100
AcDbSymbolTableRecord
100
AcDbBlockTableRecord
  2
*D44
340
0
 70
     0
280
     1
281
     0
  0
BLOCK_RECORD
  5
12B19
330
1
100
AcDbSymbolTableRecord
100
AcDbBlockTableRecord
  2
*D45
340
0
 70
     0
280
     1
281
     0
  0
BLOCK_RECORD
  5
12B26
330
1
100
AcDbSymbolTableRecord
100
AcDbBlockTableRecord
  2
*D46
340
0
 70
     0
280
     1
281
     0
  0
BLOCK_RECORD
  5
12B33
330
1
100
AcDbSymbolTableRecord
100
AcDbBlockTableRecord
  2
A$C03F86C52
340
0
 70
     0
280
     1
281
     0
  0
BLOCK_RECORD
  5
10353
330
1
100
AcDbSymbolTableRecord
100
AcDbBlockTableRecord
  2
*Paper_Space66
340
10354
 70
     0
280
     1
281
     0
  0
BLOCK_RECORD
  5
E13F
330
1
100
AcDbSymbolTableRecord
100
AcDbBlockTableRecord
  2
*Paper_Space76
340
E140
 70
     0
280
     1
281
     0
  0
BLOCK_RECORD
  5
1034F
330
1
100
AcDbSymbolTableRecord
100
AcDbBlockTableRecord
  2
*Paper_Space92
340
10350
 70
     0
280
     1
281
     0
  0
ENDTAB
  0
ENDSEC
  0
SECTION
  2
BLOCKS
  0
BLOCK
  5
19
330
18
100
AcDbEntity
  8
0
100
AcDbBlockBegin
  2
*MODEL_SPACE
 70
     0
 10
0.0
 20
0.0
 30
0.0
  3
*MODEL_SPACE
  1

  0
ENDBLK
  5
1A
330
18
100
AcDbEntity
  8
0
100
AcDbBlockEnd
  0
BLOCK
  5
13656
330
13654
100
AcDbEntity
 67
     1
  8
0
100
AcDbBlockBegin
  2
*Paper_Space
 70
     0
 10
0.0
 20
0.0
 30
0.0
  3
*Paper_Space
  1

  0
ENDBLK
  5
13657
330
13654
100
AcDbEntity
 67
     1
  8
0
100
AcDbBlockEnd
  0
BLOCK
  5
D8E4
330
D8D8
100
AcDbEntity
  8
0
370
   100
100
AcDbBlockBegin
  2
*D0
 70
     1
 10
0.0
 20
0.0
 30
0.0
  3
*D0
  1

  0
LINE
  5
108F9
330
D8D8
100
AcDbEntity
  8
FootWeb
 62
     3
440
 16777216
370
    -2
100
AcDbLine
 10
226.4317217051794
 20
437.9969051036763
 30
0.0
 11
226.4317217051794
 21
421.1397065982842
 31
0.0
  0
LINE
  5
108FA
330
D8D8
100
AcDbEntity
  8
FootWeb
 62
     3
440
 16777216
370
    -2
100
AcDbLine
 10
229.4317217051793
 20
437.9969051036763
 30
0.0
 11
229.4317217051793
 21
421.1397065982842
 31
0.0
  0
LINE
  5
108FB
330
D8D8
100
AcDbEntity
  8
FootWeb
 62
     3
440
 16777216
370
    -2
100
AcDbLine
 10
221.4317217051794
 20
423.1397065982841
 30
0.0
 11
216.4317217051794
 21
423.1397065982841
 31
0.0
  0
LINE
  5
108FC
330
D8D8
100
AcDbEntity
  8
FootWeb
 62
     3
440
 16777216
370
    -2
100
AcDbLine
 10
234.4317217051794
 20
423.1397065982841
 30
0.0
 11
239.4317217051793
 21
423.1397065982841
 31
0.0
  0
LINE
  5
108FD
330
D8D8
100
AcDbEntity
  8
FootWeb
 62
     3
440
 16777216
370
    -2
100
AcDbLine
 10
226.4317217051794
 20
423.1397065982841
 30
0.0
 11
229.4317217051793
 21
423.1397065982841
 31
0.0
  0
SOLID
  5
108FE
330
D8D8
100
AcDbEntity
  8
FootWeb
 62
     3
440
 16777216
100
AcDbTrace
 10
221.4317217051794
 20
423.9730399316175
 30
0.0
 11
221.4317217051794
 21
422.3063732649508
 31
0.0
 12
226.4317217051794
 22
423.1397065982841
 32
0.0
 13
226.4317217051794
 23
423.1397065982841
 33
0.0
  0
SOLID
  5
108FF
330
D8D8
100
AcDbEntity
  8
FootWeb
 62
     3
440
 16777216
100
AcDbTrace
 10
234.4317217051794
 20
423.9730399316175
 30
0.0
 11
234.4317217051794
 21
422.3063732649508
 31
0.0
 12
229.4317217051793
 22
423.1397065982841
 32
0.0
 13
229.4317217051793
 23
423.1397065982841
 33
0.0
  0
MTEXT
  5
10900
330
D8D8
100
AcDbEntity
  8
FootWeb
 62
     2
440
 16777216
100
AcDbMText
 10
243.098388371846
 20
423.1397065982841
 30
0.0
 40
5.0
 41
0.0
 46
0.0
 71
     5
 72
     1
  1
\A1;3
 73
     1
 44
1.0
  0
POINT
  5
10901
330
D8D8
100
AcDbEntity
  8
DEFPOINTS
 62
     0
440
 16777216
100
AcDbPoint
 10
226.4317217051794
 20
439.9969051036763
 30
0.0
  0
POINT
  5
10902
330
D8D8
100
AcDbEntity
  8
DEFPOINTS
 62
     0
440
 16777216
100
AcDbPoint
 10
229.4317217051793
 20
439.9969051036763
 30
0.0
  0
POINT
  5
10903
330
D8D8
100
AcDbEntity
  8
DEFPOINTS
 62
     0
440
 16777216
100
AcDbPoint
 10
229.4317217051793
 20
423.1397065982841
 30
0.0
  0
ENDBLK
  5
D8E5
330
D8D8
100
AcDbEntity
  8
0
370
   100
100
AcDbBlockEnd
  0
BLOCK
  5
DD96
330
DD89
100
AcDbEntity
  8
0
370
   100
100
AcDbBlockBegin
  2
*D1
 70
     1
 10
0.0
 20
0.0
 30
0.0
  3
*D1
  1

  0
LINE
  5
10904
330
DD89
100
AcDbEntity
  8
FootWeb
 62
     3
440
 16777216
370
    -2
100
AcDbLine
 10
532.9106634235127
 20
157.621573997169
 30
0.0
 11
532.9106634235127
 21
206.0784529729545
 31
0.0
  0
LINE
  5
10905
330
DD89
100
AcDbEntity
  8
FootWeb
 62
     3
440
 16777216
370
    -2
100
AcDbLine
 10
550.4106634235127
 20
157.621573997169
 30
0.0
 11
550.4106634235127
 21
206.0784529729545
 31
0.0
  0
LINE
  5
10906
330
DD89
100
AcDbEntity
  8
FootWeb
 62
     3
440
 16777216
370
    -2
100
AcDbLine
 10
527.9106634235128
 20
204.0784529729545
 30
0.0
 11
522.9106634235128
 21
204.0784529729545
 31
0.0
  0
LINE
  5
10907
330
DD89
100
AcDbEntity
  8
FootWeb
 62
     3
440
 16777216
370
    -2
100
AcDbLine
 10
555.4106634235128
 20
204.0784529729545
 30
0.0
 11
560.4106634235128
 21
204.0784529729545
 31
0.0
  0
LINE
  5
10908
330
DD89
100
AcDbEntity
  8
FootWeb
 62
     3
440
 16777216
370
    -2
100
AcDbLine
 10
532.9106634235127
 20
204.0784529729545
 30
0.0
 11
532.9939967568462
 21
204.0784529729545
 31
0.0
  0
LINE
  5
10909
330
DD89
100
AcDbEntity
  8
FootWeb
 62
     3
440
 16777216
370
    -2
100
AcDbLine
 10
550.4106634235127
 20
204.0784529729545
 30
0.0
 11
550.3273300901794
 21
204.0784529729545
 31
0.0
  0
SOLID
  5
1090A
330
DD89
100
AcDbEntity
  8
FootWeb
 62
     3
440
 16777216
100
AcDbTrace
 10
527.9106634235128
 20
204.9117863062878
 30
0.0
 11
527.9106634235128
 21
203.2451196396212
 31
0.0
 12
532.9106634235127
 22
204.0784529729545
 32
0.0
 13
532.9106634235127
 23
204.0784529729545
 33
0.0
  0
SOLID
  5
1090B
330
DD89
100
AcDbEntity
  8
FootWeb
 62
     3
440
 16777216
100
AcDbTrace
 10
555.4106634235128
 20
204.9117863062878
 30
0.0
 11
555.4106634235128
 21
203.2451196396212
 31
0.0
 12
550.4106634235127
 22
204.0784529729545
 32
0.0
 13
550.4106634235127
 23
204.0784529729545
 33
0.0
  0
MTEXT
  5
1090C
330
DD89
100
AcDbEntity
  8
FootWeb
 62
     2
440
 16777216
100
AcDbMText
 10
541.6606634235128
 20
204.0784529729545
 30
0.0
 40
5.0
 41
0.0
 46
0.0
 71
     5
 72
     1
  1
\A1;17.5
 73
     1
 44
1.0
  0
POINT
  5
1090D
330
DD89
100
AcDbEntity
  8
DEFPOINTS
 62
     0
440
 16777216
100
AcDbPoint
 10
532.9106634235127
 20
155.621573997169
 30
0.0
  0
POINT
  5
1090E
330
DD89
100
AcDbEntity
  8
DEFPOINTS
 62
     0
440
 16777216
100
AcDbPoint
 10
550.4106634235127
 20
155.621573997169
 30
0.0
  0
POINT
  5
1090F
330
DD89
100
AcDbEntity
  8
DEFPOINTS
 62
     0
440
 16777216
100
AcDbPoint
 10
550.4106634235127
 20
204.0784529729545
 30
0.0
  0
ENDBLK
  5
DD97
330
DD89
100
AcDbEntity
  8
0
370
   100
100
AcDbBlockEnd
  0
BLOCK
  5
13F6C
330
13F6A
100
AcDbEntity
 67
     1
  8
0
100
AcDbBlockBegin
  2
*Paper_Space2
 70
     0
 10
0.0
 20
0.0
 30
0.0
  3
*Paper_Space2
  1

  0
VIEWPORT
  5
13F72
330
13F6A
100
AcDbEntity
 67
     1
  8
0
100
AcDbViewport
 10
145.3250122070312
 20
133.0848810795681
 30
0.0
 40
514.3735196950444
 41
284.6997620637688
 68
     0
 69
     0
 12
145.3250122070312
 22
133.0848810795681
 13
0.0
 23
0.0
 14
10.0
 24
10.0
 15
10.0
 25
10.0
 16
0.0
 26
0.0
 36
1.0
 17
0.0
 27
0.0
 37
0.0
 42
50.0
 43
0.0
 44
0.0
 45
284.6997620637688
 50
0.0
 51
0.0
 72
   100
 90
    32800
  1

281
     0
 71
     1
 74
     0
110
0.0
120
0.0
130
0.0
111
1.0
121
0.0
131
0.0
112
0.0
122
1.0
132
0.0
 79
     0
146
0.0
170
     0
 61
     5
348
140E8
292
     1
282
     1
141
0.0
142
0.0
 63
   250
421
  3355443
  0
VIEWPORT
  5
13F74
330
13F6A
100
AcDbEntity
 67
     1
  8
0
100
AcDbViewport
 10
145.6071695566978
 20
101.9659769955312
 30
0.0
 40
290.0581354861763
 41
203.5710161708109
 68
     0
 69
     0
 12
1609.825505771473
 22
1166.814134140692
 13
0.0
 23
0.0
 14
10.0
 24
10.0
 15
10.0
 25
10.0
 16
0.0
 26
0.0
 36
1.0
 17
0.0
 27
0.0
 37
0.0
 42
50.0
 43
0.0
 44
0.0
 45
588.9284472738186
 50
0.0
 51
0.0
 72
   100
 90
    32800
  1

281
     0
 71
     1
 74
     0
110
0.0
120
0.0
130
0.0
111
1.0
121
0.0
131
0.0
112
0.0
122
1.0
132
0.0
 79
     1
146
0.0
170
     0
 61
     5
348
140E8
292
     1
282
     1
141
0.0
142
0.0
 63
   250
421
  3355443
  0
ENDBLK
  5
13F6D
330
13F6A
100
AcDbEntity
 67
     1
  8
0
100
AcDbBlockEnd
  0
BLOCK
  5
E14D
330
E14C
100
AcDbEntity
  8
0
370
   100
100
AcDbBlockBegin
  2
*D3
 70
     1
 10
0.0
 20
0.0
 30
0.0
  3
*D3
  1

  0
LINE
  5
E14E
330
E14C
100
AcDbEntity
  8
InsertDims
 62
     3
370
    -2
100
AcDbLine
 10
262.8135576602712
 20
494.0654657729432
 30
0.0
 11
272.2164674725048
 21
503.4683755851768
 31
0.0
  0
ARC
  5
E14F
330
E14C
100
AcDbEntity
  8
InsertDims
 62
     3
370
    -2
100
AcDbCircle
 10
227.9317217051794
 20
459.1836298178513
 30
0.0
 40
60.62808807039614
100
AcDbArc
 50
49.72652451144917
 51
60.07645847161756
  0
ARC
  5
E150
330
E14C
100
AcDbEntity
  8
InsertDims
 62
     3
370
    -2
100
AcDbCircle
 10
227.9317217051794
 20
459.1836298178513
 30
0.0
 40
60.62808807039614
100
AcDbArc
 50
74.92354152838242
 51
85.27347548855081
  0
SOLID
  5
E151
330
E14C
100
AcDbEntity
  8
InsertDims
 62
     3
370
   100
100
AcDbTrace
 10
267.6883957870248
 20
506.0539535215703
 30
0.0
 11
266.5594827670521
 21
504.8278486438725
 31
0.0
 12
270.8022539101317
 22
502.0541620228037
 32
0.0
 13
270.8022539101317
 23
502.0541620228037
 33
0.0
  0
SOLID
  5
E152
330
E14C
100
AcDbEntity
  8
InsertDims
 62
     3
370
   100
100
AcDbTrace
 10
232.8931065701176
 20
518.7729182605975
 30
0.0
 11
232.9618315917913
 21
520.4381673858559
 31
0.0
 12
227.9317217051794
 22
519.8117178882475
 32
0.0
 13
227.9317217051794
 23
519.8117178882475
 33
0.0
  0
MTEXT
  5
E153
330
E14C
100
AcDbEntity
  8
InsertDims
 62
     2
370
   100
100
AcDbMText
 10
251.1330865456916
 20
515.196679481382
 30
0.0
 40
5.0
 41
0.0
 46
0.0
 71
     5
 72
     1
  1
\A1;45°
 11
0.9238795325112867
 21
-0.3826834323650898
 31
0.0
 73
     1
 44
1.0
  0
POINT
  5
E154
330
E14C
100
AcDbEntity
  8
DEFPOINTS
 62
     0
370
   100
100
AcDbPoint
 10
258.2457657403775
 20
511.6890942696946
 30
0.0
  0
POINT
  5
E155
330
E14C
100
AcDbEntity
  8
DEFPOINTS
 62
     0
370
   100
100
AcDbPoint
 10
227.9317217051794
 20
459.1836298178513
 30
0.0
  0
POINT
  5
E156
330
E14C
100
AcDbEntity
  8
DEFPOINTS
 62
     0
370
   100
100
AcDbPoint
 10
227.9317217051794
 20
279.2666733572501
 30
0.0
  0
POINT
  5
E157
330
E14C
100
AcDbEntity
  8
DEFPOINTS
 62
     0
370
   100
100
AcDbPoint
 10
227.9317217051794
 20
536.5069657767803
 30
0.0
  0
POINT
  5
E158
330
E14C
100
AcDbEntity
  8
DEFPOINTS
 62
     0
370
   100
100
AcDbPoint
 10
261.3993440978981
 20
492.65125221057
 30
0.0
  0
ENDBLK
  5
E159
330
E14C
100
AcDbEntity
  8
0
370
   100
100
AcDbBlockEnd
  0
BLOCK
  5
E15B
330
E15A
100
AcDbEntity
  8
0
370
   100
100
AcDbBlockBegin
  2
*D4
 70
     1
 10
0.0
 20
0.0
 30
0.0
  3
*D4
  1

  0
LINE
  5
E15C
330
E15A
100
AcDbEntity
  8
InsertDims
 62
     3
370
    -2
100
AcDbLine
 10
170.1435217445888
 20
495.4016059943218
 30
0.0
 11
179.3101884112557
 21
495.4016059943218
 31
0.0
  0
LINE
  5
E15D
330
E15A
100
AcDbEntity
  8
InsertDims
 62
     3
370
    -2
100
AcDbLine
 10
179.3101884112557
 20
495.4016059943218
 30
0.0
 11
204.2738862236926
 21
476.8062522200623
 31
0.0
  0
LINE
  5
E15E
330
E15A
100
AcDbEntity
  8
InsertDims
 62
     3
370
    -2
100
AcDbLine
 10
251.5895571866661
 20
441.5610074156403
 30
0.0
 11
255.5993598106469
 21
438.5741222627232
 31
0.0
  0
MTEXT
  5
E15F
330
E15A
100
AcDbEntity
  8
InsertDims
 62
     2
370
   100
100
AcDbMText
 10
157.3101884112556
 20
495.4016059943217
 30
0.0
 40
5.0
 41
0.0
 46
0.0
 71
     5
 72
     1
  1
\A1;∅49±1
 73
     1
 44
1.0
  0
LINE
  5
E160
330
E15A
100
AcDbEntity
  8
InsertDims
 62
     3
370
    -2
100
AcDbLine
 10
247.5797545626853
 20
444.5478925685574
 30
0.0
 11
208.2836888476734
 21
473.8193670671452
 31
0.0
  0
SOLID
  5
E161
330
E15A
100
AcDbEntity
  8
InsertDims
 62
     3
370
   100
100
AcDbTrace
 10
252.0873713788189
 20
442.2293078529704
 30
0.0
 11
251.0917429945132
 21
440.8927069783102
 31
0.0
 12
247.5797545626853
 22
444.5478925685574
 32
0.0
 13
247.5797545626853
 23
444.5478925685574
 33
0.0
  0
SOLID
  5
E162
330
E15A
100
AcDbEntity
  8
InsertDims
 62
     3
370
   100
100
AcDbTrace
 10
204.7717004158454
 20
477.4745526573924
 30
0.0
 11
203.7760720315398
 21
476.1379517827322
 31
0.0
 12
208.2836888476734
 22
473.8193670671452
 32
0.0
 13
208.2836888476734
 23
473.8193670671452
 33
0.0
  0
POINT
  5
E163
330
E15A
100
AcDbEntity
  8
DEFPOINTS
 62
     0
370
   100
100
AcDbPoint
 10
208.2836888476734
 20
473.8193670671452
 30
0.0
  0
POINT
  5
E164
330
E15A
100
AcDbEntity
  8
DEFPOINTS
 62
     0
370
   100
100
AcDbPoint
 10
247.5797545626853
 20
444.5478925685574
 30
0.0
  0
ENDBLK
  5
E165
330
E15A
100
AcDbEntity
  8
0
370
   100
100
AcDbBlockEnd
  0
BLOCK
  5
E167
330
E166
100
AcDbEntity
  8
0
370
   100
100
AcDbBlockBegin
  2
*D5
 70
     1
 10
0.0
 20
0.0
 30
0.0
  3
*D5
  1

  0
LINE
  5
E168
330
E166
100
AcDbEntity
  8
InsertDims
 62
     3
370
    -2
100
AcDbLine
 10
183.7977912261712
 20
465.4009004781838
 30
0.0
 11
209.1174901837927
 21
461.8340434194737
 31
0.0
  0
LINE
  5
E169
330
E166
100
AcDbEntity
  8
InsertDims
 62
     3
370
    -2
100
AcDbLine
 10
246.7459532265658
 20
456.533216216229
 30
0.0
 11
251.6970667848255
 21
455.8357389526441
 31
0.0
  0
MTEXT
  5
E16A
330
E166
100
AcDbEntity
  8
InsertDims
 62
     2
370
   100
100
AcDbMText
 10
175.1311245595046
 20
465.4009004781838
 30
0.0
 40
5.0
 41
0.0
 46
0.0
 71
     5
 72
     1
  1
\A1;∅28
 73
     1
 44
1.0
  0
LINE
  5
E16B
330
E166
100
AcDbEntity
  8
InsertDims
 62
     3
370
    -2
100
AcDbLine
 10
241.7948396683063
 20
457.2306934798137
 30
0.0
 11
214.0686037420524
 21
461.1365661558888
 31
0.0
  0
SOLID
  5
E16C
330
E166
100
AcDbEntity
  8
InsertDims
 62
     3
370
   100
100
AcDbTrace
 10
246.8621994371633
 20
457.3584018092722
 30
0.0
 11
246.6297070159684
 21
455.7080306231857
 31
0.0
 12
241.7948396683063
 22
457.2306934798137
 32
0.0
 13
241.7948396683063
 23
457.2306934798137
 33
0.0
  0
SOLID
  5
E16D
330
E166
100
AcDbEntity
  8
InsertDims
 62
     3
370
   100
100
AcDbTrace
 10
209.2337363943902
 20
462.6592290125169
 30
0.0
 11
209.0012439731953
 21
461.0088578264305
 31
0.0
 12
214.0686037420524
 22
461.1365661558888
 32
0.0
 13
214.0686037420524
 23
461.1365661558888
 33
0.0
  0
POINT
  5
E16E
330
E166
100
AcDbEntity
  8
DEFPOINTS
 62
     0
370
   100
100
AcDbPoint
 10
214.0686037420524
 20
461.1365661558888
 30
0.0
  0
POINT
  5
E16F
330
E166
100
AcDbEntity
  8
DEFPOINTS
 62
     0
370
   100
100
AcDbPoint
 10
241.7948396683063
 20
457.2306934798137
 30
0.0
  0
ENDBLK
  5
E170
330
E166
100
AcDbEntity
  8
0
370
   100
100
AcDbBlockEnd
  0
BLOCK
  5
E172
330
E171
100
AcDbEntity
  8
0
370
   100
100
AcDbBlockBegin
  2
*D6
 70
     1
 10
0.0
 20
0.0
 30
0.0
  3
*D6
  1

  0
LINE
  5
E173
330
E171
100
AcDbEntity
  8
InsertDims
 62
     3
370
    -2
100
AcDbLine
 10
173.1882850603555
 20
442.6900853047251
 30
0.0
 11
178.1882850603557
 21
442.690085304725
 31
0.0
  0
LINE
  5
E174
330
E171
100
AcDbEntity
  8
InsertDims
 62
     3
370
    -2
100
AcDbLine
 10
178.1882850603557
 20
442.690085304725
 30
0.0
 11
213.6939680776076
 21
454.4627854399284
 31
0.0
  0
LINE
  5
E175
330
E171
100
AcDbEntity
  8
InsertDims
 62
     3
370
    -2
100
AcDbLine
 10
242.1694753327513
 20
463.9044741957743
 30
0.0
 11
246.9153932086086
 21
465.4780889884152
 31
0.0
  0
MTEXT
  5
E176
330
E171
100
AcDbEntity
  8
InsertDims
 62
     2
370
   100
100
AcDbMText
 10
161.1882850603555
 20
442.690085304725
 30
0.0
 40
8.0
 41
0.0
 46
0.0
 71
     5
 72
     1
  1
\A1;M20
 73
     1
 44
1.0
  0
LINE
  5
E177
330
E171
100
AcDbEntity
  8
InsertDims
 62
     3
370
    -2
100
AcDbLine
 10
237.423557456894
 20
462.3308594031333
 30
0.0
 11
218.4398859534649
 21
456.0364002325695
 31
0.0
  0
SOLID
  5
E178
330
E171
100
AcDbEntity
  8
InsertDims
 62
     3
370
   100
100
AcDbTrace
 10
241.9072062006445
 20
464.6954605084172
 30
0.0
 11
242.4317444648581
 21
463.1134878831314
 31
0.0
 12
237.423557456894
 22
462.3308594031333
 32
0.0
 13
237.423557456894
 23
462.3308594031333
 33
0.0
  0
SOLID
  5
E179
330
E171
100
AcDbEntity
  8
InsertDims
 62
     3
370
   100
100
AcDbTrace
 10
213.4316989455008
 20
455.2537717525713
 30
0.0
 11
213.9562372097145
 21
453.6717991272856
 31
0.0
 12
218.4398859534649
 22
456.0364002325695
 32
0.0
 13
218.4398859534649
 23
456.0364002325695
 33
0.0
  0
POINT
  5
E17A
330
E171
100
AcDbEntity
  8
DEFPOINTS
 62
     0
370
   100
100
AcDbPoint
 10
218.4398859534649
 20
456.0364002325695
 30
0.0
  0
POINT
  5
E17B
330
E171
100
AcDbEntity
  8
DEFPOINTS
 62
     0
370
   100
100
AcDbPoint
 10
237.423557456894
 20
462.3308594031333
 30
0.0
  0
ENDBLK
  5
E17C
330
E171
100
AcDbEntity
  8
0
370
   100
100
AcDbBlockEnd
  0
BLOCK
  5
E17E
330
E17D
100
AcDbEntity
  8
0
370
   100
100
AcDbBlockBegin
  2
*D7
 70
     1
 10
0.0
 20
0.0
 30
0.0
  3
*D7
  1

  0
LINE
  5
E17F
330
E17D
100
AcDbEntity
  8
InsertDims
 62
     3
370
    -2
100
AcDbLine
 10
226.4317217051794
 20
437.9969051036763
 30
0.0
 11
226.4317217051794
 21
421.1397065982842
 31
0.0
  0
LINE
  5
E180
330
E17D
100
AcDbEntity
  8
InsertDims
 62
     3
370
    -2
100
AcDbLine
 10
229.4317217051793
 20
437.9969051036763
 30
0.0
 11
229.4317217051793
 21
421.1397065982842
 31
0.0
  0
LINE
  5
E181
330
E17D
100
AcDbEntity
  8
InsertDims
 62
     3
370
    -2
100
AcDbLine
 10
221.4317217051794
 20
423.1397065982841
 30
0.0
 11
216.4317217051794
 21
423.1397065982841
 31
0.0
  0
LINE
  5
E182
330
E17D
100
AcDbEntity
  8
InsertDims
 62
     3
370
    -2
100
AcDbLine
 10
234.4317217051794
 20
423.1397065982841
 30
0.0
 11
239.4317217051793
 21
423.1397065982841
 31
0.0
  0
LINE
  5
E183
330
E17D
100
AcDbEntity
  8
InsertDims
 62
     3
370
    -2
100
AcDbLine
 10
226.4317217051794
 20
423.1397065982841
 30
0.0
 11
229.4317217051793
 21
423.1397065982841
 31
0.0
  0
SOLID
  5
E184
330
E17D
100
AcDbEntity
  8
InsertDims
 62
     3
370
   100
100
AcDbTrace
 10
221.4317217051794
 20
423.9730399316175
 30
0.0
 11
221.4317217051794
 21
422.3063732649508
 31
0.0
 12
226.4317217051794
 22
423.1397065982841
 32
0.0
 13
226.4317217051794
 23
423.1397065982841
 33
0.0
  0
SOLID
  5
E185
330
E17D
100
AcDbEntity
  8
InsertDims
 62
     3
370
   100
100
AcDbTrace
 10
234.4317217051794
 20
423.9730399316175
 30
0.0
 11
234.4317217051794
 21
422.3063732649508
 31
0.0
 12
229.4317217051793
 22
423.1397065982841
 32
0.0
 13
229.4317217051793
 23
423.1397065982841
 33
0.0
  0
MTEXT
  5
E186
330
E17D
100
AcDbEntity
  8
InsertDims
 62
     2
370
   100
100
AcDbMText
 10
243.098388371846
 20
423.1397065982841
 30
0.0
 40
5.0
 41
0.0
 46
0.0
 71
     5
 72
     1
  1
\A1;3
 73
     1
 44
1.0
  0
POINT
  5
E187
330
E17D
100
AcDbEntity
  8
DEFPOINTS
 62
     0
370
   100
100
AcDbPoint
 10
226.4317217051794
 20
439.9969051036763
 30
0.0
  0
POINT
  5
E188
330
E17D
100
AcDbEntity
  8
DEFPOINTS
 62
     0
370
   100
100
AcDbPoint
 10
229.4317217051793
 20
439.9969051036763
 30
0.0
  0
POINT
  5
E189
330
E17D
100
AcDbEntity
  8
DEFPOINTS
 62
     0
370
   100
100
AcDbPoint
 10
229.4317217051793
 20
423.1397065982841
 30
0.0
  0
ENDBLK
  5
E18A
330
E17D
100
AcDbEntity
  8
0
370
   100
100
AcDbBlockEnd
  0
BLOCK
  5
E18C
330
E18B
100
AcDbEntity
  8
0
370
   100
100
AcDbBlockBegin
  2
*D8
 70
     1
 10
0.0
 20
0.0
 30
0.0
  3
*D8
  1

  0
LINE
  5
E18D
330
E18B
100
AcDbEntity
  8
InsertDims
 62
     3
370
    -2
100
AcDbLine
 10
388.8960725080633
 20
346.636723727162
 30
0.0
 11
388.8960725080633
 21
332.5109590737193
 31
0.0
  0
LINE
  5
E18E
330
E18B
100
AcDbEntity
  8
InsertDims
 62
     3
370
    -2
100
AcDbLine
 10
392.3960725080633
 20
346.636723727162
 30
0.0
 11
392.3960725080633
 21
332.5109590737193
 31
0.0
  0
LINE
  5
E18F
330
E18B
100
AcDbEntity
  8
InsertDims
 62
     3
370
    -2
100
AcDbLine
 10
383.8960725080633
 20
334.5109590737193
 30
0.0
 11
378.8960725080633
 21
334.5109590737193
 31
0.0
  0
LINE
  5
E190
330
E18B
100
AcDbEntity
  8
InsertDims
 62
     3
370
    -2
100
AcDbLine
 10
397.3960725080633
 20
334.5109590737193
 30
0.0
 11
402.3960725080632
 21
334.5109590737193
 31
0.0
  0
LINE
  5
E191
330
E18B
100
AcDbEntity
  8
InsertDims
 62
     3
370
    -2
100
AcDbLine
 10
388.8960725080633
 20
334.5109590737193
 30
0.0
 11
392.3960725080633
 21
334.5109590737193
 31
0.0
  0
SOLID
  5
E192
330
E18B
100
AcDbEntity
  8
InsertDims
 62
     3
370
   100
100
AcDbTrace
 10
383.8960725080633
 20
335.3442924070526
 30
0.0
 11
383.8960725080633
 21
333.6776257403859
 31
0.0
 12
388.8960725080633
 22
334.5109590737193
 32
0.0
 13
388.8960725080633
 23
334.5109590737193
 33
0.0
  0
SOLID
  5
E193
330
E18B
100
AcDbEntity
  8
InsertDims
 62
     3
370
   100
100
AcDbTrace
 10
397.3960725080633
 20
335.3442924070526
 30
0.0
 11
397.3960725080633
 21
333.6776257403859
 31
0.0
 12
392.3960725080633
 22
334.5109590737193
 32
0.0
 13
392.3960725080633
 23
334.5109590737193
 33
0.0
  0
MTEXT
  5
E194
330
E18B
100
AcDbEntity
  8
InsertDims
 62
     2
370
   100
100
AcDbMText
 10
409.3960725080632
 20
334.5109590737193
 30
0.0
 40
5.0
 41
0.0
 46
0.0
 71
     5
 72
     1
  1
\A1;3.5
 73
     1
 44
1.0
  0
POINT
  5
E195
330
E18B
100
AcDbEntity
  8
DEFPOINTS
 62
     0
370
   100
100
AcDbPoint
 10
388.8960725080633
 20
348.636723727162
 30
0.0
  0
POINT
  5
E196
330
E18B
100
AcDbEntity
  8
DEFPOINTS
 62
     0
370
   100
100
AcDbPoint
 10
392.3960725080633
 20
348.636723727162
 30
0.0
  0
POINT
  5
E197
330
E18B
100
AcDbEntity
  8
DEFPOINTS
 62
     0
370
   100
100
AcDbPoint
 10
392.3960725080633
 20
334.5109590737193
 30
0.0
  0
ENDBLK
  5
E198
330
E18B
100
AcDbEntity
  8
0
370
   100
100
AcDbBlockEnd
  0
BLOCK
  5
E19A
330
E199
100
AcDbEntity
  8
0
370
   100
100
AcDbBlockBegin
  2
*D9
 70
     1
 10
0.0
 20
0.0
 30
0.0
  3
*D9
  1

  0
LINE
  5
E19B
330
E199
100
AcDbEntity
  8
InsertDims
 62
     3
370
    -2
100
AcDbLine
 10
382.8338946815725
 20
357.1367237271619
 30
0.0
 11
382.8338946815725
 21
312.9659729729369
 31
0.0
  0
LINE
  5
E19C
330
E199
100
AcDbEntity
  8
InsertDims
 62
     3
370
    -2
100
AcDbLine
 10
392.3960725080633
 20
357.1367237271619
 30
0.0
 11
392.3960725080633
 21
312.9659729729369
 31
0.0
  0
LINE
  5
E19D
330
E199
100
AcDbEntity
  8
InsertDims
 62
     3
370
    -2
100
AcDbLine
 10
377.8338946815725
 20
314.9659729729369
 30
0.0
 11
372.8338946815725
 21
314.9659729729369
 31
0.0
  0
LINE
  5
E19E
330
E199
100
AcDbEntity
  8
InsertDims
 62
     3
370
    -2
100
AcDbLine
 10
397.3960725080633
 20
314.9659729729369
 30
0.0
 11
402.3960725080632
 21
314.9659729729369
 31
0.0
  0
LINE
  5
E19F
330
E199
100
AcDbEntity
  8
InsertDims
 62
     3
370
    -2
100
AcDbLine
 10
382.8338946815725
 20
314.9659729729369
 30
0.0
 11
392.3960725080633
 21
314.9659729729369
 31
0.0
  0
SOLID
  5
E1A0
330
E199
100
AcDbEntity
  8
InsertDims
 62
     3
370
   100
100
AcDbTrace
 10
377.8338946815725
 20
315.7993063062702
 30
0.0
 11
377.8338946815725
 21
314.1326396396036
 31
0.0
 12
382.8338946815725
 22
314.9659729729369
 32
0.0
 13
382.8338946815725
 23
314.9659729729369
 33
0.0
  0
SOLID
  5
E1A1
330
E199
100
AcDbEntity
  8
InsertDims
 62
     3
370
   100
100
AcDbTrace
 10
397.3960725080633
 20
315.7993063062702
 30
0.0
 11
397.3960725080633
 21
314.1326396396036
 31
0.0
 12
392.3960725080633
 22
314.9659729729369
 32
0.0
 13
392.3960725080633
 23
314.9659729729369
 33
0.0
  0
MTEXT
  5
E1A2
330
E199
100
AcDbEntity
  8
InsertDims
 62
     2
370
   100
100
AcDbMText
 10
409.3960725080632
 20
314.9659729729369
 30
0.0
 40
5.0
 41
0.0
 46
0.0
 71
     5
 72
     1
  1
\A1;9.5
 73
     1
 44
1.0
  0
POINT
  5
E1A3
330
E199
100
AcDbEntity
  8
DEFPOINTS
 62
     0
370
   100
100
AcDbPoint
 10
382.8338946815725
 20
359.1367237271619
 30
0.0
  0
POINT
  5
E1A4
330
E199
100
AcDbEntity
  8
DEFPOINTS
 62
     0
370
   100
100
AcDbPoint
 10
392.3960725080633
 20
359.1367237271619
 30
0.0
  0
POINT
  5
E1A5
330
E199
100
AcDbEntity
  8
DEFPOINTS
 62
     0
370
   100
100
AcDbPoint
 10
392.3960725080633
 20
314.9659729729369
 30
0.0
  0
ENDBLK
  5
E1A6
330
E199
100
AcDbEntity
  8
0
370
   100
100
AcDbBlockEnd
  0
BLOCK
  5
E1A8
330
E1A7
100
AcDbEntity
  8
0
370
   100
100
AcDbBlockBegin
  2
*D10
 70
     1
 10
0.0
 20
0.0
 30
0.0
  3
*D10
  1

  0
LINE
  5
E1A9
330
E1A7
100
AcDbEntity
  8
InsertDims
 62
     3
370
    -2
100
AcDbLine
 10
297.3960725080633
 20
471.174816017951
 30
0.0
 11
297.3960725080633
 21
517.3830321302744
 31
0.0
  0
LINE
  5
E1AA
330
E1A7
100
AcDbEntity
  8
InsertDims
 62
     3
370
    -2
100
AcDbLine
 10
362.3960725080633
 20
461.1836298178514
 30
0.0
 11
362.3960725080633
 21
517.3830321302744
 31
0.0
  0
LINE
  5
E1AB
330
E1A7
100
AcDbEntity
  8
InsertDims
 62
     3
370
    -2
100
AcDbLine
 10
302.3960725080633
 20
515.3830321302743
 30
0.0
 11
323.7294058413966
 21
515.3830321302743
 31
0.0
  0
LINE
  5
E1AC
330
E1A7
100
AcDbEntity
  8
InsertDims
 62
     3
370
    -2
100
AcDbLine
 10
357.3960725080633
 20
515.3830321302743
 30
0.0
 11
336.06273917473
 21
515.3830321302743
 31
0.0
  0
SOLID
  5
E1AD
330
E1A7
100
AcDbEntity
  8
InsertDims
 62
     3
370
   100
100
AcDbTrace
 10
302.3960725080633
 20
516.2163654636077
 30
0.0
 11
302.3960725080633
 21
514.5496987969409
 31
0.0
 12
297.3960725080633
 22
515.3830321302743
 32
0.0
 13
297.3960725080633
 23
515.3830321302743
 33
0.0
  0
SOLID
  5
E1AE
330
E1A7
100
AcDbEntity
  8
InsertDims
 62
     3
370
   100
100
AcDbTrace
 10
357.3960725080633
 20
516.2163654636077
 30
0.0
 11
357.3960725080633
 21
514.5496987969409
 31
0.0
 12
362.3960725080633
 22
515.3830321302743
 32
0.0
 13
362.3960725080633
 23
515.3830321302743
 33
0.0
  0
MTEXT
  5
E1AF
330
E1A7
100
AcDbEntity
  8
InsertDims
 62
     2
370
   100
100
AcDbMText
 10
329.8960725080633
 20
515.3830321302743
 30
0.0
 40
5.0
 41
0.0
 46
0.0
 71
     5
 72
     1
  1
\A1;65
 73
     1
 44
1.0
  0
POINT
  5
E1B0
330
E1A7
100
AcDbEntity
  8
DEFPOINTS
 62
     0
370
   100
100
AcDbPoint
 10
297.3960725080633
 20
469.1748160179511
 30
0.0
  0
POINT
  5
E1B1
330
E1A7
100
AcDbEntity
  8
DEFPOINTS
 62
     0
370
   100
100
AcDbPoint
 10
362.3960725080633
 20
459.1836298178513
 30
0.0
  0
POINT
  5
E1B2
330
E1A7
100
AcDbEntity
  8
DEFPOINTS
 62
     0
370
   100
100
AcDbPoint
 10
362.3960725080633
 20
515.3830321302743
 30
0.0
  0
ENDBLK
  5
E1B3
330
E1A7
100
AcDbEntity
  8
0
370
   100
100
AcDbBlockEnd
  0
BLOCK
  5
E1B5
330
E1B4
100
AcDbEntity
  8
0
370
   100
100
AcDbBlockBegin
  2
*D11
 70
     1
 10
0.0
 20
0.0
 30
0.0
  3
*D11
  1

  0
LINE
  5
E1B6
330
E1B4
100
AcDbEntity
  8
InsertDims
 62
     3
370
    -2
100
AcDbLine
 10
297.3960725080633
 20
471.174816017951
 30
0.0
 11
297.3960725080633
 21
492.3928304856312
 31
0.0
  0
LINE
  5
E1B7
330
E1B4
100
AcDbEntity
  8
InsertDims
 62
     3
370
    -2
100
AcDbLine
 10
345.3960725078784
 20
471.1687256652691
 30
0.0
 11
345.3960725078784
 21
492.3928304856312
 31
0.0
  0
LINE
  5
E1B8
330
E1B4
100
AcDbEntity
  8
InsertDims
 62
     3
370
    -2
100
AcDbLine
 10
302.3960725080633
 20
490.3928304856313
 30
0.0
 11
315.2294058413042
 21
490.3928304856313
 31
0.0
  0
LINE
  5
E1B9
330
E1B4
100
AcDbEntity
  8
InsertDims
 62
     3
370
    -2
100
AcDbLine
 10
340.3960725078784
 20
490.3928304856313
 30
0.0
 11
327.5627391746376
 21
490.3928304856313
 31
0.0
  0
SOLID
  5
E1BA
330
E1B4
100
AcDbEntity
  8
InsertDims
 62
     3
370
   100
100
AcDbTrace
 10
302.3960725080633
 20
491.2261638189646
 30
0.0
 11
302.3960725080633
 21
489.559497152298
 31
0.0
 12
297.3960725080633
 22
490.3928304856313
 32
0.0
 13
297.3960725080633
 23
490.3928304856313
 33
0.0
  0
SOLID
  5
E1BB
330
E1B4
100
AcDbEntity
  8
InsertDims
 62
     3
370
   100
100
AcDbTrace
 10
340.3960725078784
 20
491.2261638189646
 30
0.0
 11
340.3960725078784
 21
489.559497152298
 31
0.0
 12
345.3960725078784
 22
490.3928304856313
 32
0.0
 13
345.3960725078784
 23
490.3928304856313
 33
0.0
  0
MTEXT
  5
E1BC
330
E1B4
100
AcDbEntity
  8
InsertDims
 62
     2
370
   100
100
AcDbMText
 10
321.3960725079709
 20
490.3928304856313
 30
0.0
 40
5.0
 41
0.0
 46
0.0
 71
     5
 72
     1
  1
\A1;48
 73
     1
 44
1.0
  0
POINT
  5
E1BD
330
E1B4
100
AcDbEntity
  8
DEFPOINTS
 62
     0
370
   100
100
AcDbPoint
 10
297.3960725080633
 20
469.1748160179511
 30
0.0
  0
POINT
  5
E1BE
330
E1B4
100
AcDbEntity
  8
DEFPOINTS
 62
     0
370
   100
100
AcDbPoint
 10
345.3960725078784
 20
469.1687256652691
 30
0.0
  0
POINT
  5
E1BF
330
E1B4
100
AcDbEntity
  8
DEFPOINTS
 62
     0
370
   100
100
AcDbPoint
 10
345.3960725078784
 20
490.3928304856313
 30
0.0
  0
ENDBLK
  5
E1C0
330
E1B4
100
AcDbEntity
  8
0
370
   100
100
AcDbBlockEnd
  0
BLOCK
  5
E1C2
330
E1C1
100
AcDbEntity
  8
0
370
   100
100
AcDbBlockBegin
  2
*D12
 70
     1
 10
0.0
 20
0.0
 30
0.0
  3
*D12
  1

  0
LINE
  5
E1C3
330
E1C1
100
AcDbEntity
  8
InsertDims
 62
     3
370
    -2
100
AcDbLine
 10
297.3960725080633
 20
461.1836298178514
 30
0.0
 11
297.3960725080633
 21
539.1643860931594
 31
0.0
  0
LINE
  5
E1C4
330
E1C1
100
AcDbEntity
  8
InsertDims
 62
     3
370
    -2
100
AcDbLine
 10
392.3960725080633
 20
461.1836298178514
 30
0.0
 11
392.3960725080633
 21
539.1643860931594
 31
0.0
  0
LINE
  5
E1C5
330
E1C1
100
AcDbEntity
  8
InsertDims
 62
     3
370
    -2
100
AcDbLine
 10
302.3960725080633
 20
537.1643860931595
 30
0.0
 11
338.7294058413966
 21
537.1643860931595
 31
0.0
  0
LINE
  5
E1C6
330
E1C1
100
AcDbEntity
  8
InsertDims
 62
     3
370
    -2
100
AcDbLine
 10
387.3960725080633
 20
537.1643860931595
 30
0.0
 11
351.06273917473
 21
537.1643860931595
 31
0.0
  0
SOLID
  5
E1C7
330
E1C1
100
AcDbEntity
  8
InsertDims
 62
     3
370
   100
100
AcDbTrace
 10
302.3960725080633
 20
537.9977194264928
 30
0.0
 11
302.3960725080633
 21
536.3310527598261
 31
0.0
 12
297.3960725080633
 22
537.1643860931595
 32
0.0
 13
297.3960725080633
 23
537.1643860931595
 33
0.0
  0
SOLID
  5
E1C8
330
E1C1
100
AcDbEntity
  8
InsertDims
 62
     3
370
   100
100
AcDbTrace
 10
387.3960725080633
 20
537.9977194264928
 30
0.0
 11
387.3960725080633
 21
536.3310527598261
 31
0.0
 12
392.3960725080633
 22
537.1643860931595
 32
0.0
 13
392.3960725080633
 23
537.1643860931595
 33
0.0
  0
MTEXT
  5
E1C9
330
E1C1
100
AcDbEntity
  8
InsertDims
 62
     2
370
   100
100
AcDbMText
 10
344.8960725080633
 20
537.1643860931595
 30
0.0
 40
5.0
 41
0.0
 46
0.0
 71
     5
 72
     1
  1
\A1;95
 73
     1
 44
1.0
  0
POINT
  5
E1CA
330
E1C1
100
AcDbEntity
  8
DEFPOINTS
 62
     0
370
   100
100
AcDbPoint
 10
297.3960725080633
 20
459.1836298178513
 30
0.0
  0
POINT
  5
E1CB
330
E1C1
100
AcDbEntity
  8
DEFPOINTS
 62
     0
370
   100
100
AcDbPoint
 10
392.3960725080633
 20
459.1836298178513
 30
0.0
  0
POINT
  5
E1CC
330
E1C1
100
AcDbEntity
  8
DEFPOINTS
 62
     0
370
   100
100
AcDbPoint
 10
392.3960725080633
 20
537.1643860931595
 30
0.0
  0
ENDBLK
  5
E1CD
330
E1C1
100
AcDbEntity
  8
0
370
   100
100
AcDbBlockEnd
  0
BLOCK
  5
E1CF
330
E1CE
100
AcDbEntity
  8
0
370
   100
100
AcDbBlockBegin
  2
*D13
 70
     1
 10
0.0
 20
0.0
 30
0.0
  3
*D13
  1

  0
LINE
  5
E1D0
330
E1CE
100
AcDbEntity
  8
InsertDims
 62
     3
370
    -2
100
AcDbLine
 10
372.8960725080633
 20
375.136723727162
 30
0.0
 11
372.8960725080633
 21
421.8398583407047
 31
0.0
  0
LINE
  5
E1D1
330
E1CE
100
AcDbEntity
  8
InsertDims
 62
     3
370
    -2
100
AcDbLine
 10
392.3960725080633
 20
375.136723727162
 30
0.0
 11
392.3960725080633
 21
421.8398583407047
 31
0.0
  0
LINE
  5
E1D2
330
E1CE
100
AcDbEntity
  8
InsertDims
 62
     3
370
    -2
100
AcDbLine
 10
367.8960725080633
 20
419.8398583407047
 30
0.0
 11
362.8960725080633
 21
419.8398583407047
 31
0.0
  0
LINE
  5
E1D3
330
E1CE
100
AcDbEntity
  8
InsertDims
 62
     3
370
    -2
100
AcDbLine
 10
397.3960725080633
 20
419.8398583407047
 30
0.0
 11
402.3960725080632
 21
419.8398583407047
 31
0.0
  0
LINE
  5
E1D4
330
E1CE
100
AcDbEntity
  8
InsertDims
 62
     3
370
    -2
100
AcDbLine
 10
372.8960725080633
 20
419.8398583407047
 30
0.0
 11
373.9794058413966
 21
419.8398583407047
 31
0.0
  0
LINE
  5
E1D5
330
E1CE
100
AcDbEntity
  8
InsertDims
 62
     3
370
    -2
100
AcDbLine
 10
392.3960725080633
 20
419.8398583407047
 30
0.0
 11
391.31273917473
 21
419.8398583407047
 31
0.0
  0
SOLID
  5
E1D6
330
E1CE
100
AcDbEntity
  8
InsertDims
 62
     3
370
   100
100
AcDbTrace
 10
367.8960725080633
 20
420.673191674038
 30
0.0
 11
367.8960725080633
 21
419.0065250073714
 31
0.0
 12
372.8960725080633
 22
419.8398583407047
 32
0.0
 13
372.8960725080633
 23
419.8398583407047
 33
0.0
  0
SOLID
  5
E1D7
330
E1CE
100
AcDbEntity
  8
InsertDims
 62
     3
370
   100
100
AcDbTrace
 10
397.3960725080633
 20
420.673191674038
 30
0.0
 11
397.3960725080633
 21
419.0065250073714
 31
0.0
 12
392.3960725080633
 22
419.8398583407047
 32
0.0
 13
392.3960725080633
 23
419.8398583407047
 33
0.0
  0
MTEXT
  5
E1D8
330
E1CE
100
AcDbEntity
  8
InsertDims
 62
     2
370
   100
100
AcDbMText
 10
382.6460725080633
 20
419.8398583407047
 30
0.0
 40
5.0
 41
0.0
 46
0.0
 71
     5
 72
     1
  1
\A1;19.5
 73
     1
 44
1.0
  0
POINT
  5
E1D9
330
E1CE
100
AcDbEntity
  8
DEFPOINTS
 62
     0
370
   100
100
AcDbPoint
 10
372.8960725080633
 20
373.136723727162
 30
0.0
  0
POINT
  5
E1DA
330
E1CE
100
AcDbEntity
  8
DEFPOINTS
 62
     0
370
   100
100
AcDbPoint
 10
392.3960725080633
 20
373.136723727162
 30
0.0
  0
POINT
  5
E1DB
330
E1CE
100
AcDbEntity
  8
DEFPOINTS
 62
     0
370
   100
100
AcDbPoint
 10
392.3960725080633
 20
419.8398583407047
 30
0.0
  0
ENDBLK
  5
E1DC
330
E1CE
100
AcDbEntity
  8
0
370
   100
100
AcDbBlockEnd
  0
BLOCK
  5
E1DE
330
E1DD
100
AcDbEntity
  8
0
370
   100
100
AcDbBlockBegin
  2
*D14
 70
     1
 10
0.0
 20
0.0
 30
0.0
  3
*D14
  1

  0
ARC
  5
E1DF
330
E1DD
100
AcDbEntity
  8
InsertDims
 62
     3
370
    -2
100
AcDbCircle
 10
388.8960725080633
 20
348.636723727162
 30
0.0
 40
10.50368208794328
100
AcDbArc
 50
33.14797202853754
 51
90.0
  0
LINE
  5
E1E0
330
E1DD
100
AcDbEntity
  8
InsertDims
 62
     3
370
    -2
100
AcDbLine
 10
397.690397854955
 20
354.3801703489736
 30
0.0
 11
402.6903978549549
 21
354.3801703489736
 31
0.0
  0
ARC
  5
E1E1
330
E1DD
100
AcDbEntity
  8
InsertDims
 62
     3
370
    -2
100
AcDbCircle
 10
388.8960725080633
 20
348.636723727162
 30
0.0
 40
10.50368208794328
100
AcDbArc
 50
34.92310691683273
 51
62.46155345841637
  0
ARC
  5
E1E2
330
E1DD
100
AcDbEntity
  8
InsertDims
 62
     3
370
    -2
100
AcDbCircle
 10
388.8960725080633
 20
348.636723727162
 30
0.0
 40
10.50368208794328
100
AcDbArc
 50
147.5384465415828
 51
175.0768930831664
  0
ARC
  5
E1E3
330
E1DD
100
AcDbEntity
  8
InsertDims
 62
     3
370
    -2
100
AcDbCircle
 10
388.8960725080633
 20
348.636723727162
 30
0.0
 40
10.50368208794328
100
AcDbArc
 50
90.0
 51
119.9999999999991
  0
SOLID
  5
E1E4
330
E1DD
100
AcDbEntity
  8
InsertDims
 62
     3
370
   100
100
AcDbTrace
 10
393.5540407101454
 20
357.140961724155
 30
0.0
 11
393.9507269989897
 21
358.7597321729897
 31
0.0
 12
388.8960725080632
 22
359.1404058151053
 32
0.0
 13
388.8960725080632
 23
359.1404058151053
 33
0.0
  0
SOLID
  5
E1E5
330
E1DD
100
AcDbEntity
  8
InsertDims
 62
     3
370
   100
100
AcDbTrace
 10
379.4571090886542
 20
354.8761789585102
 30
0.0
 11
380.6100347165436
 21
353.6726257713459
 31
0.0
 12
383.6442314640919
 22
357.7331792485966
 32
0.0
 13
383.6442314640919
 23
357.7331792485966
 33
0.0
  0
MTEXT
  5
E1E6
330
E1DD
100
AcDbEntity
  8
InsertDims
 62
     2
370
   100
100
AcDbMText
 10
410.1070645216216
 20
354.3801703489736
 30
0.0
 40
5.0
 41
0.0
 46
0.0
 71
     5
 72
     1
  1
\A1;30°
 73
     1
 44
1.0
  0
POINT
  5
E1E7
330
E1DD
100
AcDbEntity
  8
DEFPOINTS
 62
     0
370
   100
100
AcDbPoint
 10
385.3036016548978
 20
358.5069562762835
 30
0.0
  0
POINT
  5
E1E8
330
E1DD
100
AcDbEntity
  8
DEFPOINTS
 62
     0
370
   100
100
AcDbPoint
 10
388.8960725080633
 20
348.636723727162
 30
0.0
  0
POINT
  5
E1E9
330
E1DD
100
AcDbEntity
  8
DEFPOINTS
 62
     0
370
   100
100
AcDbPoint
 10
388.8960725080633
 20
348.636723727162
 30
0.0
  0
POINT
  5
E1EA
330
E1DD
100
AcDbEntity
  8
DEFPOINTS
 62
     0
370
   100
100
AcDbPoint
 10
388.8960725080633
 20
397.636723727162
 30
0.0
  0
POINT
  5
E1EB
330
E1DD
100
AcDbEntity
  8
DEFPOINTS
 62
     0
370
   100
100
AcDbPoint
 10
382.8338946815724
 20
359.136723727162
 30
0.0
  0
ENDBLK
  5
E1EC
330
E1DD
100
AcDbEntity
  8
0
370
   100
100
AcDbBlockEnd
  0
BLOCK
  5
E1EE
330
E1ED
100
AcDbEntity
  8
0
370
   100
100
AcDbBlockBegin
  2
*D15
 70
     1
 10
0.0
 20
0.0
 30
0.0
  3
*D15
  1

  0
LINE
  5
E1EF
330
E1ED
100
AcDbEntity
  8
InsertDims
 62
     3
370
    -2
100
AcDbLine
 10
340.5196462365708
 20
341.8011905406361
 30
0.0
 11
345.5196462365708
 21
341.8011905406361
 31
0.0
  0
LINE
  5
E1F0
330
E1ED
100
AcDbEntity
  8
InsertDims
 62
     3
370
    -2
100
AcDbLine
 10
345.5196462365708
 20
341.8011905406361
 30
0.0
 11
366.3469069208168
 21
364.0174163103767
 31
0.0
  0
LINE
  5
E1F1
330
E1ED
100
AcDbEntity
  8
InsertDims
 62
     3
370
    -2
100
AcDbLine
 10
383.4452380953101
 20
382.2560311439476
 30
0.0
 11
386.8649043302087
 21
385.9037541106618
 31
0.0
  0
MTEXT
  5
E1F2
330
E1ED
100
AcDbEntity
  8
InsertDims
 62
     2
370
   100
100
AcDbMText
 10
332.6863129032374
 20
341.8011905406361
 30
0.0
 40
5.0
 41
0.0
 46
0.0
 71
     5
 72
     1
  1
\A1;∅15
 73
     1
 44
1.0
  0
LINE
  5
E1F3
330
E1ED
100
AcDbEntity
  8
InsertDims
 62
     3
370
    -2
100
AcDbLine
 10
380.0255718604114
 20
378.6083081772334
 30
0.0
 11
369.7665731557155
 21
367.6651392770909
 31
0.0
  0
SOLID
  5
E1F4
330
E1ED
100
AcDbEntity
  8
InsertDims
 62
     3
370
   100
100
AcDbTrace
 10
382.8372842675244
 20
382.8259755164307
 30
0.0
 11
384.0531919230958
 21
381.6860867714645
 31
0.0
 12
380.0255718604114
 22
378.6083081772334
 32
0.0
 13
380.0255718604114
 23
378.6083081772334
 33
0.0
  0
SOLID
  5
E1F5
330
E1ED
100
AcDbEntity
  8
InsertDims
 62
     3
370
   100
100
AcDbTrace
 10
365.7389530930311
 20
364.5873606828598
 30
0.0
 11
366.9548607486025
 21
363.4474719378936
 31
0.0
 12
369.7665731557155
 22
367.6651392770909
 32
0.0
 13
369.7665731557155
 23
367.6651392770909
 33
0.0
  0
POINT
  5
E1F6
330
E1ED
100
AcDbEntity
  8
DEFPOINTS
 62
     0
370
   100
100
AcDbPoint
 10
369.7665731557155
 20
367.6651392770909
 30
0.0
  0
POINT
  5
E1F7
330
E1ED
100
AcDbEntity
  8
DEFPOINTS
 62
     0
370
   100
100
AcDbPoint
 10
380.0255718604114
 20
378.6083081772334
 30
0.0
  0
ENDBLK
  5
E1F8
330
E1ED
100
AcDbEntity
  8
0
370
   100
100
AcDbBlockEnd
  0
BLOCK
  5
E1FA
330
E1F9
100
AcDbEntity
  8
0
370
   100
100
AcDbBlockBegin
  2
*D16
 70
     1
 10
0.0
 20
0.0
 30
0.0
  3
*D16
  1

  0
LINE
  5
E1FB
330
E1F9
100
AcDbEntity
  8
InsertDims
 62
     3
370
    -2
100
AcDbLine
 10
382.833894681573
 20
139.6215739971689
 30
0.0
 11
382.833894681573
 21
95.45082324294396
 31
0.0
  0
LINE
  5
E1FC
330
E1F9
100
AcDbEntity
  8
InsertDims
 62
     3
370
    -2
100
AcDbLine
 10
392.3960725080639
 20
139.6215739971689
 30
0.0
 11
392.3960725080639
 21
95.45082324294396
 31
0.0
  0
LINE
  5
E1FD
330
E1F9
100
AcDbEntity
  8
InsertDims
 62
     3
370
    -2
100
AcDbLine
 10
377.833894681573
 20
97.45082324294395
 30
0.0
 11
372.8338946815731
 21
97.45082324294395
 31
0.0
  0
LINE
  5
E1FE
330
E1F9
100
AcDbEntity
  8
InsertDims
 62
     3
370
    -2
100
AcDbLine
 10
397.3960725080639
 20
97.45082324294395
 30
0.0
 11
402.3960725080638
 21
97.45082324294395
 31
0.0
  0
LINE
  5
E1FF
330
E1F9
100
AcDbEntity
  8
InsertDims
 62
     3
370
    -2
100
AcDbLine
 10
382.833894681573
 20
97.45082324294395
 30
0.0
 11
392.3960725080639
 21
97.45082324294395
 31
0.0
  0
SOLID
  5
E200
330
E1F9
100
AcDbEntity
  8
InsertDims
 62
     3
370
   100
100
AcDbTrace
 10
377.833894681573
 20
98.28415657627729
 30
0.0
 11
377.833894681573
 21
96.61748990961063
 31
0.0
 12
382.833894681573
 22
97.45082324294395
 32
0.0
 13
382.833894681573
 23
97.45082324294395
 33
0.0
  0
SOLID
  5
E201
330
E1F9
100
AcDbEntity
  8
InsertDims
 62
     3
370
   100
100
AcDbTrace
 10
397.3960725080639
 20
98.28415657627729
 30
0.0
 11
397.3960725080639
 21
96.61748990961063
 31
0.0
 12
392.3960725080639
 22
97.45082324294395
 32
0.0
 13
392.3960725080639
 23
97.45082324294395
 33
0.0
  0
MTEXT
  5
E202
330
E1F9
100
AcDbEntity
  8
InsertDims
 62
     2
370
   100
100
AcDbMText
 10
409.3960725080639
 20
97.45082324294395
 30
0.0
 40
5.0
 41
0.0
 46
0.0
 71
     5
 72
     1
  1
\A1;9.5
 73
     1
 44
1.0
  0
POINT
  5
E203
330
E1F9
100
AcDbEntity
  8
DEFPOINTS
 62
     0
370
   100
100
AcDbPoint
 10
382.833894681573
 20
141.6215739971689
 30
0.0
  0
POINT
  5
E204
330
E1F9
100
AcDbEntity
  8
DEFPOINTS
 62
     0
370
   100
100
AcDbPoint
 10
392.3960725080639
 20
141.6215739971689
 30
0.0
  0
POINT
  5
E205
330
E1F9
100
AcDbEntity
  8
DEFPOINTS
 62
     0
370
   100
100
AcDbPoint
 10
392.3960725080639
 20
97.45082324294395
 30
0.0
  0
ENDBLK
  5
E206
330
E1F9
100
AcDbEntity
  8
0
370
   100
100
AcDbBlockEnd
  0
BLOCK
  5
E208
330
E207
100
AcDbEntity
  8
0
370
   100
100
AcDbBlockBegin
  2
*D17
 70
     1
 10
0.0
 20
0.0
 30
0.0
  3
*D17
  1

  0
ARC
  5
E209
330
E207
100
AcDbEntity
  8
InsertDims
 62
     3
370
    -2
100
AcDbCircle
 10
388.8960725080639
 20
131.121573997169
 30
0.0
 40
10.50368208794329
100
AcDbArc
 50
33.14797202853763
 51
90.0
  0
LINE
  5
E20A
330
E207
100
AcDbEntity
  8
InsertDims
 62
     3
370
    -2
100
AcDbLine
 10
397.6903978549555
 20
136.8650206189806
 30
0.0
 11
402.6903978549555
 21
136.8650206189806
 31
0.0
  0
ARC
  5
E20B
330
E207
100
AcDbEntity
  8
InsertDims
 62
     3
370
    -2
100
AcDbCircle
 10
388.8960725080639
 20
131.121573997169
 30
0.0
 40
10.50368208794329
100
AcDbArc
 50
34.92310691683282
 51
62.4615534584164
  0
ARC
  5
E20C
330
E207
100
AcDbEntity
  8
InsertDims
 62
     3
370
    -2
100
AcDbCircle
 10
388.8960725080639
 20
131.121573997169
 30
0.0
 40
10.50368208794329
100
AcDbArc
 50
147.5384465415825
 51
175.0768930831661
  0
ARC
  5
E20D
330
E207
100
AcDbEntity
  8
InsertDims
 62
     3
370
    -2
100
AcDbCircle
 10
388.8960725080639
 20
131.121573997169
 30
0.0
 40
10.50368208794329
100
AcDbArc
 50
90.0
 51
119.9999999999989
  0
SOLID
  5
E20E
330
E207
100
AcDbEntity
  8
InsertDims
 62
     3
370
   100
100
AcDbTrace
 10
393.554040710146
 20
139.625811994162
 30
0.0
 11
393.9507269989902
 21
141.2445824429968
 31
0.0
 12
388.8960725080638
 22
141.6252560851123
 32
0.0
 13
388.8960725080638
 23
141.6252560851123
 33
0.0
  0
SOLID
  5
E20F
330
E207
100
AcDbEntity
  8
InsertDims
 62
     3
370
   100
100
AcDbTrace
 10
379.4571090886547
 20
137.3610292285172
 30
0.0
 11
380.6100347165441
 21
136.1574760413529
 31
0.0
 12
383.6442314640923
 22
140.2180295186036
 32
0.0
 13
383.6442314640923
 23
140.2180295186036
 33
0.0
  0
MTEXT
  5
E210
330
E207
100
AcDbEntity
  8
InsertDims
 62
     2
370
   100
100
AcDbMText
 10
410.1070645216223
 20
136.8650206189807
 30
0.0
 40
5.0
 41
0.0
 46
0.0
 71
     5
 72
     1
  1
\A1;30°
 73
     1
 44
1.0
  0
POINT
  5
E211
330
E207
100
AcDbEntity
  8
DEFPOINTS
 62
     0
370
   100
100
AcDbPoint
 10
385.3036016548983
 20
140.9918065462905
 30
0.0
  0
POINT
  5
E212
330
E207
100
AcDbEntity
  8
DEFPOINTS
 62
     0
370
   100
100
AcDbPoint
 10
388.8960725080639
 20
131.121573997169
 30
0.0
  0
POINT
  5
E213
330
E207
100
AcDbEntity
  8
DEFPOINTS
 62
     0
370
   100
100
AcDbPoint
 10
388.8960725080639
 20
131.121573997169
 30
0.0
  0
POINT
  5
E214
330
E207
100
AcDbEntity
  8
DEFPOINTS
 62
     0
370
   100
100
AcDbPoint
 10
388.8960725080639
 20
180.121573997169
 30
0.0
  0
POINT
  5
E215
330
E207
100
AcDbEntity
  8
DEFPOINTS
 62
     0
370
   100
100
AcDbPoint
 10
382.833894681573
 20
141.621573997169
 30
0.0
  0
ENDBLK
  5
E216
330
E207
100
AcDbEntity
  8
0
370
   100
100
AcDbBlockEnd
  0
BLOCK
  5
E218
330
E217
100
AcDbEntity
  8
0
370
   100
100
AcDbBlockBegin
  2
*D18
 70
     1
 10
0.0
 20
0.0
 30
0.0
  3
*D18
  1

  0
LINE
  5
E219
330
E217
100
AcDbEntity
  8
InsertDims
 62
     3
370
    -2
100
AcDbLine
 10
388.8960725080639
 20
129.121573997169
 30
0.0
 11
388.8960725080639
 21
114.9958093437263
 31
0.0
  0
LINE
  5
E21A
330
E217
100
AcDbEntity
  8
InsertDims
 62
     3
370
    -2
100
AcDbLine
 10
392.3960725080639
 20
129.121573997169
 30
0.0
 11
392.3960725080639
 21
114.9958093437263
 31
0.0
  0
LINE
  5
E21B
330
E217
100
AcDbEntity
  8
InsertDims
 62
     3
370
    -2
100
AcDbLine
 10
383.8960725080639
 20
116.9958093437263
 30
0.0
 11
378.8960725080638
 21
116.9958093437263
 31
0.0
  0
LINE
  5
E21C
330
E217
100
AcDbEntity
  8
InsertDims
 62
     3
370
    -2
100
AcDbLine
 10
397.3960725080639
 20
116.9958093437263
 30
0.0
 11
402.3960725080638
 21
116.9958093437263
 31
0.0
  0
LINE
  5
E21D
330
E217
100
AcDbEntity
  8
InsertDims
 62
     3
370
    -2
100
AcDbLine
 10
388.8960725080639
 20
116.9958093437263
 30
0.0
 11
392.3960725080639
 21
116.9958093437263
 31
0.0
  0
SOLID
  5
E21E
330
E217
100
AcDbEntity
  8
InsertDims
 62
     3
370
   100
100
AcDbTrace
 10
383.8960725080639
 20
117.8291426770596
 30
0.0
 11
383.8960725080639
 21
116.162476010393
 31
0.0
 12
388.8960725080639
 22
116.9958093437263
 32
0.0
 13
388.8960725080639
 23
116.9958093437263
 33
0.0
  0
SOLID
  5
E21F
330
E217
100
AcDbEntity
  8
InsertDims
 62
     3
370
   100
100
AcDbTrace
 10
397.3960725080639
 20
117.8291426770596
 30
0.0
 11
397.3960725080639
 21
116.162476010393
 31
0.0
 12
392.3960725080639
 22
116.9958093437263
 32
0.0
 13
392.3960725080639
 23
116.9958093437263
 33
0.0
  0
MTEXT
  5
E220
330
E217
100
AcDbEntity
  8
InsertDims
 62
     2
370
   100
100
AcDbMText
 10
409.3960725080639
 20
116.9958093437263
 30
0.0
 40
5.0
 41
0.0
 46
0.0
 71
     5
 72
     1
  1
\A1;3.5
 73
     1
 44
1.0
  0
POINT
  5
E221
330
E217
100
AcDbEntity
  8
DEFPOINTS
 62
     0
370
   100
100
AcDbPoint
 10
388.8960725080639
 20
131.121573997169
 30
0.0
  0
POINT
  5
E222
330
E217
100
AcDbEntity
  8
DEFPOINTS
 62
     0
370
   100
100
AcDbPoint
 10
392.3960725080639
 20
131.121573997169
 30
0.0
  0
POINT
  5
E223
330
E217
100
AcDbEntity
  8
DEFPOINTS
 62
     0
370
   100
100
AcDbPoint
 10
392.3960725080639
 20
116.9958093437263
 30
0.0
  0
ENDBLK
  5
E224
330
E217
100
AcDbEntity
  8
0
370
   100
100
AcDbBlockEnd
  0
BLOCK
  5
E226
330
E225
100
AcDbEntity
  8
0
370
   100
100
AcDbBlockBegin
  2
*D19
 70
     1
 10
0.0
 20
0.0
 30
0.0
  3
*D19
  1

  0
LINE
  5
E227
330
E225
100
AcDbEntity
  8
InsertDims
 62
     3
370
    -2
100
AcDbLine
 10
374.8960725080639
 20
157.621573997169
 30
0.0
 11
374.8960725080639
 21
206.0784529729545
 31
0.0
  0
LINE
  5
E228
330
E225
100
AcDbEntity
  8
InsertDims
 62
     3
370
    -2
100
AcDbLine
 10
392.3960725080639
 20
157.621573997169
 30
0.0
 11
392.3960725080639
 21
206.0784529729545
 31
0.0
  0
LINE
  5
E229
330
E225
100
AcDbEntity
  8
InsertDims
 62
     3
370
    -2
100
AcDbLine
 10
369.8960725080639
 20
204.0784529729545
 30
0.0
 11
364.8960725080639
 21
204.0784529729545
 31
0.0
  0
LINE
  5
E22A
330
E225
100
AcDbEntity
  8
InsertDims
 62
     3
370
    -2
100
AcDbLine
 10
397.3960725080639
 20
204.0784529729545
 30
0.0
 11
402.3960725080638
 21
204.0784529729545
 31
0.0
  0
LINE
  5
E22B
330
E225
100
AcDbEntity
  8
InsertDims
 62
     3
370
    -2
100
AcDbLine
 10
374.8960725080639
 20
204.0784529729545
 30
0.0
 11
374.9794058413972
 21
204.0784529729545
 31
0.0
  0
LINE
  5
E22C
330
E225
100
AcDbEntity
  8
InsertDims
 62
     3
370
    -2
100
AcDbLine
 10
392.3960725080639
 20
204.0784529729545
 30
0.0
 11
392.3127391747306
 21
204.0784529729545
 31
0.0
  0
SOLID
  5
E22D
330
E225
100
AcDbEntity
  8
InsertDims
 62
     3
370
   100
100
AcDbTrace
 10
369.8960725080639
 20
204.9117863062878
 30
0.0
 11
369.8960725080639
 21
203.2451196396212
 31
0.0
 12
374.8960725080639
 22
204.0784529729545
 32
0.0
 13
374.8960725080639
 23
204.0784529729545
 33
0.0
  0
SOLID
  5
E22E
330
E225
100
AcDbEntity
  8
InsertDims
 62
     3
370
   100
100
AcDbTrace
 10
397.3960725080639
 20
204.9117863062878
 30
0.0
 11
397.3960725080639
 21
203.2451196396212
 31
0.0
 12
392.3960725080639
 22
204.0784529729545
 32
0.0
 13
392.3960725080639
 23
204.0784529729545
 33
0.0
  0
MTEXT
  5
E22F
330
E225
100
AcDbEntity
  8
InsertDims
 62
     2
370
   100
100
AcDbMText
 10
383.6460725080639
 20
204.0784529729545
 30
0.0
 40
5.0
 41
0.0
 46
0.0
 71
     5
 72
     1
  1
\A1;17.5
 73
     1
 44
1.0
  0
POINT
  5
E230
330
E225
100
AcDbEntity
  8
DEFPOINTS
 62
     0
370
   100
100
AcDbPoint
 10
374.8960725080639
 20
155.621573997169
 30
0.0
  0
POINT
  5
E231
330
E225
100
AcDbEntity
  8
DEFPOINTS
 62
     0
370
   100
100
AcDbPoint
 10
392.3960725080639
 20
155.621573997169
 30
0.0
  0
POINT
  5
E232
330
E225
100
AcDbEntity
  8
DEFPOINTS
 62
     0
370
   100
100
AcDbPoint
 10
392.3960725080639
 20
204.0784529729545
 30
0.0
  0
ENDBLK
  5
E233
330
E225
100
AcDbEntity
  8
0
370
   100
100
AcDbBlockEnd
  0
BLOCK
  5
E235
330
E234
100
AcDbEntity
  8
0
370
   100
100
AcDbBlockBegin
  2
*D20
 70
     1
 10
0.0
 20
0.0
 30
0.0
  3
*D20
  1

  0
LINE
  5
E236
330
E234
100
AcDbEntity
  8
InsertDims
 62
     3
370
    -2
100
AcDbLine
 10
343.06303871232
 20
123.8208544447353
 30
0.0
 11
348.0630387123201
 21
123.8208544447353
 31
0.0
  0
LINE
  5
E237
330
E234
100
AcDbEntity
  8
InsertDims
 62
     3
370
    -2
100
AcDbLine
 10
348.0630387123201
 20
123.8208544447353
 30
0.0
 11
368.1247541966981
 21
147.5966597716983
 31
0.0
  0
LINE
  5
E238
330
E234
100
AcDbEntity
  8
InsertDims
 62
     3
370
    -2
100
AcDbLine
 10
381.6673908194296
 20
163.6464882226397
 30
0.0
 11
384.8918281105562
 21
167.4678759490544
 31
0.0
  0
MTEXT
  5
E239
330
E234
100
AcDbEntity
  8
InsertDims
 62
     2
370
   100
100
AcDbMText
 10
336.06303871232
 20
123.8208544447353
 30
0.0
 40
5.0
 41
0.0
 46
0.0
 71
     5
 72
     1
  1
\A1;∅11
 73
     1
 44
1.0
  0
LINE
  5
E23A
330
E234
100
AcDbEntity
  8
InsertDims
 62
     3
370
    -2
100
AcDbLine
 10
378.4429535283031
 20
159.8251004962251
 30
0.0
 11
371.3491914878247
 21
151.4180474981129
 31
0.0
  0
SOLID
  5
E23B
330
E234
100
AcDbEntity
  8
InsertDims
 62
     3
370
   100
100
AcDbTrace
 10
381.0304928650272
 20
164.1838944378275
 30
0.0
 11
382.304288773832
 21
163.109082007452
 31
0.0
 12
378.4429535283031
 22
159.8251004962251
 32
0.0
 13
378.4429535283031
 23
159.8251004962251
 33
0.0
  0
SOLID
  5
E23C
330
E234
100
AcDbEntity
  8
InsertDims
 62
     3
370
   100
100
AcDbTrace
 10
367.4878562422956
 20
148.134065986886
 30
0.0
 11
368.7616521511005
 21
147.0592535565105
 31
0.0
 12
371.3491914878247
 22
151.4180474981129
 32
0.0
 13
371.3491914878247
 23
151.4180474981129
 33
0.0
  0
POINT
  5
E23D
330
E234
100
AcDbEntity
  8
DEFPOINTS
 62
     0
370
   100
100
AcDbPoint
 10
371.3491914878247
 20
151.4180474981129
 30
0.0
  0
POINT
  5
E23E
330
E234
100
AcDbEntity
  8
DEFPOINTS
 62
     0
370
   100
100
AcDbPoint
 10
378.4429535283031
 20
159.8251004962251
 30
0.0
  0
ENDBLK
  5
E23F
330
E234
100
AcDbEntity
  8
0
370
   100
100
AcDbBlockEnd
  0
BLOCK
  5
E241
330
E240
100
AcDbEntity
  8
0
370
   100
100
AcDbBlockBegin
  2
*D21
 70
     1
 10
0.0
 20
0.0
 30
0.0
  3
*D21
  1

  0
LINE
  5
E242
330
E240
100
AcDbEntity
  8
InsertDims
 62
     3
370
    -2
100
AcDbLine
 10
380.3922250120988
 20
157.4158857564015
 30
0.0
 11
380.3922250120988
 21
186.6206468565311
 31
0.0
  0
LINE
  5
E243
330
E240
100
AcDbEntity
  8
InsertDims
 62
     3
370
    -2
100
AcDbLine
 10
392.3960725080639
 20
157.4158857564015
 30
0.0
 11
392.3960725080639
 21
186.6206468565311
 31
0.0
  0
LINE
  5
E244
330
E240
100
AcDbEntity
  8
InsertDims
 62
     3
370
    -2
100
AcDbLine
 10
375.3922250120989
 20
184.6206468565311
 30
0.0
 11
370.3922250120988
 21
184.6206468565311
 31
0.0
  0
LINE
  5
E245
330
E240
100
AcDbEntity
  8
InsertDims
 62
     3
370
    -2
100
AcDbLine
 10
397.3960725080639
 20
184.6206468565311
 30
0.0
 11
402.3960725080638
 21
184.6206468565311
 31
0.0
  0
LINE
  5
E246
330
E240
100
AcDbEntity
  8
InsertDims
 62
     3
370
    -2
100
AcDbLine
 10
380.3922250120988
 20
184.6206468565311
 30
0.0
 11
381.060815426748
 21
184.6206468565311
 31
0.0
  0
LINE
  5
E247
330
E240
100
AcDbEntity
  8
InsertDims
 62
     3
370
    -2
100
AcDbLine
 10
392.3960725080639
 20
184.6206468565311
 30
0.0
 11
391.7274820934147
 21
184.6206468565311
 31
0.0
  0
SOLID
  5
E248
330
E240
100
AcDbEntity
  8
InsertDims
 62
     3
370
   100
100
AcDbTrace
 10
375.3922250120989
 20
185.4539801898644
 30
0.0
 11
375.3922250120989
 21
183.7873135231977
 31
0.0
 12
380.3922250120988
 22
184.6206468565311
 32
0.0
 13
380.3922250120988
 23
184.6206468565311
 33
0.0
  0
SOLID
  5
E249
330
E240
100
AcDbEntity
  8
InsertDims
 62
     3
370
   100
100
AcDbTrace
 10
397.3960725080639
 20
185.4539801898644
 30
0.0
 11
397.3960725080639
 21
183.7873135231977
 31
0.0
 12
392.3960725080639
 22
184.6206468565311
 32
0.0
 13
392.3960725080639
 23
184.6206468565311
 33
0.0
  0
MTEXT
  5
E24A
330
E240
100
AcDbEntity
  8
InsertDims
 62
     2
370
   100
100
AcDbMText
 10
386.3941487600813
 20
184.6206468565311
 30
0.0
 40
5.0
 41
0.0
 46
0.0
 71
     5
 72
     1
  1
\A1;12
 73
     1
 44
1.0
  0
POINT
  5
E24B
330
E240
100
AcDbEntity
  8
DEFPOINTS
 62
     0
370
   100
100
AcDbPoint
 10
380.3922250120988
 20
155.4158857564015
 30
0.0
  0
POINT
  5
E24C
330
E240
100
AcDbEntity
  8
DEFPOINTS
 62
     0
370
   100
100
AcDbPoint
 10
392.3960725080639
 20
155.4158857564015
 30
0.0
  0
POINT
  5
E24D
330
E240
100
AcDbEntity
  8
DEFPOINTS
 62
     0
370
   100
100
AcDbPoint
 10
392.3960725080639
 20
184.6206468565311
 30
0.0
  0
ENDBLK
  5
E24E
330
E240
100
AcDbEntity
  8
0
370
   100
100
AcDbBlockEnd
  0
BLOCK
  5
E250
330
E24F
100
AcDbEntity
  8
0
370
   100
100
AcDbBlockBegin
  2
*D22
 70
     1
 10
0.0
 20
0.0
 30
0.0
  3
*D22
  1

  0
LINE
  5
E251
330
E24F
100
AcDbEntity
  8
InsertDims
 62
     3
370
    -2
100
AcDbLine
 10
380.3960725080633
 20
375.136723727162
 30
0.0
 11
380.3960725080633
 21
403.9450067286589
 31
0.0
  0
LINE
  5
E252
330
E24F
100
AcDbEntity
  8
InsertDims
 62
     3
370
    -2
100
AcDbLine
 10
392.3960725080633
 20
375.136723727162
 30
0.0
 11
392.3960725080633
 21
403.9450067286589
 31
0.0
  0
LINE
  5
E253
330
E24F
100
AcDbEntity
  8
InsertDims
 62
     3
370
    -2
100
AcDbLine
 10
375.3960725080633
 20
401.9450067286588
 30
0.0
 11
370.3960725080633
 21
401.9450067286588
 31
0.0
  0
LINE
  5
E254
330
E24F
100
AcDbEntity
  8
InsertDims
 62
     3
370
    -2
100
AcDbLine
 10
397.3960725080633
 20
401.9450067286588
 30
0.0
 11
402.3960725080632
 21
401.9450067286588
 31
0.0
  0
LINE
  5
E255
330
E24F
100
AcDbEntity
  8
InsertDims
 62
     3
370
    -2
100
AcDbLine
 10
380.3960725080633
 20
401.9450067286588
 30
0.0
 11
381.06273917473
 21
401.9450067286588
 31
0.0
  0
LINE
  5
E256
330
E24F
100
AcDbEntity
  8
InsertDims
 62
     3
370
    -2
100
AcDbLine
 10
392.3960725080633
 20
401.9450067286588
 30
0.0
 11
391.7294058413966
 21
401.9450067286588
 31
0.0
  0
SOLID
  5
E257
330
E24F
100
AcDbEntity
  8
InsertDims
 62
     3
370
   100
100
AcDbTrace
 10
375.3960725080633
 20
402.7783400619922
 30
0.0
 11
375.3960725080633
 21
401.1116733953255
 31
0.0
 12
380.3960725080633
 22
401.9450067286588
 32
0.0
 13
380.3960725080633
 23
401.9450067286588
 33
0.0
  0
SOLID
  5
E258
330
E24F
100
AcDbEntity
  8
InsertDims
 62
     3
370
   100
100
AcDbTrace
 10
397.3960725080633
 20
402.7783400619922
 30
0.0
 11
397.3960725080633
 21
401.1116733953255
 31
0.0
 12
392.3960725080633
 22
401.9450067286588
 32
0.0
 13
392.3960725080633
 23
401.9450067286588
 33
0.0
  0
MTEXT
  5
E259
330
E24F
100
AcDbEntity
  8
InsertDims
 62
     2
370
   100
100
AcDbMText
 10
386.3960725080633
 20
401.9450067286588
 30
0.0
 40
5.0
 41
0.0
 46
0.0
 71
     5
 72
     1
  1
\A1;12
 73
     1
 44
1.0
  0
POINT
  5
E25A
330
E24F
100
AcDbEntity
  8
DEFPOINTS
 62
     0
370
   100
100
AcDbPoint
 10
380.3960725080633
 20
373.136723727162
 30
0.0
  0
POINT
  5
E25B
330
E24F
100
AcDbEntity
  8
DEFPOINTS
 62
     0
370
   100
100
AcDbPoint
 10
392.3960725080633
 20
373.136723727162
 30
0.0
  0
POINT
  5
E25C
330
E24F
100
AcDbEntity
  8
DEFPOINTS
 62
     0
370
   100
100
AcDbPoint
 10
392.3960725080633
 20
401.9450067286588
 30
0.0
  0
ENDBLK
  5
E25D
330
E24F
100
AcDbEntity
  8
0
370
   100
100
AcDbBlockEnd
  0
BLOCK
  5
E25F
330
E25E
100
AcDbEntity
  8
0
370
   100
100
AcDbBlockBegin
  2
*D23
 70
     1
 10
0.0
 20
0.0
 30
0.0
  3
*D23
  1

  0
LINE
  5
E260
330
E25E
100
AcDbEntity
  8
InsertDims
 62
     3
370
    -2
100
AcDbLine
 10
540.8484855970214
 20
357.1367237271619
 30
0.0
 11
540.8484855970214
 21
312.9659729729369
 31
0.0
  0
LINE
  5
E261
330
E25E
100
AcDbEntity
  8
InsertDims
 62
     3
370
    -2
100
AcDbLine
 10
550.4106634235122
 20
357.1367237271619
 30
0.0
 11
550.4106634235122
 21
312.9659729729369
 31
0.0
  0
LINE
  5
E262
330
E25E
100
AcDbEntity
  8
InsertDims
 62
     3
370
    -2
100
AcDbLine
 10
535.8484855970214
 20
314.9659729729369
 30
0.0
 11
530.8484855970213
 21
314.9659729729369
 31
0.0
  0
LINE
  5
E263
330
E25E
100
AcDbEntity
  8
InsertDims
 62
     3
370
    -2
100
AcDbLine
 10
555.4106634235122
 20
314.9659729729369
 30
0.0
 11
560.4106634235122
 21
314.9659729729369
 31
0.0
  0
LINE
  5
E264
330
E25E
100
AcDbEntity
  8
InsertDims
 62
     3
370
    -2
100
AcDbLine
 10
540.8484855970214
 20
314.9659729729369
 30
0.0
 11
550.4106634235122
 21
314.9659729729369
 31
0.0
  0
SOLID
  5
E265
330
E25E
100
AcDbEntity
  8
InsertDims
 62
     3
370
   100
100
AcDbTrace
 10
535.8484855970214
 20
315.7993063062702
 30
0.0
 11
535.8484855970214
 21
314.1326396396036
 31
0.0
 12
540.8484855970214
 22
314.9659729729369
 32
0.0
 13
540.8484855970214
 23
314.9659729729369
 33
0.0
  0
SOLID
  5
E266
330
E25E
100
AcDbEntity
  8
InsertDims
 62
     3
370
   100
100
AcDbTrace
 10
555.4106634235122
 20
315.7993063062702
 30
0.0
 11
555.4106634235122
 21
314.1326396396036
 31
0.0
 12
550.4106634235122
 22
314.9659729729369
 32
0.0
 13
550.4106634235122
 23
314.9659729729369
 33
0.0
  0
MTEXT
  5
E267
330
E25E
100
AcDbEntity
  8
InsertDims
 62
     2
370
   100
100
AcDbMText
 10
567.4106634235122
 20
314.9659729729369
 30
0.0
 40
5.0
 41
0.0
 46
0.0
 71
     5
 72
     1
  1
\A1;9.5
 73
     1
 44
1.0
  0
POINT
  5
E268
330
E25E
100
AcDbEntity
  8
DEFPOINTS
 62
     0
370
   100
100
AcDbPoint
 10
540.8484855970214
 20
359.1367237271619
 30
0.0
  0
POINT
  5
E269
330
E25E
100
AcDbEntity
  8
DEFPOINTS
 62
     0
370
   100
100
AcDbPoint
 10
550.4106634235122
 20
359.1367237271619
 30
0.0
  0
POINT
  5
E26A
330
E25E
100
AcDbEntity
  8
DEFPOINTS
 62
     0
370
   100
100
AcDbPoint
 10
550.4106634235122
 20
314.9659729729369
 30
0.0
  0
ENDBLK
  5
E26B
330
E25E
100
AcDbEntity
  8
0
370
   100
100
AcDbBlockEnd
  0
BLOCK
  5
E26D
330
E26C
100
AcDbEntity
  8
0
370
   100
100
AcDbBlockBegin
  2
*D24
 70
     1
 10
0.0
 20
0.0
 30
0.0
  3
*D24
  1

  0
LINE
  5
E26E
330
E26C
100
AcDbEntity
  8
InsertDims
 62
     3
370
    -2
100
AcDbLine
 10
532.9106634235127
 20
157.621573997169
 30
0.0
 11
532.9106634235127
 21
206.0784529729545
 31
0.0
  0
LINE
  5
E26F
330
E26C
100
AcDbEntity
  8
InsertDims
 62
     3
370
    -2
100
AcDbLine
 10
550.4106634235127
 20
157.621573997169
 30
0.0
 11
550.4106634235127
 21
206.0784529729545
 31
0.0
  0
LINE
  5
E270
330
E26C
100
AcDbEntity
  8
InsertDims
 62
     3
370
    -2
100
AcDbLine
 10
527.9106634235128
 20
204.0784529729545
 30
0.0
 11
522.9106634235128
 21
204.0784529729545
 31
0.0
  0
LINE
  5
E271
330
E26C
100
AcDbEntity
  8
InsertDims
 62
     3
370
    -2
100
AcDbLine
 10
555.4106634235128
 20
204.0784529729545
 30
0.0
 11
560.4106634235128
 21
204.0784529729545
 31
0.0
  0
LINE
  5
E272
330
E26C
100
AcDbEntity
  8
InsertDims
 62
     3
370
    -2
100
AcDbLine
 10
532.9106634235127
 20
204.0784529729545
 30
0.0
 11
532.9939967568462
 21
204.0784529729545
 31
0.0
  0
LINE
  5
E273
330
E26C
100
AcDbEntity
  8
InsertDims
 62
     3
370
    -2
100
AcDbLine
 10
550.4106634235127
 20
204.0784529729545
 30
0.0
 11
550.3273300901794
 21
204.0784529729545
 31
0.0
  0
SOLID
  5
E274
330
E26C
100
AcDbEntity
  8
InsertDims
 62
     3
370
   100
100
AcDbTrace
 10
527.9106634235128
 20
204.9117863062878
 30
0.0
 11
527.9106634235128
 21
203.2451196396212
 31
0.0
 12
532.9106634235127
 22
204.0784529729545
 32
0.0
 13
532.9106634235127
 23
204.0784529729545
 33
0.0
  0
SOLID
  5
E275
330
E26C
100
AcDbEntity
  8
InsertDims
 62
     3
370
   100
100
AcDbTrace
 10
555.4106634235128
 20
204.9117863062878
 30
0.0
 11
555.4106634235128
 21
203.2451196396212
 31
0.0
 12
550.4106634235127
 22
204.0784529729545
 32
0.0
 13
550.4106634235127
 23
204.0784529729545
 33
0.0
  0
MTEXT
  5
E276
330
E26C
100
AcDbEntity
  8
InsertDims
 62
     2
370
   100
100
AcDbMText
 10
541.6606634235128
 20
204.0784529729545
 30
0.0
 40
5.0
 41
0.0
 46
0.0
 71
     5
 72
     1
  1
\A1;17.5
 73
     1
 44
1.0
  0
POINT
  5
E277
330
E26C
100
AcDbEntity
  8
DEFPOINTS
 62
     0
370
   100
100
AcDbPoint
 10
532.9106634235127
 20
155.621573997169
 30
0.0
  0
POINT
  5
E278
330
E26C
100
AcDbEntity
  8
DEFPOINTS
 62
     0
370
   100
100
AcDbPoint
 10
550.4106634235127
 20
155.621573997169
 30
0.0
  0
POINT
  5
E279
330
E26C
100
AcDbEntity
  8
DEFPOINTS
 62
     0
370
   100
100
AcDbPoint
 10
550.4106634235127
 20
204.0784529729545
 30
0.0
  0
ENDBLK
  5
E27A
330
E26C
100
AcDbEntity
  8
0
370
   100
100
AcDbBlockEnd
  0
BLOCK
  5
E27C
330
E27B
100
AcDbEntity
  8
0
370
   100
100
AcDbBlockBegin
  2
*D25
 70
     1
 10
0.0
 20
0.0
 30
0.0
  3
*D25
  1

  0
LINE
  5
E27D
330
E27B
100
AcDbEntity
  8
InsertDims
 62
     3
370
    -2
100
AcDbLine
 10
538.4068159275478
 20
157.4158857564015
 30
0.0
 11
538.4068159275478
 21
186.6206468565311
 31
0.0
  0
LINE
  5
E27E
330
E27B
100
AcDbEntity
  8
InsertDims
 62
     3
370
    -2
100
AcDbLine
 10
550.4106634235127
 20
157.4158857564015
 30
0.0
 11
550.4106634235127
 21
186.6206468565311
 31
0.0
  0
LINE
  5
E27F
330
E27B
100
AcDbEntity
  8
InsertDims
 62
     3
370
    -2
100
AcDbLine
 10
533.4068159275477
 20
184.6206468565311
 30
0.0
 11
528.4068159275477
 21
184.6206468565311
 31
0.0
  0
LINE
  5
E280
330
E27B
100
AcDbEntity
  8
InsertDims
 62
     3
370
    -2
100
AcDbLine
 10
555.4106634235128
 20
184.6206468565311
 30
0.0
 11
560.4106634235128
 21
184.6206468565311
 31
0.0
  0
LINE
  5
E281
330
E27B
100
AcDbEntity
  8
InsertDims
 62
     3
370
    -2
100
AcDbLine
 10
538.4068159275478
 20
184.6206468565311
 30
0.0
 11
539.075406342197
 21
184.6206468565311
 31
0.0
  0
LINE
  5
E282
330
E27B
100
AcDbEntity
  8
InsertDims
 62
     3
370
    -2
100
AcDbLine
 10
550.4106634235127
 20
184.6206468565311
 30
0.0
 11
549.7420730088637
 21
184.6206468565311
 31
0.0
  0
SOLID
  5
E283
330
E27B
100
AcDbEntity
  8
InsertDims
 62
     3
370
   100
100
AcDbTrace
 10
533.4068159275477
 20
185.4539801898644
 30
0.0
 11
533.4068159275477
 21
183.7873135231977
 31
0.0
 12
538.4068159275478
 22
184.6206468565311
 32
0.0
 13
538.4068159275478
 23
184.6206468565311
 33
0.0
  0
SOLID
  5
E284
330
E27B
100
AcDbEntity
  8
InsertDims
 62
     3
370
   100
100
AcDbTrace
 10
555.4106634235128
 20
185.4539801898644
 30
0.0
 11
555.4106634235128
 21
183.7873135231977
 31
0.0
 12
550.4106634235127
 22
184.6206468565311
 32
0.0
 13
550.4106634235127
 23
184.6206468565311
 33
0.0
  0
MTEXT
  5
E285
330
E27B
100
AcDbEntity
  8
InsertDims
 62
     2
370
   100
100
AcDbMText
 10
544.4087396755303
 20
184.6206468565311
 30
0.0
 40
5.0
 41
0.0
 46
0.0
 71
     5
 72
     1
  1
\A1;12
 73
     1
 44
1.0
  0
POINT
  5
E286
330
E27B
100
AcDbEntity
  8
DEFPOINTS
 62
     0
370
   100
100
AcDbPoint
 10
538.4068159275478
 20
155.4158857564015
 30
0.0
  0
POINT
  5
E287
330
E27B
100
AcDbEntity
  8
DEFPOINTS
 62
     0
370
   100
100
AcDbPoint
 10
550.4106634235127
 20
155.4158857564015
 30
0.0
  0
POINT
  5
E288
330
E27B
100
AcDbEntity
  8
DEFPOINTS
 62
     0
370
   100
100
AcDbPoint
 10
550.4106634235127
 20
184.6206468565311
 30
0.0
  0
ENDBLK
  5
E289
330
E27B
100
AcDbEntity
  8
0
370
   100
100
AcDbBlockEnd
  0
BLOCK
  5
E28B
330
E28A
100
AcDbEntity
  8
0
370
   100
100
AcDbBlockBegin
  2
*D26
 70
     1
 10
0.0
 20
0.0
 30
0.0
  3
*D26
  1

  0
LINE
  5
E28C
330
E28A
100
AcDbEntity
  8
InsertDims
 62
     3
370
    -2
100
AcDbLine
 10
501.0776296277685
 20
123.8208544447353
 30
0.0
 11
506.0776296277686
 21
123.8208544447353
 31
0.0
  0
LINE
  5
E28D
330
E28A
100
AcDbEntity
  8
InsertDims
 62
     3
370
    -2
100
AcDbLine
 10
506.0776296277686
 20
123.8208544447353
 30
0.0
 11
526.139345112147
 21
147.5966597716984
 31
0.0
  0
LINE
  5
E28E
330
E28A
100
AcDbEntity
  8
InsertDims
 62
     3
370
    -2
100
AcDbLine
 10
539.6819817348785
 20
163.6464882226397
 30
0.0
 11
542.906419026005
 21
167.4678759490543
 31
0.0
  0
MTEXT
  5
E28F
330
E28A
100
AcDbEntity
  8
InsertDims
 62
     2
370
   100
100
AcDbMText
 10
494.0776296277686
 20
123.8208544447352
 30
0.0
 40
5.0
 41
0.0
 46
0.0
 71
     5
 72
     1
  1
\A1;∅11
 73
     1
 44
1.0
  0
LINE
  5
E290
330
E28A
100
AcDbEntity
  8
InsertDims
 62
     3
370
    -2
100
AcDbLine
 10
536.4575444437519
 20
159.8251004962251
 30
0.0
 11
529.3637824032735
 21
151.4180474981131
 31
0.0
  0
SOLID
  5
E291
330
E28A
100
AcDbEntity
  8
InsertDims
 62
     3
370
   100
100
AcDbTrace
 10
539.0450837804761
 20
164.1838944378274
 30
0.0
 11
540.318879689281
 21
163.1090820074519
 31
0.0
 12
536.4575444437519
 22
159.8251004962251
 32
0.0
 13
536.4575444437519
 23
159.8251004962251
 33
0.0
  0
SOLID
  5
E292
330
E28A
100
AcDbEntity
  8
InsertDims
 62
     3
370
   100
100
AcDbTrace
 10
525.5024471577447
 20
148.1340659868862
 30
0.0
 11
526.7762430665494
 21
147.0592535565107
 31
0.0
 12
529.3637824032735
 22
151.4180474981131
 32
0.0
 13
529.3637824032735
 23
151.4180474981131
 33
0.0
  0
POINT
  5
E293
330
E28A
100
AcDbEntity
  8
DEFPOINTS
 62
     0
370
   100
100
AcDbPoint
 10
529.3637824032735
 20
151.4180474981131
 30
0.0
  0
POINT
  5
E294
330
E28A
100
AcDbEntity
  8
DEFPOINTS
 62
     0
370
   100
100
AcDbPoint
 10
536.4575444437519
 20
159.8251004962251
 30
0.0
  0
ENDBLK
  5
E295
330
E28A
100
AcDbEntity
  8
0
370
   100
100
AcDbBlockEnd
  0
BLOCK
  5
E297
330
E296
100
AcDbEntity
  8
0
370
   100
100
AcDbBlockBegin
  2
*D27
 70
     1
 10
0.0
 20
0.0
 30
0.0
  3
*D27
  1

  0
ARC
  5
E298
330
E296
100
AcDbEntity
  8
InsertDims
 62
     3
370
    -2
100
AcDbCircle
 10
546.9106634235128
 20
131.121573997169
 30
0.0
 40
10.50368208794327
100
AcDbArc
 50
33.14797202853748
 51
90.0
  0
LINE
  5
E299
330
E296
100
AcDbEntity
  8
InsertDims
 62
     3
370
    -2
100
AcDbLine
 10
555.7049887704046
 20
136.8650206189806
 30
0.0
 11
560.7049887704046
 21
136.8650206189806
 31
0.0
  0
ARC
  5
E29A
330
E296
100
AcDbEntity
  8
InsertDims
 62
     3
370
    -2
100
AcDbCircle
 10
546.9106634235128
 20
131.121573997169
 30
0.0
 40
10.50368208794327
100
AcDbArc
 50
34.92310691683267
 51
62.46155345841634
  0
ARC
  5
E29B
330
E296
100
AcDbEntity
  8
InsertDims
 62
     3
370
    -2
100
AcDbCircle
 10
546.9106634235128
 20
131.121573997169
 30
0.0
 40
10.50368208794327
100
AcDbArc
 50
147.5384465415829
 51
175.0768930831666
  0
ARC
  5
E29C
330
E296
100
AcDbEntity
  8
InsertDims
 62
     3
370
    -2
100
AcDbCircle
 10
546.9106634235128
 20
131.121573997169
 30
0.0
 40
10.50368208794327
100
AcDbArc
 50
90.0
 51
119.9999999999992
  0
SOLID
  5
E29D
330
E296
100
AcDbEntity
  8
InsertDims
 62
     3
370
   100
100
AcDbTrace
 10
551.568631625595
 20
139.625811994162
 30
0.0
 11
551.9653179144394
 21
141.2445824429968
 31
0.0
 12
546.910663423513
 22
141.6252560851123
 32
0.0
 13
546.910663423513
 23
141.6252560851123
 33
0.0
  0
SOLID
  5
E29E
330
E296
100
AcDbEntity
  8
InsertDims
 62
     3
370
   100
100
AcDbTrace
 10
537.4717000041036
 20
137.3610292285171
 30
0.0
 11
538.6246256319931
 21
136.1574760413528
 31
0.0
 12
541.6588223795413
 22
140.2180295186035
 32
0.0
 13
541.6588223795413
 23
140.2180295186035
 33
0.0
  0
MTEXT
  5
E29F
330
E296
100
AcDbEntity
  8
InsertDims
 62
     2
370
   100
100
AcDbMText
 10
568.1216554370712
 20
136.8650206189807
 30
0.0
 40
5.0
 41
0.0
 46
0.0
 71
     5
 72
     1
  1
\A1;30°
 73
     1
 44
1.0
  0
POINT
  5
E2A0
330
E296
100
AcDbEntity
  8
DEFPOINTS
 62
     0
370
   100
100
AcDbPoint
 10
543.3181925703472
 20
140.9918065462905
 30
0.0
  0
POINT
  5
E2A1
330
E296
100
AcDbEntity
  8
DEFPOINTS
 62
     0
370
   100
100
AcDbPoint
 10
546.9106634235128
 20
131.121573997169
 30
0.0
  0
POINT
  5
E2A2
330
E296
100
AcDbEntity
  8
DEFPOINTS
 62
     0
370
   100
100
AcDbPoint
 10
546.9106634235128
 20
131.121573997169
 30
0.0
  0
POINT
  5
E2A3
330
E296
100
AcDbEntity
  8
DEFPOINTS
 62
     0
370
   100
100
AcDbPoint
 10
546.9106634235128
 20
180.121573997169
 30
0.0
  0
POINT
  5
E2A4
330
E296
100
AcDbEntity
  8
DEFPOINTS
 62
     0
370
   100
100
AcDbPoint
 10
540.8484855970219
 20
141.621573997169
 30
0.0
  0
ENDBLK
  5
E2A5
330
E296
100
AcDbEntity
  8
0
370
   100
100
AcDbBlockEnd
  0
BLOCK
  5
E2A7
330
E2A6
100
AcDbEntity
  8
0
370
   100
100
AcDbBlockBegin
  2
*D28
 70
     1
 10
0.0
 20
0.0
 30
0.0
  3
*D28
  1

  0
LINE
  5
E2A8
330
E2A6
100
AcDbEntity
  8
InsertDims
 62
     3
370
    -2
100
AcDbLine
 10
540.8484855970219
 20
139.6215739971689
 30
0.0
 11
540.8484855970219
 21
95.45082324294396
 31
0.0
  0
LINE
  5
E2A9
330
E2A6
100
AcDbEntity
  8
InsertDims
 62
     3
370
    -2
100
AcDbLine
 10
550.4106634235127
 20
139.6215739971689
 30
0.0
 11
550.4106634235127
 21
95.45082324294396
 31
0.0
  0
LINE
  5
E2AA
330
E2A6
100
AcDbEntity
  8
InsertDims
 62
     3
370
    -2
100
AcDbLine
 10
535.8484855970219
 20
97.45082324294395
 30
0.0
 11
530.848485597022
 21
97.45082324294395
 31
0.0
  0
LINE
  5
E2AB
330
E2A6
100
AcDbEntity
  8
InsertDims
 62
     3
370
    -2
100
AcDbLine
 10
555.4106634235128
 20
97.45082324294395
 30
0.0
 11
560.4106634235128
 21
97.45082324294395
 31
0.0
  0
LINE
  5
E2AC
330
E2A6
100
AcDbEntity
  8
InsertDims
 62
     3
370
    -2
100
AcDbLine
 10
540.8484855970219
 20
97.45082324294395
 30
0.0
 11
550.4106634235127
 21
97.45082324294395
 31
0.0
  0
SOLID
  5
E2AD
330
E2A6
100
AcDbEntity
  8
InsertDims
 62
     3
370
   100
100
AcDbTrace
 10
535.8484855970219
 20
98.28415657627729
 30
0.0
 11
535.8484855970219
 21
96.61748990961063
 31
0.0
 12
540.8484855970219
 22
97.45082324294395
 32
0.0
 13
540.8484855970219
 23
97.45082324294395
 33
0.0
  0
SOLID
  5
E2AE
330
E2A6
100
AcDbEntity
  8
InsertDims
 62
     3
370
   100
100
AcDbTrace
 10
555.4106634235128
 20
98.28415657627729
 30
0.0
 11
555.4106634235128
 21
96.61748990961063
 31
0.0
 12
550.4106634235127
 22
97.45082324294395
 32
0.0
 13
550.4106634235127
 23
97.45082324294395
 33
0.0
  0
MTEXT
  5
E2AF
330
E2A6
100
AcDbEntity
  8
InsertDims
 62
     2
370
   100
100
AcDbMText
 10
567.4106634235128
 20
97.45082324294395
 30
0.0
 40
5.0
 41
0.0
 46
0.0
 71
     5
 72
     1
  1
\A1;9.5
 73
     1
 44
1.0
  0
POINT
  5
E2B0
330
E2A6
100
AcDbEntity
  8
DEFPOINTS
 62
     0
370
   100
100
AcDbPoint
 10
540.8484855970219
 20
141.6215739971689
 30
0.0
  0
POINT
  5
E2B1
330
E2A6
100
AcDbEntity
  8
DEFPOINTS
 62
     0
370
   100
100
AcDbPoint
 10
550.4106634235127
 20
141.6215739971689
 30
0.0
  0
POINT
  5
E2B2
330
E2A6
100
AcDbEntity
  8
DEFPOINTS
 62
     0
370
   100
100
AcDbPoint
 10
550.4106634235127
 20
97.45082324294395
 30
0.0
  0
ENDBLK
  5
E2B3
330
E2A6
100
AcDbEntity
  8
0
370
   100
100
AcDbBlockEnd
  0
BLOCK
  5
E2B5
330
E2B4
100
AcDbEntity
  8
0
370
   100
100
AcDbBlockBegin
  2
*D29
 70
     1
 10
0.0
 20
0.0
 30
0.0
  3
*D29
  1

  0
LINE
  5
E2B6
330
E2B4
100
AcDbEntity
  8
InsertDims
 62
     3
370
    -2
100
AcDbLine
 10
546.9106634235128
 20
129.121573997169
 30
0.0
 11
546.9106634235128
 21
114.9958093437263
 31
0.0
  0
LINE
  5
E2B7
330
E2B4
100
AcDbEntity
  8
InsertDims
 62
     3
370
    -2
100
AcDbLine
 10
550.4106634235127
 20
129.121573997169
 30
0.0
 11
550.4106634235127
 21
114.9958093437263
 31
0.0
  0
LINE
  5
E2B8
330
E2B4
100
AcDbEntity
  8
InsertDims
 62
     3
370
    -2
100
AcDbLine
 10
541.9106634235127
 20
116.9958093437263
 30
0.0
 11
536.9106634235127
 21
116.9958093437263
 31
0.0
  0
LINE
  5
E2B9
330
E2B4
100
AcDbEntity
  8
InsertDims
 62
     3
370
    -2
100
AcDbLine
 10
555.4106634235128
 20
116.9958093437263
 30
0.0
 11
560.4106634235128
 21
116.9958093437263
 31
0.0
  0
LINE
  5
E2BA
330
E2B4
100
AcDbEntity
  8
InsertDims
 62
     3
370
    -2
100
AcDbLine
 10
546.9106634235128
 20
116.9958093437263
 30
0.0
 11
550.4106634235127
 21
116.9958093437263
 31
0.0
  0
SOLID
  5
E2BB
330
E2B4
100
AcDbEntity
  8
InsertDims
 62
     3
370
   100
100
AcDbTrace
 10
541.9106634235127
 20
117.8291426770596
 30
0.0
 11
541.9106634235127
 21
116.162476010393
 31
0.0
 12
546.9106634235128
 22
116.9958093437263
 32
0.0
 13
546.9106634235128
 23
116.9958093437263
 33
0.0
  0
SOLID
  5
E2BC
330
E2B4
100
AcDbEntity
  8
InsertDims
 62
     3
370
   100
100
AcDbTrace
 10
555.4106634235128
 20
117.8291426770596
 30
0.0
 11
555.4106634235128
 21
116.162476010393
 31
0.0
 12
550.4106634235127
 22
116.9958093437263
 32
0.0
 13
550.4106634235127
 23
116.9958093437263
 33
0.0
  0
MTEXT
  5
E2BD
330
E2B4
100
AcDbEntity
  8
InsertDims
 62
     2
370
   100
100
AcDbMText
 10
567.4106634235128
 20
116.9958093437263
 30
0.0
 40
5.0
 41
0.0
 46
0.0
 71
     5
 72
     1
  1
\A1;3.5
 73
     1
 44
1.0
  0
POINT
  5
E2BE
330
E2B4
100
AcDbEntity
  8
DEFPOINTS
 62
     0
370
   100
100
AcDbPoint
 10
546.9106634235128
 20
131.121573997169
 30
0.0
  0
POINT
  5
E2BF
330
E2B4
100
AcDbEntity
  8
DEFPOINTS
 62
     0
370
   100
100
AcDbPoint
 10
550.4106634235127
 20
131.121573997169
 30
0.0
  0
POINT
  5
E2C0
330
E2B4
100
AcDbEntity
  8
DEFPOINTS
 62
     0
370
   100
100
AcDbPoint
 10
550.4106634235127
 20
116.9958093437263
 30
0.0
  0
ENDBLK
  5
E2C1
330
E2B4
100
AcDbEntity
  8
0
370
   100
100
AcDbBlockEnd
  0
BLOCK
  5
E2C3
330
E2C2
100
AcDbEntity
  8
0
370
   100
100
AcDbBlockBegin
  2
*D30
 70
     1
 10
0.0
 20
0.0
 30
0.0
  3
*D30
  1

  0
LINE
  5
E2C4
330
E2C2
100
AcDbEntity
  8
InsertDims
 62
     3
370
    -2
100
AcDbLine
 10
480.4106634235122
 20
461.1836298178514
 30
0.0
 11
480.4106634235122
 21
539.1643860931594
 31
0.0
  0
LINE
  5
E2C5
330
E2C2
100
AcDbEntity
  8
InsertDims
 62
     3
370
    -2
100
AcDbLine
 10
550.4106634235122
 20
461.1836298178514
 30
0.0
 11
550.4106634235122
 21
539.1643860931594
 31
0.0
  0
LINE
  5
E2C6
330
E2C2
100
AcDbEntity
  8
InsertDims
 62
     3
370
    -2
100
AcDbLine
 10
485.4106634235122
 20
537.1643860931595
 30
0.0
 11
509.6606634235122
 21
537.1643860931595
 31
0.0
  0
LINE
  5
E2C7
330
E2C2
100
AcDbEntity
  8
InsertDims
 62
     3
370
    -2
100
AcDbLine
 10
545.4106634235122
 20
537.1643860931595
 30
0.0
 11
521.1606634235122
 21
537.1643860931595
 31
0.0
  0
SOLID
  5
E2C8
330
E2C2
100
AcDbEntity
  8
InsertDims
 62
     3
370
   100
100
AcDbTrace
 10
485.4106634235122
 20
537.9977194264928
 30
0.0
 11
485.4106634235122
 21
536.3310527598261
 31
0.0
 12
480.4106634235122
 22
537.1643860931595
 32
0.0
 13
480.4106634235122
 23
537.1643860931595
 33
0.0
  0
SOLID
  5
E2C9
330
E2C2
100
AcDbEntity
  8
InsertDims
 62
     3
370
   100
100
AcDbTrace
 10
545.4106634235122
 20
537.9977194264928
 30
0.0
 11
545.4106634235122
 21
536.3310527598261
 31
0.0
 12
550.4106634235122
 22
537.1643860931595
 32
0.0
 13
550.4106634235122
 23
537.1643860931595
 33
0.0
  0
MTEXT
  5
E2CA
330
E2C2
100
AcDbEntity
  8
InsertDims
 62
     2
370
   100
100
AcDbMText
 10
515.4106634235122
 20
537.1643860931595
 30
0.0
 40
5.0
 41
0.0
 46
0.0
 71
     5
 72
     1
  1
\A1;70
 73
     1
 44
1.0
  0
POINT
  5
E2CB
330
E2C2
100
AcDbEntity
  8
DEFPOINTS
 62
     0
370
   100
100
AcDbPoint
 10
480.4106634235122
 20
459.1836298178513
 30
0.0
  0
POINT
  5
E2CC
330
E2C2
100
AcDbEntity
  8
DEFPOINTS
 62
     0
370
   100
100
AcDbPoint
 10
550.4106634235122
 20
459.1836298178513
 30
0.0
  0
POINT
  5
E2CD
330
E2C2
100
AcDbEntity
  8
DEFPOINTS
 62
     0
370
   100
100
AcDbPoint
 10
550.4106634235122
 20
537.1643860931595
 30
0.0
  0
ENDBLK
  5
E2CE
330
E2C2
100
AcDbEntity
  8
0
370
   100
100
AcDbBlockEnd
  0
BLOCK
  5
E2D0
330
E2CF
100
AcDbEntity
  8
0
370
   100
100
AcDbBlockBegin
  2
*D31
 70
     1
 10
0.0
 20
0.0
 30
0.0
  3
*D31
  1

  0
LINE
  5
E2D1
330
E2CF
100
AcDbEntity
  8
InsertDims
 62
     3
370
    -2
100
AcDbLine
 10
480.4106634235122
 20
475.1836298178513
 30
0.0
 11
480.4106634235122
 21
517.3830321302744
 31
0.0
  0
LINE
  5
E2D2
330
E2CF
100
AcDbEntity
  8
InsertDims
 62
     3
370
    -2
100
AcDbLine
 10
520.4106634235122
 20
461.1836298178514
 30
0.0
 11
520.4106634235122
 21
517.3830321302744
 31
0.0
  0
LINE
  5
E2D3
330
E2CF
100
AcDbEntity
  8
InsertDims
 62
     3
370
    -2
100
AcDbLine
 10
485.4106634235122
 20
515.3830321302743
 30
0.0
 11
494.6606634235122
 21
515.3830321302743
 31
0.0
  0
LINE
  5
E2D4
330
E2CF
100
AcDbEntity
  8
InsertDims
 62
     3
370
    -2
100
AcDbLine
 10
515.4106634235122
 20
515.3830321302743
 30
0.0
 11
506.1606634235122
 21
515.3830321302743
 31
0.0
  0
SOLID
  5
E2D5
330
E2CF
100
AcDbEntity
  8
InsertDims
 62
     3
370
   100
100
AcDbTrace
 10
485.4106634235122
 20
516.2163654636077
 30
0.0
 11
485.4106634235122
 21
514.5496987969409
 31
0.0
 12
480.4106634235122
 22
515.3830321302743
 32
0.0
 13
480.4106634235122
 23
515.3830321302743
 33
0.0
  0
SOLID
  5
E2D6
330
E2CF
100
AcDbEntity
  8
InsertDims
 62
     3
370
   100
100
AcDbTrace
 10
515.4106634235122
 20
516.2163654636077
 30
0.0
 11
515.4106634235122
 21
514.5496987969409
 31
0.0
 12
520.4106634235122
 22
515.3830321302743
 32
0.0
 13
520.4106634235122
 23
515.3830321302743
 33
0.0
  0
MTEXT
  5
E2D7
330
E2CF
100
AcDbEntity
  8
InsertDims
 62
     2
370
   100
100
AcDbMText
 10
500.4106634235122
 20
515.3830321302743
 30
0.0
 40
5.0
 41
0.0
 46
0.0
 71
     5
 72
     1
  1
\A1;40
 73
     1
 44
1.0
  0
POINT
  5
E2D8
330
E2CF
100
AcDbEntity
  8
DEFPOINTS
 62
     0
370
   100
100
AcDbPoint
 10
480.4106634235122
 20
473.1836298178514
 30
0.0
  0
POINT
  5
E2D9
330
E2CF
100
AcDbEntity
  8
DEFPOINTS
 62
     0
370
   100
100
AcDbPoint
 10
520.4106634235122
 20
459.1836298178513
 30
0.0
  0
POINT
  5
E2DA
330
E2CF
100
AcDbEntity
  8
DEFPOINTS
 62
     0
370
   100
100
AcDbPoint
 10
520.4106634235122
 20
515.3830321302743
 30
0.0
  0
ENDBLK
  5
E2DB
330
E2CF
100
AcDbEntity
  8
0
370
   100
100
AcDbBlockEnd
  0
BLOCK
  5
E2DD
330
E2DC
100
AcDbEntity
  8
0
370
   100
100
AcDbBlockBegin
  2
*D32
 70
     1
 10
0.0
 20
0.0
 30
0.0
  3
*D32
  1

  0
LINE
  5
E2DE
330
E2DC
100
AcDbEntity
  8
InsertDims
 62
     3
370
    -2
100
AcDbLine
 10
530.9106634235122
 20
375.136723727162
 30
0.0
 11
530.9106634235122
 21
421.8398583407047
 31
0.0
  0
LINE
  5
E2DF
330
E2DC
100
AcDbEntity
  8
InsertDims
 62
     3
370
    -2
100
AcDbLine
 10
550.4106634235122
 20
375.136723727162
 30
0.0
 11
550.4106634235122
 21
421.8398583407047
 31
0.0
  0
LINE
  5
E2E0
330
E2DC
100
AcDbEntity
  8
InsertDims
 62
     3
370
    -2
100
AcDbLine
 10
525.9106634235122
 20
419.8398583407047
 30
0.0
 11
520.9106634235122
 21
419.8398583407047
 31
0.0
  0
LINE
  5
E2E1
330
E2DC
100
AcDbEntity
  8
InsertDims
 62
     3
370
    -2
100
AcDbLine
 10
555.4106634235122
 20
419.8398583407047
 30
0.0
 11
560.4106634235122
 21
419.8398583407047
 31
0.0
  0
LINE
  5
E2E2
330
E2DC
100
AcDbEntity
  8
InsertDims
 62
     3
370
    -2
100
AcDbLine
 10
530.9106634235122
 20
419.8398583407047
 30
0.0
 11
531.9939967568456
 21
419.8398583407047
 31
0.0
  0
LINE
  5
E2E3
330
E2DC
100
AcDbEntity
  8
InsertDims
 62
     3
370
    -2
100
AcDbLine
 10
550.4106634235122
 20
419.8398583407047
 30
0.0
 11
549.3273300901789
 21
419.8398583407047
 31
0.0
  0
SOLID
  5
E2E4
330
E2DC
100
AcDbEntity
  8
InsertDims
 62
     3
370
   100
100
AcDbTrace
 10
525.9106634235122
 20
420.673191674038
 30
0.0
 11
525.9106634235122
 21
419.0065250073714
 31
0.0
 12
530.9106634235122
 22
419.8398583407047
 32
0.0
 13
530.9106634235122
 23
419.8398583407047
 33
0.0
  0
SOLID
  5
E2E5
330
E2DC
100
AcDbEntity
  8
InsertDims
 62
     3
370
   100
100
AcDbTrace
 10
555.4106634235122
 20
420.673191674038
 30
0.0
 11
555.4106634235122
 21
419.0065250073714
 31
0.0
 12
550.4106634235122
 22
419.8398583407047
 32
0.0
 13
550.4106634235122
 23
419.8398583407047
 33
0.0
  0
MTEXT
  5
E2E6
330
E2DC
100
AcDbEntity
  8
InsertDims
 62
     2
370
   100
100
AcDbMText
 10
540.6606634235122
 20
419.8398583407047
 30
0.0
 40
5.0
 41
0.0
 46
0.0
 71
     5
 72
     1
  1
\A1;19.5
 73
     1
 44
1.0
  0
POINT
  5
E2E7
330
E2DC
100
AcDbEntity
  8
DEFPOINTS
 62
     0
370
   100
100
AcDbPoint
 10
530.9106634235122
 20
373.136723727162
 30
0.0
  0
POINT
  5
E2E8
330
E2DC
100
AcDbEntity
  8
DEFPOINTS
 62
     0
370
   100
100
AcDbPoint
 10
550.4106634235122
 20
373.136723727162
 30
0.0
  0
POINT
  5
E2E9
330
E2DC
100
AcDbEntity
  8
DEFPOINTS
 62
     0
370
   100
100
AcDbPoint
 10
550.4106634235122
 20
419.8398583407047
 30
0.0
  0
ENDBLK
  5
E2EA
330
E2DC
100
AcDbEntity
  8
0
370
   100
100
AcDbBlockEnd
  0
BLOCK
  5
E2EC
330
E2EB
100
AcDbEntity
  8
0
370
   100
100
AcDbBlockBegin
  2
*D33
 70
     1
 10
0.0
 20
0.0
 30
0.0
  3
*D33
  1

  0
LINE
  5
E2ED
330
E2EB
100
AcDbEntity
  8
InsertDims
 62
     3
370
    -2
100
AcDbLine
 10
498.5342371520194
 20
341.8011905406361
 30
0.0
 11
503.5342371520193
 21
341.8011905406361
 31
0.0
  0
LINE
  5
E2EE
330
E2EB
100
AcDbEntity
  8
InsertDims
 62
     3
370
    -2
100
AcDbLine
 10
503.5342371520193
 20
341.8011905406361
 30
0.0
 11
524.3614978362655
 21
364.0174163103767
 31
0.0
  0
LINE
  5
E2EF
330
E2EB
100
AcDbEntity
  8
InsertDims
 62
     3
370
    -2
100
AcDbLine
 10
541.459829010759
 20
382.2560311439474
 30
0.0
 11
544.8794952456576
 21
385.9037541106616
 31
0.0
  0
MTEXT
  5
E2F0
330
E2EB
100
AcDbEntity
  8
InsertDims
 62
     2
370
   100
100
AcDbMText
 10
490.7009038186861
 20
341.8011905406361
 30
0.0
 40
5.0
 41
0.0
 46
0.0
 71
     5
 72
     1
  1
\A1;∅15
 73
     1
 44
1.0
  0
LINE
  5
E2F1
330
E2EB
100
AcDbEntity
  8
InsertDims
 62
     3
370
    -2
100
AcDbLine
 10
538.0401627758602
 20
378.6083081772333
 30
0.0
 11
527.7811640711643
 21
367.6651392770908
 31
0.0
  0
SOLID
  5
E2F2
330
E2EB
100
AcDbEntity
  8
InsertDims
 62
     3
370
   100
100
AcDbTrace
 10
540.8518751829732
 20
382.8259755164306
 30
0.0
 11
542.0677828385446
 21
381.6860867714644
 31
0.0
 12
538.0401627758602
 22
378.6083081772333
 32
0.0
 13
538.0401627758602
 23
378.6083081772333
 33
0.0
  0
SOLID
  5
E2F3
330
E2EB
100
AcDbEntity
  8
InsertDims
 62
     3
370
   100
100
AcDbTrace
 10
523.7535440084799
 20
364.5873606828597
 30
0.0
 11
524.9694516640513
 21
363.4474719378935
 31
0.0
 12
527.7811640711643
 22
367.6651392770908
 32
0.0
 13
527.7811640711643
 23
367.6651392770908
 33
0.0
  0
POINT
  5
E2F4
330
E2EB
100
AcDbEntity
  8
DEFPOINTS
 62
     0
370
   100
100
AcDbPoint
 10
527.7811640711643
 20
367.6651392770908
 30
0.0
  0
POINT
  5
E2F5
330
E2EB
100
AcDbEntity
  8
DEFPOINTS
 62
     0
370
   100
100
AcDbPoint
 10
538.0401627758602
 20
378.6083081772333
 30
0.0
  0
ENDBLK
  5
E2F6
330
E2EB
100
AcDbEntity
  8
0
370
   100
100
AcDbBlockEnd
  0
BLOCK
  5
E2F8
330
E2F7
100
AcDbEntity
  8
0
370
   100
100
AcDbBlockBegin
  2
*D34
 70
     1
 10
0.0
 20
0.0
 30
0.0
  3
*D34
  1

  0
ARC
  5
E2F9
330
E2F7
100
AcDbEntity
  8
InsertDims
 62
     3
370
    -2
100
AcDbCircle
 10
546.9106634235122
 20
348.636723727162
 30
0.0
 40
10.50368208794334
100
AcDbArc
 50
33.14797202853789
 51
90.0
  0
LINE
  5
E2FA
330
E2F7
100
AcDbEntity
  8
InsertDims
 62
     3
370
    -2
100
AcDbLine
 10
555.7049887704039
 20
354.3801703489736
 30
0.0
 11
560.7049887704039
 21
354.3801703489736
 31
0.0
  0
ARC
  5
E2FB
330
E2F7
100
AcDbEntity
  8
InsertDims
 62
     3
370
    -2
100
AcDbCircle
 10
546.9106634235122
 20
348.636723727162
 30
0.0
 40
10.50368208794334
100
AcDbArc
 50
34.92310691683305
 51
62.46155345841652
  0
ARC
  5
E2FC
330
E2F7
100
AcDbEntity
  8
InsertDims
 62
     3
370
    -2
100
AcDbCircle
 10
546.9106634235122
 20
348.636723727162
 30
0.0
 40
10.50368208794334
100
AcDbArc
 50
147.5384465415825
 51
175.076893083166
  0
ARC
  5
E2FD
330
E2F7
100
AcDbEntity
  8
InsertDims
 62
     3
370
    -2
100
AcDbCircle
 10
546.9106634235122
 20
348.636723727162
 30
0.0
 40
10.50368208794334
100
AcDbArc
 50
90.0
 51
119.9999999999991
  0
SOLID
  5
E2FE
330
E2F7
100
AcDbEntity
  8
InsertDims
 62
     3
370
   100
100
AcDbTrace
 10
551.5686316255944
 20
357.1409617241551
 30
0.0
 11
551.9653179144386
 21
358.7597321729898
 31
0.0
 12
546.9106634235122
 22
359.1404058151054
 32
0.0
 13
546.9106634235122
 23
359.1404058151054
 33
0.0
  0
SOLID
  5
E2FF
330
E2F7
100
AcDbEntity
  8
InsertDims
 62
     3
370
   100
100
AcDbTrace
 10
537.4717000041031
 20
354.8761789585102
 30
0.0
 11
538.6246256319926
 21
353.6726257713458
 31
0.0
 12
541.6588223795407
 22
357.7331792485965
 32
0.0
 13
541.6588223795407
 23
357.7331792485965
 33
0.0
  0
MTEXT
  5
E300
330
E2F7
100
AcDbEntity
  8
InsertDims
 62
     2
370
   100
100
AcDbMText
 10
568.1216554370704
 20
354.3801703489737
 30
0.0
 40
5.0
 41
0.0
 46
0.0
 71
     5
 72
     1
  1
\A1;30°
 73
     1
 44
1.0
  0
POINT
  5
E301
330
E2F7
100
AcDbEntity
  8
DEFPOINTS
 62
     0
370
   100
100
AcDbPoint
 10
543.3181925703467
 20
358.5069562762835
 30
0.0
  0
POINT
  5
E302
330
E2F7
100
AcDbEntity
  8
DEFPOINTS
 62
     0
370
   100
100
AcDbPoint
 10
546.9106634235122
 20
348.636723727162
 30
0.0
  0
POINT
  5
E303
330
E2F7
100
AcDbEntity
  8
DEFPOINTS
 62
     0
370
   100
100
AcDbPoint
 10
546.9106634235122
 20
348.636723727162
 30
0.0
  0
POINT
  5
E304
330
E2F7
100
AcDbEntity
  8
DEFPOINTS
 62
     0
370
   100
100
AcDbPoint
 10
546.9106634235122
 20
397.636723727162
 30
0.0
  0
POINT
  5
E305
330
E2F7
100
AcDbEntity
  8
DEFPOINTS
 62
     0
370
   100
100
AcDbPoint
 10
540.8484855970214
 20
359.136723727162
 30
0.0
  0
ENDBLK
  5
E306
330
E2F7
100
AcDbEntity
  8
0
370
   100
100
AcDbBlockEnd
  0
BLOCK
  5
E308
330
E307
100
AcDbEntity
  8
0
370
   100
100
AcDbBlockBegin
  2
*D35
 70
     1
 10
0.0
 20
0.0
 30
0.0
  3
*D35
  1

  0
LINE
  5
E309
330
E307
100
AcDbEntity
  8
InsertDims
 62
     3
370
    -2
100
AcDbLine
 10
546.9106634235122
 20
346.636723727162
 30
0.0
 11
546.9106634235122
 21
332.5109590737193
 31
0.0
  0
LINE
  5
E30A
330
E307
100
AcDbEntity
  8
InsertDims
 62
     3
370
    -2
100
AcDbLine
 10
550.4106634235122
 20
346.636723727162
 30
0.0
 11
550.4106634235122
 21
332.5109590737193
 31
0.0
  0
LINE
  5
E30B
330
E307
100
AcDbEntity
  8
InsertDims
 62
     3
370
    -2
100
AcDbLine
 10
541.9106634235122
 20
334.5109590737193
 30
0.0
 11
536.9106634235122
 21
334.5109590737193
 31
0.0
  0
LINE
  5
E30C
330
E307
100
AcDbEntity
  8
InsertDims
 62
     3
370
    -2
100
AcDbLine
 10
555.4106634235122
 20
334.5109590737193
 30
0.0
 11
560.4106634235122
 21
334.5109590737193
 31
0.0
  0
LINE
  5
E30D
330
E307
100
AcDbEntity
  8
InsertDims
 62
     3
370
    -2
100
AcDbLine
 10
546.9106634235122
 20
334.5109590737193
 30
0.0
 11
550.4106634235122
 21
334.5109590737193
 31
0.0
  0
SOLID
  5
E30E
330
E307
100
AcDbEntity
  8
InsertDims
 62
     3
370
   100
100
AcDbTrace
 10
541.9106634235122
 20
335.3442924070526
 30
0.0
 11
541.9106634235122
 21
333.6776257403859
 31
0.0
 12
546.9106634235122
 22
334.5109590737193
 32
0.0
 13
546.9106634235122
 23
334.5109590737193
 33
0.0
  0
SOLID
  5
E30F
330
E307
100
AcDbEntity
  8
InsertDims
 62
     3
370
   100
100
AcDbTrace
 10
555.4106634235122
 20
335.3442924070526
 30
0.0
 11
555.4106634235122
 21
333.6776257403859
 31
0.0
 12
550.4106634235122
 22
334.5109590737193
 32
0.0
 13
550.4106634235122
 23
334.5109590737193
 33
0.0
  0
MTEXT
  5
E310
330
E307
100
AcDbEntity
  8
InsertDims
 62
     2
370
   100
100
AcDbMText
 10
567.4106634235122
 20
334.5109590737193
 30
0.0
 40
5.0
 41
0.0
 46
0.0
 71
     5
 72
     1
  1
\A1;3.5
 73
     1
 44
1.0
  0
POINT
  5
E311
330
E307
100
AcDbEntity
  8
DEFPOINTS
 62
     0
370
   100
100
AcDbPoint
 10
546.9106634235122
 20
348.636723727162
 30
0.0
  0
POINT
  5
E312
330
E307
100
AcDbEntity
  8
DEFPOINTS
 62
     0
370
   100
100
AcDbPoint
 10
550.4106634235122
 20
348.636723727162
 30
0.0
  0
POINT
  5
E313
330
E307
100
AcDbEntity
  8
DEFPOINTS
 62
     0
370
   100
100
AcDbPoint
 10
550.4106634235122
 20
334.5109590737193
 30
0.0
  0
ENDBLK
  5
E314
330
E307
100
AcDbEntity
  8
0
370
   100
100
AcDbBlockEnd
  0
BLOCK
  5
E316
330
E315
100
AcDbEntity
  8
0
370
   100
100
AcDbBlockBegin
  2
*D36
 70
     1
 10
0.0
 20
0.0
 30
0.0
  3
*D36
  1

  0
LINE
  5
E317
330
E315
100
AcDbEntity
  8
InsertDims
 62
     3
370
    -2
100
AcDbLine
 10
538.4106634235122
 20
375.136723727162
 30
0.0
 11
538.4106634235122
 21
403.9450067286589
 31
0.0
  0
LINE
  5
E318
330
E315
100
AcDbEntity
  8
InsertDims
 62
     3
370
    -2
100
AcDbLine
 10
550.4106634235122
 20
375.136723727162
 30
0.0
 11
550.4106634235122
 21
403.9450067286589
 31
0.0
  0
LINE
  5
E319
330
E315
100
AcDbEntity
  8
InsertDims
 62
     3
370
    -2
100
AcDbLine
 10
533.4106634235122
 20
401.9450067286588
 30
0.0
 11
528.4106634235122
 21
401.9450067286588
 31
0.0
  0
LINE
  5
E31A
330
E315
100
AcDbEntity
  8
InsertDims
 62
     3
370
    -2
100
AcDbLine
 10
555.4106634235122
 20
401.9450067286588
 30
0.0
 11
560.4106634235122
 21
401.9450067286588
 31
0.0
  0
LINE
  5
E31B
330
E315
100
AcDbEntity
  8
InsertDims
 62
     3
370
    -2
100
AcDbLine
 10
538.4106634235122
 20
401.9450067286588
 30
0.0
 11
539.0773300901789
 21
401.9450067286588
 31
0.0
  0
LINE
  5
E31C
330
E315
100
AcDbEntity
  8
InsertDims
 62
     3
370
    -2
100
AcDbLine
 10
550.4106634235122
 20
401.9450067286588
 30
0.0
 11
549.7439967568456
 21
401.9450067286588
 31
0.0
  0
SOLID
  5
E31D
330
E315
100
AcDbEntity
  8
InsertDims
 62
     3
370
   100
100
AcDbTrace
 10
533.4106634235122
 20
402.7783400619922
 30
0.0
 11
533.4106634235122
 21
401.1116733953255
 31
0.0
 12
538.4106634235122
 22
401.9450067286588
 32
0.0
 13
538.4106634235122
 23
401.9450067286588
 33
0.0
  0
SOLID
  5
E31E
330
E315
100
AcDbEntity
  8
InsertDims
 62
     3
370
   100
100
AcDbTrace
 10
555.4106634235122
 20
402.7783400619922
 30
0.0
 11
555.4106634235122
 21
401.1116733953255
 31
0.0
 12
550.4106634235122
 22
401.9450067286588
 32
0.0
 13
550.4106634235122
 23
401.9450067286588
 33
0.0
  0
MTEXT
  5
E31F
330
E315
100
AcDbEntity
  8
InsertDims
 62
     2
370
   100
100
AcDbMText
 10
544.4106634235122
 20
401.9450067286588
 30
0.0
 40
5.0
 41
0.0
 46
0.0
 71
     5
 72
     1
  1
\A1;12
 73
     1
 44
1.0
  0
POINT
  5
E320
330
E315
100
AcDbEntity
  8
DEFPOINTS
 62
     0
370
   100
100
AcDbPoint
 10
538.4106634235122
 20
373.136723727162
 30
0.0
  0
POINT
  5
E321
330
E315
100
AcDbEntity
  8
DEFPOINTS
 62
     0
370
   100
100
AcDbPoint
 10
550.4106634235122
 20
373.136723727162
 30
0.0
  0
POINT
  5
E322
330
E315
100
AcDbEntity
  8
DEFPOINTS
 62
     0
370
   100
100
AcDbPoint
 10
550.4106634235122
 20
401.9450067286588
 30
0.0
  0
ENDBLK
  5
E323
330
E315
100
AcDbEntity
  8
0
370
   100
100
AcDbBlockEnd
  0
BLOCK
  5
E325
330
E324
100
AcDbEntity
  8
0
370
   100
100
AcDbBlockBegin
  2
*D37
 70
     1
 10
0.0
 20
0.0
 30
0.0
  3
*D37
  1

  0
LINE
  5
E326
330
E324
100
AcDbEntity
  8
InsertDims
 62
     3
370
    -2
100
AcDbLine
 10
480.4106634235122
 20
475.1836298178513
 30
0.0
 11
480.4106634235122
 21
492.3928304856312
 31
0.0
  0
LINE
  5
E327
330
E324
100
AcDbEntity
  8
InsertDims
 62
     3
370
    -2
100
AcDbLine
 10
514.4227204347012
 20
472.1673284296254
 30
0.0
 11
514.4227204347012
 21
492.3928304856312
 31
0.0
  0
LINE
  5
E328
330
E324
100
AcDbEntity
  8
InsertDims
 62
     3
370
    -2
100
AcDbLine
 10
485.4106634235122
 20
490.3928304856313
 30
0.0
 11
491.2500252624401
 21
490.3928304856313
 31
0.0
  0
LINE
  5
E329
330
E324
100
AcDbEntity
  8
InsertDims
 62
     3
370
    -2
100
AcDbLine
 10
509.4227204347013
 20
490.3928304856313
 30
0.0
 11
503.5833585957735
 21
490.3928304856313
 31
0.0
  0
SOLID
  5
E32A
330
E324
100
AcDbEntity
  8
InsertDims
 62
     3
370
   100
100
AcDbTrace
 10
485.4106634235122
 20
491.2261638189646
 30
0.0
 11
485.4106634235122
 21
489.559497152298
 31
0.0
 12
480.4106634235122
 22
490.3928304856313
 32
0.0
 13
480.4106634235122
 23
490.3928304856313
 33
0.0
  0
SOLID
  5
E32B
330
E324
100
AcDbEntity
  8
InsertDims
 62
     3
370
   100
100
AcDbTrace
 10
509.4227204347013
 20
491.2261638189646
 30
0.0
 11
509.4227204347013
 21
489.559497152298
 31
0.0
 12
514.4227204347012
 22
490.3928304856313
 32
0.0
 13
514.4227204347012
 23
490.3928304856313
 33
0.0
  0
MTEXT
  5
E32C
330
E324
100
AcDbEntity
  8
InsertDims
 62
     2
370
   100
100
AcDbMText
 10
497.4166919291067
 20
490.3928304856313
 30
0.0
 40
5.0
 41
0.0
 46
0.0
 71
     5
 72
     1
  1
\A1;34
 73
     1
 44
1.0
  0
POINT
  5
E32D
330
E324
100
AcDbEntity
  8
DEFPOINTS
 62
     0
370
   100
100
AcDbPoint
 10
480.4106634235122
 20
473.1836298178514
 30
0.0
  0
POINT
  5
E32E
330
E324
100
AcDbEntity
  8
DEFPOINTS
 62
     0
370
   100
100
AcDbPoint
 10
514.4227204347012
 20
470.1673284296255
 30
0.0
  0
POINT
  5
E32F
330
E324
100
AcDbEntity
  8
DEFPOINTS
 62
     0
370
   100
100
AcDbPoint
 10
514.4227204347012
 20
490.3928304856313
 30
0.0
  0
ENDBLK
  5
E330
330
E324
100
AcDbEntity
  8
0
370
   100
100
AcDbBlockEnd
  0
BLOCK
  5
E40A
330
E331
100
AcDbEntity
  8
0
370
   100
100
AcDbBlockBegin
  2
A$C50436803
 70
     0
 10
0.0
 20
0.0
 30
0.0
  3
A$C50436803
  1

  0
LINE
  5
E332
330
E331
100
AcDbEntity
  8
InsertDims
370
   100
100
AcDbLine
 10
-0.0000026184337187
 20
222.150645124574
 30
0.0
 11
785.1590073815661
 21
222.150645124574
 31
0.0
  0
TEXT
  5
E333
330
E331
100
AcDbEntity
  8
BORDER_TEXT_A1
100
AcDbText
 10
159.6282005143071
 20
551.6144929724228
 30
0.0
 40
10.0
  1
DO NOT SCALE   -   IF IN DOUBT ASK !
100
AcDbText
  0
LINE
  5
E334
330
E331
100
AcDbEntity
  8
Construction
  6
CENTER
100
AcDbLine
 10
190.5112240867456
 20
447.4791509424253
 30
0.0
 11
479.6951889426755
 21
447.4791509424253
 31
0.0
  0
MTEXT
  5
E335
330
E331
100
AcDbEntity
  8
InsertDims
370
   100
100
AcDbMText
 10
262.5187767689795
 20
285.4385969580126
 30
0.0
 40
5.0
 41
103.1684704028011
 46
0.0
 71
     1
 72
     5
  1
{\Ftxt.shx|c1;QwikFoot Ferrule} {\Ftxt.shx|c1;20x96A \Pwith 15mm Crosshole\P}\PUNI-FEFZ2096A \PUNI-FEFG2096A
 73
     1
 44
1.0
  0
DIMENSION
  5
E336
330
E331
100
AcDbEntity
  8
InsertDims
370
   100
100
AcDbDimension
280
     0
  2
*D3
 10
223.9788464794644
 20
480.946773335144
 30
0.0
 11
213.7125889272578
 21
503.4922006059558
 31
0.0
 12
-37.42049761843373
 22
-11.70447887542604
 32
0.0
 70
     2
 71
     5
 42
0.7853981633974479
 73
     0
 74
     0
 75
     0
  3
STANDARD
100
AcDb2LineAngularDimension
 13
190.5112240867456
 23
267.562194481824
 33
0.0
 14
190.5112240867456
 24
524.8024869013542
 34
0.0
 15
190.5112240867456
 25
447.4791509424253
 35
0.0
 16
220.8252681219438
 26
499.9846153942685
 36
0.0
  0
LINE
  5
E337
330
E331
100
AcDbEntity
  8
Construction
  6
CENTER
100
AcDbLine
 10
190.5112240867462
 20
83.03446185610932
 30
0.0
 11
190.5112240867462
 21
178.3155771535444
 31
0.0
  0
DIMENSION
  5
E338
330
E331
100
AcDbEntity
  8
InsertDims
370
   100
100
AcDbDimension
280
     0
  2
*D16
 10
354.9755748896302
 20
85.74634436751791
 30
0.0
 11
371.9755748896302
 21
85.74634436751791
 31
0.0
 12
-37.42049761843373
 22
-11.70447887542604
 32
0.0
 71
     5
 42
9.562177826490824
 73
     0
 74
     0
 75
     0
  3
STANDARD
100
AcDbAlignedDimension
 13
345.4133970631393
 23
129.9170951217428
 33
0.0
 14
354.9755748896302
 24
129.9170951217428
 34
0.0
100
AcDbRotatedDimension
1001
ACAD
1000
DSTYLE
1002
{
1070
    45
1040
0.5
1002
}
  0
MTEXT
  5
E339
330
E331
100
AcDbEntity
  8
InsertDims
370
   100
100
AcDbMText
 10
258.8488801570193
 20
73.79998878618607
 30
0.0
 40
5.0
 41
103.1684704028011
 46
0.0
 71
     1
 72
     5
  1
{\Ftxt.shx|c1;QwikFoot Ferrule} {\Ftxt.shx|c1;20x96 \Pwith 1}1{\Ftxt.shx|c1;mm Crosshole\P}\PUNI-FEFZ2096 \PUNI-FEFG2096
 73
     1
 44
1.0
  0
LINE
  5
E33A
330
E331
100
AcDbEntity
  8
Construction
  6
CENTER
370
   100
100
AcDbLine
 10
239.5112240867462
 20
143.917095121743
 30
0.0
 11
132.3013153684238
 21
143.917095121743
 31
0.0
  0
CIRCLE
  5
E33B
330
E331
100
AcDbEntity
  8
Insert
100
AcDbCircle
 10
190.5112240867462
 20
143.9170951217429
 30
0.0
 40
10.0
  0
CIRCLE
  5
E33C
330
E331
100
AcDbEntity
  8
Insert
100
AcDbCircle
 10
190.5112240867462
 20
143.9170951217429
 30
0.0
 40
14.0
  0
CIRCLE
  5
E33D
330
E331
100
AcDbEntity
  8
Insert
100
AcDbCircle
 10
190.5112240867462
 20
143.9170951217429
 30
0.0
 40
24.5
  0
CIRCLE
  5
E33E
330
E331
100
AcDbEntity
  8
Insert
  6
HIDDEN2
100
AcDbCircle
 10
190.5112240867462
 20
143.9170951217429
 30
0.0
 40
11.0
  0
LINE
  5
E33F
330
E331
100
AcDbEntity
  8
Insert
  6
HIDDEN
100
AcDbLine
 10
178.6634910567408
 20
149.4170951217428
 30
0.0
 11
202.3589571167515
 21
149.4170951217431
 31
0.0
  0
LINE
  5
E340
330
E331
100
AcDbEntity
  8
Insert
  6
HIDDEN
100
AcDbLine
 10
178.6634918889286
 20
138.4170951217429
 30
0.0
 11
202.3589562845637
 21
138.417095121743
 31
0.0
  0
LINE
  5
E341
330
E331
100
AcDbEntity
  8
Insert
100
AcDbLine
 10
179.6080540724516
 20
135.1352454510079
 30
0.0
 11
172.1589474491758
 21
127.6861388277322
 31
0.0
  0
LINE
  5
E342
330
E331
100
AcDbEntity
  8
Insert
100
AcDbLine
 10
181.7293744160112
 20
133.0139251074483
 30
0.0
 11
174.2802677927354
 21
125.5648184841726
 31
0.0
  0
CIRCLE
  5
E343
330
E331
100
AcDbEntity
  8
InsertDims
370
   100
100
AcDbCircle
 10
190.5112240867462
 20
143.917095121743
 30
0.0
 40
5.5
  0
LINE
  5
E344
330
E331
100
AcDbEntity
  8
Construction
  6
ACAD_ISO02W100
100
AcDbLine
 10
190.5112240867462
 20
143.917095121743
 30
0.0
 11
239.5112240867462
 21
143.9170951217429
 31
0.0
  0
LINE
  5
E345
330
E331
100
AcDbEntity
  8
Insert
100
AcDbLine
 10
199.2930737574812
 20
154.8202651360375
 30
0.0
 11
206.742180380757
 21
162.2693717593133
 31
0.0
  0
LINE
  5
E346
330
E331
100
AcDbEntity
  8
Insert
100
AcDbLine
 10
201.4143941010408
 20
152.6989447924779
 30
0.0
 11
208.8635007243166
 21
160.1480514157537
 31
0.0
  0
DIMENSION
  5
E347
330
E331
100
AcDbEntity
  8
InsertDims
370
   100
100
AcDbDimension
280
     0
  2
*D19
 10
354.9755748896302
 20
192.3739740975284
 30
0.0
 11
346.2255748896301
 21
192.3739740975284
 31
0.0
 12
-37.42049761843373
 22
-11.70447887542604
 32
0.0
 71
     5
 42
17.5
 73
     0
 74
     0
 75
     0
  3
STANDARD
100
AcDbAlignedDimension
 13
337.4755748896301
 23
143.917095121743
 33
0.0
 14
354.9755748896302
 24
143.917095121743
 34
0.0
100
AcDbRotatedDimension
  0
DIMENSION
  5
E348
330
E331
100
AcDbEntity
  8
InsertDims
370
   100
100
AcDbDimension
280
     0
  2
*D20
 10
341.0224559098693
 20
148.120621620799
 30
0.0
 11
298.6425410938863
 21
112.1163755693093
 31
0.0
 12
-37.42049761843373
 22
-11.70447887542604
 32
0.0
 70
   131
 71
     5
 42
11.0
 73
     0
 74
     0
 75
     0
  3
STANDARD
100
AcDbDiametricDimension
 15
333.928693869391
 25
139.7135686226869
 35
0.0
 40
0.0
1001
ACAD
1000
DSTYLE
1002
{
1070
   288
1070
     1
1002
}
  0
LINE
  5
E349
330
E331
100
AcDbEntity
  8
Insert
100
AcDbLine
 10
259.9755748896301
 20
129.917095121743
 30
0.0
 11
345.4133970631393
 21
129.9170951217429
 31
0.0
  0
LINE
  5
E34A
330
E331
100
AcDbEntity
  8
Insert
100
AcDbLine
 10
259.9755748896301
 20
157.9170951217429
 30
0.0
 11
343.2958191138714
 21
157.9170951217431
 31
0.0
  0
LINE
  5
E34B
330
E331
100
AcDbEntity
  8
Insert
100
AcDbLine
 10
259.9755748896301
 20
157.917095121743
 30
0.0
 11
259.9755748896301
 21
129.917095121743
 31
0.0
  0
DIMENSION
  5
E34C
330
E331
100
AcDbEntity
  8
InsertDims
370
   100
100
AcDbDimension
280
     0
  2
*D21
 10
354.9755748896302
 20
172.916167981105
 30
0.0
 11
348.9736511416476
 21
172.916167981105
 31
0.0
 12
-37.42049761843373
 22
-11.70447887542604
 32
0.0
 71
     5
 42
12.00384749596503
 73
     0
 74
     0
 75
     0
  3
STANDARD
100
AcDbAlignedDimension
 13
342.9717273936651
 23
143.7114068809754
 33
0.0
 14
354.9755748896302
 24
143.7114068809754
 34
0.0
100
AcDbRotatedDimension
  0
LINE
  5
E34D
330
E331
100
AcDbEntity
  8
Insert
100
AcDbLine
 10
354.9755748896302
 20
119.417095121743
 30
0.0
 11
354.9755748896302
 21
168.417095121743
 31
0.0
  0
LINE
  5
E34E
330
E331
100
AcDbEntity
  8
Insert
100
AcDbLine
 10
351.4755748896301
 20
119.417095121743
 30
0.0
 11
351.4755748896301
 21
168.417095121743
 31
0.0
  0
DIMENSION
  5
E34F
330
E331
100
AcDbEntity
  8
InsertDims
370
   100
100
AcDbDimension
280
     0
  2
*D17
 10
345.4133970631393
 20
129.917095121743
 30
0.0
 11
372.6865669031886
 21
125.1605417435546
 31
0.0
 12
-37.42049761843373
 22
-11.70447887542604
 32
0.0
 70
     2
 71
     5
 42
0.5235987755982804
 73
     0
 74
     0
 75
     0
  3
STANDARD
100
AcDb2LineAngularDimension
 13
351.4755748896301
 23
119.417095121743
 33
0.0
 14
351.4755748896301
 24
168.417095121743
 34
0.0
 15
351.4755748896301
 25
119.417095121743
 35
0.0
 16
347.8831040364646
 26
129.2873276708645
 36
0.0
  0
CIRCLE
  5
E350
330
E331
100
AcDbEntity
  8
Insert
100
AcDbCircle
 10
337.4755748896301
 20
143.917095121743
 30
0.0
 40
5.5
  0
LINE
  5
E351
330
E331
100
AcDbEntity
  8
Insert
100
AcDbLine
 10
345.4133970631392
 20
152.6989447924779
 30
0.0
 11
345.4133970631393
 21
129.9170951217429
 31
0.0
  0
LINE
  5
E352
330
E331
100
AcDbEntity
  8
Insert
100
AcDbLine
 10
351.4755748896301
 20
119.417095121743
 30
0.0
 11
345.4133970631393
 21
129.917095121743
 31
0.0
  0
DIMENSION
  5
E353
330
E331
100
AcDbEntity
  8
InsertDims
370
   100
100
AcDbDimension
280
     0
  2
*D18
 10
354.9755748896302
 20
105.2913304683002
 30
0.0
 11
371.9755748896302
 21
105.2913304683002
 31
0.0
 12
-37.42049761843373
 22
-11.70447887542604
 32
0.0
 71
     5
 42
3.5
 73
     0
 74
     0
 75
     0
  3
STANDARD
100
AcDbAlignedDimension
 13
351.4755748896301
 23
119.417095121743
 33
0.0
 14
354.9755748896302
 24
119.417095121743
 34
0.0
100
AcDbRotatedDimension
  0
LINE
  5
E354
330
E331
100
AcDbEntity
  8
Insert
100
AcDbLine
 10
354.9755748896302
 20
119.417095121743
 30
0.0
 11
351.4755748896301
 21
119.417095121743
 31
0.0
  0
LINE
  5
E355
330
E331
100
AcDbEntity
  8
Insert
370
   100
100
AcDbLine
 10
351.4755748896301
 20
160.1480514157537
 30
0.0
 11
345.4133970631392
 21
152.6989447924779
 31
0.0
  0
LINE
  5
E356
330
E331
100
AcDbEntity
  8
Insert
370
   100
100
AcDbLine
 10
351.4755748896301
 20
160.1480514157537
 30
0.0
 11
337.4755748896301
 21
152.6989447924779
 31
0.0
  0
LINE
  5
E357
330
E331
100
AcDbEntity
  8
Insert
100
AcDbLine
 10
351.4755748896301
 20
168.417095121743
 30
0.0
 11
346.3523515341005
 21
159.5434119714421
 31
0.0
  0
LINE
  5
E358
330
E331
100
AcDbEntity
  8
Insert
370
   100
100
AcDbLine
 10
351.4755748896301
 20
162.2693717593133
 30
0.0
 11
337.4755748896301
 21
154.8202651360374
 31
0.0
  0
LINE
  5
E359
330
E331
100
AcDbEntity
  8
Insert
370
   100
100
AcDbLine
 10
337.4755748896301
 20
152.6989447924779
 30
0.0
 11
345.4133970631392
 21
152.6989447924779
 31
0.0
  0
LINE
  5
E35A
330
E331
100
AcDbEntity
  8
Insert
370
   100
100
AcDbLine
 10
337.4755748896301
 20
152.6989447924779
 30
0.0
 11
337.4755748896301
 21
154.8202651360374
 31
0.0
  0
LINE
  5
E35B
330
E331
100
AcDbEntity
  8
Insert
100
AcDbLine
 10
354.9755748896302
 20
168.417095121743
 30
0.0
 11
351.4755748896301
 21
168.417095121743
 31
0.0
  0
DIMENSION
  5
E35C
330
E331
100
AcDbEntity
  8
InsertDims
370
   100
100
AcDbDimension
280
     0
  2
*D6
 10
200.0030598384603
 20
450.6263805277073
 30
0.0
 11
123.7677874419218
 21
430.985606429299
 31
0.0
 12
-37.42049761843373
 22
-11.70447887542604
 32
0.0
 70
   131
  1
M20
 71
     5
 42
20.00000000000006
 73
     0
 74
     0
 75
     0
  3
STANDARD
100
AcDbDiametricDimension
 15
181.0193883350312
 25
444.3319213571434
 35
0.0
 40
0.0
1001
ACAD
1000
DSTYLE
1002
{
1070
   140
1040
8.0
1070
   288
1070
     1
1002
}
  0
DIMENSION
  5
E35D
330
E331
100
AcDbEntity
  8
InsertDims
370
   100
100
AcDbDimension
280
     0
  2
*D4
 10
210.1592569442515
 20
432.8434136931313
 30
0.0
 11
119.8896907928218
 21
483.6971271188956
 31
0.0
 12
-37.42049761843373
 22
-11.70447887542604
 32
0.0
 70
   131
 71
     5
 42
49.00000000000005
 73
     0
 74
     0
 75
     0
  3
STANDARD
100
AcDbDiametricDimension
 15
170.8631912292396
 25
462.1148881917192
 35
0.0
 40
0.0
1001
ACAD
1000
DSTYLE
1002
{
1070
   146
1040
1.0
1070
   283
1070
     1
1070
    47
1040
1.0
1070
   272
1070
     0
1070
   147
1040
2.0
1070
    48
1040
1.0
1070
    72
1070
     0
1070
    71
1070
     1
1070
   288
1070
     1
1002
}
  0
DIMENSION
  5
E35E
330
E331
100
AcDbEntity
  8
InsertDims
370
   100
100
AcDbDimension
280
     0
  2
*D12
 10
354.9755748896296
 20
525.4599072177334
 30
0.0
 11
307.4755748896296
 21
525.4599072177334
 31
0.0
 12
-37.42049761843373
 22
-11.70447887542604
 32
0.0
 71
     5
 42
95.0
 73
     0
 74
     0
 75
     0
  3
STANDARD
100
AcDbAlignedDimension
 13
259.9755748896296
 23
447.4791509424253
 33
0.0
 14
354.9755748896296
 24
447.4791509424253
 34
0.0
100
AcDbRotatedDimension
  0
DIMENSION
  5
E35F
330
E331
100
AcDbEntity
  8
InsertDims
370
   100
100
AcDbDimension
280
     0
  2
*D11
 10
307.9755748894446
 20
478.6883516102052
 30
0.0
 11
283.9755748895371
 21
478.6883516102052
 31
0.0
 12
-37.42049761843373
 22
-11.70447887542604
 32
0.0
 71
     5
 42
47.99999999981508
 73
     0
 74
     0
 75
     0
  3
STANDARD
100
AcDbAlignedDimension
 13
259.9755748896296
 23
457.470337142525
 33
0.0
 14
307.9755748894446
 24
457.464246789843
 34
0.0
100
AcDbRotatedDimension
  0
DIMENSION
  5
E360
330
E331
100
AcDbEntity
  8
InsertDims
370
   100
100
AcDbDimension
280
     0
  2
*D10
 10
324.9755748896296
 20
503.6785532548483
 30
0.0
 11
292.4755748896296
 21
503.6785532548483
 31
0.0
 12
-37.42049761843373
 22
-11.70447887542604
 32
0.0
 71
     5
 42
65.0
 73
     0
 74
     0
 75
     0
  3
STANDARD
100
AcDbAlignedDimension
 13
259.9755748896296
 23
457.470337142525
 33
0.0
 14
324.9755748896296
 24
447.4791509424253
 34
0.0
100
AcDbRotatedDimension
  0
LINE
  5
E361
330
E331
100
AcDbEntity
  8
Insert
100
AcDbLine
 10
351.4755748896296
 20
471.9791509424253
 30
0.0
 11
337.4755748896134
 21
461.3787024171331
 31
0.0
  0
LINE
  5
E362
330
E331
100
AcDbEntity
  8
Insert
100
AcDbLine
 10
189.0112240867456
 20
461.3985618495004
 30
0.0
 11
189.0112240867456
 21
471.9331894637003
 31
0.0
  0
LINE
  5
E363
330
E331
100
AcDbEntity
  8
Insert
100
AcDbLine
 10
192.0112240867456
 20
461.3985618495004
 30
0.0
 11
192.0112240867456
 21
471.9331894637003
 31
0.0
  0
LINE
  5
E364
330
E331
100
AcDbEntity
  8
Construction
  6
ACAD_ISO02W100
100
AcDbLine
 10
190.5112240867456
 20
447.4791509424253
 30
0.0
 11
225.1594563648865
 21
482.1273832205661
 31
0.0
  0
CIRCLE
  5
E365
330
E331
100
AcDbEntity
  8
Insert
100
AcDbCircle
 10
190.5112240867456
 20
447.4791509424253
 30
0.0
 40
24.5
  0
LINE
  5
E366
330
E331
100
AcDbEntity
  8
Insert
100
AcDbLine
 10
351.4755748896296
 20
471.9791509424253
 30
0.0
 11
345.4133970631385
 21
461.4791509424254
 31
0.0
  0
LINE
  5
E367
330
E331
100
AcDbEntity
  8
Insert
100
AcDbLine
 10
351.4755748896296
 20
422.9791509424253
 30
0.0
 11
351.4755748896296
 21
471.9791509424253
 31
0.0
  0
LINE
  5
E368
330
E331
100
AcDbEntity
  8
Insert
100
AcDbLine
 10
354.9755748896296
 20
422.9791509424253
 30
0.0
 11
354.9755748896296
 21
471.9791509424253
 31
0.0
  0
LINE
  5
E369
330
E331
100
AcDbEntity
  8
Insert
100
AcDbLine
 10
201.4143941010402
 20
370.2140945224709
 30
0.0
 11
208.8635007243161
 21
377.6632011457467
 31
0.0
  0
LINE
  5
E36A
330
E331
100
AcDbEntity
  8
Insert
100
AcDbLine
 10
199.2930737574806
 20
372.3354148660305
 30
0.0
 11
206.7421803807564
 21
379.7845214893063
 31
0.0
  0
CIRCLE
  5
E36B
330
E331
100
AcDbEntity
  8
Insert
100
AcDbCircle
 10
190.5112240867456
 20
361.4322448517359
 30
0.0
 40
14.0
  0
CIRCLE
  5
E36C
330
E331
100
AcDbEntity
  8
Insert
100
AcDbCircle
 10
190.5112240867456
 20
361.4322448517359
 30
0.0
 40
24.5
  0
LINE
  5
E36D
330
E331
100
AcDbEntity
  8
Construction
  6
CENTER
100
AcDbLine
 10
190.5112240867456
 20
314.732547064888
 30
0.0
 11
190.5112240867456
 21
395.8307268835373
 31
0.0
  0
LINE
  5
E36E
330
E331
100
AcDbEntity
  8
Insert
  6
HIDDEN
100
AcDbLine
 10
178.6634918889282
 20
353.9736094692548
 30
0.0
 11
202.3589562845633
 21
353.9736094692549
 31
0.0
  0
CIRCLE
  5
E36F
330
E331
100
AcDbEntity
  8
Insert
100
AcDbCircle
 10
190.5112240867456
 20
361.4322448517359
 30
0.0
 40
10.0
  0
CIRCLE
  5
E370
330
E331
100
AcDbEntity
  8
Insert
  6
HIDDEN2
100
AcDbCircle
 10
190.5112240867456
 20
361.4322448517359
 30
0.0
 40
11.0
  0
LINE
  5
E371
330
E331
100
AcDbEntity
  8
Insert
  6
HIDDEN
100
AcDbLine
 10
178.6634910567402
 20
368.8908789123209
 30
0.0
 11
202.3589571167509
 21
368.8908789123211
 31
0.0
  0
LINE
  5
E372
330
E331
100
AcDbEntity
  8
Construction
  6
CENTER
370
   100
100
AcDbLine
 10
239.5112240867456
 20
361.432244851736
 30
0.0
 11
132.3013153684232
 21
361.432244851736
 31
0.0
  0
LINE
  5
E373
330
E331
100
AcDbEntity
  8
Insert
100
AcDbLine
 10
179.608054072451
 20
352.6503951810009
 30
0.0
 11
172.1589474491752
 21
345.2012885577251
 31
0.0
  0
LINE
  5
E374
330
E331
100
AcDbEntity
  8
Insert
100
AcDbLine
 10
181.7293744160106
 20
350.5290748374414
 30
0.0
 11
174.2802677927348
 21
343.0799682141655
 31
0.0
  0
LINE
  5
E375
330
E331
100
AcDbEntity
  8
Construction
  6
ACAD_ISO02W100
100
AcDbLine
 10
190.5112240867456
 20
361.432244851736
 30
0.0
 11
239.5112240867456
 21
361.4322448517359
 31
0.0
  0
DIMENSION
  5
E376
330
E331
100
AcDbEntity
  8
InsertDims
370
   100
100
AcDbDimension
280
     0
  2
*D7
 10
192.0112240867456
 20
411.4352277228581
 30
0.0
 11
205.6778907534123
 21
411.4352277228581
 31
0.0
 12
-37.42049761843373
 22
-11.70447887542604
 32
0.0
 71
     5
 42
2.999999999999971
 73
     0
 74
     0
 75
     0
  3
STANDARD
100
AcDbAlignedDimension
 13
189.0112240867456
 23
428.2924262282502
 33
0.0
 14
192.0112240867456
 24
428.2924262282502
 34
0.0
100
AcDbRotatedDimension
  0
DIMENSION
  5
E377
330
E331
100
AcDbEntity
  8
InsertDims
370
   100
100
AcDbDimension
280
     0
  2
*D5
 10
204.3743420498726
 20
445.5262146043877
 30
0.0
 11
146.3772936077375
 21
453.6964216027577
 31
0.0
 12
-37.42049761843373
 22
-11.70447887542604
 32
0.0
 70
   131
 71
     5
 42
28.00000000000003
 73
     0
 74
     0
 75
     0
  3
STANDARD
100
AcDbDiametricDimension
 15
176.6481061236186
 25
449.4320872804628
 35
0.0
 40
0.0
1001
ACAD
1000
DSTYLE
1002
{
1070
   288
1070
     1
1002
}
  0
LINE
  5
E378
330
E331
100
AcDbEntity
  8
Insert
  6
HIDDEN
100
AcDbLine
 10
176.8595609969123
 20
444.3755892978493
 30
0.0
 11
193.6147857313214
 21
461.1308140322586
 31
0.0
  0
CIRCLE
  5
E379
330
E331
100
AcDbEntity
  8
Insert
100
AcDbCircle
 10
190.5112240867456
 20
447.4791509424253
 30
0.0
 40
14.0
  0
CIRCLE
  5
E37A
330
E331
100
AcDbEntity
  8
Insert
  6
HIDDEN2
100
AcDbCircle
 10
190.5112240867456
 20
447.4791509424253
 30
0.0
 40
11.0
  0
CIRCLE
  5
E37B
330
E331
100
AcDbEntity
  8
Insert
100
AcDbCircle
 10
190.5112240867456
 20
447.4791509424253
 30
0.0
 40
10.0
  0
LINE
  5
E37C
330
E331
100
AcDbEntity
  8
Construction
  6
CENTER
100
AcDbLine
 10
190.5112240867456
 20
385.932244851736
 30
0.0
 11
190.5112240867456
 21
438.7555808106649
 31
0.0
  0
LINE
  5
E37D
330
E331
100
AcDbEntity
  8
Insert
  6
HIDDEN
100
AcDbLine
 10
187.407663965337
 20
433.8274875063161
 30
0.0
 11
204.1628875228548
 21
450.5827110638342
 31
0.0
  0
LINE
  5
E37E
330
E331
100
AcDbEntity
  8
Insert
100
AcDbLine
 10
192.0112240867456
 20
433.5597400353503
 30
0.0
 11
192.0112240867456
 21
423.0251124211504
 31
0.0
  0
LINE
  5
E37F
330
E331
100
AcDbEntity
  8
Insert
100
AcDbLine
 10
189.0112240867456
 20
433.5597400353503
 30
0.0
 11
189.0112240867456
 21
423.0251124211504
 31
0.0
  0
DIMENSION
  5
E380
330
E331
100
AcDbEntity
  8
InsertDims
370
   100
100
AcDbDimension
280
     0
  2
*D22
 10
354.9755748896296
 20
390.2405278532328
 30
0.0
 11
348.9755748896296
 21
390.2405278532328
 31
0.0
 12
-37.42049761843373
 22
-11.70447887542604
 32
0.0
 71
     5
 42
12.0
 73
     0
 74
     0
 75
     0
  3
STANDARD
100
AcDbAlignedDimension
 13
342.9755748896296
 23
361.432244851736
 33
0.0
 14
354.9755748896296
 24
361.432244851736
 34
0.0
100
AcDbRotatedDimension
  0
DIMENSION
  5
E381
330
E331
100
AcDbEntity
  8
InsertDims
370
   100
100
AcDbDimension
280
     0
  2
*D15
 10
342.6050742419777
 20
366.9038293018073
 30
0.0
 11
295.2658152848037
 21
330.0967116652101
 31
0.0
 12
-37.42049761843373
 22
-11.70447887542604
 32
0.0
 70
   131
 71
     5
 42
15.0
 73
     0
 74
     0
 75
     0
  3
STANDARD
100
AcDbDiametricDimension
 15
332.3460755372817
 25
355.9606604016648
 35
0.0
 40
0.0
1001
ACAD
1000
DSTYLE
1002
{
1070
   288
1070
     1
1002
}
  0
LINE
  5
E382
330
E331
100
AcDbEntity
  8
Insert
370
   100
100
AcDbLine
 10
351.4755748896296
 20
379.7845214893063
 30
0.0
 11
337.4755748896296
 21
372.3354148660304
 31
0.0
  0
LINE
  5
E383
330
E331
100
AcDbEntity
  8
Insert
370
   100
100
AcDbLine
 10
351.4755748896296
 20
377.6632011457467
 30
0.0
 11
337.4755748896296
 21
370.2140945224709
 31
0.0
  0
LINE
  5
E384
330
E331
100
AcDbEntity
  8
Insert
370
   100
100
AcDbLine
 10
351.4755748896296
 20
377.6632011457467
 30
0.0
 11
345.4133970631386
 21
370.2140945224709
 31
0.0
  0
DIMENSION
  5
E385
330
E331
100
AcDbEntity
  8
InsertDims
370
   100
100
AcDbDimension
280
     0
  2
*D14
 10
345.4133970631387
 20
347.432244851736
 30
0.0
 11
372.686566903188
 21
342.6756914735477
 31
0.0
 12
-37.42049761843373
 22
-11.70447887542604
 32
0.0
 70
     2
 71
     5
 42
0.5235987755982845
 73
     0
 74
     0
 75
     0
  3
STANDARD
100
AcDb2LineAngularDimension
 13
351.4755748896296
 23
336.932244851736
 33
0.0
 14
351.4755748896296
 24
385.932244851736
 34
0.0
 15
351.4755748896296
 25
336.932244851736
 35
0.0
 16
347.883104036464
 26
346.8024774008574
 36
0.0
  0
DIMENSION
  5
E386
330
E331
100
AcDbEntity
  8
InsertDims
370
   100
100
AcDbDimension
280
     0
  2
*D13
 10
354.9755748896296
 20
408.1353794652787
 30
0.0
 11
345.2255748896296
 21
408.1353794652787
 31
0.0
 12
-37.42049761843373
 22
-11.70447887542604
 32
0.0
 70
   128
 71
     5
 42
19.5
 73
     0
 74
     0
 75
     0
  3
STANDARD
100
AcDbAlignedDimension
 13
335.4755748896296
 23
361.432244851736
 33
0.0
 14
354.9755748896296
 24
361.432244851736
 34
0.0
100
AcDbRotatedDimension
  0
LINE
  5
E387
330
E331
100
AcDbEntity
  8
Insert
100
AcDbLine
 10
354.9755748896296
 20
336.932244851736
 30
0.0
 11
354.9755748896296
 21
385.932244851736
 31
0.0
  0
LINE
  5
E388
330
E331
100
AcDbEntity
  8
Insert
100
AcDbLine
 10
351.4755748896296
 20
336.932244851736
 30
0.0
 11
351.4755748896296
 21
385.932244851736
 31
0.0
  0
LINE
  5
E389
330
E331
100
AcDbEntity
  8
Insert
100
AcDbLine
 10
259.9755748896296
 20
375.432244851736
 30
0.0
 11
259.9755748896296
 21
347.432244851736
 31
0.0
  0
LINE
  5
E38A
330
E331
100
AcDbEntity
  8
Insert
100
AcDbLine
 10
259.9755748896296
 20
347.432244851736
 30
0.0
 11
345.4133970631387
 21
347.4322448517359
 31
0.0
  0
DIMENSION
  5
E38B
330
E331
100
AcDbEntity
  8
InsertDims
370
   100
100
AcDbDimension
280
     0
  2
*D9
 10
354.9755748896296
 20
303.2614940975109
 30
0.0
 11
371.9755748896296
 21
303.2614940975109
 31
0.0
 12
-37.42049761843373
 22
-11.70447887542604
 32
0.0
 71
     5
 42
9.562177826490824
 73
     0
 74
     0
 75
     0
  3
STANDARD
100
AcDbAlignedDimension
 13
345.4133970631387
 23
347.4322448517359
 33
0.0
 14
354.9755748896296
 24
347.4322448517359
 34
0.0
100
AcDbRotatedDimension
1001
ACAD
1000
DSTYLE
1002
{
1070
    45
1040
0.5
1002
}
  0
DIMENSION
  5
E38C
330
E331
100
AcDbEntity
  8
InsertDims
370
   100
100
AcDbDimension
280
     0
  2
*D8
 10
354.9755748896296
 20
322.8064801982932
 30
0.0
 11
371.9755748896296
 21
322.8064801982932
 31
0.0
 12
-37.42049761843373
 22
-11.70447887542604
 32
0.0
 71
     5
 42
3.5
 73
     0
 74
     0
 75
     0
  3
STANDARD
100
AcDbAlignedDimension
 13
351.4755748896296
 23
336.932244851736
 33
0.0
 14
354.9755748896296
 24
336.932244851736
 34
0.0
100
AcDbRotatedDimension
  0
LINE
  5
E38D
330
E331
100
AcDbEntity
  8
Insert
100
AcDbLine
 10
351.4755748896296
 20
336.932244851736
 30
0.0
 11
345.4133970631387
 21
347.432244851736
 31
0.0
  0
LINE
  5
E38E
330
E331
100
AcDbEntity
  8
Insert
100
AcDbLine
 10
345.4133970631386
 20
370.2140945224709
 30
0.0
 11
345.4133970631387
 21
347.4322448517359
 31
0.0
  0
CIRCLE
  5
E38F
330
E331
100
AcDbEntity
  8
Insert
100
AcDbCircle
 10
335.4755748896296
 20
361.432244851736
 30
0.0
 40
7.5
  0
LINE
  5
E390
330
E331
100
AcDbEntity
  8
Insert
370
   100
100
AcDbLine
 10
337.4755748896296
 20
370.2140945224709
 30
0.0
 11
345.4133970631386
 21
370.2140945224709
 31
0.0
  0
LINE
  5
E391
330
E331
100
AcDbEntity
  8
Insert
370
   100
100
AcDbLine
 10
337.4755748896296
 20
370.2140945224709
 30
0.0
 11
337.4755748896296
 21
372.3354148660304
 31
0.0
  0
LINE
  5
E392
330
E331
100
AcDbEntity
  8
Insert
100
AcDbLine
 10
354.9755748896296
 20
336.932244851736
 30
0.0
 11
351.4755748896296
 21
336.932244851736
 31
0.0
  0
LINE
  5
E393
330
E331
100
AcDbEntity
  8
Insert
370
   100
100
AcDbLine
 10
259.9755748896296
 20
437.4703371425249
 30
0.0
 11
319.1926455684617
 21
437.4628235415827
 31
0.0
  0
LINE
  5
E394
330
E331
100
AcDbEntity
  8
Insert
370
   100
100
AcDbLine
 10
259.9755748896296
 20
457.470337142525
 30
0.0
 11
319.211500208212
 21
457.4628211492617
 31
0.0
  0
LINE
  5
E395
330
E331
100
AcDbEntity
  8
Insert
100
AcDbLine
 10
259.9755748896296
 20
375.4322448517359
 30
0.0
 11
343.2958191138708
 21
375.4322448517361
 31
0.0
  0
LINE
  5
E396
330
E331
100
AcDbEntity
  8
Insert
100
AcDbLine
 10
259.9755748896296
 20
433.4791509424253
 30
0.0
 11
345.4133970631387
 21
433.4791509424253
 31
0.0
  0
LINE
  5
E397
330
E331
100
AcDbEntity
  8
Insert
100
AcDbLine
 10
259.9755748896296
 20
461.4791509424253
 30
0.0
 11
345.4133970631385
 21
461.4791509424254
 31
0.0
  0
LINE
  5
E398
330
E331
100
AcDbEntity
  8
Insert
  6
HIDDEN2
370
   100
100
AcDbLine
 10
259.9755748896296
 20
458.4703371425249
 30
0.0
 11
307.7517065820515
 21
458.4642751947794
 31
0.0
  0
LINE
  5
E399
330
E331
100
AcDbEntity
  8
Insert
  6
HIDDEN2
370
   100
100
AcDbLine
 10
259.9755748896296
 20
436.470337142525
 30
0.0
 11
307.7485198712628
 21
436.4642755991168
 31
0.0
  0
LINE
  5
E39A
330
E331
100
AcDbEntity
  8
Insert
100
AcDbLine
 10
259.9755748896296
 20
461.4791509424253
 30
0.0
 11
259.9755748896296
 21
433.4791509424253
 31
0.0
  0
ARC
  5
E39B
330
E331
100
AcDbEntity
  8
Insert
370
   100
100
AcDbCircle
 10
261.029407435216
 20
447.479017229678
 30
0.0
 40
48.0
100
AcDbArc
 50
346.7339068011082
 51
347.9572741556836
  0
ARC
  5
E39C
330
E331
100
AcDbEntity
  8
Insert
370
   100
100
AcDbCircle
 10
261.0256526302427
 20
447.4790177060965
 30
0.0
 40
48.0
100
AcDbArc
 50
12.00667275049642
 51
13.22993687531861
  0
LINE
  5
E39D
330
E331
100
AcDbEntity
  8
Insert
100
AcDbLine
 10
351.4755748896296
 20
385.932244851736
 30
0.0
 11
346.3523515340999
 21
377.0585617014351
 31
0.0
  0
LINE
  5
E39E
330
E331
100
AcDbEntity
  8
Insert
100
AcDbLine
 10
354.9755748896296
 20
385.932244851736
 30
0.0
 11
351.4755748896296
 21
385.932244851736
 31
0.0
  0
LINE
  5
E39F
330
E331
100
AcDbEntity
  8
Insert
100
AcDbLine
 10
337.4755748896296
 20
433.4791509424253
 30
0.0
 11
351.4755748896296
 21
422.9791509424253
 31
0.0
  0
LINE
  5
E3A0
330
E331
100
AcDbEntity
  8
Insert
100
AcDbLine
 10
351.4755748896296
 20
422.9791509424253
 30
0.0
 11
345.4133970631387
 21
433.4791509424253
 31
0.0
  0
LINE
  5
E3A1
330
E331
100
AcDbEntity
  8
Insert
370
   100
100
AcDbLine
 10
324.9755748896296
 20
447.4791509424253
 30
0.0
 11
319.1926455684617
 21
437.4628235415827
 31
0.0
  0
LINE
  5
E3A2
330
E331
100
AcDbEntity
  8
Insert
  6
HIDDEN
100
AcDbLine
 10
342.9755748896295
 20
457.3786458790372
 30
0.0
 11
342.9755748896295
 21
433.4791509424252
 31
0.0
  0
LINE
  5
E3A3
330
E331
100
AcDbEntity
  8
Insert
  6
HIDDEN
100
AcDbLine
 10
327.9755748896296
 20
457.378645879037
 30
0.0
 11
327.9755748896296
 21
433.4791509424252
 31
0.0
  0
LINE
  5
E3A4
330
E331
100
AcDbEntity
  8
Insert
100
AcDbLine
 10
345.4133970631385
 20
461.4791509424254
 30
0.0
 11
345.4133970631387
 21
433.4791509424253
 31
0.0
  0
ELLIPSE
  5
E3A5
330
E331
100
AcDbEntity
  8
Insert
370
   100
100
AcDbEllipse
 10
335.4755748896296
 20
457.378645879037
 30
0.0
 11
-7.5
 21
0.0
 31
0.0
210
0.0
220
0.0
230
1.0
 40
0.9061246420270588
 41
0.0
 42
3.141592653589793
  0
ELLIPSE
  5
E3A6
330
E331
100
AcDbEntity
  8
Insert
370
   100
100
AcDbEllipse
 10
335.4755748896296
 20
457.3786458790371
 30
0.0
 11
-7.5
 21
-0.0000000000001137
 31
0.0
210
0.0
220
0.0
230
1.0
 40
0.5002890870961969
 41
3.141592653589793
 42
6.283185307179586
  0
LINE
  5
E3A7
330
E331
100
AcDbEntity
  8
Insert
370
   100
100
AcDbLine
 10
324.9755748896296
 20
447.4791509424253
 30
0.0
 11
319.211500208212
 21
457.4628211492617
 31
0.0
  0
LINE
  5
E3A8
330
E331
100
AcDbEntity
  8
InsertDims
370
   100
100
AcDbLine
 10
335.4755748896296
 20
461.1308140322585
 30
0.0
 11
345.4133970631385
 21
461.1308140322586
 31
0.0
  0
LINE
  5
E3A9
330
E331
100
AcDbEntity
  8
Insert
100
AcDbLine
 10
354.9755748896296
 20
422.9791509424253
 30
0.0
 11
351.4755748896296
 21
422.9791509424253
 31
0.0
  0
LINE
  5
E3AA
330
E331
100
AcDbEntity
  8
Construction
  6
CENTER
100
AcDbLine
 10
190.5112240867456
 20
471.9791509424253
 30
0.0
 11
190.5112240867456
 21
524.8024869013542
 31
0.0
  0
CIRCLE
  5
E3AB
330
E331
100
AcDbEntity
  8
InsertDims
370
   100
100
AcDbCircle
 10
219.8155861386144
 20
476.7835129942941
 30
0.0
 40
7.5
  0
LINE
  5
E3AC
330
E331
100
AcDbEntity
  8
Insert
100
AcDbLine
 10
354.9755748896296
 20
471.9791509424253
 30
0.0
 11
351.4755748896296
 21
471.9791509424253
 31
0.0
  0
MTEXT
  5
E3AD
330
E331
100
AcDbEntity
  8
InsertDims
370
   100
100
AcDbMText
 10
441.3599368503319
 20
287.9374513929511
 30
0.0
 40
5.0
 41
103.1684704028011
 46
0.0
 71
     1
 72
     5
  1
{\Ftxt.shx|c1;QwikFoot Ferrule} {\Ftxt.shx|c1;20x}70{\Ftxt.shx|c1;A \Pwith 15mm Crosshole\P}\PUNI-FEFZ2070A \PUNI-FEFG2070A
 73
     1
 44
1.0
  0
TEXT
  5
E3AE
330
E331
100
AcDbEntity
  8
BORDER_TEXT_A1
100
AcDbText
 10
637.4957113448093
 20
56.94247237177077
 30
0.0
 40
2.5
  1
CLIENT :
100
AcDbText
  0
TEXT
  5
E3AF
330
E331
100
AcDbEntity
  8
BORDER_TEXT_A1
100
AcDbText
 10
637.587798657224
 20
41.08404538677761
 30
0.0
 40
2.5
  1
TITLE :
100
AcDbText
  0
TEXT
  5
E3B0
330
E331
100
AcDbEntity
  8
BORDER_TEXT_A1
100
AcDbText
 10
637.5127645508121
 20
4.999009371770799
 30
0.0
 40
2.5
  1
SCALE :
100
AcDbText
  0
DIMENSION
  5
E3B1
330
E331
100
AcDbEntity
  8
InsertDims
370
   100
100
AcDbDimension
280
     0
  2
*D28
 10
512.9901658050791
 20
85.74634436751791
 30
0.0
 11
529.990165805079
 21
85.74634436751791
 31
0.0
 12
-37.42049761843373
 22
-11.70447887542604
 32
0.0
 71
     5
 42
9.562177826490824
 73
     0
 74
     0
 75
     0
  3
STANDARD
100
AcDbAlignedDimension
 13
503.4279879785882
 23
129.9170951217428
 33
0.0
 14
512.9901658050791
 24
129.9170951217428
 34
0.0
100
AcDbRotatedDimension
1001
ACAD
1000
DSTYLE
1002
{
1070
    45
1040
0.5
1002
}
  0
MTEXT
  5
E3B2
330
E331
100
AcDbEntity
  8
InsertDims
370
   100
100
AcDbMText
 10
437.4489834421037
 20
70.67949512470523
 30
0.0
 40
5.0
 41
103.1684704028011
 46
0.0
 71
     1
 72
     5
  1
{\Ftxt.shx|c1;QwikFoot Ferrule} {\Ftxt.shx|c1;20x}70{\Ftxt.shx|c1; \Pwith 1}1{\Ftxt.shx|c1;mm Crosshole\P}\PUNI-FEFZ2070 \PUNI-FEFG2070
 73
     1
 44
1.0
  0
TEXT
  5
E3B3
330
E331
100
AcDbEntity
  8
BORDER_TEXT_A1
100
AcDbText
 10
599.7397030777326
 20
0.0000011259753876
 30
0.0
 40
3.0
  1
RMS
100
AcDbText
  0
TEXT
  5
E3B4
330
E331
100
AcDbEntity
  8
BORDER_TEXT_A1
100
AcDbText
 10
597.7430613448093
 20
37.5078433717708
 30
0.0
 40
2.5
  1
CHECKED BY :
100
AcDbText
  0
TEXT
  5
E3B5
330
E331
100
AcDbEntity
  8
BORDER_TEXT_A1
100
AcDbText
 10
597.9221200078379
 20
18.07150905117051
 30
0.0
 40
2.5
  1
APPROVED BY :
100
AcDbText
  0
TEXT
  5
E3B6
330
E331
100
AcDbEntity
  8
BORDER_TEXT_A1
100
AcDbText
 10
599.6189663792334
 20
45.08763255112761
 30
0.0
 40
3.0
  1
22-08-08
100
AcDbText
  0
TEXT
  5
E3B7
330
E331
100
AcDbEntity
  8
BORDER_TEXT_A1
100
AcDbText
 10
597.647563391194
 20
56.9851053867776
 30
0.0
 40
2.5
  1
DRAWN BY :
100
AcDbText
  0
LINE
  5
E3B8
330
E331
100
AcDbEntity
  8
Insert
100
AcDbLine
 10
512.9901658050791
 20
168.417095121743
 30
0.0
 11
509.490165805079
 21
168.417095121743
 31
0.0
  0
LINE
  5
E3B9
330
E331
100
AcDbEntity
  8
Insert
100
AcDbLine
 10
512.9901658050791
 20
119.417095121743
 30
0.0
 11
509.490165805079
 21
119.417095121743
 31
0.0
  0
DIMENSION
  5
E3BA
330
E331
100
AcDbEntity
  8
InsertDims
370
   100
100
AcDbDimension
280
     0
  2
*D29
 10
512.9901658050791
 20
105.2913304683002
 30
0.0
 11
529.990165805079
 21
105.2913304683002
 31
0.0
 12
-37.42049761843373
 22
-11.70447887542604
 32
0.0
 71
     5
 42
3.5
 73
     0
 74
     0
 75
     0
  3
STANDARD
100
AcDbAlignedDimension
 13
509.490165805079
 23
119.417095121743
 33
0.0
 14
512.9901658050791
 24
119.417095121743
 34
0.0
100
AcDbRotatedDimension
  0
DIMENSION
  5
E3BB
330
E331
100
AcDbEntity
  8
InsertDims
370
   100
100
AcDbDimension
280
     0
  2
*D27
 10
503.4279879785882
 20
129.917095121743
 30
0.0
 11
530.7011578186375
 21
125.1605417435546
 31
0.0
 12
-37.42049761843373
 22
-11.70447887542604
 32
0.0
 70
     2
 71
     5
 42
0.5235987755982859
 73
     0
 74
     0
 75
     0
  3
STANDARD
100
AcDb2LineAngularDimension
 13
509.490165805079
 23
119.417095121743
 33
0.0
 14
509.490165805079
 24
168.417095121743
 34
0.0
 15
509.490165805079
 25
119.417095121743
 35
0.0
 16
505.8976949519135
 26
129.2873276708644
 36
0.0
  0
DIMENSION
  5
E3BC
330
E331
100
AcDbEntity
  8
InsertDims
370
   100
100
AcDbDimension
280
     0
  2
*D25
 10
512.9901658050791
 20
172.916167981105
 30
0.0
 11
506.9882420570966
 21
172.916167981105
 31
0.0
 12
-37.42049761843373
 22
-11.70447887542604
 32
0.0
 71
     5
 42
12.00384749596503
 73
     0
 74
     0
 75
     0
  3
STANDARD
100
AcDbAlignedDimension
 13
500.986318309114
 23
143.7114068809754
 33
0.0
 14
512.9901658050791
 24
143.7114068809754
 34
0.0
100
AcDbRotatedDimension
  0
DIMENSION
  5
E3BD
330
E331
100
AcDbEntity
  8
InsertDims
370
   100
100
AcDbDimension
280
     0
  2
*D24
 10
512.9901658050791
 20
192.3739740975284
 30
0.0
 11
504.240165805079
 21
192.3739740975284
 31
0.0
 12
-37.42049761843373
 22
-11.70447887542604
 32
0.0
 71
     5
 42
17.5
 73
     0
 74
     0
 75
     0
  3
STANDARD
100
AcDbAlignedDimension
 13
495.4901658050791
 23
143.917095121743
 33
0.0
 14
512.9901658050791
 24
143.917095121743
 34
0.0
100
AcDbRotatedDimension
  0
LINE
  5
E3BE
330
E331
100
AcDbEntity
  8
Insert
100
AcDbLine
 10
442.9901658050785
 20
129.917095121743
 30
0.0
 11
503.4279879785882
 21
129.9170951217429
 31
0.0
  0
LINE
  5
E3BF
330
E331
100
AcDbEntity
  8
Insert
100
AcDbLine
 10
442.9901658050787
 20
157.917095121743
 30
0.0
 11
501.3104100293203
 21
157.9170951217431
 31
0.0
  0
LINE
  5
E3C0
330
E331
100
AcDbEntity
  8
Insert
100
AcDbLine
 10
442.9901658050785
 20
157.917095121743
 30
0.0
 11
442.9901658050785
 21
129.917095121743
 31
0.0
  0
LINE
  5
E3C1
330
E331
100
AcDbEntity
  8
Insert
100
AcDbLine
 10
503.4279879785881
 20
152.6989447924779
 30
0.0
 11
503.4279879785882
 21
129.9170951217429
 31
0.0
  0
CIRCLE
  5
E3C2
330
E331
100
AcDbEntity
  8
Insert
100
AcDbCircle
 10
495.4901658050791
 20
143.917095121743
 30
0.0
 40
5.5
  0
LINE
  5
E3C3
330
E331
100
AcDbEntity
  8
Insert
100
AcDbLine
 10
509.490165805079
 20
119.417095121743
 30
0.0
 11
509.490165805079
 21
168.417095121743
 31
0.0
  0
DIMENSION
  5
E3C4
330
E331
100
AcDbEntity
  8
InsertDims
370
   100
100
AcDbDimension
280
     0
  2
*D26
 10
499.0370468253182
 20
148.1206216207991
 30
0.0
 11
456.6571320093349
 21
112.1163755693091
 31
0.0
 12
-37.42049761843373
 22
-11.70447887542604
 32
0.0
 70
   131
 71
     5
 42
10.99999999999988
 73
     0
 74
     0
 75
     0
  3
STANDARD
100
AcDbDiametricDimension
 15
491.9432847848399
 25
139.713568622687
 35
0.0
 40
0.0
1001
ACAD
1000
DSTYLE
1002
{
1070
   288
1070
     1
1002
}
  0
LINE
  5
E3C5
330
E331
100
AcDbEntity
  8
Insert
100
AcDbLine
 10
509.490165805079
 20
119.417095121743
 30
0.0
 11
503.4279879785882
 21
129.917095121743
 31
0.0
  0
LINE
  5
E3C6
330
E331
100
AcDbEntity
  8
Insert
100
AcDbLine
 10
509.490165805079
 20
168.417095121743
 30
0.0
 11
504.3669424495495
 21
159.5434119714421
 31
0.0
  0
LINE
  5
E3C7
330
E331
100
AcDbEntity
  8
Insert
370
   100
100
AcDbLine
 10
509.490165805079
 20
162.2693717593133
 30
0.0
 11
495.4901658050791
 21
154.8202651360374
 31
0.0
  0
LINE
  5
E3C8
330
E331
100
AcDbEntity
  8
Insert
370
   100
100
AcDbLine
 10
509.490165805079
 20
160.1480514157537
 30
0.0
 11
503.4279879785881
 21
152.6989447924779
 31
0.0
  0
LINE
  5
E3C9
330
E331
100
AcDbEntity
  8
Insert
370
   100
100
AcDbLine
 10
509.490165805079
 20
160.1480514157537
 30
0.0
 11
495.4901658050791
 21
152.6989447924779
 31
0.0
  0
LINE
  5
E3CA
330
E331
100
AcDbEntity
  8
Insert
370
   100
100
AcDbLine
 10
495.4901658050791
 20
152.6989447924779
 30
0.0
 11
503.4279879785881
 21
152.6989447924779
 31
0.0
  0
LINE
  5
E3CB
330
E331
100
AcDbEntity
  8
Insert
370
   100
100
AcDbLine
 10
495.4901658050791
 20
152.6989447924779
 30
0.0
 11
495.4901658050791
 21
154.8202651360374
 31
0.0
  0
LINE
  5
E3CC
330
E331
100
AcDbEntity
  8
Insert
100
AcDbLine
 10
512.9901658050791
 20
119.417095121743
 30
0.0
 11
512.9901658050791
 21
168.417095121743
 31
0.0
  0
TEXT
  5
E3CD
330
E331
100
AcDbEntity
  8
BORDER_TEXT_A1
100
AcDbText
 10
767.9714401434169
 20
7.110030640541708
 30
0.0
 40
8.0
  1
A1
100
AcDbText
  0
TEXT
  5
E3CE
330
E331
100
AcDbEntity
  8
BORDER_TEXT_A1
100
AcDbText
 10
764.7212455508121
 20
19.8399983717708
 30
0.0
 40
2.5
  1
SIZE :
100
AcDbText
  0
TEXT
  5
E3CF
330
E331
100
AcDbEntity
  8
BORDER_TEXT_A1
100
AcDbText
 10
674.6152385508121
 20
4.999009371770792
 30
0.0
 40
2.5
  1
SHEET :
100
AcDbText
  0
TEXT
  5
E3D0
330
E331
100
AcDbEntity
  8
BORDER_TEXT_A1
100
AcDbText
 10
716.2820234293932
 20
4.99730405117052
 30
0.0
 40
2.5
  1
REVISION :
100
AcDbText
  0
TEXT
  5
E3D1
330
E331
100
AcDbEntity
  8
BORDER_TEXT_A1
100
AcDbText
 10
745.2251072918278
 20
4.530108124573953
 30
0.0
 40
3.0
  1
A
100
AcDbText
  0
TEXT
  5
E3D2
330
E331
100
AcDbEntity
  8
BORDER_TEXT_A1
100
AcDbText
 10
655.0988866572831
 20
4.587803124573952
 30
0.0
 40
3.0
  1
NTS
100
AcDbText
  0
TEXT
  5
E3D3
330
E331
100
AcDbEntity
  8
BORDER_TEXT_A1
100
AcDbText
 10
692.7516665740319
 20
4.530108124573953
 30
0.0
 40
3.0
  1
1 of 1
100
AcDbText
  0
TEXT
  5
E3D4
330
E331
100
AcDbEntity
  8
BORDER_TEXT_A1
100
AcDbText
 10
680.9532004034045
 20
12.78851520186013
 30
0.0
 40
4.0
  1
UNI-FEF20
100
AcDbText
  0
TEXT
  5
E3D5
330
E331
100
AcDbEntity
  8
BORDER_TEXT_A1
100
AcDbText
 10
642.4936368878727
 20
48.10025687114021
 30
0.0
 40
6.0
  1
UNICON SYSTEMS
100
AcDbText
  0
TEXT
  5
E3D6
330
E331
100
AcDbEntity
  8
BORDER_TEXT_A1
100
AcDbText
 10
642.8046873653625
 20
31.15461318389711
 30
0.0
 40
6.0
  1
QwikFoot Insert
100
AcDbText
  0
TEXT
  5
E3D7
330
E331
100
AcDbEntity
  8
BORDER_TEXT_A1
100
AcDbText
 10
674.502687391194
 20
19.8399983717708
 30
0.0
 40
2.5
  1
DRAWING No.
100
AcDbText
  0
LINE
  5
E3D8
330
E331
100
AcDbEntity
  8
Insert
100
AcDbLine
 10
509.4901658050785
 20
471.9791509424253
 30
0.0
 11
503.4279879785874
 21
461.4791509424254
 31
0.0
  0
LINE
  5
E3D9
330
E331
100
AcDbEntity
  8
Insert
100
AcDbLine
 10
509.4901658050785
 20
471.9791509424253
 30
0.0
 11
495.4901658050623
 21
461.3787024171331
 31
0.0
  0
LINE
  5
E3DA
330
E331
100
AcDbEntity
  8
Insert
100
AcDbLine
 10
512.9901658050784
 20
422.9791509424253
 30
0.0
 11
512.9901658050784
 21
471.9791509424253
 31
0.0
  0
LINE
  5
E3DB
330
E331
100
AcDbEntity
  8
Insert
100
AcDbLine
 10
509.4901658050785
 20
422.9791509424253
 30
0.0
 11
509.4901658050785
 21
471.9791509424253
 31
0.0
  0
DIMENSION
  5
E3DC
330
E331
100
AcDbEntity
  8
InsertDims
370
   100
100
AcDbDimension
280
     0
  2
*D37
 10
477.0022228162676
 20
478.6883516102052
 30
0.0
 11
459.996194310673
 21
478.6883516102052
 31
0.0
 12
-37.42049761843373
 22
-11.70447887542604
 32
0.0
 71
     5
 42
34.01205701118909
 73
     0
 74
     0
 75
     0
  3
STANDARD
100
AcDbAlignedDimension
 13
442.9901658050785
 23
461.4791509424253
 33
0.0
 14
477.0022228162676
 24
458.4628495541994
 34
0.0
100
AcDbRotatedDimension
  0
DIMENSION
  5
E3DD
330
E331
100
AcDbEntity
  8
InsertDims
370
   100
100
AcDbDimension
280
     0
  2
*D31
 10
482.9901658050784
 20
503.6785532548483
 30
0.0
 11
462.9901658050784
 21
503.6785532548483
 31
0.0
 12
-37.42049761843373
 22
-11.70447887542604
 32
0.0
 71
     5
 42
40.0
 73
     0
 74
     0
 75
     0
  3
STANDARD
100
AcDbAlignedDimension
 13
442.9901658050785
 23
461.4791509424253
 33
0.0
 14
482.9901658050784
 24
447.4791509424253
 34
0.0
100
AcDbRotatedDimension
  0
DIMENSION
  5
E3DE
330
E331
100
AcDbEntity
  8
InsertDims
370
   100
100
AcDbDimension
280
     0
  2
*D30
 10
512.9901658050784
 20
525.4599072177334
 30
0.0
 11
477.9901658050785
 21
525.4599072177334
 31
0.0
 12
-37.42049761843373
 22
-11.70447887542604
 32
0.0
 71
     5
 42
70.0
 73
     0
 74
     0
 75
     0
  3
STANDARD
100
AcDbAlignedDimension
 13
442.9901658050785
 23
447.4791509424253
 33
0.0
 14
512.9901658050784
 24
447.4791509424253
 34
0.0
100
AcDbRotatedDimension
  0
LINE
  5
E3DF
330
E331
100
AcDbEntity
  8
Insert
100
AcDbLine
 10
512.9901658050784
 20
422.9791509424253
 30
0.0
 11
509.4901658050785
 21
422.9791509424253
 31
0.0
  0
LINE
  5
E3E0
330
E331
100
AcDbEntity
  8
Insert
100
AcDbLine
 10
512.9901658050784
 20
385.932244851736
 30
0.0
 11
509.4901658050785
 21
385.932244851736
 31
0.0
  0
DIMENSION
  5
E3E1
330
E331
100
AcDbEntity
  8
InsertDims
370
   100
100
AcDbDimension
280
     0
  2
*D36
 10
512.9901658050784
 20
390.2405278532328
 30
0.0
 11
506.9901658050785
 21
390.2405278532328
 31
0.0
 12
-37.42049761843373
 22
-11.70447887542604
 32
0.0
 71
     5
 42
12.0
 73
     0
 74
     0
 75
     0
  3
STANDARD
100
AcDbAlignedDimension
 13
500.9901658050785
 23
361.432244851736
 33
0.0
 14
512.9901658050784
 24
361.432244851736
 34
0.0
100
AcDbRotatedDimension
  0
LINE
  5
E3E2
330
E331
100
AcDbEntity
  8
Insert
100
AcDbLine
 10
512.9901658050784
 20
336.932244851736
 30
0.0
 11
509.4901658050785
 21
336.932244851736
 31
0.0
  0
DIMENSION
  5
E3E3
330
E331
100
AcDbEntity
  8
InsertDims
370
   100
100
AcDbDimension
280
     0
  2
*D35
 10
512.9901658050784
 20
322.8064801982932
 30
0.0
 11
529.9901658050784
 21
322.8064801982932
 31
0.0
 12
-37.42049761843373
 22
-11.70447887542604
 32
0.0
 71
     5
 42
3.5
 73
     0
 74
     0
 75
     0
  3
STANDARD
100
AcDbAlignedDimension
 13
509.4901658050785
 23
336.932244851736
 33
0.0
 14
512.9901658050784
 24
336.932244851736
 34
0.0
100
AcDbRotatedDimension
  0
DIMENSION
  5
E3E4
330
E331
100
AcDbEntity
  8
InsertDims
370
   100
100
AcDbDimension
280
     0
  2
*D34
 10
503.4279879785876
 20
347.432244851736
 30
0.0
 11
530.7011578186366
 21
342.6756914735477
 31
0.0
 12
-37.42049761843373
 22
-11.70447887542604
 32
0.0
 70
     2
 71
     5
 42
0.5235987755982832
 73
     0
 74
     0
 75
     0
  3
STANDARD
100
AcDb2LineAngularDimension
 13
509.4901658050785
 23
336.932244851736
 33
0.0
 14
509.4901658050785
 24
385.932244851736
 34
0.0
 15
509.4901658050785
 25
336.932244851736
 35
0.0
 16
505.8976949519129
 26
346.8024774008575
 36
0.0
  0
DIMENSION
  5
E3E5
330
E331
100
AcDbEntity
  8
InsertDims
370
   100
100
AcDbDimension
280
     0
  2
*D32
 10
512.9901658050784
 20
408.1353794652787
 30
0.0
 11
503.2401658050785
 21
408.1353794652787
 31
0.0
 12
-37.42049761843373
 22
-11.70447887542604
 32
0.0
 70
   128
 71
     5
 42
19.5
 73
     0
 74
     0
 75
     0
  3
STANDARD
100
AcDbAlignedDimension
 13
493.4901658050785
 23
361.432244851736
 33
0.0
 14
512.9901658050784
 24
361.432244851736
 34
0.0
100
AcDbRotatedDimension
  0
DIMENSION
  5
E3E6
330
E331
100
AcDbEntity
  8
InsertDims
370
   100
100
AcDbDimension
280
     0
  2
*D23
 10
512.9901658050784
 20
303.2614940975109
 30
0.0
 11
529.9901658050784
 21
303.2614940975109
 31
0.0
 12
-37.42049761843373
 22
-11.70447887542604
 32
0.0
 71
     5
 42
9.562177826490824
 73
     0
 74
     0
 75
     0
  3
STANDARD
100
AcDbAlignedDimension
 13
503.4279879785876
 23
347.4322448517359
 33
0.0
 14
512.9901658050784
 24
347.4322448517359
 34
0.0
100
AcDbRotatedDimension
1001
ACAD
1000
DSTYLE
1002
{
1070
    45
1040
0.5
1002
}
  0
LINE
  5
E3E7
330
E331
100
AcDbEntity
  8
Insert
370
   100
100
AcDbLine
 10
509.4901658050785
 20
377.6632011457467
 30
0.0
 11
503.4279879785874
 21
370.2140945224709
 31
0.0
  0
LINE
  5
E3E8
330
E331
100
AcDbEntity
  8
Insert
370
   100
100
AcDbLine
 10
509.4901658050785
 20
377.6632011457467
 30
0.0
 11
495.4901658050784
 21
370.2140945224709
 31
0.0
  0
LINE
  5
E3E9
330
E331
100
AcDbEntity
  8
Insert
370
   100
100
AcDbLine
 10
509.4901658050785
 20
379.7845214893063
 30
0.0
 11
495.4901658050784
 21
372.3354148660304
 31
0.0
  0
LINE
  5
E3EA
330
E331
100
AcDbEntity
  8
Insert
100
AcDbLine
 10
509.4901658050785
 20
336.932244851736
 30
0.0
 11
509.4901658050785
 21
385.932244851736
 31
0.0
  0
LINE
  5
E3EB
330
E331
100
AcDbEntity
  8
Insert
100
AcDbLine
 10
442.9901658050783
 20
375.4322448517359
 30
0.0
 11
442.9901658050783
 21
347.4322448517359
 31
0.0
  0
DIMENSION
  5
E3EC
330
E331
100
AcDbEntity
  8
InsertDims
370
   100
100
AcDbDimension
280
     0
  2
*D33
 10
500.6196651574265
 20
366.9038293018072
 30
0.0
 11
453.2804062002523
 21
330.0967116652101
 31
0.0
 12
-37.42049761843373
 22
-11.70447887542604
 32
0.0
 70
   131
 71
     5
 42
15.0
 73
     0
 74
     0
 75
     0
  3
STANDARD
100
AcDbDiametricDimension
 15
490.3606664527305
 25
355.9606604016648
 35
0.0
 40
0.0
1001
ACAD
1000
DSTYLE
1002
{
1070
   288
1070
     1
1002
}
  0
LINE
  5
E3ED
330
E331
100
AcDbEntity
  8
Insert
100
AcDbLine
 10
442.9901658050783
 20
347.4322448517359
 30
0.0
 11
503.4279879785876
 21
347.4322448517359
 31
0.0
  0
LINE
  5
E3EE
330
E331
100
AcDbEntity
  8
Insert
100
AcDbLine
 10
503.4279879785874
 20
370.2140945224709
 30
0.0
 11
503.4279879785876
 21
347.4322448517359
 31
0.0
  0
LINE
  5
E3EF
330
E331
100
AcDbEntity
  8
Insert
100
AcDbLine
 10
509.4901658050785
 20
336.932244851736
 30
0.0
 11
503.4279879785876
 21
347.432244851736
 31
0.0
  0
CIRCLE
  5
E3F0
330
E331
100
AcDbEntity
  8
Insert
100
AcDbCircle
 10
493.4901658050785
 20
361.432244851736
 30
0.0
 40
7.5
  0
LINE
  5
E3F1
330
E331
100
AcDbEntity
  8
Insert
370
   100
100
AcDbLine
 10
495.4901658050784
 20
370.2140945224709
 30
0.0
 11
503.4279879785874
 21
370.2140945224709
 31
0.0
  0
LINE
  5
E3F2
330
E331
100
AcDbEntity
  8
Insert
370
   100
100
AcDbLine
 10
495.4901658050784
 20
370.2140945224709
 30
0.0
 11
495.4901658050784
 21
372.3354148660304
 31
0.0
  0
LINE
  5
E3F3
330
E331
100
AcDbEntity
  8
Insert
  6
HIDDEN2
370
   100
100
AcDbLine
 10
442.9901658050785
 20
458.4703371425249
 30
0.0
 11
477.0022228162676
 21
458.4628495541994
 31
0.0
  0
LINE
  5
E3F4
330
E331
100
AcDbEntity
  8
Insert
  6
HIDDEN2
370
   100
100
AcDbLine
 10
442.9901658050785
 20
436.4671650838364
 30
0.0
 11
476.9990361054789
 21
436.4628499585367
 31
0.0
  0
LINE
  5
E3F5
330
E331
100
AcDbEntity
  8
Insert
100
AcDbLine
 10
442.9901658050785
 20
461.4791509424253
 30
0.0
 11
503.4279879785874
 21
461.4791509424254
 31
0.0
  0
LINE
  5
E3F6
330
E331
100
AcDbEntity
  8
Insert
100
AcDbLine
 10
442.9901658050785
 20
433.4791509424253
 30
0.0
 11
503.4279879785876
 21
433.4791509424253
 31
0.0
  0
LINE
  5
E3F7
330
E331
100
AcDbEntity
  8
Insert
370
   100
100
AcDbLine
 10
442.9901658050785
 20
437.4671650838364
 30
0.0
 11
477.2072364839106
 21
437.4628235415827
 31
0.0
  0
LINE
  5
E3F8
330
E331
100
AcDbEntity
  8
Insert
370
   100
100
AcDbLine
 10
442.9901658050785
 20
457.4671650838364
 30
0.0
 11
477.226091123661
 21
457.4628211492617
 31
0.0
  0
LINE
  5
E3F9
330
E331
100
AcDbEntity
  8
Insert
100
AcDbLine
 10
442.9901658050783
 20
375.4322448517358
 30
0.0
 11
501.3104100293197
 21
375.4322448517361
 31
0.0
  0
LINE
  5
E3FA
330
E331
100
AcDbEntity
  8
Insert
100
AcDbLine
 10
442.9901658050785
 20
461.4791509424253
 30
0.0
 11
442.9901658050785
 21
433.4791509424253
 31
0.0
  0
LINE
  5
E3FB
330
E331
100
AcDbEntity
  8
Insert
100
AcDbLine
 10
509.4901658050785
 20
385.932244851736
 30
0.0
 11
504.3669424495488
 21
377.0585617014351
 31
0.0
  0
LINE
  5
E3FC
330
E331
100
AcDbEntity
  8
Insert
370
   100
100
AcDbLine
 10
482.9901658050784
 20
447.4791509424253
 30
0.0
 11
477.2072364839106
 21
437.4628235415827
 31
0.0
  0
LINE
  5
E3FD
330
E331
100
AcDbEntity
  8
Insert
370
   100
100
AcDbLine
 10
482.9901658050784
 20
447.4791509424253
 30
0.0
 11
477.226091123661
 21
457.4628211492617
 31
0.0
  0
ARC
  5
E3FE
330
E331
100
AcDbEntity
  8
Insert
370
   100
100
AcDbCircle
 10
430.2799236694321
 20
447.4775915890981
 30
0.0
 40
48.0
100
AcDbArc
 50
346.7339068011081
 51
347.9572741556838
  0
ARC
  5
E3FF
330
E331
100
AcDbEntity
  8
Insert
370
   100
100
AcDbCircle
 10
430.2761688644588
 20
447.4775920655167
 30
0.0
 40
48.0
100
AcDbArc
 50
12.00667275049464
 51
13.22993687531841
  0
LINE
  5
E400
330
E331
100
AcDbEntity
  8
Insert
100
AcDbLine
 10
503.4279879785874
 20
461.4791509424254
 30
0.0
 11
503.4279879785876
 21
433.4791509424253
 31
0.0
  0
LINE
  5
E401
330
E331
100
AcDbEntity
  8
Insert
  6
HIDDEN
100
AcDbLine
 10
500.9901658050785
 20
457.3786458790372
 30
0.0
 11
500.9901658050785
 21
433.4791509424252
 31
0.0
  0
LINE
  5
E402
330
E331
100
AcDbEntity
  8
Insert
  6
HIDDEN
100
AcDbLine
 10
485.9901658050785
 20
457.378645879037
 30
0.0
 11
485.9901658050785
 21
433.4791509424252
 31
0.0
  0
LINE
  5
E403
330
E331
100
AcDbEntity
  8
Insert
100
AcDbLine
 10
509.4901658050785
 20
422.9791509424253
 30
0.0
 11
503.4279879785876
 21
433.4791509424253
 31
0.0
  0
LINE
  5
E404
330
E331
100
AcDbEntity
  8
Insert
100
AcDbLine
 10
495.4901658050784
 20
433.4791509424253
 30
0.0
 11
509.4901658050785
 21
422.9791509424253
 31
0.0
  0
LINE
  5
E405
330
E331
100
AcDbEntity
  8
InsertDims
370
   100
100
AcDbLine
 10
493.4901658050785
 20
461.1308140322585
 30
0.0
 11
503.4279879785874
 21
461.1308140322586
 31
0.0
  0
ELLIPSE
  5
E406
330
E331
100
AcDbEntity
  8
Insert
370
   100
100
AcDbEllipse
 10
493.4901658050785
 20
457.3786458790371
 30
0.0
 11
-7.5
 21
-0.0000000000001137
 31
0.0
210
0.0
220
0.0
230
1.0
 40
0.5002890870961969
 41
3.141592653589793
 42
6.283185307179586
  0
ELLIPSE
  5
E407
330
E331
100
AcDbEntity
  8
Insert
370
   100
100
AcDbEllipse
 10
493.4901658050785
 20
457.378645879037
 30
0.0
 11
-7.5
 21
0.0
 31
0.0
210
0.0
220
0.0
230
1.0
 40
0.9061246420270588
 41
0.0
 42
3.141592653589793
  0
LINE
  5
E408
330
E331
100
AcDbEntity
  8
Insert
100
AcDbLine
 10
512.9901658050784
 20
336.932244851736
 30
0.0
 11
512.9901658050784
 21
385.932244851736
 31
0.0
  0
LINE
  5
E409
330
E331
100
AcDbEntity
  8
Insert
100
AcDbLine
 10
512.9901658050784
 20
471.9791509424253
 30
0.0
 11
509.4901658050785
 21
471.9791509424253
 31
0.0
  0
ENDBLK
  5
E40B
330
E331
100
AcDbEntity
  8
0
370
   100
100
AcDbBlockEnd
  0
BLOCK
  5
FCD0
330
FCC4
100
AcDbEntity
  8
0
370
   100
100
AcDbBlockBegin
  2
*D39
 70
     1
 10
0.0
 20
0.0
 30
0.0
  3
*D39
  1

  0
LINE
  5
10928
330
FCC4
100
AcDbEntity
  8
FootWeb
 62
     3
440
 16777216
370
    -2
100
AcDbLine
 10
2545.487334673176
 20
441.5998428536839
 30
0.0
 11
2545.487334673176
 21
424.7426443482918
 31
0.0
  0
LINE
  5
10929
330
FCC4
100
AcDbEntity
  8
FootWeb
 62
     3
440
 16777216
370
    -2
100
AcDbLine
 10
2548.487334673176
 20
441.5998428536839
 30
0.0
 11
2548.487334673176
 21
424.7426443482918
 31
0.0
  0
LINE
  5
1092A
330
FCC4
100
AcDbEntity
  8
FootWeb
 62
     3
440
 16777216
370
    -2
100
AcDbLine
 10
2540.487334673176
 20
426.7426443482918
 30
0.0
 11
2535.487334673176
 21
426.7426443482918
 31
0.0
  0
LINE
  5
1092B
330
FCC4
100
AcDbEntity
  8
FootWeb
 62
     3
440
 16777216
370
    -2
100
AcDbLine
 10
2553.487334673176
 20
426.7426443482918
 30
0.0
 11
2558.487334673176
 21
426.7426443482918
 31
0.0
  0
LINE
  5
1092C
330
FCC4
100
AcDbEntity
  8
FootWeb
 62
     3
440
 16777216
370
    -2
100
AcDbLine
 10
2545.487334673176
 20
426.7426443482918
 30
0.0
 11
2548.487334673176
 21
426.7426443482918
 31
0.0
  0
SOLID
  5
1092D
330
FCC4
100
AcDbEntity
  8
FootWeb
 62
     3
440
 16777216
100
AcDbTrace
 10
2540.487334673176
 20
427.5759776816251
 30
0.0
 11
2540.487334673176
 21
425.9093110149585
 31
0.0
 12
2545.487334673176
 22
426.7426443482918
 32
0.0
 13
2545.487334673176
 23
426.7426443482918
 33
0.0
  0
SOLID
  5
1092E
330
FCC4
100
AcDbEntity
  8
FootWeb
 62
     3
440
 16777216
100
AcDbTrace
 10
2553.487334673176
 20
427.5759776816251
 30
0.0
 11
2553.487334673176
 21
425.9093110149585
 31
0.0
 12
2548.487334673176
 22
426.7426443482918
 32
0.0
 13
2548.487334673176
 23
426.7426443482918
 33
0.0
  0
MTEXT
  5
1092F
330
FCC4
100
AcDbEntity
  8
FootWeb
 62
     2
440
 16777216
100
AcDbMText
 10
2562.154001339842
 20
426.7426443482918
 30
0.0
 40
5.0
 41
0.0
 46
0.0
 71
     5
 72
     1
  1
\A1;3
 73
     1
 44
1.0
  0
POINT
  5
10930
330
FCC4
100
AcDbEntity
  8
DEFPOINTS
 62
     0
440
 16777216
100
AcDbPoint
 10
2545.487334673176
 20
443.599842853684
 30
0.0
  0
POINT
  5
10931
330
FCC4
100
AcDbEntity
  8
DEFPOINTS
 62
     0
440
 16777216
100
AcDbPoint
 10
2548.487334673176
 20
443.599842853684
 30
0.0
  0
POINT
  5
10932
330
FCC4
100
AcDbEntity
  8
DEFPOINTS
 62
     0
440
 16777216
100
AcDbPoint
 10
2548.487334673176
 20
426.7426443482918
 30
0.0
  0
ENDBLK
  5
FCD1
330
FCC4
100
AcDbEntity
  8
0
370
   100
100
AcDbBlockEnd
  0
BLOCK
  5
101AB
330
101A2
100
AcDbEntity
  8
0
370
   100
100
AcDbBlockBegin
  2
A$C469C7240
 70
     0
 10
0.0
 20
0.0
 30
0.0
  3
A$C469C7240
  1

  0
LINE
  5
101A3
330
101A2
100
AcDbEntity
  8
Insert
370
   100
100
AcDbLine
 10
0.0
 20
0.0
 30
0.0
 11
-3.468609131480206
 21
-6.007807247320954
 31
0.0
  0
LINE
  5
101A4
330
101A2
100
AcDbEntity
  8
Insert
370
   100
100
AcDbLine
 10
0.0
 20
0.0
 30
0.0
 11
-3.459593438345564
 21
5.992191608746793
 31
0.0
  0
LINE
  5
101A5
330
101A2
100
AcDbEntity
  8
Insert
370
   100
100
AcDbLine
 10
-64.99999999999954
 20
6.0
 30
0.0
 11
-3.459593438345564
 21
5.992191608746793
 31
0.0
  0
LINE
  5
101A6
330
101A2
100
AcDbEntity
  8
Insert
370
   100
100
AcDbLine
 10
-65.0
 20
-6.0
 30
0.0
 11
-3.468609131480206
 21
-6.007807247320954
 31
0.0
  0
LINE
  5
101A7
330
101A2
100
AcDbEntity
  8
Insert
370
   100
100
AcDbLine
 10
-17.00383724821222
 20
-6.006089865802891
 30
0.0
 11
-17.22667325301427
 21
-6.506061591847583
 31
0.0
  0
LINE
  5
101A8
330
101A2
100
AcDbEntity
  8
Insert
  6
HIDDEN2
370
   100
100
AcDbLine
 10
-64.99961823464764
 20
-6.500000048439346
 30
0.0
 11
-17.22667325301427
 21
-6.506061591847583
 31
0.0
  0
LINE
  5
101A9
330
101A2
100
AcDbEntity
  8
Insert
  6
HIDDEN2
370
   100
100
AcDbLine
 10
-64.99999999999954
 20
6.50000004815439
 30
0.0
 11
-17.22386830757796
 21
6.493938100408797
 31
0.0
  0
LINE
  5
101AA
330
101A2
100
AcDbEntity
  8
Insert
370
   100
100
AcDbLine
 10
-17.00383724821177
 20
5.999999702308798
 30
0.0
 11
-17.22386830757796
 21
6.493938100408797
 31
0.0
  0
ENDBLK
  5
101AC
330
101A2
100
AcDbEntity
  8
0
370
   100
100
AcDbBlockEnd
  0
BLOCK
  5
118F3
330
118F1
100
AcDbEntity
 67
     1
  8
0
100
AcDbBlockBegin
  2
*Paper_Space41
 70
     0
 10
0.0
 20
0.0
 30
0.0
  3
*Paper_Space41
  1

  0
VIEWPORT
  5
118F9
330
118F1
100
AcDbEntity
 67
     1
  8
0
100
AcDbViewport
 10
187.0963863982612
 20
133.0848810795681
 30
0.0
 40
514.3735196950444
 41
284.6997620637688
 68
     0
 69
     0
 12
187.0963863982612
 22
133.0848810795681
 13
0.0
 23
0.0
 14
10.0
 24
10.0
 15
10.0
 25
10.0
 16
0.0
 26
0.0
 36
1.0
 17
0.0
 27
0.0
 37
0.0
 42
50.0
 43
0.0
 44
0.0
 45
284.6997620637688
 50
0.0
 51
0.0
 72
   100
 90
    32800
  1

281
     0
 71
     1
 74
     0
110
0.0
120
0.0
130
0.0
111
1.0
121
0.0
131
0.0
112
0.0
122
1.0
132
0.0
 79
     0
146
0.0
170
     0
 61
     5
348
140E8
292
     1
282
     1
141
0.0
142
0.0
 63
   250
421
  3355443
  0
VIEWPORT
  5
118FB
330
118F1
100
AcDbEntity
 67
     1
  8
0
100
AcDbViewport
 10
145.612290352042
 20
101.5480798343462
 30
0.0
 40
290.6362737027412
 41
202.7150846799413
 68
     0
 69
     0
 12
1620.827976312391
 22
-504.8577129272244
 13
0.0
 23
0.0
 14
10.0
 24
10.0
 15
10.0
 25
10.0
 16
0.0
 26
0.0
 36
1.0
 17
0.0
 27
0.0
 37
0.0
 42
50.0
 43
0.0
 44
0.0
 45
583.3932359431697
 50
0.0
 51
0.0
 72
   100
 90
    32800
  1

281
     0
 71
     1
 74
     0
110
0.0
120
0.0
130
0.0
111
1.0
121
0.0
131
0.0
112
0.0
122
1.0
132
0.0
 79
     1
146
0.0
170
     0
 61
     5
348
140E8
292
     1
282
     1
141
0.0
142
0.0
 63
   250
421
  3355443
  0
ENDBLK
  5
118F4
330
118F1
100
AcDbEntity
 67
     1
  8
0
100
AcDbBlockEnd
  0
BLOCK
  5
10AFF
330
10AFD
100
AcDbEntity
  8
0
100
AcDbBlockBegin
  2
A$C4C0D4438
 70
     0
 10
0.0
 20
0.0
 30
0.0
  3
A$C4C0D4438
  1

  0
LINE
  5
10AFE
330
10AFD
100
AcDbEntity
  8
Insert
100
AcDbLine
 10
-0.0000000000004547
 20
-35.0
 30
0.0
 11
0.0
 21
0.0
 31
0.0
  0
ENDBLK
  5
10B00
330
10AFD
100
AcDbEntity
  8
0
100
AcDbBlockEnd
  0
BLOCK
  5
13A43
330
13A41
100
AcDbEntity
 67
     1
  8
0
100
AcDbBlockBegin
  2
*Paper_Space43
 70
     0
 10
0.0
 20
0.0
 30
0.0
  3
*Paper_Space43
  1

  0
VIEWPORT
  5
13A49
330
13A41
100
AcDbEntity
 67
     1
  8
0
100
AcDbViewport
 10
145.325012
 20
133.0848810318844
 30
0.0
 40
514.3735196950444
 41
284.6997620637688
 68
     0
 69
     0
 12
145.325012
 22
133.0848810318844
 13
0.0
 23
0.0
 14
10.0
 24
10.0
 15
10.0
 25
10.0
 16
0.0
 26
0.0
 36
1.0
 17
0.0
 27
0.0
 37
0.0
 42
50.0
 43
0.0
 44
0.0
 45
284.6997620637688
 50
0.0
 51
0.0
 72
   100
 90
    32800
  1

281
     0
 71
     1
 74
     0
110
0.0
120
0.0
130
0.0
111
1.0
121
0.0
131
0.0
112
0.0
122
1.0
132
0.0
 79
     0
146
0.0
170
     0
 61
     5
348
140E8
292
     1
282
     1
141
0.0
142
0.0
 63
   250
421
  3355443
  0
VIEWPORT
  5
13A4B
330
13A41
100
AcDbEntity
 67
     1
  8
0
100
AcDbViewport
 10
145.6071689579644
 20
101.6840226014181
 30
0.0
 40
290.622450223625
 41
202.4431985943584
 68
     0
 69
     0
 12
438.8485198334056
 22
1166.575652473415
 13
0.0
 23
0.0
 14
10.0
 24
10.0
 15
10.0
 25
10.0
 16
0.0
 26
0.0
 36
1.0
 17
0.0
 27
0.0
 37
0.0
 42
50.0
 43
0.0
 44
0.0
 45
579.008895108805
 50
0.0
 51
0.0
 72
   100
 90
    32800
  1

281
     0
 71
     1
 74
     0
110
0.0
120
0.0
130
0.0
111
1.0
121
0.0
131
0.0
112
0.0
122
1.0
132
0.0
 79
     1
146
0.0
170
     0
 61
     5
348
140E8
292
     1
282
     1
141
0.0
142
0.0
 63
   250
421
  3355443
  0
ENDBLK
  5
13A44
330
13A41
100
AcDbEntity
 67
     1
  8
0
100
AcDbBlockEnd
  0
BLOCK
  5
12B0D
330
12B0C
100
AcDbEntity
  8
0
100
AcDbBlockBegin
  2
*D44
 70
     1
 10
0.0
 20
0.0
 30
0.0
  3
*D44
  1

  0
LINE
  5
12B0E
330
12B0C
100
AcDbEntity
  8
InsertDims
 62
     3
370
    -2
100
AcDbLine
 10
1511.505964876655
 20
-1351.1078512676
 30
0.0
 11
1511.505964876655
 21
-1304.899635155277
 31
0.0
  0
LINE
  5
12B0F
330
12B0C
100
AcDbEntity
  8
InsertDims
 62
     3
370
    -2
100
AcDbLine
 10
1556.604235852027
 20
-1361.099037467699
 30
0.0
 11
1556.604235852027
 21
-1304.899635155277
 31
0.0
  0
LINE
  5
12B10
330
12B0C
100
AcDbEntity
  8
InsertDims
 62
     3
370
    -2
100
AcDbLine
 10
1516.505964876655
 20
-1306.899635155277
 30
0.0
 11
1527.888433697674
 21
-1306.899635155277
 31
0.0
  0
LINE
  5
12B11
330
12B0C
100
AcDbEntity
  8
InsertDims
 62
     3
370
    -2
100
AcDbLine
 10
1551.604235852027
 20
-1306.899635155277
 30
0.0
 11
1540.221767031007
 21
-1306.899635155277
 31
0.0
  0
SOLID
  5
12B12
330
12B0C
100
AcDbEntity
  8
InsertDims
 62
     3
100
AcDbTrace
 10
1516.505964876655
 20
-1306.066301821944
 30
0.0
 11
1516.505964876655
 21
-1307.73296848861
 31
0.0
 12
1511.505964876655
 22
-1306.899635155277
 32
0.0
 13
1511.505964876655
 23
-1306.899635155277
 33
0.0
  0
SOLID
  5
12B13
330
12B0C
100
AcDbEntity
  8
InsertDims
 62
     3
100
AcDbTrace
 10
1551.604235852027
 20
-1306.066301821944
 30
0.0
 11
1551.604235852027
 21
-1307.73296848861
 31
0.0
 12
1556.604235852027
 22
-1306.899635155277
 32
0.0
 13
1556.604235852027
 23
-1306.899635155277
 33
0.0
  0
MTEXT
  5
12B14
330
12B0C
100
AcDbEntity
  8
InsertDims
 62
     2
100
AcDbMText
 10
1534.055100364341
 20
-1306.899635155277
 30
0.0
 40
5.0
 41
0.0
 46
0.0
 71
     5
 72
     1
  1
\A1;45
 73
     1
 44
1.0
  0
POINT
  5
12B15
330
12B0C
100
AcDbEntity
  8
DEFPOINTS
 62
     0
100
AcDbPoint
 10
1511.505964876655
 20
-1353.1078512676
 30
0.0
  0
POINT
  5
12B16
330
12B0C
100
AcDbEntity
  8
DEFPOINTS
 62
     0
100
AcDbPoint
 10
1556.604235852027
 20
-1363.0990374677
 30
0.0
  0
POINT
  5
12B17
330
12B0C
100
AcDbEntity
  8
DEFPOINTS
 62
     0
100
AcDbPoint
 10
1556.604235852027
 20
-1306.899635155277
 30
0.0
  0
ENDBLK
  5
12B18
330
12B0C
100
AcDbEntity
  8
0
100
AcDbBlockEnd
  0
BLOCK
  5
12B1A
330
12B19
100
AcDbEntity
  8
0
100
AcDbBlockBegin
  2
*D45
 70
     1
 10
0.0
 20
0.0
 30
0.0
  3
*D45
  1

  0
LINE
  5
12B1B
330
12B19
100
AcDbEntity
  8
InsertDims
 62
     3
370
    -2
100
AcDbLine
 10
1511.505964876655
 20
-1361.0990374677
 30
0.0
 11
1511.505964876655
 21
-1283.118281192392
 31
0.0
  0
LINE
  5
12B1C
330
12B19
100
AcDbEntity
  8
InsertDims
 62
     3
370
    -2
100
AcDbLine
 10
1651.505964876655
 20
-1347.0990374677
 30
0.0
 11
1651.505964876655
 21
-1283.118281192392
 31
0.0
  0
LINE
  5
12B1D
330
12B19
100
AcDbEntity
  8
InsertDims
 62
     3
370
    -2
100
AcDbLine
 10
1516.505964876655
 20
-1285.118281192392
 30
0.0
 11
1574.089298209988
 21
-1285.118281192392
 31
0.0
  0
LINE
  5
12B1E
330
12B19
100
AcDbEntity
  8
InsertDims
 62
     3
370
    -2
100
AcDbLine
 10
1646.505964876655
 20
-1285.118281192392
 30
0.0
 11
1588.922631543321
 21
-1285.118281192392
 31
0.0
  0
SOLID
  5
12B1F
330
12B19
100
AcDbEntity
  8
InsertDims
 62
     3
100
AcDbTrace
 10
1516.505964876655
 20
-1284.284947859058
 30
0.0
 11
1516.505964876655
 21
-1285.951614525725
 31
0.0
 12
1511.505964876655
 22
-1285.118281192392
 32
0.0
 13
1511.505964876655
 23
-1285.118281192392
 33
0.0
  0
SOLID
  5
12B20
330
12B19
100
AcDbEntity
  8
InsertDims
 62
     3
100
AcDbTrace
 10
1646.505964876655
 20
-1284.284947859058
 30
0.0
 11
1646.505964876655
 21
-1285.951614525725
 31
0.0
 12
1651.505964876655
 22
-1285.118281192392
 32
0.0
 13
1651.505964876655
 23
-1285.118281192392
 33
0.0
  0
MTEXT
  5
12B21
330
12B19
100
AcDbEntity
  8
InsertDims
 62
     2
100
AcDbMText
 10
1581.505964876655
 20
-1285.118281192392
 30
0.0
 40
5.0
 41
0.0
 46
0.0
 71
     5
 72
     1
  1
\A1;140
 73
     1
 44
1.0
  0
POINT
  5
12B22
330
12B19
100
AcDbEntity
  8
DEFPOINTS
 62
     0
100
AcDbPoint
 10
1511.505964876655
 20
-1363.0990374677
 30
0.0
  0
POINT
  5
12B23
330
12B19
100
AcDbEntity
  8
DEFPOINTS
 62
     0
100
AcDbPoint
 10
1651.505964876655
 20
-1349.0990374677
 30
0.0
  0
POINT
  5
12B24
330
12B19
100
AcDbEntity
  8
DEFPOINTS
 62
     0
100
AcDbPoint
 10
1651.505964876655
 20
-1285.118281192392
 30
0.0
  0
ENDBLK
  5
12B25
330
12B19
100
AcDbEntity
  8
0
100
AcDbBlockEnd
  0
BLOCK
  5
12B27
330
12B26
100
AcDbEntity
  8
0
100
AcDbBlockBegin
  2
*D46
 70
     1
 10
0.0
 20
0.0
 30
0.0
  3
*D46
  1

  0
LINE
  5
12B28
330
12B26
100
AcDbEntity
  8
Insert
 62
     3
370
    -2
100
AcDbLine
 10
1551.505964876655
 20
-1350.103594100691
 30
0.0
 11
1551.505964876655
 21
-1332.83725216955
 31
0.0
  0
LINE
  5
12B29
330
12B26
100
AcDbEntity
  8
Insert
 62
     3
370
    -2
100
AcDbLine
 10
1511.505964876655
 20
-1353.103448708571
 30
0.0
 11
1511.505964876655
 21
-1332.83725216955
 31
0.0
  0
LINE
  5
12B2A
330
12B26
100
AcDbEntity
  8
Insert
 62
     3
370
    -2
100
AcDbLine
 10
1546.505964876654
 20
-1334.83725216955
 30
0.0
 11
1537.255964876655
 21
-1334.83725216955
 31
0.0
  0
LINE
  5
12B2B
330
12B26
100
AcDbEntity
  8
Insert
 62
     3
370
    -2
100
AcDbLine
 10
1516.505964876655
 20
-1334.83725216955
 30
0.0
 11
1525.755964876655
 21
-1334.83725216955
 31
0.0
  0
SOLID
  5
12B2C
330
12B26
100
AcDbEntity
  8
Insert
 62
     3
100
AcDbTrace
 10
1546.505964876654
 20
-1334.003918836217
 30
0.0
 11
1546.505964876654
 21
-1335.670585502883
 31
0.0
 12
1551.505964876655
 22
-1334.83725216955
 32
0.0
 13
1551.505964876655
 23
-1334.83725216955
 33
0.0
  0
SOLID
  5
12B2D
330
12B26
100
AcDbEntity
  8
Insert
 62
     3
100
AcDbTrace
 10
1516.505964876655
 20
-1334.003918836217
 30
0.0
 11
1516.505964876655
 21
-1335.670585502883
 31
0.0
 12
1511.505964876655
 22
-1334.83725216955
 32
0.0
 13
1511.505964876655
 23
-1334.83725216955
 33
0.0
  0
MTEXT
  5
12B2E
330
12B26
100
AcDbEntity
  8
Insert
 62
     2
100
AcDbMText
 10
1531.505964876655
 20
-1334.83725216955
 30
0.0
 40
5.0
 41
0.0
 46
0.0
 71
     5
 72
     1
  1
\A1;40
 73
     1
 44
1.0
  0
POINT
  5
12B2F
330
12B26
100
AcDbEntity
  8
DEFPOINTS
 62
     0
100
AcDbPoint
 10
1551.505964876655
 20
-1352.103594100691
 30
0.0
  0
POINT
  5
12B30
330
12B26
100
AcDbEntity
  8
DEFPOINTS
 62
     0
100
AcDbPoint
 10
1511.505964876655
 20
-1355.103448708571
 30
0.0
  0
POINT
  5
12B31
330
12B26
100
AcDbEntity
  8
DEFPOINTS
 62
     0
100
AcDbPoint
 10
1511.505964876655
 20
-1334.83725216955
 30
0.0
  0
ENDBLK
  5
12B32
330
12B26
100
AcDbEntity
  8
0
100
AcDbBlockEnd
  0
BLOCK
  5
12B4E
330
12B33
100
AcDbEntity
  8
0
100
AcDbBlockBegin
  2
A$C03F86C52
 70
     0
 10
0.0
 20
0.0
 30
0.0
  3
A$C03F86C52
  1

  0
DIMENSION
  5
12B34
330
12B33
100
AcDbEntity
  8
InsertDims
100
AcDbDimension
280
     0
  2
*D45
 10
140.0
 20
77.98075627530806
 30
0.0
 11
70.0
 21
77.98075627530806
 31
0.0
 12
-1511.505964876655
 22
1363.0990374677
 32
0.0
 71
     5
 42
140.0
 73
     0
 74
     0
 75
     0
  3
STANDARD
100
AcDbAlignedDimension
 13
0.0
 23
0.0
 33
0.0
 14
140.0
 24
14.0
 34
0.0
100
AcDbRotatedDimension
  0
DIMENSION
  5
12B35
330
12B33
100
AcDbEntity
  8
InsertDims
100
AcDbDimension
280
     0
  2
*D44
 10
45.09827097537209
 20
56.19940231242299
 30
0.0
 11
22.54913548768604
 21
56.19940231242299
 31
0.0
 12
-1511.505964876655
 22
1363.0990374677
 32
0.0
 71
     5
 42
45.09827097537209
 73
     0
 74
     0
 75
     0
  3
STANDARD
100
AcDbAlignedDimension
 13
0.0
 23
9.991186200099718
 33
0.0
 14
45.09827097537209
 24
0.0000000000002274
 34
0.0
100
AcDbRotatedDimension
1001
ACAD
1000
DSTYLE
1002
{
1070
   271
1070
     0
1002
}
  0
LINE
  5
12B36
330
12B33
100
AcDbEntity
  8
Insert
100
AcDbLine
 10
94.90172902462791
 20
0.0000000000002274
 30
0.0
 11
99.39434768367391
 21
-9.999913662195467
 31
0.0
  0
LINE
  5
12B37
330
12B33
100
AcDbEntity
  8
Insert
100
AcDbLine
 10
140.0
 20
14.0
 30
0.0
 11
140.0
 21
-14.0
 31
0.0
  0
LINE
  5
12B38
330
12B33
100
AcDbEntity
  8
Insert
100
AcDbLine
 10
0.0
 20
14.0
 30
0.0
 11
0.0
 21
-14.0
 31
0.0
  0
LINE
  5
12B39
330
12B33
100
AcDbEntity
  8
Insert
  6
HIDDEN
100
AcDbLine
 10
62.5
 20
14.0
 30
0.0
 11
62.5
 21
-14.0
 31
0.0
  0
LINE
  5
12B3A
330
12B33
100
AcDbEntity
  8
Insert
  6
HIDDEN
100
AcDbLine
 10
77.5
 20
14.0
 30
0.0
 11
77.5
 21
-14.0
 31
0.0
  0
LINE
  5
12B3B
330
12B33
100
AcDbEntity
  8
Insert
100
AcDbLine
 10
45.09827097537209
 20
0.0000000000002274
 30
0.0
 11
40.60565231632608
 21
-9.999913662195467
 31
0.0
  0
LINE
  5
12B3C
330
12B33
100
AcDbEntity
  8
Insert
100
AcDbLine
 10
0.0
 20
-14.0
 30
0.0
 11
140.0
 21
-14.0
 31
0.0
  0
LINE
  5
12B3D
330
12B33
100
AcDbEntity
  8
Insert
100
AcDbLine
 10
0.0000000000002274
 20
-10.0057014540821
 30
0.0
 11
40.60565231632608
 21
-9.999913662195467
 31
0.0
  0
LINE
  5
12B3E
330
12B33
100
AcDbEntity
  8
Insert
  6
HIDDEN2
100
AcDbLine
 10
0.0
 20
-11.0
 30
0.0
 11
40.0
 21
-10.9954433670091
 31
0.0
  0
LINE
  5
12B3F
330
12B33
100
AcDbEntity
  8
Insert
100
AcDbLine
 10
40.60565231632608
 20
-9.999913662195467
 30
0.0
 11
40.0
 21
-10.9954433670091
 31
0.0
  0
LINE
  5
12B40
330
12B33
100
AcDbEntity
  8
Insert
  6
HIDDEN2
100
AcDbLine
 10
140.0
 20
-11.0
 30
0.0
 11
100.0
 21
-10.9954433670091
 31
0.0
  0
LINE
  5
12B41
330
12B33
100
AcDbEntity
  8
Insert
100
AcDbLine
 10
139.9999999999997
 20
-10.0057014540821
 30
0.0
 11
99.39434768367391
 21
-9.999913662195467
 31
0.0
  0
LINE
  5
12B42
330
12B33
100
AcDbEntity
  8
Insert
100
AcDbLine
 10
99.39434768367391
 20
-9.999913662195467
 30
0.0
 11
100.0
 21
-10.9954433670091
 31
0.0
  0
LINE
  5
12B43
330
12B33
100
AcDbEntity
  8
Insert
100
AcDbLine
 10
0.0
 20
14.0
 30
0.0
 11
90.0
 21
14.0
 31
0.0
  0
LINE
  5
12B44
330
12B33
100
AcDbEntity
  8
Insert
100
AcDbLine
 10
0.0
 20
14.0
 30
0.0
 11
140.0
 21
14.0
 31
0.0
  0
DIMENSION
  5
12B45
330
12B33
100
AcDbEntity
  8
Insert
100
AcDbDimension
280
     0
  2
*D46
 10
0.0000000000002274
 20
28.26178529814979
 30
0.0
 11
20.00000000000023
 21
28.26178529814979
 31
0.0
 12
-1511.505964876655
 22
1363.0990374677
 32
0.0
 71
     5
 42
39.99999999999977
 73
     0
 74
     0
 75
     0
  3
STANDARD
100
AcDbAlignedDimension
 13
40.0
 23
10.9954433670091
 33
0.0
 14
0.0000000000002274
 24
7.995588759129077
 34
0.0
100
AcDbRotatedDimension
  0
LINE
  5
12B46
330
12B33
100
AcDbEntity
  8
Insert
  6
HIDDEN2
100
AcDbLine
 10
0.0
 20
11.0
 30
0.0
 11
40.0
 21
10.9954433670091
 31
0.0
  0
LINE
  5
12B47
330
12B33
100
AcDbEntity
  8
Insert
100
AcDbLine
 10
0.0000000000002274
 20
10.0057014540821
 30
0.0
 11
40.60565231632608
 21
9.999913662195467
 31
0.0
  0
LINE
  5
12B48
330
12B33
100
AcDbEntity
  8
Insert
100
AcDbLine
 10
45.09827097537209
 20
0.0000000000002274
 30
0.0
 11
40.60565231632608
 21
9.999913662195467
 31
0.0
  0
LINE
  5
12B49
330
12B33
100
AcDbEntity
  8
Insert
100
AcDbLine
 10
40.60565231632608
 20
9.999913662195467
 30
0.0
 11
40.0
 21
10.9954433670091
 31
0.0
  0
LINE
  5
12B4A
330
12B33
100
AcDbEntity
  8
Insert
100
AcDbLine
 10
139.9999999999997
 20
10.0057014540821
 30
0.0
 11
99.39434768367391
 21
9.999913662195467
 31
0.0
  0
LINE
  5
12B4B
330
12B33
100
AcDbEntity
  8
Insert
  6
HIDDEN2
100
AcDbLine
 10
140.0
 20
11.0
 30
0.0
 11
100.0
 21
10.9954433670091
 31
0.0
  0
LINE
  5
12B4C
330
12B33
100
AcDbEntity
  8
Insert
100
AcDbLine
 10
99.39434768367391
 20
9.999913662195467
 30
0.0
 11
100.0
 21
10.9954433670091
 31
0.0
  0
LINE
  5
12B4D
330
12B33
100
AcDbEntity
  8
Insert
100
AcDbLine
 10
94.90172902462791
 20
0.0000000000002274
 30
0.0
 11
99.39434768367391
 21
9.999913662195467
 31
0.0
  0
ENDBLK
  5
12B4F
330
12B33
100
AcDbEntity
  8
0
100
AcDbBlockEnd
  0
BLOCK
  5
10355
330
10353
100
AcDbEntity
 67
     1
  8
0
370
   100
100
AcDbBlockBegin
  2
*Paper_Space66
 70
     0
 10
0.0
 20
0.0
 30
0.0
  3
*Paper_Space66
  1

  0
VIEWPORT
  5
10361
330
10353
100
AcDbEntity
 67
     1
  8
0
370
   100
100
AcDbViewport
 10
187.0963863982612
 20
133.0848810795681
 30
0.0
 40
514.3735196950444
 41
284.6997620637688
 68
     0
 69
     0
 12
187.0963863982612
 22
133.0848810795681
 13
0.0
 23
0.0
 14
10.0
 24
10.0
 15
10.0
 25
10.0
 16
0.0
 26
0.0
 36
1.0
 17
0.0
 27
0.0
 37
0.0
 42
50.0
 43
0.0
 44
0.0
 45
284.6997620637688
 50
0.0
 51
0.0
 72
   100
 90
    32800
  1

281
     0
 71
     1
 74
     0
110
0.0
120
0.0
130
0.0
111
1.0
121
0.0
131
0.0
112
0.0
122
1.0
132
0.0
 79
     0
146
0.0
170
     0
 61
     5
348
140E8
292
     1
282
     1
141
0.0
142
0.0
 63
   250
421
  3355443
  0
VIEWPORT
  5
10363
330
10353
100
AcDbEntity
 67
     1
  8
0
370
   100
100
AcDbViewport
 10
145.4576341762354
 20
101.8335530485511
 30
0.0
 40
290.3812702930104
 41
202.7080462491806
 68
     0
 69
     0
 12
2740.595303059289
 22
302.0898867801088
 13
0.0
 23
0.0
 14
10.0
 24
10.0
 15
10.0
 25
10.0
 16
0.0
 26
0.0
 36
1.0
 17
0.0
 27
0.0
 37
0.0
 42
50.0
 43
0.0
 44
0.0
 45
593.1831058486652
 50
0.0
 51
0.0
 72
   100
 90
    32800
  1

281
     0
 71
     1
 74
     0
110
0.0
120
0.0
130
0.0
111
1.0
121
0.0
131
0.0
112
0.0
122
1.0
132
0.0
 79
     1
146
0.0
170
     0
 61
     5
348
140E8
292
     1
282
     1
141
0.0
142
0.0
 63
   250
421
  3355443
  0
ENDBLK
  5
10356
330
10353
100
AcDbEntity
 67
     1
  8
0
370
   100
100
AcDbBlockEnd
  0
BLOCK
  5
E141
330
E13F
100
AcDbEntity
 67
     1
  8
0
370
   100
100
AcDbBlockBegin
  2
*Paper_Space76
 70
     0
 10
0.0
 20
0.0
 30
0.0
  3
*Paper_Space76
  1

  0
VIEWPORT
  5
E147
330
E13F
100
AcDbEntity
 67
     1
  8
0
370
   100
100
AcDbViewport
 10
214.599610508182
 20
165.3382428283206
 30
0.0
 40
630.9192806359149
 41
349.2064855612738
 68
     0
 69
     0
 12
214.599610508182
 22
165.3382428283206
 13
0.0
 23
0.0
 14
10.0
 24
10.0
 15
10.0
 25
10.0
 16
0.0
 26
0.0
 36
1.0
 17
0.0
 27
0.0
 37
0.0
 42
50.0
 43
0.0
 44
0.0
 45
349.2064855612738
 50
0.0
 51
0.0
 72
   100
 90
    32800
  1

281
     0
 71
     1
 74
     0
110
0.0
120
0.0
130
0.0
111
1.0
121
0.0
131
0.0
112
0.0
122
1.0
132
0.0
 79
     0
146
0.0
170
     0
 61
     5
348
140E8
292
     1
282
     1
141
0.0
142
0.0
 63
   250
421
  3355443
  0
VIEWPORT
  5
E149
330
E13F
100
AcDbEntity
 67
     1
  8
0
370
   100
100
AcDbViewport
 10
145.4581913361563
 20
102.0506146335522
 30
0.0
 40
290.3823846128523
 41
203.1421694191827
 68
     0
 69
     0
 12
426.7687764779325
 22
298.5705769256647
 13
0.0
 23
0.0
 14
10.0
 24
10.0
 15
10.0
 25
10.0
 16
0.0
 26
0.0
 36
1.0
 17
0.0
 27
0.0
 37
0.0
 42
50.0
 43
0.0
 44
0.0
 45
621.6298498598826
 50
0.0
 51
0.0
 72
   100
 90
    32800
  1

281
     0
 71
     1
 74
     0
110
0.0
120
0.0
130
0.0
111
1.0
121
0.0
131
0.0
112
0.0
122
1.0
132
0.0
 79
     1
146
0.0
170
     0
 61
     5
348
140E8
292
     1
282
     1
141
0.0
142
0.0
 63
   250
421
  3355443
  0
ENDBLK
  5
E142
330
E13F
100
AcDbEntity
 67
     1
  8
0
370
   100
100
AcDbBlockEnd
  0
BLOCK
  5
10351
330
1034F
100
AcDbEntity
 67
     1
  8
0
370
   100
100
AcDbBlockBegin
  2
*Paper_Space92
 70
     0
 10
0.0
 20
0.0
 30
0.0
  3
*Paper_Space92
  1

  0
VIEWPORT
  5
1035B
330
1034F
100
AcDbEntity
 67
     1
  8
0
370
   100
100
AcDbViewport
 10
187.0963863982612
 20
133.0848810795681
 30
0.0
 40
514.3735196950444
 41
284.6997620637688
 68
     0
 69
     0
 12
187.0963863982612
 22
133.0848810795681
 13
0.0
 23
0.0
 14
10.0
 24
10.0
 15
10.0
 25
10.0
 16
0.0
 26
0.0
 36
1.0
 17
0.0
 27
0.0
 37
0.0
 42
50.0
 43
0.0
 44
0.0
 45
284.6997620637688
 50
0.0
 51
0.0
 72
   100
 90
    32800
  1

281
     0
 71
     1
 74
     0
110
0.0
120
0.0
130
0.0
111
1.0
121
0.0
131
0.0
112
0.0
122
1.0
132
0.0
 79
     0
146
0.0
170
     0
 61
     5
348
140E8
292
     1
282
     1
141
0.0
142
0.0
 63
   250
421
  3355443
  0
VIEWPORT
  5
1035D
330
1034F
100
AcDbEntity
 67
     1
  8
0
370
   100
100
AcDbViewport
 10
145.5987131165714
 20
101.5224880784454
 30
0.0
 40
290.6634281736824
 41
203.3301761893922
 68
     0
 69
     0
 12
1605.551730892993
 22
293.4191056832996
 13
0.0
 23
0.0
 14
10.0
 24
10.0
 15
10.0
 25
10.0
 16
0.0
 26
0.0
 36
1.0
 17
0.0
 27
0.0
 37
0.0
 42
50.0
 43
0.0
 44
0.0
 45
618.3654153228054
 50
0.0
 51
0.0
 72
   100
 90
    32800
  1

281
     0
 71
     1
 74
     0
110
0.0
120
0.0
130
0.0
111
1.0
121
0.0
131
0.0
112
0.0
122
1.0
132
0.0
 79
     1
146
0.0
170
     0
 61
     5
348
140E8
292
     1
282
     1
141
0.0
142
0.0
 63
   250
421
  3355443
  0
ENDBLK
  5
10352
330
1034F
100
AcDbEntity
 67
     1
  8
0
370
   100
100
AcDbBlockEnd
  0
ENDSEC
  0
SECTION
  2
ENTITIES
  0
MTEXT
  5
186E
330
18
100
AcDbEntity
  8
Defpoint
100
AcDbMText
 10
-221.9280480420825
 20
367.1109073896205
 30
0.0
 40
3.5
 41
84.03029999999999
 46
0.0
 71
     1
 72
     5
  1

 73
     1
 44
1.0
  0
TEXT
  5
2E81
330
18
100
AcDbEntity
  8
BORDER_ITEM_LIST_A1
  6
Continuous
 62
     4
100
AcDbText
 10
750.028236
 20
562.947718
 30
0.0
 40
3.5
  1

 41
0.75
100
AcDbText
  0
TEXT
  5
2E82
330
18
100
AcDbEntity
  8
BORDER_ITEM_LIST_A1
  6
Continuous
 62
     4
100
AcDbText
 10
773.5282360000001
 20
562.947718
 30
0.0
 40
3.5
  1

 41
0.75
100
AcDbText
  0
MTEXT
  5
C60E
330
18
100
AcDbEntity
  8
BORDER_A1
100
AcDbMText
 10
802.5795049999999
 20
91.92826296152997
 30
0.0
 40
15.0
 41
40.0
 46
0.0
 71
     5
 72
     5
  1

 73
     1
 44
1.0
  0
LINE
  5
D816
330
18
100
AcDbEntity
  8
FootWeb
100
AcDbLine
 10
229.4317217051793
 20
473.1030407249265
 30
0.0
 11
229.4317217051793
 21
483.6376683391264
 31
0.0
  0
LINE
  5
D822
330
18
100
AcDbEntity
  8
FootWeb
100
AcDbLine
 10
226.4317217051794
 20
473.1030407249265
 30
0.0
 11
226.4317217051794
 21
483.6376683391264
 31
0.0
  0
LINE
  5
D823
330
18
100
AcDbEntity
  8
FootWeb
100
AcDbLine
 10
226.4317217051794
 20
445.2642189107763
 30
0.0
 11
226.4317217051794
 21
434.7295912965764
 31
0.0
  0
LINE
  5
D824
330
18
100
AcDbEntity
  8
FootWeb
100
AcDbLine
 10
229.4317217051793
 20
445.2642189107763
 30
0.0
 11
229.4317217051793
 21
434.7295912965764
 31
0.0
  0
LINE
  5
D848
330
18
100
AcDbEntity
  8
FootWeb
100
AcDbLine
 10
388.8960725080633
 20
483.6836298178513
 30
0.0
 11
374.8960725080471
 21
473.0831812925591
 31
0.0
  0
LINE
  5
D849
330
18
100
AcDbEntity
  8
FootWeb
100
AcDbLine
 10
374.8960725080633
 20
445.1836298178513
 30
0.0
 11
388.8960725080633
 21
434.6836298178514
 31
0.0
  0
DIMENSION
  5
D8D7
330
18
100
AcDbEntity
  8
FootWeb
100
AcDbDimension
280
     0
  2
*D0
 10
229.4317217051793
 20
423.1397065982841
 30
0.0
 11
243.098388371846
 21
423.1397065982841
 31
0.0
 70
    32
 71
     5
 42
2.999999999999971
 73
     0
 74
     0
 75
     0
  3
STANDARD
100
AcDbAlignedDimension
 13
226.4317217051794
 23
439.9969051036763
 33
0.0
 14
229.4317217051793
 24
439.9969051036763
 34
0.0
100
AcDbRotatedDimension
  0
LINE
  5
DA1B
330
18
100
AcDbEntity
  8
FootWeb
100
AcDbLine
 10
219.1498720344443
 20
362.2335537128674
 30
0.0
 11
211.7007654111686
 21
354.7844470895916
 31
0.0
  0
LINE
  5
DA1C
330
18
100
AcDbEntity
  8
FootWeb
100
AcDbLine
 10
217.0285516908848
 20
364.354874056427
 30
0.0
 11
209.5794450676089
 21
356.9057674331512
 31
0.0
  0
LINE
  5
DA1E
330
18
100
AcDbEntity
  8
FootWeb
100
AcDbLine
 10
236.7135713759144
 20
384.0398937414566
 30
0.0
 11
244.1626779991902
 21
391.4890003647323
 31
0.0
  0
LINE
  5
DA1F
330
18
100
AcDbEntity
  8
FootWeb
100
AcDbLine
 10
238.8348917194739
 20
381.9185733978969
 30
0.0
 11
246.2839983427498
 21
389.3676800211728
 31
0.0
  0
LINE
  5
DA24
330
18
100
AcDbEntity
  8
FootWeb
100
AcDbLine
 10
388.8960725080633
 20
389.3676800211728
 30
0.0
 11
382.8338946815723
 21
381.9185733978969
 31
0.0
  0
LINE
  5
DA28
330
18
100
AcDbEntity
  8
FootWeb
100
AcDbLine
 10
388.8960725080633
 20
389.3676800211728
 30
0.0
 11
374.8960725080633
 21
381.9185733978969
 31
0.0
  0
LINE
  5
DA2B
330
18
100
AcDbEntity
  8
FootWeb
100
AcDbLine
 10
374.8960725080633
 20
381.9185733978969
 30
0.0
 11
382.8338946815723
 21
381.918573397897
 31
0.0
  0
LINE
  5
DA32
330
18
100
AcDbEntity
  8
FootWeb
100
AcDbLine
 10
388.8960725080633
 20
391.4890003647323
 30
0.0
 11
374.8960725080633
 21
384.0398937414565
 31
0.0
  0
LINE
  5
DA33
330
18
100
AcDbEntity
  8
FootWeb
100
AcDbLine
 10
374.8960725080633
 20
381.9185733978969
 30
0.0
 11
374.8960725080633
 21
384.0398937414565
 31
0.0
  0
LINE
  5
DAD7
330
18
100
AcDbEntity
  8
FootWeb
100
AcDbLine
 10
219.1498720344449
 20
144.7184039828744
 30
0.0
 11
211.7007654111691
 21
137.2692973595986
 31
0.0
  0
LINE
  5
DAD8
330
18
100
AcDbEntity
  8
FootWeb
100
AcDbLine
 10
217.0285516908854
 20
146.839724326434
 30
0.0
 11
209.5794450676095
 21
139.3906177031582
 31
0.0
  0
LINE
  5
DADA
330
18
100
AcDbEntity
  8
FootWeb
100
AcDbLine
 10
236.7135713759149
 20
166.5247440114636
 30
0.0
 11
244.1626779991907
 21
173.9738506347394
 31
0.0
  0
LINE
  5
DADB
330
18
100
AcDbEntity
  8
FootWeb
100
AcDbLine
 10
238.8348917194745
 20
164.4034236679039
 30
0.0
 11
246.2839983427504
 21
171.8525302911798
 31
0.0
  0
LINE
  5
DAE8
330
18
100
AcDbEntity
  8
FootWeb
100
AcDbLine
 10
388.8960725080639
 20
173.9738506347394
 30
0.0
 11
374.8960725080639
 21
166.5247440114635
 31
0.0
  0
LINE
  5
DAEA
330
18
100
AcDbEntity
  8
FootWeb
100
AcDbLine
 10
388.8960725080639
 20
171.8525302911798
 30
0.0
 11
374.8960725080639
 21
164.4034236679039
 31
0.0
  0
LINE
  5
DAEB
330
18
100
AcDbEntity
  8
FootWeb
100
AcDbLine
 10
388.8960725080639
 20
171.8525302911798
 30
0.0
 11
382.8338946815729
 21
164.4034236679039
 31
0.0
  0
LINE
  5
DAEE
330
18
100
AcDbEntity
  8
FootWeb
100
AcDbLine
 10
374.8960725080639
 20
164.4034236679039
 30
0.0
 11
382.8338946815729
 21
164.403423667904
 31
0.0
  0
DIMENSION
  5
DD34
330
18
100
AcDbEntity
  8
FootWeb
100
AcDbDimension
280
     0
  2
*D1
 10
550.4106634235127
 20
204.0784529729545
 30
0.0
 11
541.6606634235128
 21
204.0784529729545
 31
0.0
 70
    32
 71
     5
 42
17.5
 73
     0
 74
     0
 75
     0
  3
STANDARD
100
AcDbAlignedDimension
 13
532.9106634235127
 23
155.621573997169
 33
0.0
 14
550.4106634235127
 24
155.621573997169
 34
0.0
100
AcDbRotatedDimension
  0
LINE
  5
DD41
330
18
100
AcDbEntity
  8
FootWeb
100
AcDbLine
 10
546.9106634235128
 20
171.8525302911798
 30
0.0
 11
532.9106634235127
 21
164.4034236679039
 31
0.0
  0
LINE
  5
DD42
330
18
100
AcDbEntity
  8
FootWeb
100
AcDbLine
 10
546.9106634235128
 20
171.8525302911798
 30
0.0
 11
540.8484855970218
 21
164.4034236679039
 31
0.0
  0
LINE
  5
DD43
330
18
100
AcDbEntity
  8
FootWeb
100
AcDbLine
 10
546.9106634235128
 20
173.9738506347394
 30
0.0
 11
532.9106634235127
 21
166.5247440114635
 31
0.0
  0
LINE
  5
DD47
330
18
100
AcDbEntity
  8
FootWeb
100
AcDbLine
 10
532.9106634235127
 20
164.4034236679039
 30
0.0
 11
540.8484855970218
 21
164.403423667904
 31
0.0
  0
LINE
  5
DD48
330
18
100
AcDbEntity
  8
FootWeb
100
AcDbLine
 10
532.9106634235127
 20
164.4034236679039
 30
0.0
 11
532.9106634235127
 21
166.5247440114635
 31
0.0
  0
LINE
  5
DD5A
330
18
100
AcDbEntity
  8
FootWeb
100
AcDbLine
 10
546.9106634235122
 20
391.4890003647323
 30
0.0
 11
532.9106634235122
 21
384.0398937414565
 31
0.0
  0
LINE
  5
DD5C
330
18
100
AcDbEntity
  8
FootWeb
100
AcDbLine
 10
546.9106634235122
 20
389.3676800211728
 30
0.0
 11
532.9106634235122
 21
381.9185733978969
 31
0.0
  0
LINE
  5
DD5D
330
18
100
AcDbEntity
  8
FootWeb
100
AcDbLine
 10
546.9106634235122
 20
389.3676800211728
 30
0.0
 11
540.8484855970211
 21
381.9185733978969
 31
0.0
  0
LINE
  5
DD5E
330
18
100
AcDbEntity
  8
FootWeb
100
AcDbLine
 10
532.9106634235122
 20
381.9185733978969
 30
0.0
 11
532.9106634235122
 21
384.0398937414565
 31
0.0
  0
LINE
  5
DD5F
330
18
100
AcDbEntity
  8
FootWeb
100
AcDbLine
 10
532.9106634235122
 20
381.9185733978969
 30
0.0
 11
540.8484855970211
 21
381.918573397897
 31
0.0
  0
LINE
  5
DD72
330
18
100
AcDbEntity
  8
FootWeb
100
AcDbLine
 10
532.9106634235122
 20
445.1836298178513
 30
0.0
 11
546.9106634235122
 21
434.6836298178514
 31
0.0
  0
LINE
  5
DD76
330
18
100
AcDbEntity
  8
FootWeb
100
AcDbLine
 10
546.9106634235122
 20
483.6836298178513
 30
0.0
 11
532.910663423496
 21
473.0831812925591
 31
0.0
  0
LINE
  5
EF7B
330
18
100
AcDbEntity
  8
FootWeb
100
AcDbLine
 10
1411.771492344902
 20
146.3353002948743
 30
0.0
 11
1402.898604999353
 21
137.4624129493251
 31
0.0
  0
LINE
  5
EF7C
330
18
100
AcDbEntity
  8
FootWeb
100
AcDbLine
 10
1413.892812688462
 20
144.2139799513147
 30
0.0
 11
1405.019925342912
 21
135.3410926057655
 31
0.0
  0
LINE
  5
EF7F
330
18
100
AcDbEntity
  8
FootWeb
100
AcDbLine
 10
1428.608950585385
 20
163.1727585353571
 30
0.0
 11
1437.481837930934
 21
172.0456458809062
 31
0.0
  0
LINE
  5
EF80
330
18
100
AcDbEntity
  8
FootWeb
100
AcDbLine
 10
1430.730270928944
 20
161.0514381917977
 30
0.0
 11
1439.603158274494
 21
169.9243255373466
 31
0.0
  0
LINE
  5
EF8F
330
18
100
AcDbEntity
  8
FootWeb
100
AcDbLine
 10
1582.215232439807
 20
169.9243255373466
 30
0.0
 11
1574.998354074937
 21
161.0514381917977
 31
0.0
  0
LINE
  5
EF90
330
18
100
AcDbEntity
  8
FootWeb
100
AcDbLine
 10
1582.215232439807
 20
169.9243255373466
 30
0.0
 11
1568.215232439808
 21
161.0514381917977
 31
0.0
  0
LINE
  5
EF92
330
18
100
AcDbEntity
  8
FootWeb
100
AcDbLine
 10
1582.215232439807
 20
172.0456458809062
 30
0.0
 11
1568.215232439807
 21
163.1727585353571
 31
0.0
  0
LINE
  5
EF93
330
18
100
AcDbEntity
  8
FootWeb
100
AcDbLine
 10
1568.215232439807
 20
161.0514381917977
 30
0.0
 11
1574.998354074937
 21
161.0514381917977
 31
0.0
  0
LINE
  5
EF94
330
18
100
AcDbEntity
  8
FootWeb
100
AcDbLine
 10
1568.215232439807
 20
161.0514381917975
 30
0.0
 11
1568.215232439807
 21
163.1727585353571
 31
0.0
  0
LINE
  5
EFA6
330
18
100
AcDbEntity
  8
FootWeb
100
AcDbLine
 10
1582.215232439807
 20
481.7554250640182
 30
0.0
 11
1568.21523243979
 21
471.154976538726
 31
0.0
  0
LINE
  5
EFA7
330
18
100
AcDbEntity
  8
FootWeb
100
AcDbLine
 10
1419.750881636923
 20
471.1748359710933
 30
0.0
 11
1419.750881636923
 21
481.7094635852932
 31
0.0
  0
LINE
  5
EFA8
330
18
100
AcDbEntity
  8
FootWeb
100
AcDbLine
 10
1422.750881636923
 20
471.1748359710933
 30
0.0
 11
1422.750881636923
 21
481.7094635852932
 31
0.0
  0
LINE
  5
EFAE
330
18
100
AcDbEntity
  8
FootWeb
100
AcDbLine
 10
1432.154051651217
 20
379.9903686440638
 30
0.0
 11
1439.603158274493
 21
387.4394752673396
 31
0.0
  0
LINE
  5
EFAF
330
18
100
AcDbEntity
  8
FootWeb
100
AcDbLine
 10
1430.032731307658
 20
382.1116889876234
 30
0.0
 11
1437.481837930934
 21
389.5607956108992
 31
0.0
  0
LINE
  5
EFB8
330
18
100
AcDbEntity
  8
FootWeb
100
AcDbLine
 10
1410.347711622628
 20
362.4266693025938
 30
0.0
 11
1402.898604999352
 21
354.9775626793181
 31
0.0
  0
LINE
  5
EFB9
330
18
100
AcDbEntity
  8
FootWeb
100
AcDbLine
 10
1412.469031966188
 20
360.3053489590342
 30
0.0
 11
1405.019925342912
 21
352.8562423357584
 31
0.0
  0
LINE
  5
EFC7
330
18
100
AcDbEntity
  8
FootWeb
100
AcDbLine
 10
1582.215232439807
 20
389.5607956108992
 30
0.0
 11
1568.215232439807
 21
382.1116889876233
 31
0.0
  0
LINE
  5
EFC8
330
18
100
AcDbEntity
  8
FootWeb
100
AcDbLine
 10
1582.215232439807
 20
387.4394752673396
 30
0.0
 11
1568.215232439807
 21
379.9903686440638
 31
0.0
  0
LINE
  5
EFC9
330
18
100
AcDbEntity
  8
FootWeb
100
AcDbLine
 10
1582.215232439807
 20
387.4394752673396
 30
0.0
 11
1576.153054613316
 21
379.9903686440638
 31
0.0
  0
LINE
  5
EFD5
330
18
100
AcDbEntity
  8
FootWeb
100
AcDbLine
 10
1568.215232439807
 20
379.9903686440638
 30
0.0
 11
1576.153054613316
 21
379.9903686440639
 31
0.0
  0
LINE
  5
EFD6
330
18
100
AcDbEntity
  8
FootWeb
100
AcDbLine
 10
1568.215232439807
 20
379.9903686440638
 30
0.0
 11
1568.215232439807
 21
382.1116889876233
 31
0.0
  0
LINE
  5
EFE4
330
18
100
AcDbEntity
  8
FootWeb
100
AcDbLine
 10
1568.215232439807
 20
443.2554250640182
 30
0.0
 11
1582.215232439807
 21
432.7554250640182
 31
0.0
  0
LINE
  5
F028
330
18
100
AcDbEntity
  8
FootWeb
100
AcDbLine
 10
1740.229823355256
 20
172.0456458809062
 30
0.0
 11
1726.229823355256
 21
164.5965392576303
 31
0.0
  0
LINE
  5
F029
330
18
100
AcDbEntity
  8
FootWeb
100
AcDbLine
 10
1740.229823355256
 20
169.9243255373466
 30
0.0
 11
1733.012944990386
 21
162.4752189140709
 31
0.0
  0
LINE
  5
F02A
330
18
100
AcDbEntity
  8
FootWeb
100
AcDbLine
 10
1740.229823355256
 20
169.9243255373466
 30
0.0
 11
1726.229823355256
 21
162.4752189140708
 31
0.0
  0
LINE
  5
F02B
330
18
100
AcDbEntity
  8
FootWeb
100
AcDbLine
 10
1726.229823355256
 20
162.4752189140708
 30
0.0
 11
1733.012944990386
 21
162.4752189140708
 31
0.0
  0
LINE
  5
F02C
330
18
100
AcDbEntity
  8
FootWeb
100
AcDbLine
 10
1726.229823355256
 20
162.4752189140708
 30
0.0
 11
1726.229823355256
 21
164.5965392576303
 31
0.0
  0
LINE
  5
FB46
330
18
100
AcDbEntity
  8
FootWeb
100
AcDbLine
 10
2545.487334673176
 20
472.6734275345016
 30
0.0
 11
2545.487334673176
 21
487.240606089134
 31
0.0
  0
LINE
  5
FB47
330
18
100
AcDbEntity
  8
FootWeb
100
AcDbLine
 10
2548.487334673176
 20
472.6734275345016
 30
0.0
 11
2548.487334673176
 21
487.240606089134
 31
0.0
  0
LINE
  5
FB4F
330
18
100
AcDbEntity
  8
FootWeb
100
AcDbLine
 10
2555.03906057201
 20
382.6700670324443
 30
0.0
 11
2565.339611310747
 21
392.9706177711804
 31
0.0
  0
LINE
  5
FB50
330
18
100
AcDbEntity
  8
FootWeb
100
AcDbLine
 10
2552.917740228451
 20
384.791387376004
 30
0.0
 11
2563.218290967187
 21
395.09193811474
 31
0.0
  0
LINE
  5
FB58
330
18
100
AcDbEntity
  8
FootWeb
100
AcDbLine
 10
2538.935608774341
 20
370.8092559218942
 30
0.0
 11
2528.635058035606
 21
360.5087051831588
 31
0.0
  0
LINE
  5
FB59
330
18
100
AcDbEntity
  8
FootWeb
100
AcDbLine
 10
2541.056929117901
 20
368.6879355783351
 30
0.0
 11
2530.756378379165
 21
358.3873848395992
 31
0.0
  0
DIMENSION
  5
FB5C
330
18
100
AcDbEntity
  8
FootWeb
100
AcDbDimension
280
     0
  2
*D39
 10
2548.487334673176
 20
426.7426443482918
 30
0.0
 11
2562.154001339842
 21
426.7426443482918
 31
0.0
 70
    32
 71
     5
 42
3.0
 73
     0
 74
     0
 75
     0
  3
STANDARD
100
AcDbAlignedDimension
 13
2545.487334673176
 23
443.599842853684
 33
0.0
 14
2548.487334673176
 24
443.599842853684
 34
0.0
100
AcDbRotatedDimension
  0
LINE
  5
FB62
330
18
100
AcDbEntity
  8
FootWeb
100
AcDbLine
 10
2548.487334673176
 20
452.8997076012164
 30
0.0
 11
2548.487334673176
 21
438.332529046584
 31
0.0
  0
LINE
  5
FB63
330
18
100
AcDbEntity
  8
FootWeb
100
AcDbLine
 10
2545.487334673176
 20
452.8997076012164
 30
0.0
 11
2545.487334673176
 21
438.332529046584
 31
0.0
  0
LINE
  5
FB76
330
18
100
AcDbEntity
  8
FootWeb
100
AcDbLine
 10
2707.951685476059
 20
487.286567567859
 30
0.0
 11
2693.951685476043
 21
472.7865675678592
 31
0.0
  0
LINE
  5
FB81
330
18
100
AcDbEntity
  8
FootWeb
100
AcDbLine
 10
2707.951685476059
 20
395.09193811474
 30
0.0
 11
2693.95168547606
 21
384.791387376004
 31
0.0
  0
LINE
  5
FB82
330
18
100
AcDbEntity
  8
FootWeb
100
AcDbLine
 10
2707.951685476059
 20
392.9706177711804
 30
0.0
 11
2693.95168547606
 21
382.6700677140808
 31
0.0
  0
LINE
  5
FB83
330
18
100
AcDbEntity
  8
FootWeb
100
AcDbLine
 10
2707.951685476059
 20
392.9706177711804
 30
0.0
 11
2699.45168547606
 21
382.6700677140808
 31
0.0
  0
LINE
  5
FB8C
330
18
100
AcDbEntity
  8
FootWeb
100
AcDbLine
 10
2691.505774911522
 20
382.6700677140808
 30
0.0
 11
2699.443597085032
 21
382.6700677140809
 31
0.0
  0
LINE
  5
FB8E
330
18
100
AcDbEntity
  8
FootWeb
100
AcDbLine
 10
2693.95168547606
 20
385.5215111479046
 30
0.0
 11
2693.95168547606
 21
387.6428314914641
 31
0.0
  0
LINE
  5
FB9F
330
18
100
AcDbEntity
  8
FootWeb
100
AcDbLine
 10
2693.95168547606
 20
452.7865675678589
 30
0.0
 11
2707.951685476059
 21
438.286567567859
 31
0.0
  0
LINE
  5
FF82
330
18
100
AcDbEntity
  8
FootWeb
100
AcDbLine
 10
2707.951685476059
 20
187.1622996616179
 30
0.0
 11
2693.95168547606
 21
176.8617489228819
 31
0.0
  0
LINE
  5
FF83
330
18
100
AcDbEntity
  8
FootWeb
100
AcDbLine
 10
2707.951685476059
 20
185.0409793180583
 30
0.0
 11
2693.95168547606
 21
174.7404292609587
 31
0.0
  0
LINE
  5
FF84
330
18
100
AcDbEntity
  8
FootWeb
100
AcDbLine
 10
2691.505774911522
 20
174.7404292609587
 30
0.0
 11
2699.443597085032
 21
174.7404292609588
 31
0.0
  0
LINE
  5
FF85
330
18
100
AcDbEntity
  8
FootWeb
100
AcDbLine
 10
2707.951685476059
 20
185.0409793180583
 30
0.0
 11
2699.45168547606
 21
174.7404292609587
 31
0.0
  0
LINE
  5
FF88
330
18
100
AcDbEntity
  8
FootWeb
100
AcDbLine
 10
2555.03906057201
 20
174.7404285793222
 30
0.0
 11
2565.339611310747
 21
185.0409793180583
 31
0.0
  0
LINE
  5
FF89
330
18
100
AcDbEntity
  8
FootWeb
100
AcDbLine
 10
2552.917740228451
 20
176.8617489228819
 30
0.0
 11
2563.218290967187
 21
187.1622996616179
 31
0.0
  0
LINE
  5
FF8A
330
18
100
AcDbEntity
  8
FootWeb
100
AcDbLine
 10
2538.935608774341
 20
162.8796174687721
 30
0.0
 11
2528.635058035606
 21
152.5790667300367
 31
0.0
  0
LINE
  5
FF8B
330
18
100
AcDbEntity
  8
FootWeb
100
AcDbLine
 10
2541.056929117901
 20
160.7582971252129
 30
0.0
 11
2530.756378379165
 21
150.4577463864771
 31
0.0
  0
LINE
  5
FF98
330
18
100
AcDbEntity
  8
FootWeb
100
AcDbLine
 10
2693.95168547606
 20
177.5918726947824
 30
0.0
 11
2693.95168547606
 21
179.713193038342
 31
0.0
  0
LINE
  5
100DE
330
18
100
AcDbEntity
  8
FootWeb
100
AcDbLine
 10
2869.629142401333
 20
177.5918726947824
 30
0.0
 11
2869.629142401333
 21
179.713193038342
 31
0.0
  0
LINE
  5
100E7
330
18
100
AcDbEntity
  8
FootWeb
100
AcDbLine
 10
2883.629142401332
 20
185.0409793180583
 30
0.0
 11
2875.129142401333
 21
174.7404292609587
 31
0.0
  0
LINE
  5
100E8
330
18
100
AcDbEntity
  8
FootWeb
100
AcDbLine
 10
2867.183231836795
 20
174.7404292609587
 30
0.0
 11
2875.121054010305
 21
174.7404292609588
 31
0.0
  0
LINE
  5
100E9
330
18
100
AcDbEntity
  8
FootWeb
100
AcDbLine
 10
2883.629142401332
 20
185.0409793180583
 30
0.0
 11
2869.629142401333
 21
174.7404292609587
 31
0.0
  0
LINE
  5
100EA
330
18
100
AcDbEntity
  8
FootWeb
100
AcDbLine
 10
2883.629142401332
 20
187.1622996616179
 30
0.0
 11
2869.629142401333
 21
176.8617489228819
 31
0.0
  0
LINE
  5
12658
330
18
100
AcDbEntity
  8
Construction
  6
CENTER
100
AcDbLine
 10
1441.053822572458
 20
-1003.652602759801
 30
0.0
 11
1441.053822572458
 21
-950.8292668008726
 31
0.0
  0
CIRCLE
  5
12659
330
18
100
AcDbEntity
  8
Insert
100
AcDbCircle
 10
1441.053822572458
 20
-1114.199508850491
 30
0.0
 40
14.0
  0
LINE
  5
1265A
330
18
100
AcDbEntity
  8
Construction
  6
CENTER
100
AcDbLine
 10
1441.053822572458
 20
-1160.899206637339
 30
0.0
 11
1441.053822572458
 21
-1079.801026818689
 31
0.0
  0
LINE
  5
1265E
330
18
100
AcDbEntity
  8
Construction
  6
CENTER
100
AcDbLine
 10
1490.053822572458
 20
-1114.199508850491
 30
0.0
 11
1382.843913854135
 21
-1114.199508850491
 31
0.0
  0
LINE
  5
1265F
330
18
100
AcDbEntity
  8
Construction
  6
ACAD_ISO02W100
100
AcDbLine
 10
1441.053822572458
 20
-1114.199508850491
 30
0.0
 11
1490.053822572458
 21
-1114.199508850491
 31
0.0
  0
LINE
  5
12662
330
18
100
AcDbEntity
  8
Insert
  6
HIDDEN
100
AcDbLine
 10
1429.206089542452
 20
-1106.740874789906
 30
0.0
 11
1452.901555602463
 21
-1106.740874789906
 31
0.0
  0
LINE
  5
12663
330
18
100
AcDbEntity
  8
Insert
  6
HIDDEN
100
AcDbLine
 10
1429.20609037464
 20
-1121.658144232972
 30
0.0
 11
1452.901554770275
 21
-1121.658144232972
 31
0.0
  0
LINE
  5
12667
330
18
100
AcDbEntity
  8
Construction
  6
CENTER
100
AcDbLine
 10
1441.053822572458
 20
-1089.699508850491
 30
0.0
 11
1441.053822572458
 21
-1036.876172891562
 31
0.0
  0
LINE
  5
1266A
330
18
100
AcDbEntity
  8
Insert
  6
HIDDEN
100
AcDbLine
 10
1433.595188511873
 20
-1040.000335789807
 30
0.0
 11
1433.595188511872
 21
-1016.304869729796
 31
0.0
  0
CIRCLE
  5
1266B
330
18
100
AcDbEntity
  8
Insert
100
AcDbCircle
 10
1441.053822572458
 20
-1028.152602759801
 30
0.0
 40
14.0
  0
LINE
  5
1266C
330
18
100
AcDbEntity
  8
Insert
  6
HIDDEN
100
AcDbLine
 10
1448.512457954939
 20
-1040.000334957619
 30
0.0
 11
1448.512457954939
 21
-1016.304870561984
 31
0.0
  0
LINE
  5
1267A
330
18
100
AcDbEntity
  8
Insert
100
AcDbLine
 10
1650.518173375342
 20
-1100.199508850491
 30
0.0
 11
1650.518173375342
 21
-1128.199508850491
 31
0.0
  0
LINE
  5
1267B
330
18
100
AcDbEntity
  8
Insert
100
AcDbLine
 10
1510.518173375342
 20
-1100.199508850491
 30
0.0
 11
1510.518173375342
 21
-1128.199508850491
 31
0.0
  0
CIRCLE
  5
1267E
330
18
100
AcDbEntity
  8
Insert
100
AcDbCircle
 10
1580.518173375341
 20
-1114.199508850491
 30
0.0
 40
7.5
  0
LINE
  5
1267F
330
18
100
AcDbEntity
  8
Insert
100
AcDbLine
 10
1510.518173375342
 20
-1128.199508850491
 30
0.0
 11
1650.518173375342
 21
-1128.199508850491
 31
0.0
  0
LINE
  5
12680
330
18
100
AcDbEntity
  8
Insert
100
AcDbLine
 10
1510.518173375342
 20
-1100.199508850491
 30
0.0
 11
1650.518173375342
 21
-1100.199508850491
 31
0.0
  0
LINE
  5
12683
330
18
100
AcDbEntity
  8
Insert
100
AcDbLine
 10
1510.518173375342
 20
-1014.152602759801
 30
0.0
 11
1510.518173375342
 21
-1042.152602759801
 31
0.0
  0
LINE
  5
12684
330
18
100
AcDbEntity
  8
Insert
  6
HIDDEN
100
AcDbLine
 10
1588.018173375342
 20
-1014.152602759801
 30
0.0
 11
1588.018173375342
 21
-1042.152602759801
 31
0.0
  0
LINE
  5
12685
330
18
100
AcDbEntity
  8
Insert
  6
HIDDEN
100
AcDbLine
 10
1573.018173375342
 20
-1014.152602759801
 30
0.0
 11
1573.018173375342
 21
-1042.152602759801
 31
0.0
  0
LINE
  5
12686
330
18
100
AcDbEntity
  8
Insert
100
AcDbLine
 10
1510.518173375342
 20
-1042.152602759801
 30
0.0
 11
1650.518173375342
 21
-1042.152602759801
 31
0.0
  0
LINE
  5
12697
330
18
100
AcDbEntity
  8
Insert
100
AcDbLine
 10
1510.518173375342
 20
-1014.152602759801
 30
0.0
 11
1600.518173375341
 21
-1014.152602759801
 31
0.0
  0
LINE
  5
12698
330
18
100
AcDbEntity
  8
Insert
100
AcDbLine
 10
1510.518173375342
 20
-1014.152602759801
 30
0.0
 11
1650.518173375342
 21
-1014.152602759801
 31
0.0
  0
CIRCLE
  5
127FD
330
18
100
AcDbEntity
  8
Insert
100
AcDbCircle
 10
1441.053822572458
 20
-1028.152602759801
 30
0.0
 40
10.0
  0
CIRCLE
  5
127FE
330
18
100
AcDbEntity
  8
Insert
  6
HIDDEN2
100
AcDbCircle
 10
1441.053822572458
 20
-1028.152602759801
 30
0.0
 40
11.0
  0
CIRCLE
  5
12806
330
18
100
AcDbEntity
  8
Insert
100
AcDbCircle
 10
1441.053822572458
 20
-1114.199508850491
 30
0.0
 40
10.0
  0
CIRCLE
  5
12807
330
18
100
AcDbEntity
  8
Insert
  6
HIDDEN2
100
AcDbCircle
 10
1441.053822572458
 20
-1114.199508850491
 30
0.0
 40
11.0
  0
LINE
  5
12860
330
18
100
AcDbEntity
  8
InsertDims
  6
CENTER
100
AcDbLine
 10
1580.518173375342
 20
-1149.84382985678
 30
0.0
 11
1580.518173375342
 21
-988.7998985534041
 31
0.0
  0
LINE
  5
12869
330
18
100
AcDbEntity
  8
Insert
100
AcDbLine
 10
1650.518173375342
 20
-1014.152602759801
 30
0.0
 11
1650.518173375342
 21
-1042.152602759801
 31
0.0
  0
LINE
  5
12948
330
18
100
AcDbEntity
  8
Construction
  6
CENTER
100
AcDbLine
 10
1442.041614073771
 20
-1338.5990374677
 30
0.0
 11
1442.041614073771
 21
-1285.775701508771
 31
0.0
  0
LINE
  5
12949
330
18
100
AcDbEntity
  8
Construction
  6
CENTER
100
AcDbLine
 10
1442.041614073771
 20
-1424.645943558389
 30
0.0
 11
1442.041614073771
 21
-1371.82260759946
 31
0.0
  0
CIRCLE
  5
1294F
330
18
100
AcDbEntity
  8
Insert
  6
HIDDEN2
100
AcDbCircle
 10
1442.041614073771
 20
-1363.0990374677
 30
0.0
 40
11.0
  0
CIRCLE
  5
12950
330
18
100
AcDbEntity
  8
Insert
100
AcDbCircle
 10
1442.041614073771
 20
-1363.0990374677
 30
0.0
 40
10.0
  0
LINE
  5
12951
330
18
100
AcDbEntity
  8
Insert
  6
HIDDEN
100
AcDbLine
 10
1449.500249456252
 20
-1374.946769665517
 30
0.0
 11
1449.500249456252
 21
-1351.251305269882
 31
0.0
  0
CIRCLE
  5
12952
330
18
100
AcDbEntity
  8
Insert
100
AcDbCircle
 10
1442.041614073771
 20
-1363.0990374677
 30
0.0
 40
14.0
  0
LINE
  5
12953
330
18
100
AcDbEntity
  8
Insert
  6
HIDDEN
100
AcDbLine
 10
1434.582980013186
 20
-1374.946770497705
 30
0.0
 11
1434.582980013185
 21
-1351.251304437695
 31
0.0
  0
LINE
  5
12956
330
18
100
AcDbEntity
  8
InsertDims
  6
CENTER
100
AcDbLine
 10
1581.505964876655
 20
-1404.26829891299
 30
0.0
 11
1581.505964876655
 21
-1323.746333261302
 31
0.0
  0
LINE
  5
1295F
330
18
100
AcDbEntity
  8
Insert
100
AcDbLine
 10
1499.005964876655
 20
-1377.0990374677
 30
0.0
 11
1664.005964876654
 21
-1377.099037467699
 31
0.0
  0
LINE
  5
12960
330
18
100
AcDbEntity
  8
Insert
100
AcDbLine
 10
1511.505964876655
 20
-1349.0990374677
 30
0.0
 11
1664.005964876654
 21
-1349.0990374677
 31
0.0
  0
LINE
  5
12961
330
18
100
AcDbEntity
  8
Insert
100
AcDbLine
 10
1499.005964876654
 20
-1349.0990374677
 30
0.0
 11
1601.505964876655
 21
-1349.0990374677
 31
0.0
  0
LINE
  5
12963
330
18
100
AcDbEntity
  8
Insert
  6
HIDDEN
100
AcDbLine
 10
1589.005964876655
 20
-1349.0990374677
 30
0.0
 11
1589.005964876655
 21
-1377.0990374677
 31
0.0
  0
LINE
  5
12964
330
18
100
AcDbEntity
  8
Insert
  6
HIDDEN
100
AcDbLine
 10
1574.005964876655
 20
-1349.0990374677
 30
0.0
 11
1574.005964876655
 21
-1377.0990374677
 31
0.0
  0
LINE
  5
12965
330
18
100
AcDbEntity
  8
Insert
100
AcDbLine
 10
1499.005964876655
 20
-1349.0990374677
 30
0.0
 11
1499.005964876655
 21
-1377.0990374677
 31
0.0
  0
LINE
  5
12967
330
18
100
AcDbEntity
  8
Insert
100
AcDbLine
 10
1499.005964876655
 20
-1373.104738921782
 30
0.0
 11
1539.005964876655
 21
-1373.099037457521
 31
0.0
  0
LINE
  5
12969
330
18
100
AcDbEntity
  8
Insert
100
AcDbLine
 10
1499.005964876655
 20
-1353.093336013618
 30
0.0
 11
1539.005964876655
 21
-1353.09921013313
 31
0.0
  0
LINE
  5
1296D
330
18
100
AcDbEntity
  8
Insert
100
AcDbLine
 10
1664.005964876655
 20
-1349.0990374677
 30
0.0
 11
1664.005964876655
 21
-1377.0990374677
 31
0.0
  0
LINE
  5
12A5F
330
18
100
AcDbEntity
  8
Insert
100
AcDbLine
 10
1669.005964876654
 20
-1643.881099803822
 30
0.0
 11
1669.005964876654
 21
-1671.881099803822
 31
0.0
  0
LINE
  5
12A60
330
18
100
AcDbEntity
  8
Insert
100
AcDbLine
 10
1499.005964876654
 20
-1643.881099803822
 30
0.0
 11
1499.005964876654
 21
-1671.881099803822
 31
0.0
  0
LINE
  5
12A61
330
18
100
AcDbEntity
  8
Insert
  6
HIDDEN
100
AcDbLine
 10
1576.505964876654
 20
-1643.881099803822
 30
0.0
 11
1576.505964876654
 21
-1671.881099803822
 31
0.0
  0
LINE
  5
12A62
330
18
100
AcDbEntity
  8
Insert
  6
HIDDEN
100
AcDbLine
 10
1591.505964876654
 20
-1643.881099803822
 30
0.0
 11
1591.505964876654
 21
-1671.881099803822
 31
0.0
  0
LINE
  5
12A64
330
18
100
AcDbEntity
  8
Insert
100
AcDbLine
 10
1499.005964876654
 20
-1671.881099803822
 30
0.0
 11
1669.005964876654
 21
-1671.881099803822
 31
0.0
  0
LINE
  5
12A65
330
18
100
AcDbEntity
  8
Insert
100
AcDbLine
 10
1499.005964876654
 20
-1667.886801257903
 30
0.0
 11
1539.005964876654
 21
-1667.881099793643
 31
0.0
  0
LINE
  5
12A69
330
18
100
AcDbEntity
  8
Insert
100
AcDbLine
 10
1669.005964876654
 20
-1667.886801257903
 30
0.0
 11
1628.400312560328
 21
-1667.881013466017
 31
0.0
  0
LINE
  5
12A6B
330
18
100
AcDbEntity
  8
Insert
100
AcDbLine
 10
1514.005964876654
 20
-1643.881099803822
 30
0.0
 11
1604.005964876654
 21
-1643.881099803822
 31
0.0
  0
LINE
  5
12A6C
330
18
100
AcDbEntity
  8
Insert
100
AcDbLine
 10
1499.005964876654
 20
-1643.881099803822
 30
0.0
 11
1669.005964876654
 21
-1643.881099803822
 31
0.0
  0
LINE
  5
12A6F
330
18
100
AcDbEntity
  8
Insert
100
AcDbLine
 10
1499.005964876654
 20
-1647.87539834974
 30
0.0
 11
1539.005964876654
 21
-1647.881272469252
 31
0.0
  0
LINE
  5
12A72
330
18
100
AcDbEntity
  8
Insert
100
AcDbLine
 10
1669.005964876654
 20
-1647.87539834974
 30
0.0
 11
1628.400312560328
 21
-1647.881186141626
 31
0.0
  0
TEXT
  5
142FA
330
18
100
AcDbEntity
  8
ANCON-TEXT
100
AcDbText
 10
1402.466963211769
 20
-1447.33269058152
 30
0.0
 40
7.5
  1
EzyFit Double Ended Ferrule 20x165
  7
Ancon
100
AcDbText
  0
TEXT
  5
142FB
330
18
100
AcDbEntity
  8
ANCON-TEXT
100
AcDbText
 10
1402.466963211769
 20
-1455.666023914853
 30
0.0
 40
7.5
  1
with 15mm Crosshole
  7
Ancon
100
AcDbText
  0
TEXT
  5
142FC
330
18
100
AcDbEntity
  8
ANCON-TEXT
100
AcDbText
 10
1402.466963211769
 20
-1472.332690581519
 30
0.0
 40
7.5
  1
Product Ordering Codes:
  7
Ancon
100
AcDbText
  0
TEXT
  5
142FD
330
18
100
AcDbEntity
  8
ANCON-TEXT
100
AcDbText
 10
1402.466963211769
 20
-1480.666023914853
 30
0.0
 40
7.5
  1
Zinc Plated Gold Passivated:  FERD20165Z
  7
Ancon
100
AcDbText
  0
TEXT
  5
14301
330
18
100
AcDbEntity
  8
ANCON-TEXT
100
AcDbText
 10
1404.958331451761
 20
-1734.475800329976
 30
0.0
 40
7.5
  1
EzyFit Double Ended Ferrule 20x170
  7
Ancon
100
AcDbText
  0
TEXT
  5
14302
330
18
100
AcDbEntity
  8
ANCON-TEXT
100
AcDbText
 10
1404.958331451761
 20
-1742.80913366331
 30
0.0
 40
7.5
  1
with 15mm Crosshole
  7
Ancon
100
AcDbText
  0
TEXT
  5
14303
330
18
100
AcDbEntity
  8
ANCON-TEXT
100
AcDbText
 10
1404.958331451761
 20
-1759.475800329976
 30
0.0
 40
7.5
  1
Product Ordering Codes:
  7
Ancon
100
AcDbText
  0
TEXT
  5
14304
330
18
100
AcDbEntity
  8
ANCON-TEXT
100
AcDbText
 10
1404.958331451761
 20
-1767.80913366331
 30
0.0
 40
7.5
  1
Zinc Plated Gold Passivated:  FERD20170Z
  7
Ancon
100
AcDbText
  0
LINE
  5
14324
330
18
100
AcDbEntity
  8
Construction
  6
CENTER
100
AcDbLine
 10
1442.04161407377
 20
-1633.381099803822
 30
0.0
 11
1442.04161407377
 21
-1580.557763844893
 31
0.0
  0
LINE
  5
14325
330
18
100
AcDbEntity
  8
Construction
  6
CENTER
100
AcDbLine
 10
1442.04161407377
 20
-1719.428005894511
 30
0.0
 11
1442.04161407377
 21
-1666.604669935582
 31
0.0
  0
CIRCLE
  5
14328
330
18
100
AcDbEntity
  8
Insert
  6
HIDDEN2
100
AcDbCircle
 10
1442.04161407377
 20
-1657.881099803821
 30
0.0
 40
11.0
  0
CIRCLE
  5
14329
330
18
100
AcDbEntity
  8
Insert
100
AcDbCircle
 10
1442.04161407377
 20
-1657.881099803821
 30
0.0
 40
10.0
  0
LINE
  5
1432A
330
18
100
AcDbEntity
  8
Insert
  6
HIDDEN
100
AcDbLine
 10
1449.500249456251
 20
-1669.728832001639
 30
0.0
 11
1449.500249456251
 21
-1646.033367606004
 31
0.0
  0
CIRCLE
  5
1432B
330
18
100
AcDbEntity
  8
Insert
100
AcDbCircle
 10
1442.04161407377
 20
-1657.881099803821
 30
0.0
 40
14.0
  0
LINE
  5
1432C
330
18
100
AcDbEntity
  8
Insert
  6
HIDDEN
100
AcDbLine
 10
1434.582980013185
 20
-1669.728832833827
 30
0.0
 11
1434.582980013185
 21
-1646.033366773817
 31
0.0
  0
TEXT
  5
14355
330
18
100
AcDbEntity
  8
ANCON-TEXT
100
AcDbText
 10
1424.412273612933
 20
-1175.450461002786
 30
0.0
 40
7.5
  1
EzyFit Double Ended Ferrule 20x140
  7
Ancon
100
AcDbText
  0
TEXT
  5
14356
330
18
100
AcDbEntity
  8
ANCON-TEXT
100
AcDbText
 10
1424.412273612933
 20
-1183.783794336119
 30
0.0
 40
7.5
  1
with 15mm Crosshole
  7
Ancon
100
AcDbText
  0
TEXT
  5
14357
330
18
100
AcDbEntity
  8
ANCON-TEXT
100
AcDbText
 10
1424.412273612933
 20
-1200.450461002785
 30
0.0
 40
7.5
  1
Product Ordering Codes:
  7
Ancon
100
AcDbText
  0
TEXT
  5
14358
330
18
100
AcDbEntity
  8
ANCON-TEXT
100
AcDbText
 10
1424.412273612933
 20
-1208.783794336119
 30
0.0
 40
7.5
  1
Zinc Plated Gold Passivated:  FERD20140Z
  7
Ancon
100
AcDbText
  0
LINE
  5
1439D
330
18
100
AcDbEntity
  8
Construction
  6
CENTER
100
AcDbLine
 10
1986.85485813881
 20
-1003.652602759801
 30
0.0
 11
1986.85485813881
 21
-950.8292668008726
 31
0.0
  0
CIRCLE
  5
1439E
330
18
100
AcDbEntity
  8
Insert
100
AcDbCircle
 10
1986.85485813881
 20
-1114.199508850491
 30
0.0
 40
14.0
  0
LINE
  5
1439F
330
18
100
AcDbEntity
  8
Construction
  6
CENTER
100
AcDbLine
 10
1986.85485813881
 20
-1160.899206637339
 30
0.0
 11
1986.85485813881
 21
-1079.801026818689
 31
0.0
  0
LINE
  5
143A0
330
18
100
AcDbEntity
  8
Construction
  6
CENTER
100
AcDbLine
 10
2035.85485813881
 20
-1114.199508850491
 30
0.0
 11
1928.644949420488
 21
-1114.199508850491
 31
0.0
  0
LINE
  5
143A1
330
18
100
AcDbEntity
  8
Construction
  6
ACAD_ISO02W100
100
AcDbLine
 10
1986.85485813881
 20
-1114.199508850491
 30
0.0
 11
2035.85485813881
 21
-1114.199508850491
 31
0.0
  0
LINE
  5
143A2
330
18
100
AcDbEntity
  8
Insert
  6
HIDDEN
100
AcDbLine
 10
1975.007125108804
 20
-1106.740874789906
 30
0.0
 11
1998.702591168815
 21
-1106.740874789906
 31
0.0
  0
LINE
  5
143A3
330
18
100
AcDbEntity
  8
Insert
  6
HIDDEN
100
AcDbLine
 10
1975.007125940993
 20
-1121.658144232972
 30
0.0
 11
1998.702590336628
 21
-1121.658144232972
 31
0.0
  0
LINE
  5
143A4
330
18
100
AcDbEntity
  8
Construction
  6
CENTER
100
AcDbLine
 10
1986.85485813881
 20
-1089.699508850491
 30
0.0
 11
1986.85485813881
 21
-1036.876172891562
 31
0.0
  0
LINE
  5
143A6
330
18
100
AcDbEntity
  8
Insert
  6
HIDDEN
100
AcDbLine
 10
1979.396224078225
 20
-1040.000335789807
 30
0.0
 11
1979.396224078225
 21
-1016.304869729796
 31
0.0
  0
CIRCLE
  5
143A7
330
18
100
AcDbEntity
  8
Insert
100
AcDbCircle
 10
1986.85485813881
 20
-1028.152602759801
 30
0.0
 40
14.0
  0
LINE
  5
143A8
330
18
100
AcDbEntity
  8
Insert
  6
HIDDEN
100
AcDbLine
 10
1994.313493521292
 20
-1040.000334957619
 30
0.0
 11
1994.313493521291
 21
-1016.304870561984
 31
0.0
  0
LINE
  5
143AB
330
18
100
AcDbEntity
  8
Insert
100
AcDbLine
 10
2196.319208941694
 20
-1100.199508850491
 30
0.0
 11
2196.319208941694
 21
-1128.199508850491
 31
0.0
  0
LINE
  5
143AC
330
18
100
AcDbEntity
  8
Insert
100
AcDbLine
 10
2056.319208941694
 20
-1100.199508850491
 30
0.0
 11
2056.319208941694
 21
-1128.199508850491
 31
0.0
  0
CIRCLE
  5
143AE
330
18
100
AcDbEntity
  8
Insert
100
AcDbCircle
 10
2126.319208941694
 20
-1114.199508850491
 30
0.0
 40
7.5
  0
LINE
  5
143AF
330
18
100
AcDbEntity
  8
Insert
100
AcDbLine
 10
2056.319208941694
 20
-1128.199508850491
 30
0.0
 11
2196.319208941694
 21
-1128.199508850491
 31
0.0
  0
LINE
  5
143B0
330
18
100
AcDbEntity
  8
Insert
100
AcDbLine
 10
2056.319208941694
 20
-1100.199508850491
 30
0.0
 11
2196.319208941694
 21
-1100.199508850491
 31
0.0
  0
LINE
  5
143B2
330
18
100
AcDbEntity
  8
Insert
100
AcDbLine
 10
2056.319208941694
 20
-1014.152602759801
 30
0.0
 11
2056.319208941694
 21
-1042.152602759801
 31
0.0
  0
LINE
  5
143B3
330
18
100
AcDbEntity
  8
Insert
  6
HIDDEN
100
AcDbLine
 10
2133.819208941694
 20
-1014.152602759801
 30
0.0
 11
2133.819208941694
 21
-1042.152602759801
 31
0.0
  0
LINE
  5
143B4
330
18
100
AcDbEntity
  8
Insert
  6
HIDDEN
100
AcDbLine
 10
2118.819208941694
 20
-1014.152602759801
 30
0.0
 11
2118.819208941694
 21
-1042.152602759801
 31
0.0
  0
LINE
  5
143B5
330
18
100
AcDbEntity
  8
Insert
100
AcDbLine
 10
2056.319208941694
 20
-1042.152602759801
 30
0.0
 11
2196.319208941694
 21
-1042.152602759801
 31
0.0
  0
LINE
  5
143BB
330
18
100
AcDbEntity
  8
Insert
100
AcDbLine
 10
2056.319208941694
 20
-1014.152602759801
 30
0.0
 11
2146.319208941694
 21
-1014.152602759801
 31
0.0
  0
LINE
  5
143BC
330
18
100
AcDbEntity
  8
Insert
100
AcDbLine
 10
2056.319208941694
 20
-1014.152602759801
 30
0.0
 11
2196.319208941694
 21
-1014.152602759801
 31
0.0
  0
LINE
  5
143C2
330
18
100
AcDbEntity
  8
InsertDims
  6
CENTER
100
AcDbLine
 10
2126.319208941694
 20
-1149.84382985678
 30
0.0
 11
2126.319208941694
 21
-988.7998985534041
 31
0.0
  0
LINE
  5
143C7
330
18
100
AcDbEntity
  8
Insert
100
AcDbLine
 10
2196.319208941694
 20
-1014.152602759801
 30
0.0
 11
2196.319208941694
 21
-1042.152602759801
 31
0.0
  0
LINE
  5
143F6
330
18
100
AcDbEntity
  8
Insert
100
AcDbLine
 10
2214.807000443006
 20
-1357.722819134721
 30
0.0
 11
2214.807000443006
 21
-1385.722819134721
 31
0.0
  0
LINE
  5
143F7
330
18
100
AcDbEntity
  8
Insert
100
AcDbLine
 10
2044.807000443007
 20
-1357.722819134721
 30
0.0
 11
2044.807000443007
 21
-1385.722819134721
 31
0.0
  0
LINE
  5
143F8
330
18
100
AcDbEntity
  8
Insert
  6
HIDDEN
100
AcDbLine
 10
2122.307000443007
 20
-1357.722819134721
 30
0.0
 11
2122.307000443007
 21
-1385.722819134721
 31
0.0
  0
LINE
  5
143F9
330
18
100
AcDbEntity
  8
Insert
  6
HIDDEN
100
AcDbLine
 10
2137.307000443007
 20
-1357.722819134721
 30
0.0
 11
2137.307000443007
 21
-1385.722819134721
 31
0.0
  0
LINE
  5
143FB
330
18
100
AcDbEntity
  8
Insert
100
AcDbLine
 10
2044.807000443007
 20
-1385.722819134721
 30
0.0
 11
2214.807000443006
 21
-1385.722819134721
 31
0.0
  0
LINE
  5
14402
330
18
100
AcDbEntity
  8
Insert
100
AcDbLine
 10
2059.807000443007
 20
-1357.722819134721
 30
0.0
 11
2149.807000443006
 21
-1357.722819134721
 31
0.0
  0
LINE
  5
14403
330
18
100
AcDbEntity
  8
Insert
100
AcDbLine
 10
2044.807000443007
 20
-1357.722819134721
 30
0.0
 11
2214.807000443006
 21
-1357.722819134721
 31
0.0
  0
TEXT
  5
1440D
330
18
100
AcDbEntity
  8
ANCON-TEXT
100
AcDbText
 10
1970.577363632976
 20
-1169.699690225967
 30
0.0
 40
7.5
  1
EzyFit Double Ended Ferrule 16x140
  7
Ancon
100
AcDbText
  0
TEXT
  5
1440E
330
18
100
AcDbEntity
  8
ANCON-TEXT
100
AcDbText
 10
1970.577363632976
 20
-1178.033023559301
 30
0.0
 40
7.5
  1
with 15mm Crosshole
  7
Ancon
100
AcDbText
  0
TEXT
  5
1440F
330
18
100
AcDbEntity
  8
ANCON-TEXT
100
AcDbText
 10
1970.577363632976
 20
-1194.699690225967
 30
0.0
 40
7.5
  1
Product Ordering Codes:
  7
Ancon
100
AcDbText
  0
TEXT
  5
14410
330
18
100
AcDbEntity
  8
ANCON-TEXT
100
AcDbText
 10
1970.577363632976
 20
-1203.0330235593
 30
0.0
 40
7.5
  1
Zinc Plated Gold Passivated:  FERD16140Z
  7
Ancon
100
AcDbText
  0
TEXT
  5
14415
330
18
100
AcDbEntity
  8
ANCON-TEXT
100
AcDbText
 10
1950.759367018114
 20
-1448.317519660876
 30
0.0
 40
7.5
  1
EzyFit Double Ended Ferrule 16x170
  7
Ancon
100
AcDbText
  0
TEXT
  5
14416
330
18
100
AcDbEntity
  8
ANCON-TEXT
100
AcDbText
 10
1950.759367018114
 20
-1456.650852994209
 30
0.0
 40
7.5
  1
with 15mm Crosshole
  7
Ancon
100
AcDbText
  0
TEXT
  5
14417
330
18
100
AcDbEntity
  8
ANCON-TEXT
100
AcDbText
 10
1950.759367018114
 20
-1473.317519660876
 30
0.0
 40
7.5
  1
Product Ordering Codes:
  7
Ancon
100
AcDbText
  0
TEXT
  5
14418
330
18
100
AcDbEntity
  8
ANCON-TEXT
100
AcDbText
 10
1950.759367018114
 20
-1481.650852994209
 30
0.0
 40
7.5
  1
Zinc Plated Gold Passivated:  FERD16170Z
  7
Ancon
100
AcDbText
  0
LINE
  5
14419
330
18
100
AcDbEntity
  8
Construction
  6
CENTER
100
AcDbLine
 10
1987.842649640122
 20
-1347.222819134721
 30
0.0
 11
1987.842649640122
 21
-1294.399483175792
 31
0.0
  0
LINE
  5
1441A
330
18
100
AcDbEntity
  8
Construction
  6
CENTER
100
AcDbLine
 10
1987.842649640122
 20
-1433.269725225411
 30
0.0
 11
1987.842649640122
 21
-1380.446389266482
 31
0.0
  0
CIRCLE
  5
1441D
330
18
100
AcDbEntity
  8
Insert
  6
HIDDEN2
100
AcDbCircle
 10
1987.842649640122
 20
-1371.722819134721
 30
0.0
 40
11.0
  0
LINE
  5
1441F
330
18
100
AcDbEntity
  8
Insert
100
AcDbLine
 10
1995.301285022604
 20
-1383.570551332539
 30
0.0
 11
1995.301285022604
 21
-1359.875086936904
 31
0.0
  0
CIRCLE
  5
14420
330
18
100
AcDbEntity
  8
Insert
100
AcDbCircle
 10
1987.842649640122
 20
-1371.722819134721
 30
0.0
 40
14.0
  0
LINE
  5
14421
330
18
100
AcDbEntity
  8
Insert
  6
HIDDEN
100
AcDbLine
 10
1980.384015579538
 20
-1383.570552164727
 30
0.0
 11
1980.384015579537
 21
-1359.875086104716
 31
0.0
  0
CIRCLE
  5
145CB
330
18
100
AcDbEntity
  8
Insert
100
AcDbCircle
 10
1987.842649640122
 20
-1371.722819134721
 30
0.0
 40
8.0
  0
CIRCLE
  5
145E9
330
18
100
AcDbEntity
  8
Insert
100
AcDbCircle
 10
1986.854858138809
 20
-1028.152602759802
 30
0.0
 40
8.0
  0
CIRCLE
  5
14600
330
18
100
AcDbEntity
  8
Insert
100
AcDbCircle
 10
1986.85485813881
 20
-1114.199508850491
 30
0.0
 40
8.0
  0
LINE
  5
14623
330
18
100
AcDbEntity
  8
Insert
100
AcDbLine
 10
1679.005964876654
 20
-1932.788794690545
 30
0.0
 11
1679.005964876654
 21
-1960.788794690545
 31
0.0
  0
LINE
  5
14624
330
18
100
AcDbEntity
  8
Insert
100
AcDbLine
 10
1489.005964876653
 20
-1932.788794690545
 30
0.0
 11
1489.005964876653
 21
-1960.788794690545
 31
0.0
  0
LINE
  5
14625
330
18
100
AcDbEntity
  8
Insert
  6
HIDDEN
100
AcDbLine
 10
1576.505964876653
 20
-1932.788794690545
 30
0.0
 11
1576.505964876653
 21
-1960.788794690545
 31
0.0
  0
LINE
  5
14626
330
18
100
AcDbEntity
  8
Insert
  6
HIDDEN
100
AcDbLine
 10
1591.505964876653
 20
-1932.788794690545
 30
0.0
 11
1591.505964876653
 21
-1960.788794690545
 31
0.0
  0
LINE
  5
14628
330
18
100
AcDbEntity
  8
Insert
100
AcDbLine
 10
1489.005964876653
 20
-1960.788794690545
 30
0.0
 11
1679.005964876654
 21
-1960.788794690545
 31
0.0
  0
LINE
  5
14629
330
18
100
AcDbEntity
  8
Insert
100
AcDbLine
 10
1489.005964876653
 20
-1956.794496144627
 30
0.0
 11
1529.011617192979
 21
-1956.78870835274
 31
0.0
  0
LINE
  5
1462D
330
18
100
AcDbEntity
  8
Insert
100
AcDbLine
 10
1679.005964876654
 20
-1956.794410622663
 30
0.0
 11
1639.000312560327
 21
-1956.78870835274
 31
0.0
  0
LINE
  5
1462F
330
18
100
AcDbEntity
  8
Insert
100
AcDbLine
 10
1489.005964876653
 20
-1932.788794690545
 30
0.0
 11
1679.005964876654
 21
-1932.788794690545
 31
0.0
  0
LINE
  5
14630
330
18
100
AcDbEntity
  8
Insert
100
AcDbLine
 10
1489.005964876653
 20
-1932.788794690545
 30
0.0
 11
1679.005964876654
 21
-1932.788794690545
 31
0.0
  0
LINE
  5
14633
330
18
100
AcDbEntity
  8
Insert
100
AcDbLine
 10
1489.005964876653
 20
-1936.783093236462
 30
0.0
 11
1529.011617192979
 21
-1936.788881028349
 31
0.0
  0
LINE
  5
14636
330
18
100
AcDbEntity
  8
Insert
100
AcDbLine
 10
1679.005964876654
 20
-1936.783178758426
 30
0.0
 11
1639.000312560327
 21
-1936.788881028349
 31
0.0
  0
TEXT
  5
1463A
330
18
100
AcDbEntity
  8
ANCON-TEXT
100
AcDbText
 10
1404.958331451761
 20
-2023.3834952167
 30
0.0
 40
7.5
  1
EzyFit Double Ended Ferrule 20x190
  7
Ancon
100
AcDbText
  0
TEXT
  5
1463B
330
18
100
AcDbEntity
  8
ANCON-TEXT
100
AcDbText
 10
1404.958331451761
 20
-2031.716828550033
 30
0.0
 40
7.5
  1
with 15mm Crosshole
  7
Ancon
100
AcDbText
  0
TEXT
  5
1463C
330
18
100
AcDbEntity
  8
ANCON-TEXT
100
AcDbText
 10
1404.958331451761
 20
-2048.383495216699
 30
0.0
 40
7.5
  1
Product Ordering Codes:
  7
Ancon
100
AcDbText
  0
TEXT
  5
1463D
330
18
100
AcDbEntity
  8
ANCON-TEXT
100
AcDbText
 10
1404.958331451761
 20
-2056.716828550033
 30
0.0
 40
7.5
  1
Zinc Plated Gold Passivated:  FERD20190Z
  7
Ancon
100
AcDbText
  0
LINE
  5
1463E
330
18
100
AcDbEntity
  8
Construction
  6
CENTER
100
AcDbLine
 10
1442.04161407377
 20
-1922.288794690545
 30
0.0
 11
1442.04161407377
 21
-1869.465458731616
 31
0.0
  0
LINE
  5
1463F
330
18
100
AcDbEntity
  8
Construction
  6
CENTER
100
AcDbLine
 10
1442.04161407377
 20
-2008.335700781234
 30
0.0
 11
1442.04161407377
 21
-1955.512364822305
 31
0.0
  0
CIRCLE
  5
14642
330
18
100
AcDbEntity
  8
Insert
  6
HIDDEN2
100
AcDbCircle
 10
1442.04161407377
 20
-1946.788794690545
 30
0.0
 40
11.0
  0
CIRCLE
  5
14643
330
18
100
AcDbEntity
  8
Insert
100
AcDbCircle
 10
1442.04161407377
 20
-1946.788794690545
 30
0.0
 40
10.0
  0
LINE
  5
14644
330
18
100
AcDbEntity
  8
Insert
  6
HIDDEN
100
AcDbLine
 10
1449.500249456251
 20
-1958.636526888362
 30
0.0
 11
1449.50024945625
 21
-1934.941062492727
 31
0.0
  0
CIRCLE
  5
14645
330
18
100
AcDbEntity
  8
Insert
100
AcDbCircle
 10
1442.04161407377
 20
-1946.788794690545
 30
0.0
 40
14.0
  0
LINE
  5
14646
330
18
100
AcDbEntity
  8
Insert
  6
HIDDEN
100
AcDbLine
 10
1434.582980013185
 20
-1958.63652772055
 30
0.0
 11
1434.582980013184
 21
-1934.94106166054
 31
0.0
  0
LINE
  5
146B4
330
18
100
AcDbEntity
  8
Insert
100
AcDbLine
 10
1529.011617192979
 20
-1936.788881028349
 30
0.0
 11
1529.011617192979
 21
-1956.78870835274
 31
0.0
  0
LINE
  5
146B5
330
18
100
AcDbEntity
  8
Insert
100
AcDbLine
 10
1639.000312560327
 20
-1936.788881028349
 30
0.0
 11
1639.000312560327
 21
-1956.78870835274
 31
0.0
  0
LINE
  5
146B6
330
18
100
AcDbEntity
  8
Insert
100
AcDbLine
 10
1539.005964876654
 20
-1647.881272469252
 30
0.0
 11
1539.005964876654
 21
-1667.881099793643
 31
0.0
  0
LINE
  5
146B7
330
18
100
AcDbEntity
  8
Insert
100
AcDbLine
 10
1629.005964876654
 20
-1667.880927138391
 30
0.0
 11
1669.005964876654
 21
-1667.875225674131
 31
0.0
  0
LINE
  5
146B8
330
18
100
AcDbEntity
  8
Insert
100
AcDbLine
 10
1629.005964876654
 20
-1647.869524230227
 30
0.0
 11
1669.005964876654
 21
-1647.87539834974
 31
0.0
  0
LINE
  5
146B9
330
18
100
AcDbEntity
  8
Insert
100
AcDbLine
 10
1669.005964876654
 20
-1647.87539834974
 30
0.0
 11
1669.005964876654
 21
-1667.875225674131
 31
0.0
  0
LINE
  5
146BA
330
18
100
AcDbEntity
  8
Insert
100
AcDbLine
 10
1628.400312560328
 20
-1647.881186141626
 30
0.0
 11
1628.400312560328
 21
-1667.881013466017
 31
0.0
  0
LINE
  5
146BB
330
18
100
AcDbEntity
  8
Insert
100
AcDbLine
 10
1539.005964876655
 20
-1353.09921013313
 30
0.0
 11
1539.005964876655
 21
-1373.099037457521
 31
0.0
  0
LINE
  5
146BC
330
18
100
AcDbEntity
  8
Insert
100
AcDbLine
 10
1624.005964876655
 20
-1373.098864802269
 30
0.0
 11
1664.005964876655
 21
-1373.093163338009
 31
0.0
  0
LINE
  5
146BD
330
18
100
AcDbEntity
  8
Insert
100
AcDbLine
 10
1624.005964876655
 20
-1353.087461894105
 30
0.0
 11
1664.005964876655
 21
-1353.093336013618
 31
0.0
  0
LINE
  5
146BE
330
18
100
AcDbEntity
  8
Insert
100
AcDbLine
 10
1624.005964876655
 20
-1353.09921013313
 30
0.0
 11
1624.005964876655
 21
-1373.099037457521
 31
0.0
  0
LINE
  5
146BF
330
18
100
AcDbEntity
  8
Insert
100
AcDbLine
 10
1510.518173375342
 20
-1038.158304213883
 30
0.0
 11
1550.518173375341
 21
-1038.152602749623
 31
0.0
  0
LINE
  5
146C0
330
18
100
AcDbEntity
  8
Insert
100
AcDbLine
 10
1510.518173375342
 20
-1018.146901305719
 30
0.0
 11
1550.518173375341
 21
-1018.152775425232
 31
0.0
  0
LINE
  5
146C1
330
18
100
AcDbEntity
  8
Insert
100
AcDbLine
 10
1550.518173375341
 20
-1018.152775425232
 30
0.0
 11
1550.518173375341
 21
-1038.152602749623
 31
0.0
  0
LINE
  5
146C2
330
18
100
AcDbEntity
  8
Insert
100
AcDbLine
 10
1610.518173375342
 20
-1038.152430094371
 30
0.0
 11
1650.518173375342
 21
-1038.14672863011
 31
0.0
  0
LINE
  5
146C3
330
18
100
AcDbEntity
  8
Insert
100
AcDbLine
 10
1610.518173375342
 20
-1018.141027186207
 30
0.0
 11
1650.518173375342
 21
-1018.146901305719
 31
0.0
  0
LINE
  5
146C4
330
18
100
AcDbEntity
  8
Insert
100
AcDbLine
 10
1610.518173375342
 20
-1018.152775425232
 30
0.0
 11
1610.518173375342
 21
-1038.152602749623
 31
0.0
  0
LINE
  5
146C5
330
18
100
AcDbEntity
  8
Insert
100
AcDbLine
 10
2044.807000443007
 20
-1381.728520588803
 30
0.0
 11
2084.812652759333
 21
-1381.722732796917
 31
0.0
  0
LINE
  5
146C6
330
18
100
AcDbEntity
  8
Insert
100
AcDbLine
 10
2044.807000443007
 20
-1361.717117680639
 30
0.0
 11
2084.812652759333
 21
-1361.722905472526
 31
0.0
  0
LINE
  5
146C7
330
18
100
AcDbEntity
  8
Insert
100
AcDbLine
 10
2084.812652759333
 20
-1361.722905472526
 30
0.0
 11
2084.812652759333
 21
-1381.722732796917
 31
0.0
  0
LINE
  5
146C8
330
18
100
AcDbEntity
  8
Insert
100
AcDbLine
 10
2056.319208941694
 20
-1038.158304213883
 30
0.0
 11
2096.32486125802
 21
-1038.152516421997
 31
0.0
  0
LINE
  5
146C9
330
18
100
AcDbEntity
  8
Insert
100
AcDbLine
 10
2056.319208941694
 20
-1018.146901305719
 30
0.0
 11
2096.32486125802
 21
-1018.152689097606
 31
0.0
  0
LINE
  5
146CA
330
18
100
AcDbEntity
  8
Insert
100
AcDbLine
 10
2096.32486125802
 20
-1018.152689097606
 30
0.0
 11
2096.32486125802
 21
-1038.152516421997
 31
0.0
  0
LINE
  5
146CB
330
18
100
AcDbEntity
  8
Insert
100
AcDbLine
 10
2214.807000443006
 20
-1381.728349544876
 30
0.0
 11
2174.80134812668
 21
-1381.722647274953
 31
0.0
  0
LINE
  5
146CC
330
18
100
AcDbEntity
  8
Insert
100
AcDbLine
 10
2214.807000443006
 20
-1361.717117680639
 30
0.0
 11
2174.80134812668
 21
-1361.722819950562
 31
0.0
  0
LINE
  5
146CD
330
18
100
AcDbEntity
  8
Insert
100
AcDbLine
 10
2174.80134812668
 20
-1361.722819950562
 30
0.0
 11
2174.80134812668
 21
-1381.722647274953
 31
0.0
  0
LINE
  5
146CE
330
18
100
AcDbEntity
  8
Insert
100
AcDbLine
 10
2196.319208941694
 20
-1038.158133169956
 30
0.0
 11
2156.313556625368
 21
-1038.152430900033
 31
0.0
  0
LINE
  5
146CF
330
18
100
AcDbEntity
  8
Insert
100
AcDbLine
 10
2196.319208941694
 20
-1018.146901305719
 30
0.0
 11
2156.313556625368
 21
-1018.152603575642
 31
0.0
  0
LINE
  5
146D0
330
18
100
AcDbEntity
  8
Insert
100
AcDbLine
 10
2156.313556625368
 20
-1018.152603575642
 30
0.0
 11
2156.313556625368
 21
-1038.152430900033
 31
0.0
  0
LINE
  5
146DB
330
18
100
AcDbEntity
  8
Insert
100
AcDbLine
 10
2223.830920419144
 20
-1643.881099803822
 30
0.0
 11
2223.830920419144
 21
-1671.881099803822
 31
0.0
  0
LINE
  5
146DC
330
18
100
AcDbEntity
  8
Insert
100
AcDbLine
 10
2033.830920419144
 20
-1643.881099803822
 30
0.0
 11
2033.830920419144
 21
-1671.881099803822
 31
0.0
  0
LINE
  5
146DD
330
18
100
AcDbEntity
  8
Insert
  6
HIDDEN
100
AcDbLine
 10
2121.330920419143
 20
-1643.881099803822
 30
0.0
 11
2121.330920419143
 21
-1671.881099803822
 31
0.0
  0
LINE
  5
146DE
330
18
100
AcDbEntity
  8
Insert
  6
HIDDEN
100
AcDbLine
 10
2136.330920419144
 20
-1643.881099803822
 30
0.0
 11
2136.330920419144
 21
-1671.881099803822
 31
0.0
  0
LINE
  5
146DF
330
18
100
AcDbEntity
  8
Insert
100
AcDbLine
 10
2033.830920419144
 20
-1671.881099803821
 30
0.0
 11
2223.830920419144
 21
-1671.881099803822
 31
0.0
  0
LINE
  5
146E0
330
18
100
AcDbEntity
  8
Insert
100
AcDbLine
 10
2033.830920419144
 20
-1643.881099803822
 30
0.0
 11
2148.830920419144
 21
-1643.881099803822
 31
0.0
  0
LINE
  5
146E1
330
18
100
AcDbEntity
  8
Insert
100
AcDbLine
 10
2033.830920419144
 20
-1643.881099803822
 30
0.0
 11
2223.830920419144
 21
-1643.881099803822
 31
0.0
  0
TEXT
  5
146E2
330
18
100
AcDbEntity
  8
ANCON-TEXT
100
AcDbText
 10
1949.783286994251
 20
-1734.475800329976
 30
0.0
 40
7.5
  1
EzyFit Double Ended Ferrule 16x190
  7
Ancon
100
AcDbText
  0
TEXT
  5
146E3
330
18
100
AcDbEntity
  8
ANCON-TEXT
100
AcDbText
 10
1949.783286994251
 20
-1742.80913366331
 30
0.0
 40
7.5
  1
with 15mm Crosshole
  7
Ancon
100
AcDbText
  0
TEXT
  5
146E4
330
18
100
AcDbEntity
  8
ANCON-TEXT
100
AcDbText
 10
1949.783286994251
 20
-1759.475800329976
 30
0.0
 40
7.5
  1
Product Ordering Codes:
  7
Ancon
100
AcDbText
  0
TEXT
  5
146E5
330
18
100
AcDbEntity
  8
ANCON-TEXT
100
AcDbText
 10
1949.783286994251
 20
-1767.80913366331
 30
0.0
 40
7.5
  1
Zinc Plated Gold Passivated:  FERD16190Z
  7
Ancon
100
AcDbText
  0
LINE
  5
146E6
330
18
100
AcDbEntity
  8
Construction
  6
CENTER
100
AcDbLine
 10
1986.86656961626
 20
-1633.381099803822
 30
0.0
 11
1986.86656961626
 21
-1580.557763844893
 31
0.0
  0
LINE
  5
146E7
330
18
100
AcDbEntity
  8
Construction
  6
CENTER
100
AcDbLine
 10
1986.86656961626
 20
-1719.428005894511
 30
0.0
 11
1986.86656961626
 21
-1666.604669935582
 31
0.0
  0
CIRCLE
  5
146EA
330
18
100
AcDbEntity
  8
Insert
  6
HIDDEN2
100
AcDbCircle
 10
1986.86656961626
 20
-1657.881099803821
 30
0.0
 40
11.0
  0
LINE
  5
146EB
330
18
100
AcDbEntity
  8
Insert
100
AcDbLine
 10
1994.325204998741
 20
-1669.728832001639
 30
0.0
 11
1994.325204998741
 21
-1646.033367606004
 31
0.0
  0
CIRCLE
  5
146EC
330
18
100
AcDbEntity
  8
Insert
100
AcDbCircle
 10
1986.86656961626
 20
-1657.881099803821
 30
0.0
 40
14.0
  0
LINE
  5
146ED
330
18
100
AcDbEntity
  8
Insert
  6
HIDDEN
100
AcDbLine
 10
1979.407935555675
 20
-1669.728832833827
 30
0.0
 11
1979.407935555675
 21
-1646.033366773817
 31
0.0
  0
CIRCLE
  5
146EE
330
18
100
AcDbEntity
  8
Insert
100
AcDbCircle
 10
1986.86656961626
 20
-1657.881099803821
 30
0.0
 40
8.0
  0
LINE
  5
146EF
330
18
100
AcDbEntity
  8
Insert
100
AcDbLine
 10
2033.830920419144
 20
-1667.886801257903
 30
0.0
 11
2223.830920419144
 21
-1667.859313130732
 31
0.0
  0
LINE
  5
146F0
330
18
100
AcDbEntity
  8
Insert
100
AcDbLine
 10
2033.830920419144
 20
-1647.87539834974
 30
0.0
 11
2223.830920419144
 21
-1647.902886476911
 31
0.0
  0
LINE
  5
146F1
330
18
100
AcDbEntity
  8
Insert
100
AcDbLine
 10
2073.836572735471
 20
-1647.881186141626
 30
0.0
 11
2073.836572735471
 21
-1667.881013466017
 31
0.0
  0
LINE
  5
146F2
330
18
100
AcDbEntity
  8
Insert
100
AcDbLine
 10
2223.830920419144
 20
-1667.886630213976
 30
0.0
 11
2033.830920419144
 21
-1667.859548258737
 31
0.0
  0
LINE
  5
146F3
330
18
100
AcDbEntity
  8
Insert
100
AcDbLine
 10
2223.830920419144
 20
-1647.87539834974
 30
0.0
 11
2033.830920419144
 21
-1647.902480304978
 31
0.0
  0
LINE
  5
146F4
330
18
100
AcDbEntity
  8
Insert
100
AcDbLine
 10
2183.825268102818
 20
-1647.881100619662
 30
0.0
 11
2183.825268102818
 21
-1667.880927944053
 31
0.0
  0
LWPOLYLINE
  5
1478A
330
18
100
AcDbEntity
  8
Dimensions Table
100
AcDbPolyline
 90
        4
 70
     1
 43
0.0
 10
1372.994954302921
 20
-949.3485492832915
 10
1801.993994904566
 20
-949.3485492832915
 10
1801.993994904566
 20
-1226.422962598974
 10
1372.994954302921
 20
-1226.422962598974
  0
LWPOLYLINE
  5
1478B
330
18
100
AcDbEntity
  8
Dimensions Table
100
AcDbPolyline
 90
        4
 70
     1
 43
0.0
 10
1928.343045330348
 20
-949.3485492832915
 10
2357.342085931992
 20
-949.3485492832915
 10
2357.342085931992
 20
-1226.422962598974
 10
1928.343045330348
 20
-1226.422962598974
  0
LWPOLYLINE
  5
1478C
330
18
100
AcDbEntity
  8
Dimensions Table
100
AcDbPolyline
 90
        4
 70
     1
 43
0.0
 10
1372.994954302921
 20
-1254.815740150663
 10
1801.993994904566
 20
-1254.815740150663
 10
1801.993994904566
 20
-1531.890153466345
 10
1372.994954302921
 20
-1531.890153466345
  0
LWPOLYLINE
  5
1478D
330
18
100
AcDbEntity
  8
Dimensions Table
100
AcDbPolyline
 90
        4
 70
     1
 43
0.0
 10
1372.994954302921
 20
-1555.58343705852
 10
1801.993994904566
 20
-1555.58343705852
 10
1801.993994904566
 20
-1832.657850374202
 10
1372.994954302921
 20
-1832.657850374202
  0
LWPOLYLINE
  5
1478E
330
18
100
AcDbEntity
  8
Dimensions Table
100
AcDbPolyline
 90
        4
 70
     1
 43
0.0
 10
1372.994954302921
 20
-1861.050627925892
 10
1801.993994904566
 20
-1861.050627925892
 10
1801.993994904566
 20
-2138.125041241574
 10
1372.994954302921
 20
-2138.125041241574
  0
LWPOLYLINE
  5
1478F
330
18
100
AcDbEntity
  8
Dimensions Table
100
AcDbPolyline
 90
        4
 70
     1
 43
0.0
 10
1929.322485408738
 20
-1254.815740150663
 10
2358.321526010382
 20
-1254.815740150663
 10
2358.321526010382
 20
-1531.890153466345
 10
1929.322485408738
 20
-1531.890153466345
  0
LWPOLYLINE
  5
14790
330
18
100
AcDbEntity
  8
Dimensions Table
100
AcDbPolyline
 90
        4
 70
     1
 43
0.0
 10
1929.322485408738
 20
-1555.58343705852
 10
2358.321526010382
 20
-1555.58343705852
 10
2358.321526010382
 20
-1832.657850374202
 10
1929.322485408738
 20
-1832.657850374202
  0
MTEXT
  5
14791
102
{ACAD_XDICTIONARY
360
14792
102
}
330
18
100
AcDbEntity
  8
Insert
100
AcDbMText
 10
2667.3617289657
 20
-1777.693199726296
 30
0.0
 40
7.5
 41
474.4070866148354
 46
0.0
 71
     3
 72
     5
  1
\pxql;Leviat \PTel:  1300 304 320\PEmail: technical.au@leviat.com\PWeb: ancon.com.au / Leviat.com
  7
Ancon
 73
     1
 44
1.0
  0
MTEXT
  5
14793
102
{ACAD_XDICTIONARY
360
14794
102
}
330
18
100
AcDbEntity
  8
Insert
100
AcDbMText
 10
2673.504693267509
 20
-1476.397113590588
 30
0.0
 40
7.5
 41
474.4070866148354
 46
0.0
 71
     3
 72
     5
  1
\pxql;Leviat \PTel:  1300 304 320\PEmail: technical.au@leviat.com\PWeb: ancon.com.au / Leviat.com
  7
Ancon
 73
     1
 44
1.0
  0
MTEXT
  5
14795
102
{ACAD_XDICTIONARY
360
14796
102
}
330
18
100
AcDbEntity
  8
Insert
100
AcDbMText
 10
2675.340774628438
 20
-1173.9060122163
 30
0.0
 40
7.5
 41
474.4070866148354
 46
0.0
 71
     3
 72
     5
  1
\pxql;Leviat \PTel:  1300 304 320\PEmail: technical.au@leviat.com\PWeb: ancon.com.au / Leviat.com
  7
Ancon
 73
     1
 44
1.0
  0
MTEXT
  5
14797
102
{ACAD_XDICTIONARY
360
14798
102
}
330
18
100
AcDbEntity
  8
Insert
100
AcDbMText
 10
2120.607252793705
 20
-1175.232398786792
 30
0.0
 40
7.5
 41
474.4070866148354
 46
0.0
 71
     3
 72
     5
  1
\pxql;Leviat \PTel:  1300 304 320\PEmail: technical.au@leviat.com\PWeb: ancon.com.au / Leviat.com
  7
Ancon
 73
     1
 44
1.0
  0
MTEXT
  5
14799
102
{ACAD_XDICTIONARY
360
1479A
102
}
330
18
100
AcDbEntity
  8
Insert
100
AcDbMText
 10
2118.045493266143
 20
-1477.245599830703
 30
0.0
 40
7.5
 41
474.4070866148354
 46
0.0
 71
     3
 72
     5
  1
\pxql;Leviat \PTel:  1300 304 320\PEmail: technical.au@leviat.com\PWeb: ancon.com.au / Leviat.com
  7
Ancon
 73
     1
 44
1.0
  0
MTEXT
  5
1479B
102
{ACAD_XDICTIONARY
360
1479C
102
}
330
18
100
AcDbEntity
  8
Insert
100
AcDbMText
 10
2115.575044236373
 20
-1778.205696362936
 30
0.0
 40
7.5
 41
474.4070866148354
 46
0.0
 71
     3
 72
     5
  1
\pxql;Leviat \PTel:  1300 304 320\PEmail: technical.au@leviat.com\PWeb: ancon.com.au / Leviat.com
  7
Ancon
 73
     1
 44
1.0
  0
MTEXT
  5
1479D
102
{ACAD_XDICTIONARY
360
1479E
102
}
330
18
100
AcDbEntity
  8
Insert
100
AcDbMText
 10
2116.188258894146
 20
-2083.230752188386
 30
0.0
 40
7.5
 41
474.4070866148354
 46
0.0
 71
     3
 72
     5
  1
\pxql;Leviat \PTel:  1300 304 320\PEmail: technical.au@leviat.com\PWeb: ancon.com.au / Leviat.com
  7
Ancon
 73
     1
 44
1.0
  0
VIEWPORT
  5
1365C
330
13654
100
AcDbEntity
 67
     1
  8
0
100
AcDbViewport
 10
245.3692668686965
 20
133.0848810795681
 30
0.0
 40
514.436619728039
 41
284.7346871983099
 68
     2
 69
     1
 12
245.3692668686965
 22
133.0848810795681
 13
0.0
 23
0.0
 14
10.0
 24
10.0
 15
10.0
 25
10.0
 16
0.0
 26
0.0
 36
1.0
 17
0.0
 27
0.0
 37
0.0
 42
50.0
 43
0.0
 44
0.0
 45
284.7346871983099
 50
0.0
 51
0.0
 72
   100
 90
    32800
  1

281
     0
 71
     1
 74
     0
110
0.0
120
0.0
130
0.0
111
1.0
121
0.0
131
0.0
112
0.0
122
1.0
132
0.0
 79
     0
146
0.0
170
     0
 61
     5
348
140E8
292
     1
282
     1
141
0.0
142
0.0
 63
   250
421
  3355443
  0
VIEWPORT
  5
1365E
330
13654
100
AcDbEntity
 67
     1
  8
0
100
AcDbViewport
 10
145.4752319835431
 20
101.9751217531386
 30
0.0
 40
290.8257934939193
 41
202.9644332263832
 68
     1
 69
     2
 12
1645.795532124773
 22
-1271.61041044947
 13
0.0
 23
0.0
 14
10.0
 24
10.0
 15
10.0
 25
10.0
 16
0.0
 26
0.0
 36
1.0
 17
0.0
 27
0.0
 37
0.0
 42
50.0
 43
0.0
 44
0.0
 45
592.577690218208
 50
0.0
 51
0.0
 72
   100
 90
    32800
  1

281
     0
 71
     1
 74
     0
110
0.0
120
0.0
130
0.0
111
1.0
121
0.0
131
0.0
112
0.0
122
1.0
132
0.0
 79
     1
146
0.0
170
     0
 61
     5
348
140E8
292
     1
282
     1
141
0.0
142
0.0
 63
   250
421
  3355443
  0
ENDSEC
  0
SECTION
  2
OBJECTS
  0
DICTIONARY
  5
C
330
0
100
AcDbDictionary
281
     1
  3
ACAD_CIP_PREVIOUS_PRODUCT_INFO
350
1411F
  3
ACAD_COLOR
350
D64E
  3
ACAD_DETAILVIEWSTYLE
350
14113
  3
ACAD_GROUP
350
D
  3
ACAD_LAYOUT
350
26A7
  3
ACAD_MATERIAL
350
D64D
  3
ACAD_MLEADERSTYLE
350
1410F
  3
ACAD_MLINESTYLE
350
1B
  3
ACAD_PLOTSETTINGS
350
26A8
  3
ACAD_PLOTSTYLENAME
350
26A5
  3
ACAD_SCALELIST
350
140FD
  3
ACAD_SECTIONVIEWSTYLE
350
14111
  3
ACAD_TABLESTYLE
350
140FB
  3
ACAD_VISUALSTYLE
350
140E2
  3
ACDB_RECOMPOSE_DATA
350
147A1
  3
ACDBVARIABLEDICTIONARY
350
1633
  3
ASE_INDEX_DICTIONARY
350
D4ED
  0
DICTIONARY
  5
13535
330
2
100
AcDbDictionary
280
     1
281
     1
  3
ACAD_LAYERSTATES
360
13536
  0
DICTIONARY
  5
14734
330
E
100
AcDbDictionary
280
     1
281
     1
  3
ADSK_XREC_LAYER_RECONCILED
360
14735
  0
DICTIONARY
  5
14736
330
1600
100
AcDbDictionary
280
     1
281
     1
  3
ADSK_XREC_LAYER_RECONCILED
360
14737
  0
DICTIONARY
  5
14738
330
2D49
100
AcDbDictionary
280
     1
281
     1
  3
ADSK_XREC_LAYER_RECONCILED
360
14739
  0
DICTIONARY
  5
1473A
330
2D4A
100
AcDbDictionary
280
     1
281
     1
  3
ADSK_XREC_LAYER_RECONCILED
360
1473B
  0
DICTIONARY
  5
1473C
330
2D4B
100
AcDbDictionary
280
     1
281
     1
  3
ADSK_XREC_LAYER_RECONCILED
360
1473D
  0
DICTIONARY
  5
1473E
330
D7C2
100
AcDbDictionary
280
     1
281
     1
  3
ADSK_XREC_LAYER_RECONCILED
360
1473F
  0
DICTIONARY
  5
14740
330
D7C3
100
AcDbDictionary
280
     1
281
     1
  3
ADSK_XREC_LAYER_RECONCILED
360
14741
  0
DICTIONARY
  5
14742
330
D806
100
AcDbDictionary
280
     1
281
     1
  3
ADSK_XREC_LAYER_RECONCILED
360
14743
  0
DICTIONARY
  5
14744
330
108F8
100
AcDbDictionary
280
     1
281
     1
  3
ADSK_XREC_LAYER_RECONCILED
360
14745
  0
DICTIONARY
  5
14746
330
1356C
100
AcDbDictionary
280
     1
281
     1
  3
ADSK_XREC_LAYER_RECONCILED
360
14747
  0
DICTIONARY
  5
142FF
330
18
100
AcDbDictionary
280
     1
281
     1
  3
ACAD_SORTENTS
360
14300
  0
DICTIONARY
  5
14792
330
14791
100
AcDbDictionary
280
     1
281
     1
  0
DICTIONARY
  5
14794
330
14793
100
AcDbDictionary
280
     1
281
     1
  0
DICTIONARY
  5
14796
330
14795
100
AcDbDictionary
280
     1
281
     1
  0
DICTIONARY
  5
14798
330
14797
100
AcDbDictionary
280
     1
281
     1
  0
DICTIONARY
  5
1479A
330
14799
100
AcDbDictionary
280
     1
281
     1
  0
DICTIONARY
  5
1479C
330
1479B
100
AcDbDictionary
280
     1
281
     1
  0
DICTIONARY
  5
1479E
330
1479D
100
AcDbDictionary
280
     1
281
     1
  0
XRECORD
  5
1411F
102
{ACAD_REACTORS
330
C
102
}
330
C
100
AcDbXrecord
280
     1
300
ACDLT
300
2020
300

  0
DICTIONARY
  5
D64E
102
{ACAD_REACTORS
330
C
102
}
330
C
100
AcDbDictionary
281
     1
  0
DICTIONARY
  5
14113
102
{ACAD_REACTORS
330
C
102
}
330
C
100
AcDbDictionary
281
     1
  3
Metric50
350
14114
  0
DICTIONARY
  5
D
102
{ACAD_REACTORS
330
C
102
}
330
C
100
AcDbDictionary
281
     1
  0
DICTIONARY
  5
26A7
102
{ACAD_REACTORS
330
C
102
}
330
C
100
AcDbDictionary
281
     1
  3
FED16
350
118F2
  3
FED20
350
13655
  3
FER12Z
350
10354
  3
FER16HDGalv
350
10350
  3
FER16Z
350
13F6B
  3
FER20HDGalv
350
E140
  3
FER20Z
350
13A42
  3
Model
350
26A9
  0
DICTIONARY
  5
D64D
102
{ACAD_REACTORS
330
C
102
}
330
C
100
AcDbDictionary
281
     1
  3
ByBlock
350
140D2
  3
ByLayer
350
140CA
  3
Global
350
140DA
  0
DICTIONARY
  5
1410F
102
{ACAD_REACTORS
330
C
102
}
330
C
100
AcDbDictionary
281
     1
  3
Standard
350
14110
  0
DICTIONARY
  5
1B
102
{ACAD_REACTORS
330
C
102
}
330
C
100
AcDbDictionary
281
     1
  3
STANDARD
350
1C
  0
DICTIONARY
  5
26A8
102
{ACAD_REACTORS
330
C
102
}
330
C
100
AcDbDictionary
281
     1
  0
ACDBDICTIONARYWDFLT
  5
26A5
102
{ACAD_REACTORS
330
C
102
}
330
C
100
AcDbDictionary
281
     1
  3
Normal
350
26A6
100
AcDbDictionaryWithDefault
340
26A6
  0
DICTIONARY
  5
140FD
102
{ACAD_REACTORS
330
C
102
}
330
C
100
AcDbDictionary
281
     1
  3
A0
350
140FE
  3
A1
350
140FF
  3
A2
350
14100
  3
A3
350
14101
  3
A4
350
14102
  3
A5
350
14103
  3
A6
350
14104
  3
A7
350
14105
  3
A8
350
14106
  3
A9
350
14107
  3
B0
350
14108
  3
B1
350
14109
  3
B2
350
1410A
  3
B3
350
1410B
  3
B4
350
1410C
  3
B5
350
1410D
  3
B6
350
1410E
  0
DICTIONARY
  5
14111
102
{ACAD_REACTORS
330
C
102
}
330
C
100
AcDbDictionary
281
     1
  3
Metric50
350
14112
  0
DICTIONARY
  5
140FB
102
{ACAD_REACTORS
330
C
102
}
330
C
100
AcDbDictionary
281
     1
  3
Standard
350
140FC
  0
DICTIONARY
  5
140E2
102
{ACAD_REACTORS
330
C
102
}
330
C
100
AcDbDictionary
281
     1
  3
2dWireframe
350
140E8
  3
Basic
350
140E7
  3
Brighten
350
140EE
  3
ColorChange
350
140F2
  3
Conceptual
350
140EB
  3
Dim
350
140ED
  3
EdgeColorOff
350
140FA
  3
Facepattern
350
140F1
  3
Flat
350
140E3
  3
FlatWithEdges
350
140E4
  3
Gouraud
350
140E5
  3
GouraudWithEdges
350
140E6
  3
Hidden
350
140EA
  3
JitterOff
350
140F8
  3
Linepattern
350
140F0
  3
OverhangOff
350
140F9
  3
Realistic
350
140EC
  3
Shaded
350
140F7
  3
Shaded with edges
350
140F6
  3
Shades of Gray
350
140F3
  3
Sketchy
350
140F4
  3
Thicken
350
140EF
  3
Wireframe
350
140E9
  3
X-Ray
350
140F5
  0
XRECORD
  5
147A1
102
{ACAD_REACTORS
330
C
102
}
330
C
100
AcDbXrecord
280
     1
 90
        1
330
140FC
  0
DICTIONARY
  5
1633
102
{ACAD_REACTORS
330
C
102
}
330
C
100
AcDbDictionary
281
     1
  3
CANNOSCALE
350
1474D
  3
CMLEADERSTYLE
350
14749
  3
CTABLESTYLE
350
14748
  3
CVIEWDETAILSTYLE
350
1474A
  3
CVIEWSECTIONSTYLE
350
1474B
  3
DIMASSOC
350
B5DA
  3
LAYEREVAL
350
1474F
  3
LAYERNOTIFY
350
14750
  3
LIGHTINGUNITS
350
1474E
  3
MSLTSCALE
350
1474C
  3
SORTENTS
350
1634
  0
DICTIONARY
  5
D4ED
102
{ACAD_REACTORS
330
C
102
}
330
C
100
AcDbDictionary
281
     1
  3
ASEBlockHierarchyIndexRecord
350
D4EF
1001
DCO15
1040
1553252747.725
  0
DICTIONARY
  5
13536
102
{ACAD_REACTORS
330
13535
102
}
330
13535
100
AcDbDictionary
281
     1
  0
XRECORD
  5
14735
102
{ACAD_REACTORS
330
14734
102
}
330
14734
100
AcDbXrecord
280
     1
290
     1
  0
XRECORD
  5
14737
102
{ACAD_REACTORS
330
14736
102
}
330
14736
100
AcDbXrecord
280
     1
290
     1
  0
XRECORD
  5
14739
102
{ACAD_REACTORS
330
14738
102
}
330
14738
100
AcDbXrecord
280
     1
290
     1
  0
XRECORD
  5
1473B
102
{ACAD_REACTORS
330
1473A
102
}
330
1473A
100
AcDbXrecord
280
     1
290
     1
  0
XRECORD
  5
1473D
102
{ACAD_REACTORS
330
1473C
102
}
330
1473C
100
AcDbXrecord
280
     1
290
     1
  0
XRECORD
  5
1473F
102
{ACAD_REACTORS
330
1473E
102
}
330
1473E
100
AcDbXrecord
280
     1
290
     1
  0
XRECORD
  5
14741
102
{ACAD_REACTORS
330
14740
102
}
330
14740
100
AcDbXrecord
280
     1
290
     1
  0
XRECORD
  5
14743
102
{ACAD_REACTORS
330
14742
102
}
330
14742
100
AcDbXrecord
280
     1
290
     1
  0
XRECORD
  5
14745
102
{ACAD_REACTORS
330
14744
102
}
330
14744
100
AcDbXrecord
280
     1
290
     1
  0
XRECORD
  5
14747
102
{ACAD_REACTORS
330
14746
102
}
330
14746
100
AcDbXrecord
280
     1
290
     1
  0
SORTENTSTABLE
  5
14300
102
{ACAD_REACTORS
330
142FF
102
}
330
142FF
100
AcDbSortentsTable
330
18
331
142FA
  5
137F3
331
142FB
  5
137F4
331
142FC
  5
137F5
331
142FD
  5
137F7
331
14301
  5
137F8
331
14302
  5
137F9
331
14303
  5
137FA
331
14304
  5
137FB
331
14324
  5
14329
331
14325
  5
1432A
331
14328
  5
14355
331
14329
  5
14356
331
1432A
  5
14357
331
1432B
  5
14358
331
1432C
  5
14359
331
14355
  5
13602
331
14356
  5
137CC
331
14357
  5
137D3
331
14358
  5
137D9
  0
ACDBDETAILVIEWSTYLE
  5
14114
102
{ACAD_REACTORS
330
14113
102
}
330
14113
100
AcDbModelDocViewStyle
 70
     0
  3
Metric50
290
     1
300
Metric50
 90
        0
100
AcDbDetailViewStyle
 70
     0
 71
     0
 90
        3
 71
     1
340
F
 62
   256
 40
5.0
340
0
 62
   256
 40
5.0
300

 40
0.0
280
     1
 71
     2
340
14
 90
       25
 62
   256
 71
     3
340
F
 62
   256
 40
5.0
 90
        0
 40
15.0
 90
        1
300
%<\AcVar ViewDetailId>% (%<\AcVar ViewScale \f "%sn">%)
 71
     4
340
14
 90
       25
 62
   256
340
14
 90
       25
 62
   256
280
     0
  0
LAYOUT
  5
118F2
102
{ACAD_REACTORS
330
26A7
102
}
330
26A7
100
AcDbPlotSettings
  1

  2
Adobe PDF
  4
User32767
  6

 40
3.174999952316284
 41
3.174999952316284
 42
3.175003051757812
 43
3.17498779296875
 44
210.0
 45
297.0
 46
0.0
 47
0.0
 48
0.0
 49
0.0
140
0.0
141
0.0
142
1.0
143
1.0
 70
   688
 72
     1
 73
     1
 74
     5
  7
monochrome.ctb
 75
    16
147
1.0
 76
     1
 77
     2
 78
   300
148
0.0
149
0.0
100
AcDbLayout
  1
FED16
 70
     1
 71
     6
 10
-3.17498779296875
 20
-3.174999952316284
 11
293.8250122070312
 21
206.8250000476837
 12
0.0
 22
0.0
 32
0.0
 14
0.2828223508058727
 24
0.1831548374124736
 34
-0.0015258207003583
 15
290.9336859908755
 25
202.906085737144
 35
0.0000000349246037
146
0.0
 13
0.0
 23
0.0
 33
0.0
 16
1.0
 26
0.0
 36
0.0
 17
0.0
 27
1.0
 37
0.0
 76
     0
330
118F1
331
118FB
  0
LAYOUT
  5
13655
102
{ACAD_REACTORS
330
26A7
102
}
330
26A7
100
AcDbPlotSettings
  1

  2
Adobe PDF
  4
User32767
  6

 40
3.174999952316284
 41
3.174999952316284
 42
3.175003051757812
 43
3.17498779296875
 44
210.0
 45
297.0
 46
0.0
 47
0.0
 48
0.0
 49
0.0
140
0.0
141
0.0
142
1.0
143
1.0
 70
   688
 72
     1
 73
     1
 74
     5
  7
monochrome.ctb
 75
    16
147
1.0
 76
     1
 77
     2
 78
   300
148
0.0
149
0.0
100
AcDbLayout
  1
FED20
 70
     1
 71
     7
 10
-3.17498779296875
 20
-3.174999952316284
 11
293.8250122070312
 21
206.8250000476837
 12
0.0
 22
0.0
 32
0.0
 14
0.0562293329639943
 24
0.4875676795637674
 34
-0.0015258207003583
 15
290.8883673873071
 25
203.4668462358437
 35
0.0000000349246037
146
0.0
 13
0.0
 23
0.0
 33
0.0
 16
1.0
 26
0.0
 36
0.0
 17
0.0
 27
1.0
 37
0.0
 76
     0
330
13654
331
1365E
  0
LAYOUT
  5
10354
102
{ACAD_REACTORS
330
26A7
102
}
330
26A7
100
AcDbPlotSettings
  1

  2
Adobe PDF
  4
User32767
  6

 40
3.174999952316284
 41
3.174999952316284
 42
3.175003051757812
 43
3.17498779296875
 44
210.0
 45
297.0
 46
0.0
 47
0.0
 48
0.0
 49
0.0
140
0.0
141
0.0
142
1.0
143
1.0
 70
   688
 72
     1
 73
     1
 74
     5
  7
monochrome.ctb
 75
    16
147
1.0
 76
     1
 77
     2
 78
   300
148
0.0
149
0.0
100
AcDbLayout
  1
FER12Z
 70
     1
 71
     5
 10
-3.17498779296875
 20
-3.174999952316284
 11
293.8250122070312
 21
206.8250000476837
 12
0.0
 22
0.0
 32
0.0
 14
0.2601630490216849
 24
0.4715459510294977
 34
-0.0000000349181948
 15
290.6617743694651
 25
203.194476850761
 35
0.0000000814935746
146
0.0
 13
0.0
 23
0.0
 33
0.0
 16
1.0
 26
0.0
 36
0.0
 17
0.0
 27
1.0
 37
0.0
 76
     0
330
10353
331
10363
  0
LAYOUT
  5
10350
102
{ACAD_REACTORS
330
26A7
102
}
330
26A7
100
AcDbPlotSettings
  1

  2
Adobe PDF
  4
User32767
  6

 40
3.174999952316284
 41
3.174999952316284
 42
3.175003051757812
 43
3.17498779296875
 44
210.0
 45
297.0
 46
0.0
 47
0.0
 48
0.0
 49
0.0
140
0.0
141
0.0
142
1.0
143
1.0
 70
   688
 72
     1
 73
     1
 74
     5
  7
monochrome.ctb
 75
    16
147
1.0
 76
     1
 77
     2
 78
   300
148
0.0
149
0.0
100
AcDbLayout
  1
FER16HDGalv
 70
     1
 71
     4
 10
-3.17498779296875
 20
-3.174999952316284
 11
293.8250122070312
 21
206.8250000476837
 12
0.0
 22
0.0
 32
0.0
 14
0.2601630490216849
 24
-0.1533014618073025
 34
-0.0000000349181948
 15
290.9336859908755
 25
203.194476850761
 35
0.0000000814935746
146
0.0
 13
0.0
 23
0.0
 33
0.0
 16
1.0
 26
0.0
 36
0.0
 17
0.0
 27
1.0
 37
0.0
 76
     0
330
1034F
331
1035D
  0
LAYOUT
  5
13F6B
102
{ACAD_REACTORS
330
26A7
102
}
330
26A7
100
AcDbPlotSettings
  1

  2
Adobe PDF
  4
User32767
  6

 40
3.174999952316284
 41
3.174999952316284
 42
3.175003051757812
 43
3.17498779296875
 44
210.0
 45
297.0
 46
0.0
 47
0.0
 48
0.0
 49
0.0
140
0.0
141
0.0
142
1.0
143
1.0
 70
   688
 72
     1
 73
     1
 74
     5
  7
monochrome.ctb
 75
    16
147
1.0
 76
     1
 77
     2
 78
   300
148
0.0
149
0.0
100
AcDbLayout
  1
FER16Z
 70
     1
 71
     3
 10
-3.17498779296875
 20
-3.174999952316284
 11
293.8250122070312
 21
206.8250000476837
 12
0.0
 22
0.0
 32
0.0
 14
0.5773932740003147
 24
0.167133108878204
 34
-0.0000000000112498
 15
290.6391150676809
 25
203.7552373494607
 35
0.0000000000002956
146
0.0
 13
0.0
 23
0.0
 33
0.0
 16
1.0
 26
0.0
 36
0.0
 17
0.0
 27
1.0
 37
0.0
 76
     0
330
13F6A
331
13F74
  0
LAYOUT
  5
E140
102
{ACAD_REACTORS
330
26A7
102
}
330
26A7
100
AcDbPlotSettings
  1

  2
Adobe PDF
  4
User32767
  6

 40
3.174999952316284
 41
3.174999952316284
 42
3.175003051757812
 43
3.17498779296875
 44
210.0
 45
297.0
 46
0.0
 47
0.0
 48
0.0
 49
0.0
140
0.0
141
0.0
142
1.0
143
1.0
 70
   688
 72
     1
 73
     1
 74
     5
  7
monochrome.ctb
 75
    16
147
1.0
 76
     1
 77
     2
 78
   300
148
0.0
149
0.0
100
AcDbLayout
  1
FER20HDGalv
 70
     1
 71
     2
 10
-3.17498779296875
 20
-3.174999952316284
 11
293.8250122070312
 21
206.8250000476837
 12
0.0
 22
0.0
 32
0.0
 14
0.2601630490216849
 24
0.4715459510294977
 34
-0.0000000349181948
 15
290.6617743694651
 25
203.6270635211864
 35
0.0000000814935746
146
0.0
 13
0.0
 23
0.0
 33
0.0
 16
1.0
 26
0.0
 36
0.0
 17
0.0
 27
1.0
 37
0.0
 76
     0
330
E13F
331
E149
  0
LAYOUT
  5
13A42
102
{ACAD_REACTORS
330
26A7
102
}
330
26A7
100
AcDbPlotSettings
  1

  2
Adobe PDF
  4
User32767
  6

 40
3.174999999999999
 41
3.174999999999999
 42
3.175002999999999
 43
3.174987999999999
 44
210.0
 45
297.0
 46
0.0
 47
0.0
 48
0.0
 49
0.0
140
0.0
141
0.0
142
1.0
143
1.0
 70
   688
 72
     1
 73
     1
 74
     5
  7
monochrome.ctb
 75
    16
147
1.0
 76
     1
 77
     2
 78
   300
148
0.0
149
0.0
100
AcDbLayout
  1
FER20Z
 70
     1
 71
     1
 10
-3.174987999999999
 20
-3.174999999999999
 11
293.825012
 21
206.825
 12
0.0
 22
0.0
 32
0.0
 14
0.2828221437746379
 24
0.4555241748114441
 34
-0.0015258207003583
 15
290.9336857838442
 25
202.9060856894603
 35
0.0000000349246037
146
0.0
 13
0.0
 23
0.0
 33
0.0
 16
1.0
 26
0.0
 36
0.0
 17
0.0
 27
1.0
 37
0.0
 76
     0
330
13A41
331
13A4B
  0
LAYOUT
  5
26A9
102
{ACAD_REACTORS
330
26A7
102
}
330
26A7
100
AcDbPlotSettings
  1

  2
Adobe PDF
  4
A3
  6

 40
3.174999952316284
 41
3.174999952316284
 42
3.17498779296875
 43
3.17498779296875
 44
297.0318298339844
 45
420.1583251953125
 46
0.0
 47
6.429999999999999
 48
30.0
 49
7.0
140
830.0
141
587.0
142
1.0
143
1.995308670924885
 70
 11956
 72
     1
 73
     1
 74
     4
  7
monochrome.ctb
 75
     0
147
0.5011755898081023
 76
     0
 77
     2
 78
   300
148
-30.0
149
-7.0
100
AcDbLayout
  1
Model
 70
     1
 71
     0
 10
0.0
 20
0.0
 11
12.0
 21
9.0
 12
0.0
 22
0.0
 32
0.0
 14
0.0
 24
0.0
 34
0.0
 15
0.0
 25
0.0
 35
0.0
146
0.0
 13
0.0
 23
0.0
 33
0.0
 16
1.0
 26
0.0
 36
0.0
 17
0.0
 27
1.0
 37
0.0
 76
     0
330
18
331
140C8
  0
MATERIAL
  5
140D2
102
{ACAD_XDICTIONARY
360
140D3
102
}
102
{ACAD_REACTORS
330
D64D
102
}
330
D64D
100
AcDbMaterial
  1
ByBlock
 72
     0
 43
0.0208333333333333
 43
0.0
 43
0.0
 43
0.0
 43
0.0
 43
0.0208333333333333
 43
0.0
 43
0.0
 43
0.0
 43
0.0
 43
1.0
 43
0.0
 43
0.0
 43
0.0
 43
0.0
 43
1.0
 77
     0
 47
0.0208333333333333
 47
0.0
 47
0.0
 47
0.0
 47
0.0
 47
0.0208333333333333
 47
0.0
 47
0.0
 47
0.0
 47
0.0
 47
1.0
 47
0.0
 47
0.0
 47
0.0
 47
0.0
 47
1.0
171
     0
 49
0.0208333333333333
 49
0.0
 49
0.0
 49
0.0
 49
0.0
 49
0.0208333333333333
 49
0.0
 49
0.0
 49
0.0
 49
0.0
 49
1.0
 49
0.0
 49
0.0
 49
0.0
 49
0.0
 49
1.0
175
     0
142
0.0208333333333333
142
0.0
142
0.0
142
0.0
142
0.0
142
0.0208333333333333
142
0.0
142
0.0
142
0.0
142
0.0
142
1.0
142
0.0
142
0.0
142
0.0
142
0.0
142
1.0
179
     0
144
0.0208333333333333
144
0.0
144
0.0
144
0.0
144
0.0
144
0.0208333333333333
144
0.0
144
0.0
144
0.0
144
0.0
144
1.0
144
0.0
144
0.0
144
0.0
144
0.0
144
1.0
147
0.0208333333333333
147
0.0
147
0.0
147
0.0
147
0.0
147
0.0208333333333333
147
0.0
147
0.0
147
0.0
147
0.0
147
1.0
147
0.0
147
0.0
147
0.0
147
0.0
147
1.0
  0
MATERIAL
  5
140CA
102
{ACAD_XDICTIONARY
360
140CB
102
}
102
{ACAD_REACTORS
330
D64D
102
}
330
D64D
100
AcDbMaterial
  1
ByLayer
 72
     0
 43
0.0208333333333333
 43
0.0
 43
0.0
 43
0.0
 43
0.0
 43
0.0208333333333333
 43
0.0
 43
0.0
 43
0.0
 43
0.0
 43
1.0
 43
0.0
 43
0.0
 43
0.0
 43
0.0
 43
1.0
 77
     0
 47
0.0208333333333333
 47
0.0
 47
0.0
 47
0.0
 47
0.0
 47
0.0208333333333333
 47
0.0
 47
0.0
 47
0.0
 47
0.0
 47
1.0
 47
0.0
 47
0.0
 47
0.0
 47
0.0
 47
1.0
171
     0
 49
0.0208333333333333
 49
0.0
 49
0.0
 49
0.0
 49
0.0
 49
0.0208333333333333
 49
0.0
 49
0.0
 49
0.0
 49
0.0
 49
1.0
 49
0.0
 49
0.0
 49
0.0
 49
0.0
 49
1.0
175
     0
142
0.0208333333333333
142
0.0
142
0.0
142
0.0
142
0.0
142
0.0208333333333333
142
0.0
142
0.0
142
0.0
142
0.0
142
1.0
142
0.0
142
0.0
142
0.0
142
0.0
142
1.0
179
     0
144
0.0208333333333333
144
0.0
144
0.0
144
0.0
144
0.0
144
0.0208333333333333
144
0.0
144
0.0
144
0.0
144
0.0
144
1.0
144
0.0
144
0.0
144
0.0
144
0.0
144
1.0
147
0.0208333333333333
147
0.0
147
0.0
147
0.0
147
0.0
147
0.0208333333333333
147
0.0
147
0.0
147
0.0
147
0.0
147
1.0
147
0.0
147
0.0
147
0.0
147
0.0
147
1.0
  0
MATERIAL
  5
140DA
102
{ACAD_XDICTIONARY
360
140DB
102
}
102
{ACAD_REACTORS
330
D64D
102
}
330
D64D
100
AcDbMaterial
  1
Global
 72
     0
 43
0.0208333333333333
 43
0.0
 43
0.0
 43
0.0
 43
0.0
 43
0.0208333333333333
 43
0.0
 43
0.0
 43
0.0
 43
0.0
 43
1.0
 43
0.0
 43
0.0
 43
0.0
 43
0.0
 43
1.0
 77
     0
 47
0.0208333333333333
 47
0.0
 47
0.0
 47
0.0
 47
0.0
 47
0.0208333333333333
 47
0.0
 47
0.0
 47
0.0
 47
0.0
 47
1.0
 47
0.0
 47
0.0
 47
0.0
 47
0.0
 47
1.0
171
     0
 49
0.0208333333333333
 49
0.0
 49
0.0
 49
0.0
 49
0.0
 49
0.0208333333333333
 49
0.0
 49
0.0
 49
0.0
 49
0.0
 49
1.0
 49
0.0
 49
0.0
 49
0.0
 49
0.0
 49
1.0
175
     0
142
0.0208333333333333
142
0.0
142
0.0
142
0.0
142
0.0
142
0.0208333333333333
142
0.0
142
0.0
142
0.0
142
0.0
142
1.0
142
0.0
142
0.0
142
0.0
142
0.0
142
1.0
179
     0
144
0.0208333333333333
144
0.0
144
0.0
144
0.0
144
0.0
144
0.0208333333333333
144
0.0
144
0.0
144
0.0
144
0.0
144
1.0
144
0.0
144
0.0
144
0.0
144
0.0
144
1.0
147
0.0208333333333333
147
0.0
147
0.0
147
0.0
147
0.0
147
0.0208333333333333
147
0.0
147
0.0
147
0.0
147
0.0
147
1.0
147
0.0
147
0.0
147
0.0
147
0.0
147
1.0
  0
MLEADERSTYLE
  5
14110
102
{ACAD_REACTORS
330
1410F
102
}
330
1410F
100
AcDbMLeaderStyle
179
     2
170
     2
171
     1
172
     0
 90
        2
 40
0.0
 41
0.0
173
     1
 91
-1056964608
340
12
 92
       -2
290
     1
 42
2.0
291
     1
 43
0.36
  3
Standard
 44
4.0
300

342
F
174
     1
178
     6
175
     1
176
     0
 93
-1056964608
 45
4.0
292
     0
297
     0
 46
4.0
 94
-1056964608
 47
1.0
 49
1.0
140
1.0
293
     1
141
0.0
294
     1
177
     0
142
1.0
295
     1
296
     0
143
0.125
271
     0
272
     9
273
     9
298
     1
  0
MLINESTYLE
  5
1C
102
{ACAD_REACTORS
330
1B
102
}
330
1B
100
AcDbMlineStyle
  2
STANDARD
 70
     0
  3

 62
   256
 51
90.0
 52
90.0
 71
     2
 49
0.5
 62
   256
  6
BYLAYER
 49
-0.5
 62
   256
  6
BYLAYER
  0
ACDBPLACEHOLDER
  5
26A6
102
{ACAD_REACTORS
330
26A5
102
}
330
26A5
  0
SCALE
  5
140FE
102
{ACAD_REACTORS
330
140FD
102
}
330
140FD
100
AcDbScale
 70
     0
300
1:1
140
1.0
141
1.0
290
     1
  0
SCALE
  5
140FF
102
{ACAD_REACTORS
330
140FD
102
}
330
140FD
100
AcDbScale
 70
     0
300
1:2
140
1.0
141
2.0
290
     0
  0
SCALE
  5
14100
102
{ACAD_REACTORS
330
140FD
102
}
330
140FD
100
AcDbScale
 70
     0
300
1:4
140
1.0
141
4.0
290
     0
  0
SCALE
  5
14101
102
{ACAD_REACTORS
330
140FD
102
}
330
140FD
100
AcDbScale
 70
     0
300
1:5
140
1.0
141
5.0
290
     0
  0
SCALE
  5
14102
102
{ACAD_REACTORS
330
140FD
102
}
330
140FD
100
AcDbScale
 70
     0
300
1:8
140
1.0
141
8.0
290
     0
  0
SCALE
  5
14103
102
{ACAD_REACTORS
330
140FD
102
}
330
140FD
100
AcDbScale
 70
     0
300
1:10
140
1.0
141
10.0
290
     0
  0
SCALE
  5
14104
102
{ACAD_REACTORS
330
140FD
102
}
330
140FD
100
AcDbScale
 70
     0
300
1:16
140
1.0
141
16.0
290
     0
  0
SCALE
  5
14105
102
{ACAD_REACTORS
330
140FD
102
}
330
140FD
100
AcDbScale
 70
     0
300
1:20
140
1.0
141
20.0
290
     0
  0
SCALE
  5
14106
102
{ACAD_REACTORS
330
140FD
102
}
330
140FD
100
AcDbScale
 70
     0
300
1:30
140
1.0
141
30.0
290
     0
  0
SCALE
  5
14107
102
{ACAD_REACTORS
330
140FD
102
}
330
140FD
100
AcDbScale
 70
     0
300
1:40
140
1.0
141
40.0
290
     0
  0
SCALE
  5
14108
102
{ACAD_REACTORS
330
140FD
102
}
330
140FD
100
AcDbScale
 70
     0
300
1:50
140
1.0
141
50.0
290
     0
  0
SCALE
  5
14109
102
{ACAD_REACTORS
330
140FD
102
}
330
140FD
100
AcDbScale
 70
     0
300
1:100
140
1.0
141
100.0
290
     0
  0
SCALE
  5
1410A
102
{ACAD_REACTORS
330
140FD
102
}
330
140FD
100
AcDbScale
 70
     0
300
2:1
140
2.0
141
1.0
290
     0
  0
SCALE
  5
1410B
102
{ACAD_REACTORS
330
140FD
102
}
330
140FD
100
AcDbScale
 70
     0
300
4:1
140
4.0
141
1.0
290
     0
  0
SCALE
  5
1410C
102
{ACAD_REACTORS
330
140FD
102
}
330
140FD
100
AcDbScale
 70
     0
300
8:1
140
8.0
141
1.0
290
     0
  0
SCALE
  5
1410D
102
{ACAD_REACTORS
330
140FD
102
}
330
140FD
100
AcDbScale
 70
     0
300
10:1
140
10.0
141
1.0
290
     0
  0
SCALE
  5
1410E
102
{ACAD_REACTORS
330
140FD
102
}
330
140FD
100
AcDbScale
 70
     0
300
100:1
140
100.0
141
1.0
290
     0
  0
ACDBSECTIONVIEWSTYLE
  5
14112
102
{ACAD_REACTORS
330
14111
102
}
330
14111
100
AcDbModelDocViewStyle
 70
     0
  3
Metric50
290
     1
300
Metric50
 90
        0
100
AcDbSectionViewStyle
 70
     0
 71
     0
 90
      102
 71
     1
340
F
 62
   256
 40
5.0
340
0
340
0
 62
   256
 40
5.0
300
I, O, Q, S, X, Z
 40
10.0
 90
        0
 40
2.5
 90
        0
 71
     2
340
14
 90
       25
 62
   256
340
14
 90
       50
 62
   256
 40
5.0
 40
2.5
 40
5.0
 71
     3
340
F
 62
   256
 40
5.0
 90
        0
 40
15.0
 90
        1
300
%<\AcVar ViewSectionStartId>%-%<\AcVar ViewSectionEndId>% (%<\AcVar ViewScale \f "%sn">%)
 71
     4
 62
   256
 62
   257
300
ANSI31
 40
1.0
 90
        0
290
     0
290
     0
 90
        6
 40
0.0
 40
1.570796326794896
 40
0.2617993877991494
 40
1.308996938995747
 40
-0.2617993877991494
 40
1.832595714594046
  0
TABLESTYLE
  5
140FC
102
{ACAD_XDICTIONARY
360
1479F
102
}
102
{ACAD_REACTORS
330
140FB
102
}
330
140FB
100
AcDbTableStyle
280
     0
  3
Standard
 70
     0
 71
     0
 40
1.5
 41
1.5
280
     0
281
     0
  7
STANDARD
140
4.5
170
     2
 62
     0
 63
     7
283
     0
 90
      512
 91
        0
  1

274
    -2
284
     1
 64
     0
275
    -2
285
     1
 65
     0
276
    -2
286
     1
 66
     0
277
    -2
287
     1
 67
     0
278
    -2
288
     1
 68
     0
279
    -2
289
     1
 69
     0
  7
STANDARD
140
6.0
170
     5
 62
     0
 63
     7
283
     0
 90
      512
 91
        0
  1

274
    -2
284
     1
 64
     0
275
    -2
285
     1
 65
     0
276
    -2
286
     1
 66
     0
277
    -2
287
     1
 67
     0
278
    -2
288
     1
 68
     0
279
    -2
289
     1
 69
     0
  7
STANDARD
140
4.5
170
     5
 62
     0
 63
     7
283
     0
 90
      512
 91
        0
  1

274
    -2
284
     1
 64
     0
275
    -2
285
     1
 65
     0
276
    -2
286
     1
 66
     0
277
    -2
287
     1
 67
     0
278
    -2
288
     1
 68
     0
279
    -2
289
     1
 69
     0
  0
VISUALSTYLE
  5
140E8
102
{ACAD_REACTORS
330
140E2
102
}
330
140E2
100
AcDbVisualStyle
  2
2dWireframe
 70
     4
177
     3
291
     0
 70
    58
 90
        0
176
     1
 90
        2
176
     1
 90
        0
176
     1
 90
        0
176
     1
 40
0.6
176
     1
 40
30.0
176
     1
 62
     7
420
 16777215
176
     1
 90
        1
176
     1
 90
        4
176
     1
 62
     7
176
     1
 62
   257
176
     1
 90
        1
176
     1
 90
        1
176
     1
 40
1.0
176
     1
 90
        0
176
     1
 62
   257
176
     1
 40
1.0
176
     1
 90
        1
176
     1
 90
        6
176
     1
 90
        2
176
     1
 62
     7
176
     1
 90
        5
176
     1
 90
        0
176
     1
 90
        0
176
     1
290
     0
176
     1
 90
        1
176
     1
 40
0.0
176
     1
 90
        0
176
     1
290
     1
176
     1
290
     1
176
     1
290
     0
176
     1
290
     0
176
     1
290
     0
176
     1
290
     0
176
     1
290
     0
176
     1
290
     0
176
     1
290
     0
176
     1
 90
       50
176
     1
 40
0.0
176
     1
 40
1.0
176
     1
 90
        0
176
     1
 62
    18
420
        0
176
     1
 90
       50
176
     1
 90
        3
176
     1
 62
     5
420
      255
176
     1
290
     0
176
     1
 90
       50
176
     1
 90
       50
176
     1
 90
       50
176
     1
290
     0
176
     1
 90
       50
176
     1
 62
   256
176
     0
 40
1.0
176
     0
 90
        2
176
     1
  1
strokes_ogs.tif
176
     1
290
     0
176
     1
 40
1.0
176
     1
 40
1.0
176
     1
  0
VISUALSTYLE
  5
140E7
102
{ACAD_REACTORS
330
140E2
102
}
330
140E2
100
AcDbVisualStyle
  2
Basic
 70
     7
177
     3
291
     1
 70
    58
 90
        1
176
     1
 90
        0
176
     1
 90
        1
176
     1
 90
        0
176
     1
 40
0.6
176
     1
 40
30.0
176
     1
 62
     7
420
 16777215
176
     1
 90
        0
176
     1
 90
        4
176
     1
 62
     7
176
     1
 62
   257
176
     1
 90
        1
176
     1
 90
        1
176
     1
 40
1.0
176
     1
 90
        8
176
     1
 62
     7
176
     1
 40
1.0
176
     1
 90
        1
176
     1
 90
        6
176
     1
 90
        2
176
     1
 62
     7
176
     1
 90
        5
176
     1
 90
        0
176
     1
 90
        0
176
     1
290
     0
176
     1
 90
        1
176
     1
 40
0.0
176
     1
 90
        0
176
     1
290
     0
176
     1
290
     1
176
     1
290
     1
176
     1
290
     0
176
     1
290
     0
176
     1
290
     0
176
     1
290
     0
176
     1
290
     0
176
     1
290
     0
176
     1
 90
       50
176
     1
 40
0.0
176
     1
 40
1.0
176
     1
 90
        0
176
     1
 62
    18
420
        0
176
     1
 90
       50
176
     1
 90
        3
176
     1
 62
     5
420
      255
176
     1
290
     0
176
     1
 90
       50
176
     1
 90
       50
176
     1
 90
       50
176
     1
290
     0
176
     1
 90
       50
176
     1
 62
   256
176
     0
 40
1.0
176
     0
 90
        2
176
     1
  1
strokes_ogs.tif
176
     1
290
     0
176
     1
 40
1.0
176
     1
 40
1.0
176
     1
  0
VISUALSTYLE
  5
140EE
102
{ACAD_REACTORS
330
140E2
102
}
330
140E2
100
AcDbVisualStyle
  2
Brighten
 70
    12
177
     3
291
     1
 70
    58
 90
        2
176
     1
 90
        2
176
     1
 90
        0
176
     1
 90
        0
176
     1
 40
0.6
176
     1
 40
30.0
176
     1
 62
     7
420
 16777215
176
     1
 90
        1
176
     1
 90
        4
176
     1
 62
     7
176
     1
 62
   257
176
     1
 90
        1
176
     1
 90
        1
176
     1
 40
1.0
176
     1
 90
        8
176
     1
 62
     7
176
     1
 40
1.0
176
     1
 90
        1
176
     1
 90
        6
176
     1
 90
        2
176
     1
 62
     7
176
     1
 90
        5
176
     1
 90
        0
176
     1
 90
        0
176
     1
290
     0
176
     1
 90
        1
176
     1
 40
50.0
176
     1
 90
        0
176
     1
290
     0
176
     1
290
     1
176
     1
290
     1
176
     1
290
     0
176
     1
290
     0
176
     1
290
     0
176
     1
290
     0
176
     1
290
     0
176
     1
290
     0
176
     1
 90
       50
176
     1
 40
0.0
176
     1
 40
1.0
176
     1
 90
        0
176
     1
 62
    18
420
        0
176
     1
 90
       50
176
     1
 90
        3
176
     1
 62
     5
420
      255
176
     1
290
     0
176
     1
 90
       50
176
     1
 90
       50
176
     1
 90
       50
176
     1
290
     0
176
     1
 90
       50
176
     1
 62
   256
176
     0
 40
1.0
176
     0
 90
        2
176
     1
  1
strokes_ogs.tif
176
     1
290
     0
176
     1
 40
1.0
176
     1
 40
1.0
176
     1
  0
VISUALSTYLE
  5
140F2
102
{ACAD_REACTORS
330
140E2
102
}
330
140E2
100
AcDbVisualStyle
  2
ColorChange
 70
    16
177
     3
291
     1
 70
    58
 90
        2
176
     1
 90
        2
176
     1
 90
        3
176
     1
 90
        0
176
     1
 40
0.6
176
     1
 40
30.0
176
     1
 62
     8
420
  8421504
176
     1
 90
        1
176
     1
 90
        4
176
     1
 62
     7
176
     1
 62
   257
176
     1
 90
        1
176
     1
 90
        1
176
     1
 40
1.0
176
     1
 90
        8
176
     1
 62
     8
420
  8421504
176
     1
 40
1.0
176
     1
 90
        1
176
     1
 90
        6
176
     1
 90
        2
176
     1
 62
     7
176
     1
 90
        5
176
     1
 90
        0
176
     1
 90
        0
176
     1
290
     0
176
     1
 90
        1
176
     1
 40
0.0
176
     1
 90
        0
176
     1
290
     0
176
     1
290
     1
176
     1
290
     1
176
     1
290
     0
176
     1
290
     0
176
     1
290
     0
176
     1
290
     0
176
     1
290
     0
176
     1
290
     0
176
     1
 90
       50
176
     1
 40
0.0
176
     1
 40
1.0
176
     1
 90
        0
176
     1
 62
    18
420
        0
176
     1
 90
       50
176
     1
 90
        3
176
     1
 62
     5
420
      255
176
     1
290
     0
176
     1
 90
       50
176
     1
 90
       50
176
     1
 90
       50
176
     1
290
     0
176
     1
 90
       50
176
     1
 62
   256
176
     0
 40
1.0
176
     0
 90
        2
176
     1
  1
strokes_ogs.tif
176
     1
290
     0
176
     1
 40
1.0
176
     1
 40
1.0
176
     1
  0
VISUALSTYLE
  5
140EB
102
{ACAD_REACTORS
330
140E2
102
}
330
140E2
100
AcDbVisualStyle
  2
Conceptual
 70
     9
177
     3
291
     0
 70
    58
 90
        3
176
     1
 90
        2
176
     1
 90
        0
176
     1
 90
        0
176
     1
 40
0.6
176
     1
 40
30.0
176
     1
 62
     7
420
 16777215
176
     1
 90
        2
176
     1
 90
        2
176
     1
 62
     7
176
     1
 62
   257
176
     1
 90
        1
176
     1
 90
        1
176
     1
 40
179.0
176
     1
 90
        8
176
     1
 62
     7
176
     1
 40
1.0
176
     1
 90
        1
176
     1
 90
        6
176
     1
 90
        2
176
     1
 62
     7
176
     1
 90
        3
176
     1
 90
        0
176
     1
 90
        0
176
     1
290
     0
176
     1
 90
        1
176
     1
 40
0.0
176
     1
 90
        0
176
     1
290
     0
176
     1
290
     1
176
     1
290
     1
176
     1
290
     0
176
     1
290
     0
176
     1
290
     0
176
     1
290
     0
176
     1
290
     0
176
     1
290
     0
176
     1
 90
       50
176
     1
 40
0.0
176
     1
 40
1.0
176
     1
 90
        0
176
     1
 62
    18
420
        0
176
     1
 90
       50
176
     1
 90
        3
176
     1
 62
     5
420
      255
176
     1
290
     0
176
     1
 90
       50
176
     1
 90
       50
176
     1
 90
       50
176
     1
290
     0
176
     1
 90
       50
176
     1
 62
   256
176
     0
 40
1.0
176
     0
 90
        2
176
     1
  1
strokes_ogs.tif
176
     1
290
     0
176
     1
 40
1.0
176
     1
 40
1.0
176
     1
  0
VISUALSTYLE
  5
140ED
102
{ACAD_REACTORS
330
140E2
102
}
330
140E2
100
AcDbVisualStyle
  2
Dim
 70
    11
177
     3
291
     1
 70
    58
 90
        2
176
     1
 90
        2
176
     1
 90
        0
176
     1
 90
        0
176
     1
 40
0.6
176
     1
 40
30.0
176
     1
 62
     7
420
 16777215
176
     1
 90
        1
176
     1
 90
        4
176
     1
 62
     7
176
     1
 62
   257
176
     1
 90
        1
176
     1
 90
        1
176
     1
 40
1.0
176
     1
 90
        8
176
     1
 62
     7
176
     1
 40
1.0
176
     1
 90
        1
176
     1
 90
        6
176
     1
 90
        2
176
     1
 62
     7
176
     1
 90
        5
176
     1
 90
        0
176
     1
 90
        0
176
     1
290
     0
176
     1
 90
        1
176
     1
 40
-50.0
176
     1
 90
        0
176
     1
290
     0
176
     1
290
     1
176
     1
290
     1
176
     1
290
     0
176
     1
290
     0
176
     1
290
     0
176
     1
290
     0
176
     1
290
     0
176
     1
290
     0
176
     1
 90
       50
176
     1
 40
0.0
176
     1
 40
1.0
176
     1
 90
        0
176
     1
 62
    18
420
        0
176
     1
 90
       50
176
     1
 90
        3
176
     1
 62
     5
420
      255
176
     1
290
     0
176
     1
 90
       50
176
     1
 90
       50
176
     1
 90
       50
176
     1
290
     0
176
     1
 90
       50
176
     1
 62
   256
176
     0
 40
1.0
176
     0
 90
        2
176
     1
  1
strokes_ogs.tif
176
     1
290
     0
176
     1
 40
1.0
176
     1
 40
1.0
176
     1
  0
VISUALSTYLE
  5
140FA
102
{ACAD_REACTORS
330
140E2
102
}
330
140E2
100
AcDbVisualStyle
  2
EdgeColorOff
 70
    22
177
     3
291
     1
 70
    58
 90
        2
176
     0
 90
        2
176
     0
 90
        0
176
     0
 90
        0
176
     0
 40
0.6
176
     0
 40
30.0
176
     0
 62
     7
420
 16777215
176
     0
 90
        1
176
     0
 90
        4
176
     0
 62
     7
176
     0
 62
   257
176
     0
 90
        1
176
     0
 90
        1
176
     0
 40
1.0
176
     0
 90
        8
176
     2
 62
     7
176
     0
 40
1.0
176
     0
 90
        1
176
     0
 90
        6
176
     0
 90
        2
176
     0
 62
     7
176
     0
 90
        5
176
     0
 90
        0
176
     0
 90
        0
176
     0
290
     0
176
     0
 90
        1
176
     0
 40
0.0
176
     0
 90
        0
176
     0
290
     0
176
     0
290
     1
176
     0
290
     1
176
     0
290
     0
176
     0
290
     0
176
     0
290
     0
176
     0
290
     0
176
     0
290
     0
176
     0
290
     0
176
     0
 90
       50
176
     0
 40
0.0
176
     0
 40
1.0
176
     0
 90
        0
176
     0
 62
    18
420
        0
176
     0
 90
       50
176
     0
 90
        3
176
     0
 62
     5
420
      255
176
     0
290
     0
176
     0
 90
       50
176
     0
 90
       50
176
     0
 90
       50
176
     0
290
     0
176
     0
 90
       50
176
     0
 62
   256
176
     0
 40
1.0
176
     0
 90
        2
176
     0
  1
strokes_ogs.tif
176
     0
290
     0
176
     0
 40
1.0
176
     0
 40
1.0
176
     0
  0
VISUALSTYLE
  5
140F1
102
{ACAD_REACTORS
330
140E2
102
}
330
140E2
100
AcDbVisualStyle
  2
Facepattern
 70
    15
177
     3
291
     1
 70
    58
 90
        2
176
     1
 90
        2
176
     1
 90
        0
176
     1
 90
        0
176
     1
 40
0.6
176
     1
 40
30.0
176
     1
 62
     7
420
 16777215
176
     1
 90
        1
176
     1
 90
        4
176
     1
 62
     7
176
     1
 62
   257
176
     1
 90
        1
176
     1
 90
        1
176
     1
 40
1.0
176
     1
 90
        8
176
     1
 62
     7
176
     1
 40
1.0
176
     1
 90
        1
176
     1
 90
        6
176
     1
 90
        2
176
     1
 62
     7
176
     1
 90
        5
176
     1
 90
        0
176
     1
 90
        0
176
     1
290
     0
176
     1
 90
        1
176
     1
 40
0.0
176
     1
 90
        0
176
     1
290
     0
176
     1
290
     1
176
     1
290
     1
176
     1
290
     0
176
     1
290
     0
176
     1
290
     0
176
     1
290
     0
176
     1
290
     0
176
     1
290
     0
176
     1
 90
       50
176
     1
 40
0.0
176
     1
 40
1.0
176
     1
 90
        0
176
     1
 62
    18
420
        0
176
     1
 90
       50
176
     1
 90
        3
176
     1
 62
     5
420
      255
176
     1
290
     0
176
     1
 90
       50
176
     1
 90
       50
176
     1
 90
       50
176
     1
290
     0
176
     1
 90
       50
176
     1
 62
   256
176
     0
 40
1.0
176
     0
 90
        2
176
     1
  1
strokes_ogs.tif
176
     1
290
     0
176
     1
 40
1.0
176
     1
 40
1.0
176
     1
  0
VISUALSTYLE
  5
140E3
102
{ACAD_REACTORS
330
140E2
102
}
330
140E2
100
AcDbVisualStyle
  2
Flat
 70
     0
177
     3
291
     1
 70
    58
 90
        2
176
     1
 90
        1
176
     1
 90
        1
176
     1
 90
        2
176
     1
 40
0.6
176
     1
 40
30.0
176
     1
 62
     7
420
 16777215
176
     1
 90
        0
176
     1
 90
        0
176
     1
 62
     7
176
     1
 62
   257
176
     1
 90
        1
176
     1
 90
        1
176
     1
 40
1.0
176
     1
 90
        8
176
     1
 62
     7
176
     1
 40
1.0
176
     1
 90
        1
176
     1
 90
        6
176
     1
 90
        2
176
     1
 62
     7
176
     1
 90
        5
176
     1
 90
        0
176
     1
 90
        0
176
     1
290
     0
176
     1
 90
       13
176
     1
 40
0.0
176
     1
 90
        0
176
     1
290
     0
176
     1
290
     1
176
     1
290
     1
176
     1
290
     0
176
     1
290
     0
176
     1
290
     0
176
     1
290
     0
176
     1
290
     0
176
     1
290
     0
176
     1
 90
       50
176
     1
 40
0.0
176
     1
 40
1.0
176
     1
 90
        0
176
     1
 62
    18
420
        0
176
     1
 90
       50
176
     1
 90
        3
176
     1
 62
     5
420
      255
176
     1
290
     0
176
     1
 90
       50
176
     1
 90
       50
176
     1
 90
       50
176
     1
290
     0
176
     1
 90
       50
176
     1
 62
   256
176
     0
 40
1.0
176
     0
 90
        2
176
     1
  1
strokes_ogs.tif
176
     1
290
     0
176
     1
 40
1.0
176
     1
 40
1.0
176
     1
  0
VISUALSTYLE
  5
140E4
102
{ACAD_REACTORS
330
140E2
102
}
330
140E2
100
AcDbVisualStyle
  2
FlatWithEdges
 70
     1
177
     3
291
     1
 70
    58
 90
        2
176
     1
 90
        1
176
     1
 90
        1
176
     1
 90
        2
176
     1
 40
0.6
176
     1
 40
30.0
176
     1
 62
     7
420
 16777215
176
     1
 90
        1
176
     1
 90
        0
176
     1
 62
     7
176
     1
 62
   257
176
     1
 90
        1
176
     1
 90
        1
176
     1
 40
1.0
176
     1
 90
        0
176
     1
 62
   257
176
     1
 40
1.0
176
     1
 90
        1
176
     1
 90
        6
176
     1
 90
        2
176
     1
 62
     7
176
     1
 90
        5
176
     1
 90
        0
176
     1
 90
        0
176
     1
290
     0
176
     1
 90
       13
176
     1
 40
0.0
176
     1
 90
        0
176
     1
290
     0
176
     1
290
     1
176
     1
290
     1
176
     1
290
     0
176
     1
290
     0
176
     1
290
     0
176
     1
290
     0
176
     1
290
     0
176
     1
290
     0
176
     1
 90
       50
176
     1
 40
0.0
176
     1
 40
1.0
176
     1
 90
        0
176
     1
 62
    18
420
        0
176
     1
 90
       50
176
     1
 90
        3
176
     1
 62
     5
420
      255
176
     1
290
     0
176
     1
 90
       50
176
     1
 90
       50
176
     1
 90
       50
176
     1
290
     0
176
     1
 90
       50
176
     1
 62
   256
176
     0
 40
1.0
176
     0
 90
        2
176
     1
  1
strokes_ogs.tif
176
     1
290
     0
176
     1
 40
1.0
176
     1
 40
1.0
176
     1
  0
VISUALSTYLE
  5
140E5
102
{ACAD_REACTORS
330
140E2
102
}
330
140E2
100
AcDbVisualStyle
  2
Gouraud
 70
     2
177
     3
291
     1
 70
    58
 90
        2
176
     1
 90
        2
176
     1
 90
        1
176
     1
 90
        2
176
     1
 40
0.6
176
     1
 40
30.0
176
     1
 62
     7
420
 16777215
176
     1
 90
        0
176
     1
 90
        0
176
     1
 62
     7
176
     1
 62
   257
176
     1
 90
        1
176
     1
 90
        1
176
     1
 40
1.0
176
     1
 90
        0
176
     1
 62
     7
176
     1
 40
1.0
176
     1
 90
        1
176
     1
 90
        6
176
     1
 90
        2
176
     1
 62
     7
176
     1
 90
        5
176
     1
 90
        0
176
     1
 90
        0
176
     1
290
     0
176
     1
 90
       13
176
     1
 40
0.0
176
     1
 90
        0
176
     1
290
     0
176
     1
290
     1
176
     1
290
     1
176
     1
290
     0
176
     1
290
     0
176
     1
290
     0
176
     1
290
     0
176
     1
290
     0
176
     1
290
     0
176
     1
 90
       50
176
     1
 40
0.0
176
     1
 40
1.0
176
     1
 90
        0
176
     1
 62
    18
420
        0
176
     1
 90
       50
176
     1
 90
        3
176
     1
 62
     5
420
      255
176
     1
290
     0
176
     1
 90
       50
176
     1
 90
       50
176
     1
 90
       50
176
     1
290
     0
176
     1
 90
       50
176
     1
 62
   256
176
     0
 40
1.0
176
     0
 90
        2
176
     1
  1
strokes_ogs.tif
176
     1
290
     0
176
     1
 40
1.0
176
     1
 40
1.0
176
     1
  0
VISUALSTYLE
  5
140E6
102
{ACAD_REACTORS
330
140E2
102
}
330
140E2
100
AcDbVisualStyle
  2
GouraudWithEdges
 70
     3
177
     3
291
     1
 70
    58
 90
        2
176
     1
 90
        2
176
     1
 90
        1
176
     1
 90
        2
176
     1
 40
0.6
176
     1
 40
30.0
176
     1
 62
     7
420
 16777215
176
     1
 90
        1
176
     1
 90
        0
176
     1
 62
     7
176
     1
 62
   257
176
     1
 90
        1
176
     1
 90
        1
176
     1
 40
1.0
176
     1
 90
        0
176
     1
 62
   257
176
     1
 40
1.0
176
     1
 90
        1
176
     1
 90
        6
176
     1
 90
        2
176
     1
 62
     7
176
     1
 90
        5
176
     1
 90
        0
176
     1
 90
        0
176
     1
290
     0
176
     1
 90
       13
176
     1
 40
0.0
176
     1
 90
        0
176
     1
290
     0
176
     1
290
     1
176
     1
290
     1
176
     1
290
     0
176
     1
290
     0
176
     1
290
     0
176
     1
290
     0
176
     1
290
     0
176
     1
290
     0
176
     1
 90
       50
176
     1
 40
0.0
176
     1
 40
1.0
176
     1
 90
        0
176
     1
 62
    18
420
        0
176
     1
 90
       50
176
     1
 90
        3
176
     1
 62
     5
420
      255
176
     1
290
     0
176
     1
 90
       50
176
     1
 90
       50
176
     1
 90
       50
176
     1
290
     0
176
     1
 90
       50
176
     1
 62
   256
176
     0
 40
1.0
176
     0
 90
        2
176
     1
  1
strokes_ogs.tif
176
     1
290
     0
176
     1
 40
1.0
176
     1
 40
1.0
176
     1
  0
VISUALSTYLE
  5
140EA
102
{ACAD_REACTORS
330
140E2
102
}
330
140E2
100
AcDbVisualStyle
  2
Hidden
 70
     6
177
     3
291
     0
 70
    58
 90
        1
176
     1
 90
        2
176
     1
 90
        2
176
     1
 90
        0
176
     1
 40
0.6
176
     1
 40
30.0
176
     1
 62
     7
420
 16777215
176
     1
 90
        2
176
     1
 90
        2
176
     1
 62
     7
176
     1
 62
   257
176
     1
 90
        2
176
     1
 90
        1
176
     1
 40
40.0
176
     1
 90
        0
176
     1
 62
   257
176
     1
 40
1.0
176
     1
 90
        1
176
     1
 90
        6
176
     1
 90
        2
176
     1
 62
     7
176
     1
 90
        3
176
     1
 90
        0
176
     1
 90
        0
176
     1
290
     0
176
     1
 90
        1
176
     1
 40
0.0
176
     1
 90
        0
176
     1
290
     0
176
     1
290
     1
176
     1
290
     1
176
     1
290
     0
176
     1
290
     0
176
     1
290
     0
176
     1
290
     0
176
     1
290
     0
176
     1
290
     0
176
     1
 90
       50
176
     1
 40
0.0
176
     1
 40
1.0
176
     1
 90
        0
176
     1
 62
    18
420
        0
176
     1
 90
       50
176
     1
 90
        3
176
     1
 62
     5
420
      255
176
     1
290
     0
176
     1
 90
       50
176
     1
 90
       50
176
     1
 90
       50
176
     1
290
     0
176
     1
 90
       50
176
     1
 62
   256
176
     0
 40
1.0
176
     0
 90
        2
176
     1
  1
strokes_ogs.tif
176
     1
290
     0
176
     1
 40
1.0
176
     1
 40
1.0
176
     1
  0
VISUALSTYLE
  5
140F8
102
{ACAD_REACTORS
330
140E2
102
}
330
140E2
100
AcDbVisualStyle
  2
JitterOff
 70
    20
177
     3
291
     1
 70
    58
 90
        2
176
     0
 90
        2
176
     0
 90
        0
176
     0
 90
        0
176
     0
 40
0.6
176
     0
 40
30.0
176
     0
 62
     7
420
 16777215
176
     0
 90
        1
176
     0
 90
        4
176
     0
 62
     7
176
     0
 62
   257
176
     0
 90
        1
176
     0
 90
        1
176
     0
 40
1.0
176
     0
 90
       10
176
     2
 62
     7
176
     0
 40
1.0
176
     0
 90
        1
176
     0
 90
        6
176
     0
 90
        2
176
     0
 62
     7
176
     0
 90
        5
176
     0
 90
        0
176
     0
 90
        0
176
     0
290
     0
176
     0
 90
        1
176
     0
 40
0.0
176
     0
 90
        0
176
     0
290
     0
176
     0
290
     1
176
     0
290
     1
176
     0
290
     0
176
     0
290
     0
176
     0
290
     0
176
     0
290
     0
176
     0
290
     0
176
     0
290
     0
176
     0
 90
       50
176
     0
 40
0.0
176
     0
 40
1.0
176
     0
 90
        0
176
     0
 62
    18
420
        0
176
     0
 90
       50
176
     0
 90
        3
176
     0
 62
     5
420
      255
176
     0
290
     0
176
     0
 90
       50
176
     0
 90
       50
176
     0
 90
       50
176
     0
290
     0
176
     0
 90
       50
176
     0
 62
   256
176
     0
 40
1.0
176
     0
 90
        2
176
     0
  1
strokes_ogs.tif
176
     0
290
     0
176
     0
 40
1.0
176
     0
 40
1.0
176
     0
  0
VISUALSTYLE
  5
140F0
102
{ACAD_REACTORS
330
140E2
102
}
330
140E2
100
AcDbVisualStyle
  2
Linepattern
 70
    14
177
     3
291
     1
 70
    58
 90
        2
176
     1
 90
        2
176
     1
 90
        0
176
     1
 90
        0
176
     1
 40
0.6
176
     1
 40
30.0
176
     1
 62
     7
420
 16777215
176
     1
 90
        1
176
     1
 90
        4
176
     1
 62
     7
176
     1
 62
   257
176
     1
 90
        7
176
     1
 90
        7
176
     1
 40
1.0
176
     1
 90
        8
176
     1
 62
     7
176
     1
 40
1.0
176
     1
 90
        1
176
     1
 90
        6
176
     1
 90
        2
176
     1
 62
     7
176
     1
 90
        5
176
     1
 90
        0
176
     1
 90
        0
176
     1
290
     0
176
     1
 90
        1
176
     1
 40
0.0
176
     1
 90
        0
176
     1
290
     0
176
     1
290
     1
176
     1
290
     1
176
     1
290
     0
176
     1
290
     0
176
     1
290
     0
176
     1
290
     0
176
     1
290
     0
176
     1
290
     0
176
     1
 90
       50
176
     1
 40
0.0
176
     1
 40
1.0
176
     1
 90
        0
176
     1
 62
    18
420
        0
176
     1
 90
       50
176
     1
 90
        3
176
     1
 62
     5
420
      255
176
     1
290
     0
176
     1
 90
       50
176
     1
 90
       50
176
     1
 90
       50
176
     1
290
     0
176
     1
 90
       50
176
     1
 62
   256
176
     0
 40
1.0
176
     0
 90
        2
176
     1
  1
strokes_ogs.tif
176
     1
290
     0
176
     1
 40
1.0
176
     1
 40
1.0
176
     1
  0
VISUALSTYLE
  5
140F9
102
{ACAD_REACTORS
330
140E2
102
}
330
140E2
100
AcDbVisualStyle
  2
OverhangOff
 70
    21
177
     3
291
     1
 70
    58
 90
        2
176
     0
 90
        2
176
     0
 90
        0
176
     0
 90
        0
176
     0
 40
0.6
176
     0
 40
30.0
176
     0
 62
     7
420
 16777215
176
     0
 90
        1
176
     0
 90
        4
176
     0
 62
     7
176
     0
 62
   257
176
     0
 90
        1
176
     0
 90
        1
176
     0
 40
1.0
176
     0
 90
        9
176
     2
 62
     7
176
     0
 40
1.0
176
     0
 90
        1
176
     0
 90
        6
176
     0
 90
        2
176
     0
 62
     7
176
     0
 90
        5
176
     0
 90
        0
176
     0
 90
        0
176
     0
290
     0
176
     0
 90
        1
176
     0
 40
0.0
176
     0
 90
        0
176
     0
290
     0
176
     0
290
     1
176
     0
290
     1
176
     0
290
     0
176
     0
290
     0
176
     0
290
     0
176
     0
290
     0
176
     0
290
     0
176
     0
290
     0
176
     0
 90
       50
176
     0
 40
0.0
176
     0
 40
1.0
176
     0
 90
        0
176
     0
 62
    18
420
        0
176
     0
 90
       50
176
     0
 90
        3
176
     0
 62
     5
420
      255
176
     0
290
     0
176
     0
 90
       50
176
     0
 90
       50
176
     0
 90
       50
176
     0
290
     0
176
     0
 90
       50
176
     0
 62
   256
176
     0
 40
1.0
176
     0
 90
        2
176
     0
  1
strokes_ogs.tif
176
     0
290
     0
176
     0
 40
1.0
176
     0
 40
1.0
176
     0
  0
VISUALSTYLE
  5
140EC
102
{ACAD_REACTORS
330
140E2
102
}
330
140E2
100
AcDbVisualStyle
  2
Realistic
 70
     8
177
     3
291
     0
 70
    58
 90
        2
176
     1
 90
        3
176
     1
 90
        0
176
     1
 90
        2
176
     1
 40
0.6
176
     1
 40
30.0
176
     1
 62
     7
420
 16777215
176
     1
 90
        0
176
     1
 90
        0
176
     1
 62
     7
176
     1
 62
   257
176
     1
 90
        1
176
     1
 90
        1
176
     1
 40
1.0
176
     1
 90
        8
176
     1
 62
   257
176
     1
 40
1.0
176
     1
 90
        1
176
     1
 90
        6
176
     1
 90
        2
176
     1
 62
     7
176
     1
 90
        3
176
     1
 90
        0
176
     1
 90
        0
176
     1
290
     0
176
     1
 90
       13
176
     1
 40
0.0
176
     1
 90
        0
176
     1
290
     0
176
     1
290
     1
176
     1
290
     1
176
     1
290
     0
176
     1
290
     0
176
     1
290
     0
176
     1
290
     0
176
     1
290
     0
176
     1
290
     0
176
     1
 90
       50
176
     1
 40
0.0
176
     1
 40
1.0
176
     1
 90
        0
176
     1
 62
    18
420
        0
176
     1
 90
       50
176
     1
 90
        3
176
     1
 62
     5
420
      255
176
     1
290
     0
176
     1
 90
       50
176
     1
 90
       50
176
     1
 90
       50
176
     1
290
     0
176
     1
 90
       50
176
     1
 62
   256
176
     0
 40
1.0
176
     0
 90
        2
176
     1
  1
strokes_ogs.tif
176
     1
290
     0
176
     1
 40
1.0
176
     1
 40
1.0
176
     1
  0
VISUALSTYLE
  5
140F7
102
{ACAD_REACTORS
330
140E2
102
}
330
140E2
100
AcDbVisualStyle
  2
Shaded
 70
    27
177
     3
291
     0
 70
    58
 90
        2
176
     1
 90
        2
176
     1
 90
        1
176
     1
 90
        2
176
     1
 40
0.6
176
     1
 40
30.0
176
     1
 62
     7
420
 16777215
176
     1
 90
        0
176
     1
 90
        4
176
     1
 62
     7
176
     1
 62
   257
176
     1
 90
        1
176
     1
 90
        1
176
     1
 40
1.0
176
     1
 90
        8
176
     1
 62
   257
176
     1
 40
1.0
176
     1
 90
        1
176
     1
 90
        6
176
     1
 90
        2
176
     1
 62
     8
420
  7895160
176
     1
 90
        3
176
     1
 90
        0
176
     1
 90
        0
176
     1
290
     0
176
     1
 90
        5
176
     1
 40
0.0
176
     1
 90
        0
176
     1
290
     0
176
     1
290
     1
176
     1
290
     1
176
     1
290
     0
176
     1
290
     0
176
     1
290
     0
176
     1
290
     0
176
     1
290
     0
176
     1
290
     0
176
     1
 90
       50
176
     1
 40
0.0
176
     1
 40
1.0
176
     1
 90
        0
176
     1
 62
    18
420
        0
176
     1
 90
       50
176
     1
 90
        3
176
     1
 62
     5
420
      255
176
     1
290
     0
176
     1
 90
       50
176
     1
 90
       50
176
     1
 90
       50
176
     1
290
     0
176
     1
 90
       50
176
     1
 62
   256
176
     0
 40
1.0
176
     0
 90
        2
176
     1
  1
strokes_ogs.tif
176
     1
290
     0
176
     1
 40
1.0
176
     1
 40
1.0
176
     1
  0
VISUALSTYLE
  5
140F6
102
{ACAD_REACTORS
330
140E2
102
}
330
140E2
100
AcDbVisualStyle
  2
Shaded with edges
 70
    26
177
     3
291
     0
 70
    58
 90
        2
176
     1
 90
        2
176
     1
 90
        1
176
     1
 90
        2
176
     1
 40
0.6
176
     1
 40
30.0
176
     1
 62
     7
420
 16777215
176
     1
 90
        1
176
     1
 90
        2
176
     1
 62
     7
176
     1
 62
   257
176
     1
 90
        2
176
     1
 90
        1
176
     1
 40
1.0
176
     1
 90
        8
176
     1
 62
   257
176
     1
 40
1.0
176
     1
 90
        1
176
     1
 90
        6
176
     1
 90
        2
176
     1
 62
     7
176
     1
 90
        3
176
     1
 90
        0
176
     1
 90
        0
176
     1
290
     0
176
     1
 90
        5
176
     1
 40
0.0
176
     1
 90
        0
176
     1
290
     0
176
     1
290
     1
176
     1
290
     1
176
     1
290
     0
176
     1
290
     0
176
     1
290
     0
176
     1
290
     0
176
     1
290
     0
176
     1
290
     0
176
     1
 90
       50
176
     1
 40
0.0
176
     1
 40
1.0
176
     1
 90
        0
176
     1
 62
    18
420
        0
176
     1
 90
       50
176
     1
 90
        3
176
     1
 62
     5
420
      255
176
     1
290
     0
176
     1
 90
       50
176
     1
 90
       50
176
     1
 90
       50
176
     1
290
     0
176
     1
 90
       50
176
     1
 62
   256
176
     0
 40
1.0
176
     0
 90
        2
176
     1
  1
strokes_ogs.tif
176
     1
290
     0
176
     1
 40
1.0
176
     1
 40
1.0
176
     1
  0
VISUALSTYLE
  5
140F3
102
{ACAD_REACTORS
330
140E2
102
}
330
140E2
100
AcDbVisualStyle
  2
Shades of Gray
 70
    23
177
     3
291
     0
 70
    58
 90
        2
176
     1
 90
        2
176
     1
 90
        3
176
     1
 90
        0
176
     1
 40
0.6
176
     1
 40
30.0
176
     1
 62
     7
420
 16777215
176
     1
 90
        2
176
     1
 90
        2
176
     1
 62
     7
176
     1
 62
     7
176
     1
 90
        1
176
     1
 90
        1
176
     1
 40
40.0
176
     1
 90
        8
176
     1
 62
     7
176
     1
 40
1.0
176
     1
 90
        1
176
     1
 90
        6
176
     1
 90
        2
176
     1
 62
     7
176
     1
 90
        3
176
     1
 90
        0
176
     1
 90
        0
176
     1
290
     0
176
     1
 90
        1
176
     1
 40
0.0
176
     1
 90
        0
176
     1
290
     0
176
     1
290
     1
176
     1
290
     1
176
     1
290
     0
176
     1
290
     0
176
     1
290
     0
176
     1
290
     0
176
     1
290
     0
176
     1
290
     0
176
     1
 90
       50
176
     1
 40
0.0
176
     1
 40
1.0
176
     1
 90
        0
176
     1
 62
    18
420
        0
176
     1
 90
       50
176
     1
 90
        3
176
     1
 62
     5
420
      255
176
     1
290
     0
176
     1
 90
       50
176
     1
 90
       50
176
     1
 90
       50
176
     1
290
     0
176
     1
 90
       50
176
     1
 62
   256
176
     0
 40
1.0
176
     0
 90
        2
176
     1
  1
strokes_ogs.tif
176
     1
290
     0
176
     1
 40
1.0
176
     1
 40
1.0
176
     1
  0
VISUALSTYLE
  5
140F4
102
{ACAD_REACTORS
330
140E2
102
}
330
140E2
100
AcDbVisualStyle
  2
Sketchy
 70
    24
177
     3
291
     0
 70
    58
 90
        1
176
     1
 90
        2
176
     1
 90
        2
176
     1
 90
        0
176
     1
 40
0.6
176
     1
 40
30.0
176
     1
 62
     7
420
 16777215
176
     1
 90
        2
176
     1
 90
        2
176
     1
 62
     7
176
     1
 62
     7
176
     1
 90
        1
176
     1
 90
        1
176
     1
 40
40.0
176
     1
 90
       11
176
     1
 62
     7
176
     1
 40
1.0
176
     1
 90
        1
176
     1
 90
        6
176
     1
 90
        2
176
     1
 62
     7
176
     1
 90
        6
176
     1
 90
        0
176
     1
 90
        0
176
     1
290
     0
176
     1
 90
        1
176
     1
 40
0.0
176
     1
 90
        0
176
     1
290
     0
176
     1
290
     1
176
     1
290
     1
176
     1
290
     0
176
     1
290
     0
176
     1
290
     0
176
     1
290
     0
176
     1
290
     0
176
     1
290
     0
176
     1
 90
       50
176
     1
 40
0.0
176
     1
 40
1.0
176
     1
 90
        0
176
     1
 62
    18
420
        0
176
     1
 90
       50
176
     1
 90
        3
176
     1
 62
     5
420
      255
176
     1
290
     0
176
     1
 90
       50
176
     1
 90
       50
176
     1
 90
       50
176
     1
290
     0
176
     1
 90
       50
176
     1
 62
   256
176
     0
 40
1.0
176
     0
 90
        2
176
     1
  1
strokes_ogs.tif
176
     1
290
     0
176
     1
 40
1.0
176
     1
 40
1.0
176
     1
  0
VISUALSTYLE
  5
140EF
102
{ACAD_REACTORS
330
140E2
102
}
330
140E2
100
AcDbVisualStyle
  2
Thicken
 70
    13
177
     3
291
     1
 70
    58
 90
        2
176
     1
 90
        2
176
     1
 90
        0
176
     1
 90
        0
176
     1
 40
0.6
176
     1
 40
30.0
176
     1
 62
     7
420
 16777215
176
     1
 90
        1
176
     1
 90
        4
176
     1
 62
     7
176
     1
 62
   257
176
     1
 90
        1
176
     1
 90
        1
176
     1
 40
1.0
176
     1
 90
       12
176
     1
 62
     7
176
     1
 40
1.0
176
     1
 90
        1
176
     1
 90
        6
176
     1
 90
        2
176
     1
 62
     7
176
     1
 90
        5
176
     1
 90
        0
176
     1
 90
        0
176
     1
290
     0
176
     1
 90
        1
176
     1
 40
0.0
176
     1
 90
        0
176
     1
290
     0
176
     1
290
     1
176
     1
290
     1
176
     1
290
     0
176
     1
290
     0
176
     1
290
     0
176
     1
290
     0
176
     1
290
     0
176
     1
290
     0
176
     1
 90
       50
176
     1
 40
0.0
176
     1
 40
1.0
176
     1
 90
        0
176
     1
 62
    18
420
        0
176
     1
 90
       50
176
     1
 90
        3
176
     1
 62
     5
420
      255
176
     1
290
     0
176
     1
 90
       50
176
     1
 90
       50
176
     1
 90
       50
176
     1
290
     0
176
     1
 90
       50
176
     1
 62
   256
176
     0
 40
1.0
176
     0
 90
        2
176
     1
  1
strokes_ogs.tif
176
     1
290
     0
176
     1
 40
1.0
176
     1
 40
1.0
176
     1
  0
VISUALSTYLE
  5
140E9
102
{ACAD_REACTORS
330
140E2
102
}
330
140E2
100
AcDbVisualStyle
  2
Wireframe
 70
     5
177
     3
291
     0
 70
    58
 90
        0
176
     1
 90
        2
176
     1
 90
        0
176
     1
 90
        0
176
     1
 40
0.6
176
     1
 40
30.0
176
     1
 62
     7
420
 16777215
176
     1
 90
        1
176
     1
 90
        4
176
     1
 62
     7
176
     1
 62
   257
176
     1
 90
        1
176
     1
 90
        1
176
     1
 40
1.0
176
     1
 90
        0
176
     1
 62
   257
176
     1
 40
1.0
176
     1
 90
        1
176
     1
 90
        6
176
     1
 90
        2
176
     1
 62
     7
176
     1
 90
        3
176
     1
 90
        0
176
     1
 90
        0
176
     1
290
     0
176
     1
 90
        1
176
     1
 40
0.0
176
     1
 90
        0
176
     1
290
     0
176
     1
290
     1
176
     1
290
     1
176
     1
290
     0
176
     1
290
     0
176
     1
290
     0
176
     1
290
     0
176
     1
290
     0
176
     1
290
     0
176
     1
 90
       50
176
     1
 40
0.0
176
     1
 40
1.0
176
     1
 90
        0
176
     1
 62
    18
420
        0
176
     1
 90
       50
176
     1
 90
        3
176
     1
 62
     5
420
      255
176
     1
290
     0
176
     1
 90
       50
176
     1
 90
       50
176
     1
 90
       50
176
     1
290
     0
176
     1
 90
       50
176
     1
 62
   256
176
     0
 40
1.0
176
     0
 90
        2
176
     1
  1
strokes_ogs.tif
176
     1
290
     0
176
     1
 40
1.0
176
     1
 40
1.0
176
     1
  0
VISUALSTYLE
  5
140F5
102
{ACAD_REACTORS
330
140E2
102
}
330
140E2
100
AcDbVisualStyle
  2
X-Ray
 70
    25
177
     3
291
     0
 70
    58
 90
        2
176
     1
 90
        2
176
     1
 90
        1
176
     1
 90
        1
176
     1
 40
0.5
176
     1
 40
30.0
176
     1
 62
     7
420
 16777215
176
     1
 90
        1
176
     1
 90
        0
176
     1
 62
     7
176
     1
 62
   257
176
     1
 90
        1
176
     1
 90
        1
176
     1
 40
1.0
176
     1
 90
        8
176
     1
 62
     7
176
     1
 40
1.0
176
     1
 90
        1
176
     1
 90
        6
176
     1
 90
        2
176
     1
 62
     7
176
     1
 90
        3
176
     1
 90
        0
176
     1
 90
        0
176
     1
290
     0
176
     1
 90
       13
176
     1
 40
0.0
176
     1
 90
        0
176
     1
290
     0
176
     1
290
     1
176
     1
290
     1
176
     1
290
     0
176
     1
290
     0
176
     1
290
     0
176
     1
290
     0
176
     1
290
     0
176
     1
290
     0
176
     1
 90
       50
176
     1
 40
0.0
176
     1
 40
1.0
176
     1
 90
        0
176
     1
 62
    18
420
        0
176
     1
 90
       50
176
     1
 90
        3
176
     1
 62
     5
420
      255
176
     1
290
     0
176
     1
 90
       50
176
     1
 90
       50
176
     1
 90
       50
176
     1
290
     0
176
     1
 90
       50
176
     1
 62
   256
176
     0
 40
1.0
176
     0
 90
        2
176
     1
  1
strokes_ogs.tif
176
     1
290
     0
176
     1
 40
1.0
176
     1
 40
1.0
176
     1
  0
DICTIONARYVAR
  5
1474D
102
{ACAD_REACTORS
330
1633
102
}
330
1633
100
DictionaryVariables
280
     0
  1
1:1
  0
DICTIONARYVAR
  5
14749
102
{ACAD_REACTORS
330
1633
102
}
330
1633
100
DictionaryVariables
280
     0
  1
STANDARD
  0
DICTIONARYVAR
  5
14748
102
{ACAD_REACTORS
330
1633
102
}
330
1633
100
DictionaryVariables
280
     0
  1
STANDARD
  0
DICTIONARYVAR
  5
1474A
102
{ACAD_REACTORS
330
1633
102
}
330
1633
100
DictionaryVariables
280
     0
  1
Metric50
  0
DICTIONARYVAR
  5
1474B
102
{ACAD_REACTORS
330
1633
102
}
330
1633
100
DictionaryVariables
280
     0
  1
Metric50
  0
DICTIONARYVAR
  5
B5DA
102
{ACAD_REACTORS
330
1633
102
}
330
1633
100
DictionaryVariables
280
     0
  1
1
  0
DICTIONARYVAR
  5
1474F
102
{ACAD_REACTORS
330
1633
102
}
330
1633
100
DictionaryVariables
280
     0
  1
1
  0
DICTIONARYVAR
  5
14750
102
{ACAD_REACTORS
330
1633
102
}
330
1633
100
DictionaryVariables
280
     0
  1
15
  0
DICTIONARYVAR
  5
1474E
102
{ACAD_REACTORS
330
1633
102
}
330
1633
100
DictionaryVariables
280
     0
  1
0
  0
DICTIONARYVAR
  5
1474C
102
{ACAD_REACTORS
330
1633
102
}
330
1633
100
DictionaryVariables
280
     0
  1
0
  0
DICTIONARYVAR
  5
1634
102
{ACAD_REACTORS
330
1633
102
}
330
1633
100
DictionaryVariables
280
     0
  1
96
  0
XRECORD
  5
D4EF
102
{ACAD_REACTORS
330
D4ED
102
}
330
D4ED
100
AcDbXrecord
280
     1
  0
DICTIONARY
  5
140D3
330
140D2
100
AcDbDictionary
280
     1
281
     1
  3
BUMPTILE
360
140D5
  3
DIFFUSETILE
360
140D4
  3
OPACITYTILE
360
140D8
  3
REFLECTIONTILE
360
140D7
  3
REFRACTIONTILE
360
140D9
  3
SPECULARTILE
360
140D6
  0
DICTIONARY
  5
140CB
330
140CA
100
AcDbDictionary
280
     1
281
     1
  3
BUMPTILE
360
140CD
  3
DIFFUSETILE
360
140CC
  3
OPACITYTILE
360
140D0
  3
REFLECTIONTILE
360
140CF
  3
REFRACTIONTILE
360
140D1
  3
SPECULARTILE
360
140CE
  0
DICTIONARY
  5
140DB
330
140DA
100
AcDbDictionary
280
     1
281
     1
  3
BUMPTILE
360
140DD
  3
DIFFUSETILE
360
140DC
  3
OPACITYTILE
360
140E0
  3
REFLECTIONTILE
360
140DF
  3
REFRACTIONTILE
360
140E1
  3
SPECULARTILE
360
140DE
  0
DICTIONARY
  5
1479F
330
140FC
100
AcDbDictionary
280
     1
281
     1
  3
ACAD_ROUNDTRIP_2008_TABLESTYLE_CELLSTYLEMAP
360
147A0
  0
XRECORD
  5
140D5
102
{ACAD_REACTORS
330
140D3
102
}
330
140D3
100
AcDbXrecord
280
     1
270
     1
271
     1
  0
XRECORD
  5
140D4
102
{ACAD_REACTORS
330
140D3
102
}
330
140D3
100
AcDbXrecord
280
     1
270
     1
271
     1
  0
XRECORD
  5
140D8
102
{ACAD_REACTORS
330
140D3
102
}
330
140D3
100
AcDbXrecord
280
     1
270
     1
271
     1
  0
XRECORD
  5
140D7
102
{ACAD_REACTORS
330
140D3
102
}
330
140D3
100
AcDbXrecord
280
     1
270
     1
271
     1
  0
XRECORD
  5
140D9
102
{ACAD_REACTORS
330
140D3
102
}
330
140D3
100
AcDbXrecord
280
     1
270
     1
271
     1
  0
XRECORD
  5
140D6
102
{ACAD_REACTORS
330
140D3
102
}
330
140D3
100
AcDbXrecord
280
     1
270
     1
271
     1
  0
XRECORD
  5
140CD
102
{ACAD_REACTORS
330
140CB
102
}
330
140CB
100
AcDbXrecord
280
     1
270
     1
271
     1
  0
XRECORD
  5
140CC
102
{ACAD_REACTORS
330
140CB
102
}
330
140CB
100
AcDbXrecord
280
     1
270
     1
271
     1
  0
XRECORD
  5
140D0
102
{ACAD_REACTORS
330
140CB
102
}
330
140CB
100
AcDbXrecord
280
     1
270
     1
271
     1
  0
XRECORD
  5
140CF
102
{ACAD_REACTORS
330
140CB
102
}
330
140CB
100
AcDbXrecord
280
     1
270
     1
271
     1
  0
XRECORD
  5
140D1
102
{ACAD_REACTORS
330
140CB
102
}
330
140CB
100
AcDbXrecord
280
     1
270
     1
271
     1
  0
XRECORD
  5
140CE
102
{ACAD_REACTORS
330
140CB
102
}
330
140CB
100
AcDbXrecord
280
     1
270
     1
271
     1
  0
XRECORD
  5
140DD
102
{ACAD_REACTORS
330
140DB
102
}
330
140DB
100
AcDbXrecord
280
     1
270
     1
271
     1
  0
XRECORD
  5
140DC
102
{ACAD_REACTORS
330
140DB
102
}
330
140DB
100
AcDbXrecord
280
     1
270
     1
271
     1
  0
XRECORD
  5
140E0
102
{ACAD_REACTORS
330
140DB
102
}
330
140DB
100
AcDbXrecord
280
     1
270
     1
271
     1
  0
XRECORD
  5
140DF
102
{ACAD_REACTORS
330
140DB
102
}
330
140DB
100
AcDbXrecord
280
     1
270
     1
271
     1
  0
XRECORD
  5
140E1
102
{ACAD_REACTORS
330
140DB
102
}
330
140DB
100
AcDbXrecord
280
     1
270
     1
271
     1
  0
XRECORD
  5
140DE
102
{ACAD_REACTORS
330
140DB
102
}
330
140DB
100
AcDbXrecord
280
     1
270
     1
271
     1
  0
CELLSTYLEMAP
  5
147A0
102
{ACAD_REACTORS
330
1479F
102
}
330
1479F
100
AcDbCellStyleMap
 90
        3
300
CELLSTYLE
  1
TABLEFORMAT_BEGIN
 90
        5
170
     1
 91
        0
 92
    32768
 62
   257
 93
        1
300
CONTENTFORMAT
  1
CONTENTFORMAT_BEGIN
 90
        0
 91
        0
 92
      512
 93
        0
300

 40
0.0
140
1.0
 94
        5
 62
     0
340
F
144
6.0
309
CONTENTFORMAT_END
171
     1
301
MARGIN
  1
CELLMARGIN_BEGIN
 40
1.5
 40
1.5
 40
1.5
 40
1.5
 40
4.5
 40
4.5
309
CELLMARGIN_END
 94
        6
 95
        1
302
GRIDFORMAT
  1
GRIDFORMAT_BEGIN
 90
        0
 91
        1
 62
     0
 92
       -2
340
0
 93
        0
 40
1.125
309
GRIDFORMAT_END
 95
        2
302
GRIDFORMAT
  1
GRIDFORMAT_BEGIN
 90
        0
 91
        1
 62
     0
 92
       -2
340
0
 93
        0
 40
1.125
309
GRIDFORMAT_END
 95
        4
302
GRIDFORMAT
  1
GRIDFORMAT_BEGIN
 90
        0
 91
        1
 62
     0
 92
       -2
340
0
 93
        0
 40
1.125
309
GRIDFORMAT_END
 95
        8
302
GRIDFORMAT
  1
GRIDFORMAT_BEGIN
 90
        0
 91
        1
 62
     0
 92
       -2
340
0
 93
        0
 40
1.125
309
GRIDFORMAT_END
 95
       16
302
GRIDFORMAT
  1
GRIDFORMAT_BEGIN
 90
        0
 91
        1
 62
     0
 92
       -2
340
0
 93
        0
 40
1.125
309
GRIDFORMAT_END
 95
       32
302
GRIDFORMAT
  1
GRIDFORMAT_BEGIN
 90
        0
 91
        1
 62
     0
 92
       -2
340
0
 93
        0
 40
1.125
309
GRIDFORMAT_END
309
TABLEFORMAT_END
  1
CELLSTYLE_BEGIN
 90
        1
 91
        1
300
_TITLE
309
CELLSTYLE_END
300
CELLSTYLE
  1
TABLEFORMAT_BEGIN
 90
        5
170
     1
 91
        0
 92
        0
 62
   257
 93
        1
300
CONTENTFORMAT
  1
CONTENTFORMAT_BEGIN
 90
        0
 91
        0
 92
      512
 93
        0
300

 40
0.0
140
1.0
 94
        5
 62
     0
340
F
144
4.5
309
CONTENTFORMAT_END
171
     1
301
MARGIN
  1
CELLMARGIN_BEGIN
 40
1.5
 40
1.5
 40
1.5
 40
1.5
 40
4.5
 40
4.5
309
CELLMARGIN_END
 94
        6
 95
        1
302
GRIDFORMAT
  1
GRIDFORMAT_BEGIN
 90
        0
 91
        1
 62
     0
 92
       -2
340
0
 93
        0
 40
1.125
309
GRIDFORMAT_END
 95
        2
302
GRIDFORMAT
  1
GRIDFORMAT_BEGIN
 90
        0
 91
        1
 62
     0
 92
       -2
340
0
 93
        0
 40
1.125
309
GRIDFORMAT_END
 95
        4
302
GRIDFORMAT
  1
GRIDFORMAT_BEGIN
 90
        0
 91
        1
 62
     0
 92
       -2
340
0
 93
        0
 40
1.125
309
GRIDFORMAT_END
 95
        8
302
GRIDFORMAT
  1
GRIDFORMAT_BEGIN
 90
        0
 91
        1
 62
     0
 92
       -2
340
0
 93
        0
 40
1.125
309
GRIDFORMAT_END
 95
       16
302
GRIDFORMAT
  1
GRIDFORMAT_BEGIN
 90
        0
 91
        1
 62
     0
 92
       -2
340
0
 93
        0
 40
1.125
309
GRIDFORMAT_END
 95
       32
302
GRIDFORMAT
  1
GRIDFORMAT_BEGIN
 90
        0
 91
        1
 62
     0
 92
       -2
340
0
 93
        0
 40
1.125
309
GRIDFORMAT_END
309
TABLEFORMAT_END
  1
CELLSTYLE_BEGIN
 90
        2
 91
        1
300
_HEADER
309
CELLSTYLE_END
300
CELLSTYLE
  1
TABLEFORMAT_BEGIN
 90
        5
170
     1
 91
        0
 92
        0
 62
   257
 93
        1
300
CONTENTFORMAT
  1
CONTENTFORMAT_BEGIN
 90
        0
 91
        0
 92
      512
 93
        0
300

 40
0.0
140
1.0
 94
        2
 62
     0
340
F
144
4.5
309
CONTENTFORMAT_END
171
     1
301
MARGIN
  1
CELLMARGIN_BEGIN
 40
1.5
 40
1.5
 40
1.5
 40
1.5
 40
4.5
 40
4.5
309
CELLMARGIN_END
 94
        6
 95
        1
302
GRIDFORMAT
  1
GRIDFORMAT_BEGIN
 90
        0
 91
        1
 62
     0
 92
       -2
340
0
 93
        0
 40
1.125
309
GRIDFORMAT_END
 95
        2
302
GRIDFORMAT
  1
GRIDFORMAT_BEGIN
 90
        0
 91
        1
 62
     0
 92
       -2
340
0
 93
        0
 40
1.125
309
GRIDFORMAT_END
 95
        4
302
GRIDFORMAT
  1
GRIDFORMAT_BEGIN
 90
        0
 91
        1
 62
     0
 92
       -2
340
0
 93
        0
 40
1.125
309
GRIDFORMAT_END
 95
        8
302
GRIDFORMAT
  1
GRIDFORMAT_BEGIN
 90
        0
 91
        1
 62
     0
 92
       -2
340
0
 93
        0
 40
1.125
309
GRIDFORMAT_END
 95
       16
302
GRIDFORMAT
  1
GRIDFORMAT_BEGIN
 90
        0
 91
        1
 62
     0
 92
       -2
340
0
 93
        0
 40
1.125
309
GRIDFORMAT_END
 95
       32
302
GRIDFORMAT
  1
GRIDFORMAT_BEGIN
 90
        0
 91
        1
 62
     0
 92
       -2
340
0
 93
        0
 40
1.125
309
GRIDFORMAT_END
309
TABLEFORMAT_END
  1
CELLSTYLE_BEGIN
 90
        3
 91
        2
300
_DATA
309
CELLSTYLE_END
  0
ENDSEC
  0
SECTION
  2
ACDSDATA
 70
     2
 71
     8
  0
ACDSSCHEMA
 90
        0
  1
AcDb_Thumbnail_Schema
  2
AcDbDs::ID
280
    10
 91
        8
  2
Thumbnail_Data
280
    15
 91
        0
101
ACDSRECORD
 95
        0
 90
        1
  2
AcDbDs::TreatedAsObjectData
280
     1
291
     1
101
ACDSRECORD
 95
        0
 90
        2
  2
AcDbDs::Legacy
280
     1
291
     1
101
ACDSRECORD
  1
AcDbDs::ID
 90
        3
  2
AcDs:Indexable
280
     1
291
     1
101
ACDSRECORD
  1
AcDbDs::ID
 90
        4
  2
AcDbDs::HandleAttribute
280
     7
282
     1
  0
ACDSSCHEMA
 90
        1
  1
AcDbDs::TreatedAsObjectDataSchema
  2
AcDbDs::TreatedAsObjectData
280
     1
 91
        0
  0
ACDSSCHEMA
 90
        2
  1
AcDbDs::LegacySchema
  2
AcDbDs::Legacy
280
     1
 91
        0
  0
ACDSSCHEMA
 90
        3
  1
AcDbDs::IndexedPropertySchema
  2
AcDs:Indexable
280
     1
 91
        0
  0
ACDSSCHEMA
 90
        4
  1
AcDbDs::HandleAttributeSchema
  2
AcDbDs::HandleAttribute
280
     7
 91
        1
284
     1
  0
ACDSRECORD
 90
        0
  2
AcDbDs::ID
280
    10
320
26A9
  2
Thumbnail_Data
280
    15
 94
     1130
310
89504E470D0A1A0A0000000D49484452000001000000006F08030000003479EE6F00000300504C5445212830FFFFFF2128300000000000000000000000000000000000000000000000000000330000660000990000CC0000FF0033000033330033660033990033CC0033FF0066000066330066660066990066CC0066FF0099
310
000099330099660099990099CC0099FF00CC0000CC3300CC6600CC9900CCCC00CCFF00FF0000FF3300FF6600FF9900FFCC00FFFF3300003300333300663300993300CC3300FF3333003333333333663333993333CC3333FF3366003366333366663366993366CC3366FF3399003399333399663399993399CC3399FF33CC00
310
33CC3333CC6633CC9933CCCC33CCFF33FF0033FF3333FF6633FF9933FFCC33FFFF6600006600336600666600996600CC6600FF6633006633336633666633996633CC6633FF6666006666336666666666996666CC6666FF6699006699336699666699996699CC6699FF66CC0066CC3366CC6666CC9966CCCC66CCFF66FF0066
310
FF3366FF6666FF9966FFCC66FFFF9900009900339900669900999900CC9900FF9933009933339933669933999933CC9933FF9966009966339966669966999966CC9966FF9999009999339999669999999999CC9999FF99CC0099CC3399CC6699CC9999CCCC99CCFF99FF0099FF3399FF6699FF9999FFCC99FFFFCC0000CC00
310
33CC0066CC0099CC00CCCC00FFCC3300CC3333CC3366CC3399CC33CCCC33FFCC6600CC6633CC6666CC6699CC66CCCC66FFCC9900CC9933CC9966CC9999CC99CCCC99FFCCCC00CCCC33CCCC66CCCC99CCCCCCCCCCFFCCFF00CCFF33CCFF66CCFF99CCFFCCCCFFFFFF0000FF0033FF0066FF0099FF00CCFF00FFFF3300FF3333
310
FF3366FF3399FF33CCFF33FFFF6600FF6633FF6666FF6699FF66CCFF66FFFF9900FF9933FF9966FF9999FF99CCFF99FFFFCC00FFCC33FFCC66FFCC99FFCCCCFFCCFFFFFF00FFFF33FFFF66FFFF99FFFFCCFFFFFF0000000D0D0D1A1A1A2828283535354343435050505D5D5D6B6B6B787878868686939393A1A1A1AEAEAEBB
310
BBBBC9C9C9D6D6D6E4E4E4F1F1F1FFFFFF0000000000000000000000000000000000000000000000000000000000002E4550F1000001254944415478DAEDDA4B6EC3300C05401D47F7BF02CFA47D1DD7458DA08995FE009133089C0D377A5028D1486B0000000000007F65FC528D00960FA0FFAC665931B1B8481C4044BC3F
310
A3DF1EF1DD9A9513B85E5CEA00CAF700013805267A40CBDA03C6D8D633B6E7B6BE1EE703EFB3E2A8698F6BEC003D6065FD64A2266F0013353987A13EB105666A00D2F24EB044005D003503B8CD3671F26818BAAA5977FD47006DFF7CB9B88F9AF6A426F90E88BC3B400F98197346F57178641E04CB8FC3A97FDF02108000AE
310
2F4289AFB92F5F855BC100A6AEB95E88A40E60E28E532280B23B60E29A7BDF264A9E1491FF7DC0C55DA1F62990F97DC00B01D8012963B86F70D55AFCDEE1F73617C757C159A0F40E98BA0A0BA0FA2C909A7F800100000000000000FCAF3703D53DEF5AF428180000000049454E44AE426082
  0
ENDSEC
  0
EOF
