  0
SECTION
  2
HEADER
  9
$ACADVER
  1
AC1032
  9
$ACADMAINTVER
 90
      155
  9
$DWGCODEPAGE
  3
ANSI_1252
  9
$LASTSAVEDBY
  1
falinoori
  9
$REQUIREDVERSIONS
160
                 0
  9
$INSBASE
 10
-0.0000000000001141
 20
0.0000000000000028
 30
0.0
  9
$EXTMIN
 10
-269.9999999999999
 20
-160.5598630081307
 30
0.0
  9
$EXTMAX
 10
1016.567578336974
 20
281.7088367922645
 30
0.0
  9
$LIMMIN
 10
0.0
 20
0.0
  9
$LIMMAX
 10
420.0
 20
297.0
  9
$ORTHOMODE
 70
     0
  9
$REGENMODE
 70
     1
  9
$FILLMODE
 70
     1
  9
$QTEXTMODE
 70
     0
  9
$MIRRTEXT
 70
     1
  9
$LTSCALE
 40
0.25
  9
$ATTMODE
 70
     1
  9
$TEXTSIZE
 40
5.0
  9
$TRACEWID
 40
10.0
  9
$TEXTSTYLE
  7
ROMANS
  9
$CLAYER
  8
DIMS
  9
$CELTYPE
  6
ByLayer
  9
$CECOLOR
 62
   256
  9
$CELTSCALE
 40
1.0
  9
$DISPSILH
 70
     0
  9
$DIMSCALE
 40
0.0
  9
$DIMASZ
 40
4.0
  9
$DIMEXO
 40
3.0
  9
$DIMDLI
 40
10.0
  9
$DIMRND
 40
0.0
  9
$DIMDLE
 40
1.25
  9
$DIMEXE
 40
3.0
  9
$DIMTP
 40
0.0
  9
$DIMTM
 40
0.0
  9
$DIMTXT
 40
3.0
  9
$DIMCEN
 40
-3.0
  9
$DIMTSZ
 40
0.0
  9
$DIMTOL
 70
     0
  9
$DIMLIM
 70
     0
  9
$DIMTIH
 70
     0
  9
$DIMTOH
 70
     0
  9
$DIMSE1
 70
     0
  9
$DIMSE2
 70
     0
  9
$DIMTAD
 70
     1
  9
$DIMZIN
 70
    12
  9
$DIMBLK
  1

  9
$DIMASO
 70
     1
  9
$DIMSHO
 70
     0
  9
$DIMPOST
  1

  9
$DIMAPOST
  1

  9
$DIMALT
 70
     0
  9
$DIMALTD
 70
     2
  9
$DIMALTF
 40
0.04
  9
$DIMLFAC
 40
1.0
  9
$DIMTOFL
 70
     0
  9
$DIMTVP
 40
0.0
  9
$DIMTIX
 70
     0
  9
$DIMSOXD
 70
     0
  9
$DIMSAH
 70
     0
  9
$DIMBLK1
  1

  9
$DIMBLK2
  1

  9
$DIMSTYLE
  2
1-2
  9
$DIMCLRD
 70
     0
  9
$DIMCLRE
 70
     0
  9
$DIMCLRT
 70
     0
  9
$DIMTFAC
 40
0.75
  9
$DIMGAP
 40
1.5
  9
$DIMJUST
 70
     0
  9
$DIMSD1
 70
     0
  9
$DIMSD2
 70
     0
  9
$DIMTOLJ
 70
     1
  9
$DIMTZIN
 70
    12
  9
$DIMALTZ
 70
    12
  9
$DIMALTTZ
 70
    12
  9
$DIMUPT
 70
     0
  9
$DIMDEC
 70
     2
  9
$DIMTDEC
 70
     2
  9
$DIMALTU
 70
     2
  9
$DIMALTTD
 70
     2
  9
$DIMTXSTY
  7
STANDARD
  9
$DIMAUNIT
 70
     0
  9
$DIMADEC
 70
     0
  9
$DIMALTRND
 40
0.0
  9
$DIMAZIN
 70
     0
  9
$DIMDSEP
 70
    46
  9
$DIMATFIT
 70
     3
  9
$DIMFRAC
 70
     0
  9
$DIMLDRBLK
  1

  9
$DIMLUNIT
 70
     2
  9
$DIMLWD
 70
    -2
  9
$DIMLWE
 70
    -2
  9
$DIMTMOVE
 70
     2
  9
$DIMFXL
 40
1.0
  9
$DIMFXLON
 70
     0
  9
$DIMJOGANG
 40
0.7853981633974483
  9
$DIMTFILL
 70
     0
  9
$DIMTFILLCLR
 70
     0
  9
$DIMARCSYM
 70
     0
  9
$DIMLTYPE
  6

  9
$DIMLTEX1
  6

  9
$DIMLTEX2
  6

  9
$DIMTXTDIRECTION
 70
     0
  9
$LUNITS
 70
     2
  9
$LUPREC
 70
     2
  9
$SKETCHINC
 40
1.0
  9
$FILLETRAD
 40
0.0
  9
$AUNITS
 70
     0
  9
$AUPREC
 70
     4
  9
$MENU
  1
acad
  9
$ELEVATION
 40
0.0
  9
$PELEVATION
 40
0.0
  9
$THICKNESS
 40
0.0
  9
$LIMCHECK
 70
     0
  9
$CHAMFERA
 40
0.0
  9
$CHAMFERB
 40
0.0
  9
$CHAMFERC
 40
0.0
  9
$CHAMFERD
 40
0.0
  9
$SKPOLY
 70
     0
  9
$TDCREATE
 40
2450011.892708333
  9
$TDUCREATE
 40
2450011.434378357
  9
$TDUPDATE
 40
2459590.556145833
  9
$TDUUPDATE
 40
2459590.097812500
  9
$TDINDWG
 40
0.1319110995
  9
$TDUSRTIMER
 40
0.1319110995
  9
$USRTIMER
 70
     1
  9
$ANGBASE
 50
0.0
  9
$ANGDIR
 70
     0
  9
$PDMODE
 70
     0
  9
$PDSIZE
 40
0.0
  9
$PLINEWID
 40
0.0
  9
$SPLFRAME
 70
     0
  9
$SPLINETYPE
 70
     6
  9
$SPLINESEGS
 70
     8
  9
$HANDSEED
  5
2C1
  9
$SURFTAB1
 70
    18
  9
$SURFTAB2
 70
    18
  9
$SURFTYPE
 70
     6
  9
$SURFU
 70
    18
  9
$SURFV
 70
    18
  9
$UCSBASE
  2

  9
$UCSNAME
  2

  9
$UCSORG
 10
0.0
 20
0.0
 30
0.0
  9
$UCSXDIR
 10
1.0
 20
0.0
 30
0.0
  9
$UCSYDIR
 10
0.0
 20
1.0
 30
0.0
  9
$UCSORTHOREF
  2

  9
$UCSORTHOVIEW
 70
     0
  9
$UCSORGTOP
 10
0.0
 20
0.0
 30
0.0
  9
$UCSORGBOTTOM
 10
0.0
 20
0.0
 30
0.0
  9
$UCSORGLEFT
 10
0.0
 20
0.0
 30
0.0
  9
$UCSORGRIGHT
 10
0.0
 20
0.0
 30
0.0
  9
$UCSORGFRONT
 10
0.0
 20
0.0
 30
0.0
  9
$UCSORGBACK
 10
0.0
 20
0.0
 30
0.0
  9
$PUCSBASE
  2

  9
$PUCSNAME
  2

  9
$PUCSORG
 10
0.0
 20
0.0
 30
0.0
  9
$PUCSXDIR
 10
1.0
 20
0.0
 30
0.0
  9
$PUCSYDIR
 10
0.0
 20
1.0
 30
0.0
  9
$PUCSORTHOREF
  2

  9
$PUCSORTHOVIEW
 70
     0
  9
$PUCSORGTOP
 10
0.0
 20
0.0
 30
0.0
  9
$PUCSORGBOTTOM
 10
0.0
 20
0.0
 30
0.0
  9
$PUCSORGLEFT
 10
0.0
 20
0.0
 30
0.0
  9
$PUCSORGRIGHT
 10
0.0
 20
0.0
 30
0.0
  9
$PUCSORGFRONT
 10
0.0
 20
0.0
 30
0.0
  9
$PUCSORGBACK
 10
0.0
 20
0.0
 30
0.0
  9
$USERI1
 70
     0
  9
$USERI2
 70
     0
  9
$USERI3
 70
     0
  9
$USERI4
 70
     0
  9
$USERI5
 70
     0
  9
$USERR1
 40
0.0
  9
$USERR2
 40
0.0
  9
$USERR3
 40
0.0
  9
$USERR4
 40
0.0
  9
$USERR5
 40
0.0
  9
$WORLDVIEW
 70
     1
  9
$SHADEDGE
 70
     3
  9
$SHADEDIF
 70
    70
  9
$TILEMODE
 70
     1
  9
$MAXACTVP
 70
    16
  9
$PINSBASE
 10
0.0
 20
0.0
 30
0.0
  9
$PLIMCHECK
 70
     0
  9
$PEXTMIN
 10
1.614583349603368
 20
1.129749872553066
 30
0.0
  9
$PEXTMAX
 10
14.5312501464303
 20
10.1677488529776
 30
0.0
  9
$PLIMMIN
 10
-0.1979161059762549
 20
-0.1979166691697489
  9
$PLIMMAX
 10
16.34375024029589
 20
11.49541603298638
  9
$UNITMODE
 70
     0
  9
$VISRETAIN
 70
     0
  9
$PLINEGEN
 70
     0
  9
$PSLTSCALE
 70
     1
  9
$TREEDEPTH
 70
  3020
  9
$CMLSTYLE
  2
Standard
  9
$CMLJUST
 70
     0
  9
$CMLSCALE
 40
1.0
  9
$PROXYGRAPHICS
 70
     1
  9
$MEASUREMENT
 70
     0
  9
$CELWEIGHT
370
    -1
  9
$ENDCAPS
280
     0
  9
$JOINSTYLE
280
     0
  9
$LWDISPLAY
290
     0
  9
$INSUNITS
 70
     0
  9
$HYPERLINKBASE
  1

  9
$STYLESHEET
  1

  9
$XEDIT
290
     1
  9
$CEPSNTYPE
380
     0
  9
$PSTYLEMODE
290
     1
  9
$FINGERPRINTGUID
  2
{B30209C4-FC58-4A51-AA94-6C38663505A5}
  9
$VERSIONGUID
  2
{0CC07165-87D8-2F49-BBBB-427937819EB7}
  9
$EXTNAMES
290
     1
  9
$PSVPSCALE
 40
0.0
  9
$OLESTARTUP
290
     0
  9
$SORTENTS
280
   127
  9
$INDEXCTL
280
     0
  9
$HIDETEXT
280
     0
  9
$XCLIPFRAME
280
     2
  9
$HALOGAP
280
     0
  9
$OBSCOLOR
 70
   257
  9
$OBSLTYPE
280
     0
  9
$INTERSECTIONDISPLAY
280
     0
  9
$INTERSECTIONCOLOR
 70
   257
  9
$DIMASSOC
280
     1
  9
$PROJECTNAME
  1

  9
$CAMERADISPLAY
290
     0
  9
$LENSLENGTH
 40
50.0
  9
$CAMERAHEIGHT
 40
0.0
  9
$STEPSPERSEC
 40
2.0
  9
$STEPSIZE
 40
6.0
  9
$3DDWFPREC
 40
2.0
  9
$PSOLWIDTH
 40
0.25
  9
$PSOLHEIGHT
 40
4.0
  9
$LOFTANG1
 40
1.570796326794896
  9
$LOFTANG2
 40
1.570796326794896
  9
$LOFTMAG1
 40
0.0
  9
$LOFTMAG2
 40
0.0
  9
$LOFTPARAM
 70
     7
  9
$LOFTNORMALS
280
     1
  9
$LATITUDE
 40
37.795
  9
$LONGITUDE
 40
-122.394
  9
$NORTHDIRECTION
 40
0.0
  9
$TIMEZONE
 70
 -8000
  9
$LIGHTGLYPHDISPLAY
280
     1
  9
$TILEMODELIGHTSYNCH
280
     1
  9
$CMATERIAL
347
138
  9
$SOLIDHIST
280
     0
  9
$SHOWHIST
280
     1
  9
$DWFFRAME
280
     2
  9
$DGNFRAME
280
     0
  9
$REALWORLDSCALE
290
     1
  9
$INTERFERECOLOR
 62
     1
  9
$INTERFEREOBJVS
345
15A
  9
$INTERFEREVPVS
346
157
  9
$CSHADOW
280
     0
  9
$SHADOWPLANELOCATION
 40
0.0
  0
ENDSEC
  0
SECTION
  2
CLASSES
  0
CLASS
  1
ACDBDICTIONARYWDFLT
  2
AcDbDictionaryWithDefault
  3
ObjectDBX Classes
 90
        0
 91
        1
280
     0
281
     0
  0
CLASS
  1
MATERIAL
  2
AcDbMaterial
  3
ObjectDBX Classes
 90
     1153
 91
        3
280
     0
281
     0
  0
CLASS
  1
VISUALSTYLE
  2
AcDbVisualStyle
  3
ObjectDBX Classes
 90
     4095
 91
       24
280
     0
281
     0
  0
CLASS
  1
TABLESTYLE
  2
AcDbTableStyle
  3
ObjectDBX Classes
 90
     4095
 91
        1
280
     0
281
     0
  0
CLASS
  1
SCALE
  2
AcDbScale
  3
ObjectDBX Classes
 90
     1153
 91
       17
280
     0
281
     0
  0
CLASS
  1
MLEADERSTYLE
  2
AcDbMLeaderStyle
  3
ACDB_MLEADERSTYLE_CLASS
 90
     4095
 91
        1
280
     0
281
     0
  0
CLASS
  1
ACDBSECTIONVIEWSTYLE
  2
AcDbSectionViewStyle
  3
ObjectDBX Classes
 90
     1025
 91
        1
280
     0
281
     0
  0
CLASS
  1
ACDBDETAILVIEWSTYLE
  2
AcDbDetailViewStyle
  3
ObjectDBX Classes
 90
     1025
 91
        1
280
     0
281
     0
  0
CLASS
  1
ACDB_TEXTOBJECTCONTEXTDATA_CLASS
  2
AcDbTextObjectContextData
  3
ObjectDBX Classes
 90
     1153
 91
       32
280
     0
281
     0
  0
CLASS
  1
DICTIONARYVAR
  2
AcDbDictionaryVar
  3
ObjectDBX Classes
 90
        0
 91
        9
280
     0
281
     0
  0
CLASS
  1
CELLSTYLEMAP
  2
AcDbCellStyleMap
  3
ObjectDBX Classes
 90
     1152
 91
        1
280
     0
281
     0
  0
ENDSEC
  0
SECTION
  2
TABLES
  0
TABLE
  2
VPORT
  5
1D
330
0
100
AcDbSymbolTable
 70
     1
  0
VPORT
  5
1E
330
1D
100
AcDbSymbolTableRecord
100
AcDbViewportTableRecord
  2
*Active
 70
     0
 10
0.0
 20
0.0
 11
1.0
 21
1.0
 12
823.8436570701555
 22
53.68789276033618
 13
0.0
 23
0.0
 14
5.0
 24
5.0
 15
10.0
 25
10.0
 16
0.0
 26
0.0
 36
1.0
 17
0.0
 27
0.0
 37
0.0
 40
564.911874032472
 41
1.787234042553191
 42
50.0
 43
0.0
 44
0.0
 50
0.0
 51
0.0
 71
     0
 72
   100
 73
     1
 74
     1
 75
     0
 76
     0
 77
     0
 78
     0
281
     0
 65
     1
110
0.0
120
0.0
130
0.0
111
1.0
121
0.0
131
0.0
112
0.0
122
1.0
132
0.0
 79
     0
146
0.0
348
156
 60
     3
 61
     5
292
     1
282
     1
141
0.0
142
0.0
 63
   250
421
  3355443
1001
ACAD_NAV_VCDISPLAY
1070
     3
  0
ENDTAB
  0
TABLE
  2
LTYPE
  5
18
330
0
100
AcDbSymbolTable
 70
     4
  0
LTYPE
  5
19
330
18
100
AcDbSymbolTableRecord
100
AcDbLinetypeTableRecord
  2
ByBlock
 70
     0
  3

 72
    65
 73
     0
 40
0.0
  0
LTYPE
  5
1A
330
18
100
AcDbSymbolTableRecord
100
AcDbLinetypeTableRecord
  2
ByLayer
 70
     0
  3

 72
    65
 73
     0
 40
0.0
  0
LTYPE
  5
A
330
18
100
AcDbSymbolTableRecord
100
AcDbLinetypeTableRecord
  2
CONTINUOUS
 70
     0
  3
Solid line
 72
    65
 73
     0
 40
0.0
  0
LTYPE
  5
D6
330
18
100
AcDbSymbolTableRecord
100
AcDbLinetypeTableRecord
  2
CENTER2
 70
     0
  3
___ _ ___ _ ___ _ ___ _ ___ _ ___ _ ___ _ ___ _
 72
    65
 73
     4
 40
28.575
 49
19.05
 74
     0
 49
-3.174999999999999
 74
     0
 49
3.174999999999999
 74
     0
 49
-3.174999999999999
 74
     0
  0
LTYPE
  5
3C
330
18
100
AcDbSymbolTableRecord
100
AcDbLinetypeTableRecord
  2
HIDDEN
 70
     0
  3
__ __ __ __ __ __ __ __ __ __ __ __ __ __ __ __
 72
    65
 73
     2
 40
9.524999999999998
 49
6.349999999999999
 74
     0
 49
-3.174999999999999
 74
     0
  0
ENDTAB
  0
TABLE
  2
LAYER
  5
14
102
{ACAD_XDICTIONARY
360
18D
102
}
330
0
100
AcDbSymbolTable
 70
    10
  0
LAYER
  5
6
102
{ACAD_XDICTIONARY
360
2AD
102
}
330
14
100
AcDbSymbolTableRecord
100
AcDbLayerTableRecord
  2
0
 70
     0
 62
     7
  6
CONTINUOUS
370
    -3
390
7
347
148
348
0
  0
LAYER
  5
26
102
{ACAD_XDICTIONARY
360
2AF
102
}
330
14
100
AcDbSymbolTableRecord
100
AcDbLayerTableRecord
  2
DIMS
 70
     0
 62
     1
  6
CONTINUOUS
370
    -3
390
7
347
148
348
0
  0
LAYER
  5
3F
102
{ACAD_XDICTIONARY
360
2B1
102
}
330
14
100
AcDbSymbolTableRecord
100
AcDbLayerTableRecord
  2
ANCON-DSD
 70
     0
 62
     3
  6
CONTINUOUS
370
    -3
390
7
347
148
348
0
  0
LAYER
  5
BA
330
14
100
AcDbSymbolTableRecord
100
AcDbLayerTableRecord
  2
DEFPOINTS
 70
     0
 62
     7
  6
CONTINUOUS
290
     0
370
    -3
390
7
347
148
348
0
  0
LAYER
  5
E7
102
{ACAD_XDICTIONARY
360
2B3
102
}
330
14
100
AcDbSymbolTableRecord
100
AcDbLayerTableRecord
  2
CONCRETE
 70
     0
 62
     2
  6
CONTINUOUS
370
    -3
390
7
347
148
348
0
  0
LAYER
  5
3B
102
{ACAD_XDICTIONARY
360
2B5
102
}
330
14
100
AcDbSymbolTableRecord
100
AcDbLayerTableRecord
  2
20MM-JOINT
 70
     0
 62
     7
  6
CONTINUOUS
370
    -3
390
7
347
148
348
0
  0
LAYER
  5
2D
102
{ACAD_XDICTIONARY
360
2B7
102
}
330
14
100
AcDbSymbolTableRecord
100
AcDbLayerTableRecord
  2
SPECP
 70
     0
 62
     6
  6
CONTINUOUS
370
    -3
390
7
347
148
348
0
  0
LAYER
  5
2B
102
{ACAD_XDICTIONARY
360
2B9
102
}
330
14
100
AcDbSymbolTableRecord
100
AcDbLayerTableRecord
  2
SPECD
 70
     0
 62
     6
  6
CONTINUOUS
370
    -3
390
7
347
148
348
0
  0
LAYER
  5
C2
102
{ACAD_XDICTIONARY
360
2BB
102
}
330
14
100
AcDbSymbolTableRecord
100
AcDbLayerTableRecord
  2
20MM-DIMS
 70
     0
 62
     1
  6
CONTINUOUS
370
    -3
390
7
347
148
348
0
  0
LAYER
  5
188
102
{ACAD_XDICTIONARY
360
189
102
}
330
14
100
AcDbSymbolTableRecord
100
AcDbLayerTableRecord
  2
ANCON-TEXT
 70
     0
 62
     6
  6
CONTINUOUS
370
    -3
390
7
347
148
348
0
  0
ENDTAB
  0
TABLE
  2
STYLE
  5
15
330
0
100
AcDbSymbolTable
 70
     3
  0
STYLE
  5
16
330
15
100
AcDbSymbolTableRecord
100
AcDbTextStyleTableRecord
  2
STANDARD
 70
     0
 40
0.0
 41
1.0
 50
0.0
 71
     0
 42
6.0
  3
txt.shx
  4

  0
STYLE
  5
27
330
15
100
AcDbSymbolTableRecord
100
AcDbTextStyleTableRecord
  2
ROMANS
 70
     0
 40
0.0
 41
1.0
 50
0.0
 71
     0
 42
5.0
  3
romans
  4

  0
STYLE
  5
18A
330
15
100
AcDbSymbolTableRecord
100
AcDbTextStyleTableRecord
  2
ARIAL
 70
     0
 40
5.0
 41
1.0
 50
0.0
 71
     0
 42
5.0
  3
arial.ttf
  4

1001
AcadAnnotative
1000
AnnotativeData
1002
{
1070
     1
1070
     1
1002
}
1001
ACAD
1000
Arial
1071
       34
  0
ENDTAB
  0
TABLE
  2
VIEW
  5
1B
330
0
100
AcDbSymbolTable
 70
     0
  0
ENDTAB
  0
TABLE
  2
UCS
  5
1C
330
0
100
AcDbSymbolTable
 70
     0
  0
ENDTAB
  0
TABLE
  2
APPID
  5
1F
330
0
100
AcDbSymbolTable
 70
     4
  0
APPID
  5
20
330
1F
100
AcDbSymbolTableRecord
100
AcDbRegAppTableRecord
  2
ACAD
 70
     0
  0
APPID
  5
18B
330
1F
100
AcDbSymbolTableRecord
100
AcDbRegAppTableRecord
  2
ACAD_NAV_VCDISPLAY
 70
     0
  0
APPID
  5
18C
330
1F
100
AcDbSymbolTableRecord
100
AcDbRegAppTableRecord
  2
AcadAnnotative
 70
     0
  0
APPID
  5
258
330
1F
100
AcDbSymbolTableRecord
100
AcDbRegAppTableRecord
  2
ACAD_EXEMPT_FROM_CAD_STANDARDS
 70
     0
  0
ENDTAB
  0
TABLE
  2
DIMSTYLE
  5
21
330
0
100
AcDbSymbolTable
 70
     1
100
AcDbDimStyleTable
 71
     0
  0
DIMSTYLE
105
29
102
{ACAD_REACTORS
330
107
330
AF
330
D9
330
C1
330
119
330
128
102
}
330
21
100
AcDbSymbolTableRecord
100
AcDbDimStyleTableRecord
  2
1-2
 70
     0
 40
0.0
 41
4.0
 42
3.0
 43
10.0
 44
3.0
 46
1.25
 73
     0
 74
     0
 77
     1
 78
    12
140
3.0
141
-3.0
143
0.04
146
0.75
147
1.5
271
     2
272
     2
279
     2
284
    12
285
    12
286
    12
340
16
  0
ENDTAB
  0
TABLE
  2
BLOCK_RECORD
  5
1
330
0
100
AcDbSymbolTable
 70
    15
  0
BLOCK_RECORD
  5
2
102
{ACAD_XDICTIONARY
360
3
102
}
330
1
100
AcDbSymbolTableRecord
100
AcDbBlockTableRecord
  2
*Model_Space
340
C
 70
     0
280
     1
281
     0
  0
BLOCK_RECORD
  5
E
102
{ACAD_XDICTIONARY
360
F
102
}
330
1
100
AcDbSymbolTableRecord
100
AcDbBlockTableRecord
  2
*Paper_Space
340
13
 70
     0
280
     1
281
     0
  0
BLOCK_RECORD
  5
6A
330
1
100
AcDbSymbolTableRecord
100
AcDbBlockTableRecord
  2
*X0
340
0
102
{BLKREFS
331
69
331
7C
331
9D
331
9E
102
}
 70
     0
280
     1
281
     0
  0
BLOCK_RECORD
  5
E9
330
1
100
AcDbSymbolTableRecord
100
AcDbBlockTableRecord
  2
*X1
340
0
102
{BLKREFS
331
E8
331
116
102
}
 70
     0
280
     1
281
     0
  0
BLOCK_RECORD
  5
B0
330
1
100
AcDbSymbolTableRecord
100
AcDbBlockTableRecord
  2
*D2
340
0
 70
     0
280
     1
281
     0
  0
BLOCK_RECORD
  5
11A
330
1
100
AcDbSymbolTableRecord
100
AcDbBlockTableRecord
  2
*D3
340
0
 70
     0
280
     1
281
     0
  0
BLOCK_RECORD
  5
108
330
1
100
AcDbSymbolTableRecord
100
AcDbBlockTableRecord
  2
*D4
340
0
 70
     0
280
     1
281
     0
  0
BLOCK_RECORD
  5
129
330
1
100
AcDbSymbolTableRecord
100
AcDbBlockTableRecord
  2
*D5
340
0
 70
     0
280
     1
281
     0
  0
BLOCK_RECORD
  5
DA
330
1
100
AcDbSymbolTableRecord
100
AcDbBlockTableRecord
  2
*D6
340
0
 70
     0
280
     1
281
     0
  0
BLOCK_RECORD
  5
C3
330
1
100
AcDbSymbolTableRecord
100
AcDbBlockTableRecord
  2
*D7
340
0
 70
     0
280
     1
281
     0
  0
BLOCK_RECORD
  5
25A
330
1
100
AcDbSymbolTableRecord
100
AcDbBlockTableRecord
  2
*D9
340
0
 70
     0
280
     1
281
     0
  0
BLOCK_RECORD
  5
267
330
1
100
AcDbSymbolTableRecord
100
AcDbBlockTableRecord
  2
*D10
340
0
 70
     0
280
     1
281
     0
  0
BLOCK_RECORD
  5
273
330
1
100
AcDbSymbolTableRecord
100
AcDbBlockTableRecord
  2
*D11
340
0
 70
     0
280
     1
281
     0
  0
BLOCK_RECORD
  5
27F
330
1
100
AcDbSymbolTableRecord
100
AcDbBlockTableRecord
  2
*D12
340
0
 70
     0
280
     1
281
     0
  0
BLOCK_RECORD
  5
28B
330
1
100
AcDbSymbolTableRecord
100
AcDbBlockTableRecord
  2
*D13
340
0
 70
     0
280
     1
281
     0
  0
BLOCK_RECORD
  5
297
330
1
100
AcDbSymbolTableRecord
100
AcDbBlockTableRecord
  2
*D14
340
0
 70
     0
280
     1
281
     0
  0
ENDTAB
  0
ENDSEC
  0
SECTION
  2
BLOCKS
  0
BLOCK
  5
5
330
2
100
AcDbEntity
  8
0
100
AcDbBlockBegin
  2
*Model_Space
 70
     0
 10
0.0
 20
0.0
 30
0.0
  3
*Model_Space
  1

  0
ENDBLK
  5
B
330
2
100
AcDbEntity
  8
0
100
AcDbBlockEnd
  0
BLOCK
  5
11
330
E
100
AcDbEntity
 67
     1
  8
0
100
AcDbBlockBegin
  2
*Paper_Space
 70
     0
 10
0.0
 20
0.0
 30
0.0
  3
*Paper_Space
  1

  0
ENDBLK
  5
12
330
E
100
AcDbEntity
 67
     1
  8
0
100
AcDbBlockEnd
  0
BLOCK
  5
7A
330
6A
100
AcDbEntity
  8
0
100
AcDbBlockBegin
  2
*X0
 70
     1
 10
0.0
 20
0.0
 30
0.0
  3
*X0
  1

  0
LINE
  5
6B
330
6A
100
AcDbEntity
  8
0
 62
     0
100
AcDbLine
 10
16606.69257185201
 20
6222.861333480277
 30
0.0
 11
16612.6260447593
 21
6229.045287321157
 31
0.0
  0
LINE
  5
6C
330
6A
100
AcDbEntity
  8
0
 62
     0
100
AcDbLine
 10
16613.47243591316
 20
6221.793064744256
 30
0.0
 11
16612.63056471275
 21
6229.029760339063
 31
0.0
  0
LINE
  5
6D
330
6A
100
AcDbEntity
  8
0
 62
     0
100
AcDbLine
 10
16606.75459926325
 20
6222.805802461711
 30
0.0
 11
16613.48381931619
 21
6221.76213988749
 31
0.0
  0
LINE
  5
6E
330
6A
100
AcDbEntity
  8
0
 62
     0
100
AcDbLine
 10
16598.83254942096
 20
6235.781279095355
 30
0.0
 11
16603.81983582804
 21
6237.695718979455
 31
0.0
  0
LINE
  5
6F
330
6A
100
AcDbEntity
  8
0
 62
     0
100
AcDbLine
 10
16598.95877495299
 20
6235.313052809023
 30
0.0
 11
16602.26926435686
 21
6233.080099511202
 31
0.0
  0
LINE
  5
70
330
6A
100
AcDbEntity
  8
0
 62
     0
100
AcDbLine
 10
16602.27464591158
 20
6233.087104688284
 30
0.0
 11
16603.81970102709
 21
6237.691803776179
 31
0.0
  0
LINE
  5
71
330
6A
100
AcDbEntity
  8
0
 62
     0
100
AcDbLine
 10
16631.10490220532
 20
6252.438068061223
 30
0.0
 11
16631.10490220532
 21
6252.438068061223
 31
0.0
  0
LINE
  5
72
330
6A
100
AcDbEntity
  8
0
 62
     0
100
AcDbLine
 10
16630.17832123014
 20
6227.071556399278
 30
0.0
 11
16630.17832123014
 21
6227.071556399278
 31
0.0
  0
LINE
  5
73
330
6A
100
AcDbEntity
  8
0
 62
     0
100
AcDbLine
 10
16616.04230734596
 20
6217.560201586398
 30
0.0
 11
16616.04230734596
 21
6217.560201586398
 31
0.0
  0
LINE
  5
74
330
6A
100
AcDbEntity
  8
0
 62
     0
100
AcDbLine
 10
16607.22883249624
 20
6243.814965418216
 30
0.0
 11
16607.22883249624
 21
6243.814965418216
 31
0.0
  0
LINE
  5
75
330
6A
100
AcDbEntity
  8
0
 62
     0
100
AcDbLine
 10
16636.08820609905
 20
6247.614374031834
 30
0.0
 11
16636.08820609905
 21
6247.614374031834
 31
0.0
  0
LINE
  5
76
330
6A
100
AcDbEntity
  8
0
 62
     0
100
AcDbLine
 10
16615.82834361918
 20
6243.860318283187
 30
0.0
 11
16615.82834361918
 21
6243.860318283187
 31
0.0
  0
LINE
  5
77
330
6A
100
AcDbEntity
  8
0
 62
     0
100
AcDbLine
 10
16631.89495066191
 20
6233.624760744181
 30
0.0
 11
16631.89495066191
 21
6233.624760744181
 31
0.0
  0
LINE
  5
78
330
6A
100
AcDbEntity
  8
0
 62
     0
100
AcDbLine
 10
16603.34351944143
 20
6230.047559735862
 30
0.0
 11
16603.34351944143
 21
6230.047559735862
 31
0.0
  0
LINE
  5
79
330
6A
100
AcDbEntity
  8
0
 62
     0
100
AcDbLine
 10
16647.78227385725
 20
6237.675507045864
 30
0.0
 11
16647.78227385725
 21
6237.675507045864
 31
0.0
  0
ENDBLK
  5
7B
330
6A
100
AcDbEntity
  8
0
100
AcDbBlockEnd
  0
BLOCK
  5
FF
330
E9
100
AcDbEntity
  8
0
100
AcDbBlockBegin
  2
*X1
 70
     1
 10
0.0
 20
0.0
 30
0.0
  3
*X1
  1
*U
  0
LINE
  5
EA
330
E9
100
AcDbEntity
  8
0
 62
     0
100
AcDbLine
 10
15332.80691922617
 20
-44932.48847188444
 30
0.0
 11
15336.48045041553
 21
-44928.11052789202
 31
0.0
  0
LINE
  5
EB
330
E9
100
AcDbEntity
  8
0
 62
     0
100
AcDbLine
 10
15387.46231992497
 20
-44937.27019754611
 30
0.0
 11
15391.13585111433
 21
-44932.89225355368
 31
0.0
  0
LINE
  5
EC
330
E9
100
AcDbEntity
  8
0
 62
     0
100
AcDbLine
 10
15332.645938767
 20
-44932.43984416161
 30
0.0
 11
15337.20054092668
 21
-44932.83832021746
 31
0.0
  0
LINE
  5
ED
330
E9
100
AcDbEntity
  8
0
 62
     0
100
AcDbLine
 10
15387.30116468311
 20
-44937.22155683173
 30
0.0
 11
15391.85576684278
 21
-44937.62003288757
 31
0.0
  0
LINE
  5
EE
330
E9
100
AcDbEntity
  8
0
 62
     0
100
AcDbLine
 10
15336.84543181317
 20
-44932.96347627347
 30
0.0
 11
15335.96439839536
 21
-44928.18705197105
 31
0.0
  0
LINE
  5
EF
330
E9
100
AcDbEntity
  8
0
 62
     0
100
AcDbLine
 10
15391.50058332661
 20
-44937.74556155637
 30
0.0
 11
15390.6195499088
 21
-44932.96913725396
 31
0.0
  0
LINE
  5
F0
330
E9
100
AcDbEntity
  8
0
 62
     0
100
AcDbLine
 10
15369.24500861571
 20
-44920.00003531436
 30
0.0
 11
15371.82338227985
 21
-44917.31281587767
 31
0.0
  0
LINE
  5
F1
330
E9
100
AcDbEntity
  8
0
 62
     0
100
AcDbLine
 10
15376.01476064486
 20
-44920.95467879014
 30
0.0
 11
15375.67599582237
 21
-44918.0426681436
 31
0.0
  0
LINE
  5
F2
330
E9
100
AcDbEntity
  8
0
 62
     0
100
AcDbLine
 10
15369.18166048556
 20
-44919.93344034319
 30
0.0
 11
15375.95863747582
 21
-44920.98450973836
 31
0.0
  0
LINE
  5
F3
330
E9
100
AcDbEntity
  8
0
 62
     0
100
AcDbLine
 10
15322.46670511942
 20
-44945.06886979667
 30
0.0
 11
15327.80211725685
 21
-44943.02079696502
 31
0.0
  0
LINE
  5
F4
330
E9
100
AcDbEntity
  8
0
 62
     0
100
AcDbLine
 10
15322.32202676532
 20
-44944.9451100819
 30
0.0
 11
15325.89109970756
 21
-44947.35248017868
 31
0.0
  0
LINE
  5
F5
330
E9
100
AcDbEntity
  8
0
 62
     0
100
AcDbLine
 10
15326.09630612562
 20
-44947.40237347595
 30
0.0
 11
15327.61322237235
 21
-44942.88153613647
 31
0.0
  0
LINE
  5
F6
330
E9
100
AcDbEntity
  8
0
 62
     0
100
AcDbLine
 10
15344.43613389468
 20
-44933.49850737506
 30
0.0
 11
15344.43613389468
 21
-44933.49850737506
 31
0.0
  0
LINE
  5
F7
330
E9
100
AcDbEntity
  8
0
 62
     0
100
AcDbLine
 10
15383.56001292075
 20
-44928.13322019708
 30
0.0
 11
15383.56001292075
 21
-44928.13322019708
 31
0.0
  0
LINE
  5
F8
330
E9
100
AcDbEntity
  8
0
 62
     0
100
AcDbLine
 10
15324.0889388341
 20
-44944.57712941013
 30
0.0
 11
15324.0889388341
 21
-44944.57712941013
 31
0.0
  0
LINE
  5
F9
330
E9
100
AcDbEntity
  8
0
 62
     0
100
AcDbLine
 10
15352.94831243691
 20
-44940.77772079651
 30
0.0
 11
15352.94831243691
 21
-44940.77772079651
 31
0.0
  0
LINE
  5
FA
330
E9
100
AcDbEntity
  8
0
 62
     0
100
AcDbLine
 10
15370.15185636104
 20
-44934.69977449441
 30
0.0
 11
15370.15185636104
 21
-44934.69977449441
 31
0.0
  0
LINE
  5
FB
330
E9
100
AcDbEntity
  8
0
 62
     0
100
AcDbLine
 10
15329.47467781097
 20
-44932.98115129659
 30
0.0
 11
15329.47467781097
 21
-44932.98115129659
 31
0.0
  0
LINE
  5
FC
330
E9
100
AcDbEntity
  8
0
 62
     0
100
AcDbLine
 10
15345.54128485371
 20
-44943.21670883561
 30
0.0
 11
15345.54128485371
 21
-44943.21670883561
 31
0.0
  0
LINE
  5
FD
330
E9
100
AcDbEntity
  8
0
 62
     0
100
AcDbLine
 10
15392.02993037373
 20
-44924.78498136955
 30
0.0
 11
15392.02993037373
 21
-44924.78498136955
 31
0.0
  0
LINE
  5
FE
330
E9
100
AcDbEntity
  8
0
 62
     0
100
AcDbLine
 10
15347.59117595792
 20
-44932.41292867955
 30
0.0
 11
15347.59117595792
 21
-44932.41292867955
 31
0.0
  0
ENDBLK
  5
100
330
E9
100
AcDbEntity
  8
0
100
AcDbBlockEnd
  0
BLOCK
  5
BD
330
B0
100
AcDbEntity
  8
0
100
AcDbBlockBegin
  2
*D2
 70
     1
 10
0.0
 20
0.0
 30
0.0
  3
*D2
  1

  0
LINE
  5
B1
330
B0
100
AcDbEntity
  8
0
  6
ByBlock
 62
     0
440
 16777216
100
AcDbLine
 10
0.0000000000000027
 20
-41.0
 30
0.0
 11
0.0000000000000027
 21
-51.71360481256672
 31
0.0
  0
LINE
  5
B2
330
B0
100
AcDbEntity
  8
0
  6
ByBlock
 62
     0
440
 16777216
100
AcDbLine
 10
2.000000000000002
 20
-41.0
 30
0.0
 11
2.000000000000002
 21
-51.71360481256672
 31
0.0
  0
LINE
  5
B3
330
B0
100
AcDbEntity
  8
0
  6
ByBlock
 62
     0
440
 16777216
100
AcDbLine
 10
-3.999999999999997
 20
-48.71360481256672
 30
0.0
 11
-7.999999999999997
 21
-48.71360481256672
 31
0.0
  0
LINE
  5
B4
330
B0
100
AcDbEntity
  8
0
  6
ByBlock
 62
     0
440
 16777216
100
AcDbLine
 10
6.000000000000002
 20
-48.71360481256672
 30
0.0
 11
10.0
 21
-48.71360481256672
 31
0.0
  0
LINE
  5
B5
330
B0
100
AcDbEntity
  8
0
  6
ByBlock
 62
     0
440
 16777216
100
AcDbLine
 10
10.0
 20
-48.71360481256672
 30
0.0
 11
13.5
 21
-48.71360481256672
 31
0.0
  0
SOLID
  5
B6
330
B0
100
AcDbEntity
  8
0
  6
ByBlock
 62
     0
440
 16777216
100
AcDbTrace
 10
-3.999999999999997
 20
-48.04693814590006
 30
0.0
 11
-3.999999999999997
 21
-49.38027147923339
 31
0.0
 12
0.0000000000000027
 22
-48.71360481256672
 32
0.0
 13
0.0000000000000027
 23
-48.71360481256672
 33
0.0
  0
SOLID
  5
B7
330
B0
100
AcDbEntity
  8
0
  6
ByBlock
 62
     0
440
 16777216
100
AcDbTrace
 10
6.000000000000002
 20
-48.04693814590006
 30
0.0
 11
6.000000000000002
 21
-49.38027147923339
 31
0.0
 12
2.000000000000002
 22
-48.71360481256672
 32
0.0
 13
2.000000000000002
 23
-48.71360481256672
 33
0.0
  0
TEXT
  5
B8
330
B0
100
AcDbEntity
  8
0
  6
ByBlock
 62
     0
440
 16777216
100
AcDbText
 10
11.07142857142857
 20
-47.21360481256672
 30
0.0
 40
3.0
  1
2
  7
ROMANS
 72
     1
 11
12.5
 21
-45.71360481256672
 31
0.0
100
AcDbText
 73
     2
  0
POINT
  5
B9
330
B0
100
AcDbEntity
  8
DEFPOINTS
  6
ByBlock
 62
     0
440
 16777216
100
AcDbPoint
 10
0.0000000000000027
 20
-38.0
 30
0.0
  0
POINT
  5
BB
330
B0
100
AcDbEntity
  8
DEFPOINTS
  6
ByBlock
 62
     0
440
 16777216
100
AcDbPoint
 10
2.000000000000002
 20
-38.0
 30
0.0
  0
POINT
  5
BC
330
B0
100
AcDbEntity
  8
DEFPOINTS
  6
ByBlock
 62
     0
440
 16777216
100
AcDbPoint
 10
2.000000000000002
 20
-48.71360481256672
 30
0.0
  0
ENDBLK
  5
BE
330
B0
100
AcDbEntity
  8
0
100
AcDbBlockEnd
  0
BLOCK
  5
124
330
11A
100
AcDbEntity
  8
0
100
AcDbBlockBegin
  2
*D3
 70
     1
 10
0.0
 20
0.0
 30
0.0
  3
*D3
  1

  0
LINE
  5
11B
330
11A
100
AcDbEntity
  8
0
  6
ByBlock
 62
     0
440
 16777216
100
AcDbLine
 10
0.0000000000000027
 20
-41.0
 30
0.0
 11
0.0000000000000027
 21
-62.84107725227959
 31
0.0
  0
LINE
  5
11C
330
11A
100
AcDbEntity
  8
0
  6
ByBlock
 62
     0
440
 16777216
100
AcDbLine
 10
129.9962777280847
 20
-11.99999999999983
 30
0.0
 11
129.9962777280847
 21
-62.84107725227959
 31
0.0
  0
LINE
  5
11D
330
11A
100
AcDbEntity
  8
0
  6
ByBlock
 62
     0
440
 16777216
100
AcDbLine
 10
4.000000000000002
 20
-59.84107725227959
 30
0.0
 11
125.9962777280847
 21
-59.84107725227959
 31
0.0
  0
SOLID
  5
11E
330
11A
100
AcDbEntity
  8
0
  6
ByBlock
 62
     0
440
 16777216
100
AcDbTrace
 10
4.000000000000002
 20
-59.17441058561292
 30
0.0
 11
4.000000000000002
 21
-60.50774391894625
 31
0.0
 12
0.0000000000000027
 22
-59.84107725227959
 32
0.0
 13
0.0000000000000027
 23
-59.84107725227959
 33
0.0
  0
SOLID
  5
11F
330
11A
100
AcDbEntity
  8
0
  6
ByBlock
 62
     0
440
 16777216
100
AcDbTrace
 10
125.9962777280847
 20
-59.17441058561292
 30
0.0
 11
125.9962777280847
 21
-60.50774391894625
 31
0.0
 12
129.9962777280847
 22
-59.84107725227959
 32
0.0
 13
129.9962777280847
 23
-59.84107725227959
 33
0.0
  0
TEXT
  5
120
330
11A
100
AcDbEntity
  8
0
  6
ByBlock
 62
     0
440
 16777216
100
AcDbText
 10
60.49813886404236
 20
-58.34107725227958
 30
0.0
 40
3.0
  1
130
  7
ROMANS
 72
     1
 11
64.99813886404236
 21
-56.84107725227959
 31
0.0
100
AcDbText
 73
     2
  0
POINT
  5
121
330
11A
100
AcDbEntity
  8
DEFPOINTS
  6
ByBlock
 62
     0
440
 16777216
100
AcDbPoint
 10
0.0000000000000027
 20
-38.0
 30
0.0
  0
POINT
  5
122
330
11A
100
AcDbEntity
  8
DEFPOINTS
  6
ByBlock
 62
     0
440
 16777216
100
AcDbPoint
 10
129.9962777280847
 20
-8.999999999999829
 30
0.0
  0
POINT
  5
123
330
11A
100
AcDbEntity
  8
DEFPOINTS
  6
ByBlock
 62
     0
440
 16777216
100
AcDbPoint
 10
129.9962777280847
 20
-59.84107725227959
 30
0.0
  0
ENDBLK
  5
125
330
11A
100
AcDbEntity
  8
0
100
AcDbBlockEnd
  0
BLOCK
  5
112
330
108
100
AcDbEntity
  8
0
100
AcDbBlockBegin
  2
*D4
 70
     1
 10
0.0
 20
0.0
 30
0.0
  3
*D4
  1

  0
LINE
  5
109
330
108
100
AcDbEntity
  8
0
  6
ByBlock
 62
     0
440
 16777216
100
AcDbLine
 10
0.0000000000000027
 20
-41.0
 30
0.0
 11
0.0000000000000027
 21
-87.57988105961311
 31
0.0
  0
LINE
  5
10A
330
108
100
AcDbEntity
  8
0
  6
ByBlock
 62
     0
440
 16777216
100
AcDbLine
 10
175.0
 20
-15.5
 30
0.0
 11
175.0
 21
-87.57988105961311
 31
0.0
  0
LINE
  5
10B
330
108
100
AcDbEntity
  8
0
  6
ByBlock
 62
     0
440
 16777216
100
AcDbLine
 10
4.000000000000002
 20
-84.57988105961311
 30
0.0
 11
171.0
 21
-84.57988105961311
 31
0.0
  0
SOLID
  5
10C
330
108
100
AcDbEntity
  8
0
  6
ByBlock
 62
     0
440
 16777216
100
AcDbTrace
 10
4.000000000000002
 20
-83.91321439294644
 30
0.0
 11
4.000000000000002
 21
-85.24654772627979
 31
0.0
 12
0.0000000000000027
 22
-84.57988105961311
 32
0.0
 13
0.0000000000000027
 23
-84.57988105961311
 33
0.0
  0
SOLID
  5
10D
330
108
100
AcDbEntity
  8
0
  6
ByBlock
 62
     0
440
 16777216
100
AcDbTrace
 10
171.0
 20
-83.91321439294644
 30
0.0
 11
171.0
 21
-85.24654772627979
 31
0.0
 12
175.0
 22
-84.57988105961311
 32
0.0
 13
175.0
 23
-84.57988105961311
 33
0.0
  0
TEXT
  5
10E
330
108
100
AcDbEntity
  8
0
  6
ByBlock
 62
     0
440
 16777216
100
AcDbText
 10
83.00000000000002
 20
-83.07988105961312
 30
0.0
 40
3.0
  1
175
  7
ROMANS
 72
     1
 11
87.50000000000001
 21
-81.57988105961312
 31
0.0
100
AcDbText
 73
     2
  0
POINT
  5
10F
330
108
100
AcDbEntity
  8
DEFPOINTS
  6
ByBlock
 62
     0
440
 16777216
100
AcDbPoint
 10
0.0000000000000027
 20
-38.0
 30
0.0
  0
POINT
  5
110
330
108
100
AcDbEntity
  8
DEFPOINTS
  6
ByBlock
 62
     0
440
 16777216
100
AcDbPoint
 10
175.0
 20
-12.5
 30
0.0
  0
POINT
  5
111
330
108
100
AcDbEntity
  8
DEFPOINTS
  6
ByBlock
 62
     0
440
 16777216
100
AcDbPoint
 10
175.0
 20
-84.57988105961311
 30
0.0
  0
ENDBLK
  5
113
330
108
100
AcDbEntity
  8
0
100
AcDbBlockEnd
  0
BLOCK
  5
133
330
129
100
AcDbEntity
  8
0
100
AcDbBlockBegin
  2
*D5
 70
     1
 10
0.0
 20
0.0
 30
0.0
  3
*D5
  1

  0
LINE
  5
12A
330
129
100
AcDbEntity
  8
0
  6
ByBlock
 62
     0
440
 16777216
100
AcDbLine
 10
0.0000000000000027
 20
-41.0
 30
0.0
 11
0.0000000000000027
 21
-75.77331362369895
 31
0.0
  0
LINE
  5
12B
330
129
100
AcDbEntity
  8
0
  6
ByBlock
 62
     0
440
 16777216
100
AcDbLine
 10
160.0
 20
-15.5
 30
0.0
 11
160.0
 21
-75.77331362369895
 31
0.0
  0
LINE
  5
12C
330
129
100
AcDbEntity
  8
0
  6
ByBlock
 62
     0
440
 16777216
100
AcDbLine
 10
4.000000000000002
 20
-72.77331362369896
 30
0.0
 11
156.0
 21
-72.77331362369896
 31
0.0
  0
SOLID
  5
12D
330
129
100
AcDbEntity
  8
0
  6
ByBlock
 62
     0
440
 16777216
100
AcDbTrace
 10
4.000000000000002
 20
-72.10664695703228
 30
0.0
 11
4.000000000000002
 21
-73.43998029036562
 31
0.0
 12
0.0000000000000027
 22
-72.77331362369896
 32
0.0
 13
0.0000000000000027
 23
-72.77331362369896
 33
0.0
  0
SOLID
  5
12E
330
129
100
AcDbEntity
  8
0
  6
ByBlock
 62
     0
440
 16777216
100
AcDbTrace
 10
156.0
 20
-72.10664695703228
 30
0.0
 11
156.0
 21
-73.43998029036562
 31
0.0
 12
160.0
 22
-72.77331362369896
 32
0.0
 13
160.0
 23
-72.77331362369896
 33
0.0
  0
TEXT
  5
12F
330
129
100
AcDbEntity
  8
0
  6
ByBlock
 62
     0
440
 16777216
100
AcDbText
 10
75.50000000000001
 20
-71.27331362369895
 30
0.0
 40
3.0
  1
160
  7
ROMANS
 72
     1
 11
80.00000000000001
 21
-69.77331362369895
 31
0.0
100
AcDbText
 73
     2
  0
POINT
  5
130
330
129
100
AcDbEntity
  8
DEFPOINTS
  6
ByBlock
 62
     0
440
 16777216
100
AcDbPoint
 10
0.0000000000000027
 20
-38.0
 30
0.0
  0
POINT
  5
131
330
129
100
AcDbEntity
  8
DEFPOINTS
  6
ByBlock
 62
     0
440
 16777216
100
AcDbPoint
 10
160.0
 20
-12.5
 30
0.0
  0
POINT
  5
132
330
129
100
AcDbEntity
  8
DEFPOINTS
  6
ByBlock
 62
     0
440
 16777216
100
AcDbPoint
 10
160.0
 20
-72.77331362369896
 30
0.0
  0
ENDBLK
  5
134
330
129
100
AcDbEntity
  8
0
100
AcDbBlockEnd
  0
BLOCK
  5
E4
330
DA
100
AcDbEntity
  8
0
100
AcDbBlockBegin
  2
*D6
 70
     1
 10
0.0
 20
0.0
 30
0.0
  3
*D6
  1

  0
LINE
  5
DB
330
DA
100
AcDbEntity
  8
0
  6
ByBlock
 62
     0
440
 16777216
100
AcDbLine
 10
-170.0
 20
-11.99999999999977
 30
0.0
 11
-170.0
 21
-87.57988105961311
 31
0.0
  0
LINE
  5
DC
330
DA
100
AcDbEntity
  8
0
  6
ByBlock
 62
     0
440
 16777216
100
AcDbLine
 10
-19.99999999999997
 20
-13.99999999999983
 30
0.0
 11
-19.99999999999997
 21
-87.57988105961311
 31
0.0
  0
LINE
  5
DD
330
DA
100
AcDbEntity
  8
0
  6
ByBlock
 62
     0
440
 16777216
100
AcDbLine
 10
-166.0
 20
-84.57988105961311
 30
0.0
 11
-23.99999999999997
 21
-84.57988105961311
 31
0.0
  0
SOLID
  5
DE
330
DA
100
AcDbEntity
  8
0
  6
ByBlock
 62
     0
440
 16777216
100
AcDbTrace
 10
-166.0
 20
-83.91321439294644
 30
0.0
 11
-166.0
 21
-85.24654772627979
 31
0.0
 12
-170.0
 22
-84.57988105961311
 32
0.0
 13
-170.0
 23
-84.57988105961311
 33
0.0
  0
SOLID
  5
DF
330
DA
100
AcDbEntity
  8
0
  6
ByBlock
 62
     0
440
 16777216
100
AcDbTrace
 10
-23.99999999999997
 20
-83.91321439294644
 30
0.0
 11
-23.99999999999997
 21
-85.24654772627979
 31
0.0
 12
-19.99999999999997
 22
-84.57988105961311
 32
0.0
 13
-19.99999999999997
 23
-84.57988105961311
 33
0.0
  0
TEXT
  5
E0
330
DA
100
AcDbEntity
  8
0
  6
ByBlock
 62
     0
440
 16777216
100
AcDbText
 10
-99.50000000000001
 20
-83.07988105961312
 30
0.0
 40
3.0
  1
150
  7
ROMANS
 72
     1
 11
-95.0
 21
-81.57988105961312
 31
0.0
100
AcDbText
 73
     2
  0
POINT
  5
E1
330
DA
100
AcDbEntity
  8
DEFPOINTS
  6
ByBlock
 62
     0
440
 16777216
100
AcDbPoint
 10
-170.0
 20
-8.999999999999772
 30
0.0
  0
POINT
  5
E2
330
DA
100
AcDbEntity
  8
DEFPOINTS
  6
ByBlock
 62
     0
440
 16777216
100
AcDbPoint
 10
-19.99999999999997
 20
-10.99999999999982
 30
0.0
  0
POINT
  5
E3
330
DA
100
AcDbEntity
  8
DEFPOINTS
  6
ByBlock
 62
     0
440
 16777216
100
AcDbPoint
 10
-19.99999999999997
 20
-84.57988105961311
 30
0.0
  0
ENDBLK
  5
E5
330
DA
100
AcDbEntity
  8
0
100
AcDbBlockEnd
  0
BLOCK
  5
CD
330
C3
100
AcDbEntity
  8
0
100
AcDbBlockBegin
  2
*D7
 70
     1
 10
0.0
 20
0.0
 30
0.0
  3
*D7
  1

  0
LINE
  5
C4
330
C3
100
AcDbEntity
  8
0
  6
ByBlock
 62
     0
440
 16777216
100
AcDbLine
 10
-19.99999999999997
 20
-13.99999999999983
 30
0.0
 11
-19.99999999999997
 21
-87.57988105961311
 31
0.0
  0
LINE
  5
C5
330
C3
100
AcDbEntity
  8
0
  6
ByBlock
 62
     0
440
 16777216
100
AcDbLine
 10
0.0000000000000359
 20
-41.0
 30
0.0
 11
0.0000000000000359
 21
-87.57988105961311
 31
0.0
  0
LINE
  5
C6
330
C3
100
AcDbEntity
  8
0
  6
ByBlock
 62
     0
440
 16777216
100
AcDbLine
 10
-15.99999999999997
 20
-84.57988105961311
 30
0.0
 11
-3.999999999999964
 21
-84.57988105961311
 31
0.0
  0
SOLID
  5
C7
330
C3
100
AcDbEntity
  8
0
  6
ByBlock
 62
     0
440
 16777216
100
AcDbTrace
 10
-15.99999999999997
 20
-83.91321439294644
 30
0.0
 11
-15.99999999999997
 21
-85.24654772627979
 31
0.0
 12
-19.99999999999997
 22
-84.57988105961311
 32
0.0
 13
-19.99999999999997
 23
-84.57988105961311
 33
0.0
  0
SOLID
  5
C8
330
C3
100
AcDbEntity
  8
0
  6
ByBlock
 62
     0
440
 16777216
100
AcDbTrace
 10
-3.999999999999964
 20
-83.91321439294644
 30
0.0
 11
-3.999999999999964
 21
-85.24654772627979
 31
0.0
 12
0.0000000000000359
 22
-84.57988105961311
 32
0.0
 13
0.0000000000000359
 23
-84.57988105961311
 33
0.0
  0
TEXT
  5
C9
330
C3
100
AcDbEntity
  8
0
  6
ByBlock
 62
     0
440
 16777216
100
AcDbText
 10
-12.85714285714282
 20
-83.07988105961312
 30
0.0
 40
3.0
  1
20
  7
ROMANS
 72
     1
 11
-9.999999999999966
 21
-81.57988105961312
 31
0.0
100
AcDbText
 73
     2
  0
POINT
  5
CA
330
C3
100
AcDbEntity
  8
DEFPOINTS
  6
ByBlock
 62
     0
440
 16777216
100
AcDbPoint
 10
-19.99999999999997
 20
-10.99999999999982
 30
0.0
  0
POINT
  5
CB
330
C3
100
AcDbEntity
  8
DEFPOINTS
  6
ByBlock
 62
     0
440
 16777216
100
AcDbPoint
 10
0.0000000000000359
 20
-38.00000000000001
 30
0.0
  0
POINT
  5
CC
330
C3
100
AcDbEntity
  8
DEFPOINTS
  6
ByBlock
 62
     0
440
 16777216
100
AcDbPoint
 10
0.0000000000000359
 20
-84.57988105961311
 30
0.0
  0
ENDBLK
  5
CE
330
C3
100
AcDbEntity
  8
0
100
AcDbBlockEnd
  0
BLOCK
  5
25B
330
25A
100
AcDbEntity
  8
0
100
AcDbBlockBegin
  2
*D9
 70
     1
 10
0.0
 20
0.0
 30
0.0
  3
*D9
  1

  0
LINE
  5
25D
330
25A
100
AcDbEntity
  8
DIMS
 62
     0
440
 16777216
370
    -2
100
AcDbLine
 10
725.4633689203037
 20
-5.536063751277708
 30
0.0
 11
725.4633689203037
 21
-16.24966856384443
 31
0.0
  0
LINE
  5
25E
330
25A
100
AcDbEntity
  8
DIMS
 62
     0
440
 16777216
370
    -2
100
AcDbLine
 10
727.4633689203037
 20
-5.536063751277708
 30
0.0
 11
727.4633689203037
 21
-16.24966856384443
 31
0.0
  0
LINE
  5
25F
330
25A
100
AcDbEntity
  8
DIMS
 62
     0
440
 16777216
370
    -2
100
AcDbLine
 10
721.4633689203037
 20
-13.24966856384443
 30
0.0
 11
717.4633689203037
 21
-13.24966856384443
 31
0.0
  0
LINE
  5
260
330
25A
100
AcDbEntity
  8
DIMS
 62
     0
440
 16777216
370
    -2
100
AcDbLine
 10
731.4633689203037
 20
-13.24966856384443
 30
0.0
 11
735.4633689203037
 21
-13.24966856384443
 31
0.0
  0
MTEXT
  5
261
330
25A
100
AcDbEntity
  8
DIMS
 62
     0
440
 16777216
100
AcDbMText
 10
726.4633689203037
 20
-22.99966856384443
 30
0.0
 40
3.0
 41
0.0
 46
0.0
 71
     5
 72
     1
  1
\A1;2
 73
     1
 44
1.0
  0
SOLID
  5
262
330
25A
100
AcDbEntity
  8
DIMS
 62
     0
440
 16777216
100
AcDbTrace
 10
721.4633689203037
 20
-12.58300189717776
 30
0.0
 11
721.4633689203037
 21
-13.91633523051109
 31
0.0
 12
725.4633689203037
 22
-13.24966856384443
 32
0.0
 13
725.4633689203037
 23
-13.24966856384443
 33
0.0
  0
SOLID
  5
263
330
25A
100
AcDbEntity
  8
DIMS
 62
     0
440
 16777216
100
AcDbTrace
 10
731.4633689203037
 20
-12.58300189717776
 30
0.0
 11
731.4633689203037
 21
-13.91633523051109
 31
0.0
 12
727.4633689203037
 22
-13.24966856384443
 32
0.0
 13
727.4633689203037
 23
-13.24966856384443
 33
0.0
  0
POINT
  5
264
330
25A
100
AcDbEntity
  8
DEFPOINTS
 62
     0
440
 16777216
100
AcDbPoint
 10
725.4633689203037
 20
-2.536063751277708
 30
0.0
  0
POINT
  5
265
330
25A
100
AcDbEntity
  8
DEFPOINTS
 62
     0
440
 16777216
100
AcDbPoint
 10
727.4633689203037
 20
-2.536063751277708
 30
0.0
  0
POINT
  5
266
330
25A
100
AcDbEntity
  8
DEFPOINTS
 62
     0
440
 16777216
100
AcDbPoint
 10
727.4633689203037
 20
-13.24966856384443
 30
0.0
  0
ENDBLK
  5
25C
330
25A
100
AcDbEntity
  8
0
100
AcDbBlockEnd
  0
BLOCK
  5
268
330
267
100
AcDbEntity
  8
0
100
AcDbBlockBegin
  2
*D10
 70
     1
 10
0.0
 20
0.0
 30
0.0
  3
*D10
  1

  0
LINE
  5
26A
330
267
100
AcDbEntity
  8
20MM-DIMS
 62
     0
440
 16777216
370
    -2
100
AcDbLine
 10
705.4633689203037
 20
21.46393624872246
 30
0.0
 11
705.4633689203037
 21
-52.11594481089083
 31
0.0
  0
LINE
  5
26B
330
267
100
AcDbEntity
  8
20MM-DIMS
 62
     0
440
 16777216
370
    -2
100
AcDbLine
 10
725.4633689203037
 20
-5.536063751277715
 30
0.0
 11
725.4633689203037
 21
-52.11594481089083
 31
0.0
  0
LINE
  5
26C
330
267
100
AcDbEntity
  8
20MM-DIMS
 62
     0
440
 16777216
370
    -2
100
AcDbLine
 10
709.4633689203037
 20
-49.11594481089082
 30
0.0
 11
721.4633689203037
 21
-49.11594481089082
 31
0.0
  0
SOLID
  5
26D
330
267
100
AcDbEntity
  8
20MM-DIMS
 62
     0
440
 16777216
100
AcDbTrace
 10
709.4633689203037
 20
-48.44927814422415
 30
0.0
 11
709.4633689203037
 21
-49.78261147755748
 31
0.0
 12
705.4633689203037
 22
-49.11594481089082
 32
0.0
 13
705.4633689203037
 23
-49.11594481089082
 33
0.0
  0
SOLID
  5
26E
330
267
100
AcDbEntity
  8
20MM-DIMS
 62
     0
440
 16777216
100
AcDbTrace
 10
721.4633689203037
 20
-48.44927814422415
 30
0.0
 11
721.4633689203037
 21
-49.78261147755748
 31
0.0
 12
725.4633689203037
 22
-49.11594481089082
 32
0.0
 13
725.4633689203037
 23
-49.11594481089082
 33
0.0
  0
MTEXT
  5
26F
330
267
100
AcDbEntity
  8
20MM-DIMS
 62
     0
440
 16777216
100
AcDbMText
 10
715.4633689203038
 20
-46.11594481089082
 30
0.0
 40
3.0
 41
0.0
 46
0.0
 71
     5
 72
     1
  1
\A1;20
 73
     1
 44
1.0
  0
POINT
  5
270
330
267
100
AcDbEntity
  8
DEFPOINTS
 62
     0
440
 16777216
100
AcDbPoint
 10
705.4633689203037
 20
24.46393624872246
 30
0.0
  0
POINT
  5
271
330
267
100
AcDbEntity
  8
DEFPOINTS
 62
     0
440
 16777216
100
AcDbPoint
 10
725.4633689203037
 20
-2.536063751277715
 30
0.0
  0
POINT
  5
272
330
267
100
AcDbEntity
  8
DEFPOINTS
 62
     0
440
 16777216
100
AcDbPoint
 10
725.4633689203037
 20
-49.11594481089082
 30
0.0
  0
ENDBLK
  5
269
330
267
100
AcDbEntity
  8
0
100
AcDbBlockEnd
  0
BLOCK
  5
274
330
273
100
AcDbEntity
  8
0
100
AcDbBlockBegin
  2
*D11
 70
     1
 10
0.0
 20
0.0
 30
0.0
  3
*D11
  1

  0
LINE
  5
276
330
273
100
AcDbEntity
  8
20MM-DIMS
 62
     0
440
 16777216
370
    -2
100
AcDbLine
 10
555.4633689203037
 20
23.46393624872252
 30
0.0
 11
555.4633689203037
 21
-52.11594481089083
 31
0.0
  0
LINE
  5
277
330
273
100
AcDbEntity
  8
20MM-DIMS
 62
     0
440
 16777216
370
    -2
100
AcDbLine
 10
705.4633689203037
 20
21.46393624872246
 30
0.0
 11
705.4633689203037
 21
-52.11594481089083
 31
0.0
  0
LINE
  5
278
330
273
100
AcDbEntity
  8
20MM-DIMS
 62
     0
440
 16777216
370
    -2
100
AcDbLine
 10
559.4633689203037
 20
-49.11594481089082
 30
0.0
 11
701.4633689203037
 21
-49.11594481089082
 31
0.0
  0
SOLID
  5
279
330
273
100
AcDbEntity
  8
20MM-DIMS
 62
     0
440
 16777216
100
AcDbTrace
 10
559.4633689203037
 20
-48.44927814422415
 30
0.0
 11
559.4633689203037
 21
-49.78261147755748
 31
0.0
 12
555.4633689203037
 22
-49.11594481089082
 32
0.0
 13
555.4633689203037
 23
-49.11594481089082
 33
0.0
  0
SOLID
  5
27A
330
273
100
AcDbEntity
  8
20MM-DIMS
 62
     0
440
 16777216
100
AcDbTrace
 10
701.4633689203037
 20
-48.44927814422415
 30
0.0
 11
701.4633689203037
 21
-49.78261147755748
 31
0.0
 12
705.4633689203037
 22
-49.11594481089082
 32
0.0
 13
705.4633689203037
 23
-49.11594481089082
 33
0.0
  0
MTEXT
  5
27B
330
273
100
AcDbEntity
  8
20MM-DIMS
 62
     0
440
 16777216
100
AcDbMText
 10
630.4633689203037
 20
-46.11594481089082
 30
0.0
 40
3.0
 41
0.0
 46
0.0
 71
     5
 72
     1
  1
\A1;150
 73
     1
 44
1.0
  0
POINT
  5
27C
330
273
100
AcDbEntity
  8
DEFPOINTS
 62
     0
440
 16777216
100
AcDbPoint
 10
555.4633689203037
 20
26.46393624872252
 30
0.0
  0
POINT
  5
27D
330
273
100
AcDbEntity
  8
DEFPOINTS
 62
     0
440
 16777216
100
AcDbPoint
 10
705.4633689203037
 20
24.46393624872246
 30
0.0
  0
POINT
  5
27E
330
273
100
AcDbEntity
  8
DEFPOINTS
 62
     0
440
 16777216
100
AcDbPoint
 10
705.4633689203037
 20
-49.11594481089082
 30
0.0
  0
ENDBLK
  5
275
330
273
100
AcDbEntity
  8
0
100
AcDbBlockEnd
  0
BLOCK
  5
280
330
27F
100
AcDbEntity
  8
0
100
AcDbBlockBegin
  2
*D12
 70
     1
 10
0.0
 20
0.0
 30
0.0
  3
*D12
  1

  0
LINE
  5
282
330
27F
100
AcDbEntity
  8
DIMS
 62
     0
440
 16777216
370
    -2
100
AcDbLine
 10
725.4633689203037
 20
-5.536063751277708
 30
0.0
 11
725.4633689203037
 21
-52.11594481089083
 31
0.0
  0
LINE
  5
283
330
27F
100
AcDbEntity
  8
DIMS
 62
     0
440
 16777216
370
    -2
100
AcDbLine
 10
900.4633689203037
 20
19.96393624872229
 30
0.0
 11
900.4633689203037
 21
-52.11594481089083
 31
0.0
  0
LINE
  5
284
330
27F
100
AcDbEntity
  8
DIMS
 62
     0
440
 16777216
370
    -2
100
AcDbLine
 10
729.4633689203037
 20
-49.11594481089082
 30
0.0
 11
896.4633689203038
 21
-49.11594481089082
 31
0.0
  0
SOLID
  5
285
330
27F
100
AcDbEntity
  8
DIMS
 62
     0
440
 16777216
100
AcDbTrace
 10
729.4633689203037
 20
-48.44927814422415
 30
0.0
 11
729.4633689203037
 21
-49.78261147755748
 31
0.0
 12
725.4633689203037
 22
-49.11594481089082
 32
0.0
 13
725.4633689203037
 23
-49.11594481089082
 33
0.0
  0
SOLID
  5
286
330
27F
100
AcDbEntity
  8
DIMS
 62
     0
440
 16777216
100
AcDbTrace
 10
896.4633689203038
 20
-48.44927814422415
 30
0.0
 11
896.4633689203038
 21
-49.78261147755748
 31
0.0
 12
900.4633689203037
 22
-49.11594481089082
 32
0.0
 13
900.4633689203037
 23
-49.11594481089082
 33
0.0
  0
MTEXT
  5
287
330
27F
100
AcDbEntity
  8
DIMS
 62
     0
440
 16777216
100
AcDbMText
 10
812.9633689203037
 20
-46.11594481089082
 30
0.0
 40
3.0
 41
0.0
 46
0.0
 71
     5
 72
     1
  1
\A1;175
 73
     1
 44
1.0
  0
POINT
  5
288
330
27F
100
AcDbEntity
  8
DEFPOINTS
 62
     0
440
 16777216
100
AcDbPoint
 10
725.4633689203037
 20
-2.536063751277708
 30
0.0
  0
POINT
  5
289
330
27F
100
AcDbEntity
  8
DEFPOINTS
 62
     0
440
 16777216
100
AcDbPoint
 10
900.4633689203037
 20
22.9639362487223
 30
0.0
  0
POINT
  5
28A
330
27F
100
AcDbEntity
  8
DEFPOINTS
 62
     0
440
 16777216
100
AcDbPoint
 10
900.4633689203037
 20
-49.11594481089082
 30
0.0
  0
ENDBLK
  5
281
330
27F
100
AcDbEntity
  8
0
100
AcDbBlockEnd
  0
BLOCK
  5
28C
330
28B
100
AcDbEntity
  8
0
100
AcDbBlockBegin
  2
*D13
 70
     1
 10
0.0
 20
0.0
 30
0.0
  3
*D13
  1

  0
LINE
  5
28E
330
28B
100
AcDbEntity
  8
20MM-DIMS
 62
     0
440
 16777216
370
    -2
100
AcDbLine
 10
725.4633689203037
 20
-5.536063751277708
 30
0.0
 11
725.4633689203037
 21
-27.3771410035573
 31
0.0
  0
LINE
  5
28F
330
28B
100
AcDbEntity
  8
20MM-DIMS
 62
     0
440
 16777216
370
    -2
100
AcDbLine
 10
855.4596466483884
 20
23.46393624872246
 30
0.0
 11
855.4596466483884
 21
-27.3771410035573
 31
0.0
  0
LINE
  5
290
330
28B
100
AcDbEntity
  8
20MM-DIMS
 62
     0
440
 16777216
370
    -2
100
AcDbLine
 10
729.4633689203037
 20
-24.3771410035573
 30
0.0
 11
851.4596466483885
 21
-24.3771410035573
 31
0.0
  0
SOLID
  5
291
330
28B
100
AcDbEntity
  8
20MM-DIMS
 62
     0
440
 16777216
100
AcDbTrace
 10
729.4633689203037
 20
-23.71047433689063
 30
0.0
 11
729.4633689203037
 21
-25.04380767022397
 31
0.0
 12
725.4633689203037
 22
-24.3771410035573
 32
0.0
 13
725.4633689203037
 23
-24.3771410035573
 33
0.0
  0
SOLID
  5
292
330
28B
100
AcDbEntity
  8
20MM-DIMS
 62
     0
440
 16777216
100
AcDbTrace
 10
851.4596466483885
 20
-23.71047433689063
 30
0.0
 11
851.4596466483885
 21
-25.04380767022397
 31
0.0
 12
855.4596466483884
 22
-24.3771410035573
 32
0.0
 13
855.4596466483884
 23
-24.3771410035573
 33
0.0
  0
MTEXT
  5
293
330
28B
100
AcDbEntity
  8
20MM-DIMS
 62
     0
440
 16777216
100
AcDbMText
 10
790.4615077843462
 20
-21.3771410035573
 30
0.0
 40
3.0
 41
0.0
 46
0.0
 71
     5
 72
     1
  1
\A1;130
 73
     1
 44
1.0
  0
POINT
  5
294
330
28B
100
AcDbEntity
  8
DEFPOINTS
 62
     0
440
 16777216
100
AcDbPoint
 10
725.4633689203037
 20
-2.536063751277708
 30
0.0
  0
POINT
  5
295
330
28B
100
AcDbEntity
  8
DEFPOINTS
 62
     0
440
 16777216
100
AcDbPoint
 10
855.4596466483884
 20
26.46393624872246
 30
0.0
  0
POINT
  5
296
330
28B
100
AcDbEntity
  8
DEFPOINTS
 62
     0
440
 16777216
100
AcDbPoint
 10
855.4596466483884
 20
-24.3771410035573
 30
0.0
  0
ENDBLK
  5
28D
330
28B
100
AcDbEntity
  8
0
100
AcDbBlockEnd
  0
BLOCK
  5
298
330
297
100
AcDbEntity
  8
0
100
AcDbBlockBegin
  2
*D14
 70
     1
 10
0.0
 20
0.0
 30
0.0
  3
*D14
  1

  0
LINE
  5
29A
330
297
100
AcDbEntity
  8
DIMS
 62
     0
440
 16777216
370
    -2
100
AcDbLine
 10
725.4633689203037
 20
-5.536063751277708
 30
0.0
 11
725.4633689203037
 21
-40.30937737497666
 31
0.0
  0
LINE
  5
29B
330
297
100
AcDbEntity
  8
DIMS
 62
     0
440
 16777216
370
    -2
100
AcDbLine
 10
885.4633689203037
 20
19.96393624872229
 30
0.0
 11
885.4633689203037
 21
-40.30937737497666
 31
0.0
  0
LINE
  5
29C
330
297
100
AcDbEntity
  8
DIMS
 62
     0
440
 16777216
370
    -2
100
AcDbLine
 10
729.4633689203037
 20
-37.30937737497666
 30
0.0
 11
881.4633689203038
 21
-37.30937737497666
 31
0.0
  0
SOLID
  5
29D
330
297
100
AcDbEntity
  8
DIMS
 62
     0
440
 16777216
100
AcDbTrace
 10
729.4633689203037
 20
-36.64271070831
 30
0.0
 11
729.4633689203037
 21
-37.97604404164333
 31
0.0
 12
725.4633689203037
 22
-37.30937737497666
 32
0.0
 13
725.4633689203037
 23
-37.30937737497666
 33
0.0
  0
SOLID
  5
29E
330
297
100
AcDbEntity
  8
DIMS
 62
     0
440
 16777216
100
AcDbTrace
 10
881.4633689203038
 20
-36.64271070831
 30
0.0
 11
881.4633689203038
 21
-37.97604404164333
 31
0.0
 12
885.4633689203037
 22
-37.30937737497666
 32
0.0
 13
885.4633689203037
 23
-37.30937737497666
 33
0.0
  0
MTEXT
  5
29F
330
297
100
AcDbEntity
  8
DIMS
 62
     0
440
 16777216
100
AcDbMText
 10
805.4633689203038
 20
-34.30937737497667
 30
0.0
 40
3.0
 41
0.0
 46
0.0
 71
     5
 72
     1
  1
\A1;160
 73
     1
 44
1.0
  0
POINT
  5
2A0
330
297
100
AcDbEntity
  8
DEFPOINTS
 62
     0
440
 16777216
100
AcDbPoint
 10
725.4633689203037
 20
-2.536063751277708
 30
0.0
  0
POINT
  5
2A1
330
297
100
AcDbEntity
  8
DEFPOINTS
 62
     0
440
 16777216
100
AcDbPoint
 10
885.4633689203037
 20
22.9639362487223
 30
0.0
  0
POINT
  5
2A2
330
297
100
AcDbEntity
  8
DEFPOINTS
 62
     0
440
 16777216
100
AcDbPoint
 10
885.4633689203037
 20
-37.30937737497666
 30
0.0
  0
ENDBLK
  5
299
330
297
100
AcDbEntity
  8
0
100
AcDbBlockEnd
  0
ENDSEC
  0
SECTION
  2
ENTITIES
  0
LINE
  5
3A
330
2
100
AcDbEntity
  8
20MM-JOINT
  6
HIDDEN
 62
     3
100
AcDbLine
 10
855.4596466483884
 20
42.4639362487224
 30
0.0
 11
855.4596466483884
 21
28.46393624872241
 31
0.0
  0
LINE
  5
3D
330
2
100
AcDbEntity
  8
20MM-JOINT
  6
HIDDEN
 62
     3
100
AcDbLine
 10
855.4596466483884
 20
44.46393624872245
 30
0.0
 11
855.4596466483884
 21
26.46393624872246
 31
0.0
  0
LINE
  5
3E
330
2
100
AcDbEntity
  8
ANCON-DSD
  6
Continuous
 62
     3
100
AcDbLine
 10
900.4633689203037
 20
20.4639362487223
 30
0.0
 11
900.4633689203037
 21
50.46393624872229
 31
0.0
  0
LINE
  5
40
330
2
100
AcDbEntity
  8
ANCON-DSD
  6
HIDDEN
 62
     3
100
AcDbLine
 10
885.4633689203037
 20
22.9639362487223
 30
0.0
 11
885.4633689203037
 21
47.96393624872229
 31
0.0
  0
LINE
  5
41
330
2
100
AcDbEntity
  8
ANCON-DSD
  6
Continuous
 62
     3
100
AcDbLine
 10
905.4633689203038
 20
20.4639362487223
 30
0.0
 11
905.4633689203038
 21
50.46393624872229
 31
0.0
  0
LINE
  5
42
330
2
100
AcDbEntity
  8
20MM-JOINT
  6
HIDDEN
 62
     3
100
AcDbLine
 10
853.4596466483884
 20
46.46393624872246
 30
0.0
 11
853.4596466483884
 21
24.46393624872246
 31
0.0
  0
LINE
  5
43
330
2
100
AcDbEntity
  8
20MM-JOINT
  6
HIDDEN
 62
     3
100
AcDbLine
 10
853.4596466483884
 20
24.46393624872246
 30
0.0
 11
855.4596466483884
 21
26.46393624872246
 31
0.0
  0
LINE
  5
44
330
2
100
AcDbEntity
  8
20MM-JOINT
  6
HIDDEN
 62
     3
100
AcDbLine
 10
853.4596466483884
 20
46.46393624872246
 30
0.0
 11
855.4596466483884
 21
44.46393624872245
 31
0.0
  0
LINE
  5
46
330
2
100
AcDbEntity
  8
ANCON-DSD
 62
     1
100
AcDbLine
 10
788.4645353663215
 20
125.5016291286935
 30
0.0
 11
788.6526434298533
 21
124.185933341886
 31
0.0
  0
LINE
  5
47
330
2
100
AcDbEntity
  8
ANCON-DSD
 62
     1
100
AcDbLine
 10
788.6526434298533
 20
124.185933341886
 30
0.0
 11
787.3358824666151
 21
123.9979762131753
 31
0.0
  0
LINE
  5
48
330
2
100
AcDbEntity
  8
ANCON-DSD
 62
     1
100
AcDbLine
 10
786.771556016762
 20
124.7498019852397
 30
0.0
 11
786.3953398896983
 21
126.0654977720472
 31
0.0
  0
LINE
  5
49
330
2
100
AcDbEntity
  8
ANCON-DSD
 62
     1
100
AcDbLine
 10
786.2072295669088
 20
126.253454900758
 30
0.0
 11
788.4645353663215
 21
125.5016291286935
 31
0.0
  0
LINE
  5
4A
330
2
100
AcDbEntity
  8
ANCON-DSD
 62
     1
100
AcDbLine
 10
787.3358824666151
 20
123.9979762131753
 30
0.0
 11
786.771556016762
 21
124.7498019852397
 31
0.0
  0
LINE
  5
4B
330
2
100
AcDbEntity
  8
ANCON-DSD
 62
     1
100
AcDbLine
 10
764.010410292423
 20
139.5983698975437
 30
0.0
 11
765.7033873827247
 21
141.2899785703834
 31
0.0
  0
LINE
  5
4C
330
2
100
AcDbEntity
  8
ANCON-DSD
 62
     1
100
AcDbLine
 10
765.7033873827247
 20
141.2899785703834
 30
0.0
 11
765.8914954462565
 21
140.9140656843512
 31
0.0
  0
LINE
  5
4D
330
2
100
AcDbEntity
  8
ANCON-DSD
 62
     1
100
AcDbLine
 10
765.8914954462565
 20
140.9140656843512
 30
0.0
 11
765.8914954462565
 21
139.2224570115114
 31
0.0
  0
LINE
  5
4E
330
2
100
AcDbEntity
  8
ANCON-DSD
 62
     1
100
AcDbLine
 10
765.8914954462565
 20
139.2224570115114
 30
0.0
 11
764.5747344830184
 21
138.2826741107362
 31
0.0
  0
LINE
  5
4F
330
2
100
AcDbEntity
  8
ANCON-DSD
 62
     1
100
AcDbLine
 10
764.5747344830184
 20
138.2826741107362
 30
0.0
 11
763.257975779038
 21
137.3428912099609
 31
0.0
  0
LINE
  5
50
330
2
100
AcDbEntity
  8
ANCON-DSD
 62
     1
100
AcDbLine
 10
763.257975779038
 20
137.3428912099609
 30
0.0
 11
762.8817573927165
 21
138.6585869967684
 31
0.0
  0
LINE
  5
51
330
2
100
AcDbEntity
  8
ANCON-DSD
 62
     1
100
AcDbLine
 10
762.8817573927165
 20
138.6585869967684
 30
0.0
 11
763.6341919061016
 21
138.8465441254792
 31
0.0
  0
LINE
  5
52
330
2
100
AcDbEntity
  8
ANCON-DSD
 62
     1
100
AcDbLine
 10
763.6341919061016
 20
138.8465441254792
 30
0.0
 11
764.010410292423
 21
139.5983698975437
 31
0.0
  0
CIRCLE
  5
53
330
2
100
AcDbEntity
  8
ANCON-DSD
 62
     1
100
AcDbCircle
 10
771.5347554262728
 20
133.58375960686
 30
0.0
 40
0.7977544665882306
  0
LINE
  5
54
330
2
100
AcDbEntity
  8
ANCON-DSD
 62
     1
100
AcDbLine
 10
754.4168674226922
 20
141.6658914564156
 30
0.0
 11
755.9217364494621
 21
139.7863256548651
 31
0.0
  0
LINE
  5
55
330
2
100
AcDbEntity
  8
ANCON-DSD
 62
     1
100
AcDbLine
 10
755.9217364494621
 20
139.7863256548651
 30
0.0
 11
755.3574122588668
 21
139.2224570115114
 31
0.0
  0
LINE
  5
56
330
2
100
AcDbEntity
  8
ANCON-DSD
 62
     1
100
AcDbLine
 10
755.3574122588668
 20
139.2224570115114
 30
0.0
 11
753.4763248457754
 21
139.2224570115114
 31
0.0
  0
LINE
  5
57
330
2
100
AcDbEntity
  8
ANCON-DSD
 62
     1
100
AcDbLine
 10
753.4763248457754
 20
139.2224570115114
 30
0.0
 11
753.4763248457754
 21
139.7863256548651
 31
0.0
  0
LINE
  5
58
330
2
100
AcDbEntity
  8
ANCON-DSD
 62
     1
100
AcDbLine
 10
753.4763248457754
 20
139.7863256548651
 30
0.0
 11
754.4168674226922
 21
141.6658914564156
 31
0.0
  0
CIRCLE
  5
59
330
2
100
AcDbEntity
  8
ANCON-DSD
 62
     1
100
AcDbCircle
 10
795.9888805001713
 20
107.6457567567424
 30
0.0
 40
0.3762183863213835
  0
LINE
  5
5A
330
2
100
AcDbEntity
  8
ANCON-DSD
 62
     1
100
AcDbLine
 10
773.9801676282206
 20
121.7424978229615
 30
0.0
 11
774.7326016490781
 21
121.7424978229615
 31
0.0
  0
LINE
  5
5B
330
2
100
AcDbEntity
  8
ANCON-DSD
 62
     1
100
AcDbLine
 10
774.7326016490781
 20
121.7424978229615
 30
0.0
 11
774.7326016490781
 21
121.1786284622665
 31
0.0
  0
LINE
  5
5C
330
2
100
AcDbEntity
  8
ANCON-DSD
 62
     1
100
AcDbLine
 10
774.7326016490781
 20
121.1786284622665
 30
0.0
 11
773.9801676282206
 21
121.1786284622665
 31
0.0
  0
LINE
  5
5D
330
2
100
AcDbEntity
  8
ANCON-DSD
 62
     1
100
AcDbLine
 10
773.9801676282206
 20
121.1786284622665
 30
0.0
 11
773.9801676282206
 21
121.5545413693965
 31
0.0
  0
CIRCLE
  5
5E
330
2
100
AcDbEntity
  8
ANCON-DSD
 62
     1
100
AcDbCircle
 10
781.1282960367457
 20
110.4651054590681
 30
0.0
 40
0.2659198672028824
  0
LINE
  5
5F
330
2
100
AcDbEntity
  8
ANCON-DSD
 62
     1
100
AcDbLine
 10
755.8629539728221
 20
114.4991216354319
 30
0.0
 11
755.8629539728221
 21
115.4154110898688
 31
0.0
  0
LINE
  5
60
330
2
100
AcDbEntity
  8
ANCON-DSD
 62
     1
100
AcDbLine
 10
755.8629539728221
 20
115.4154110898688
 30
0.0
 11
757.2690654944542
 21
115.4154110898688
 31
0.0
  0
LINE
  5
61
330
2
100
AcDbEntity
  8
ANCON-DSD
 62
     1
100
AcDbLine
 10
757.2690654944542
 20
115.4154110898688
 30
0.0
 11
757.4524714449964
 21
113.8882638586688
 31
0.0
  0
LINE
  5
62
330
2
100
AcDbEntity
  8
ANCON-DSD
 62
     1
100
AcDbLine
 10
750.0550973406082
 20
120.9131394486137
 30
0.0
 11
750.7275873576436
 21
122.2570287889264
 31
0.0
  0
LINE
  5
63
330
2
100
AcDbEntity
  8
ANCON-DSD
 62
     1
100
AcDbLine
 10
750.7275873576436
 20
122.2570287889264
 30
0.0
 11
751.2166691265653
 21
121.6461696175171
 31
0.0
  0
LINE
  5
64
330
2
100
AcDbEntity
  8
ANCON-DSD
 62
     1
100
AcDbLine
 10
751.2166691265653
 20
121.6461696175171
 30
0.0
 11
750.9721270933186
 21
121.0963973395011
 31
0.0
  0
LINE
  5
65
330
2
100
AcDbEntity
  8
ANCON-DSD
 62
     1
100
AcDbLine
 10
750.9721270933186
 20
121.0963973395011
 30
0.0
 11
750.4219092416924
 21
119.8135934979355
 31
0.0
  0
LINE
  5
66
330
2
100
AcDbEntity
  8
ANCON-DSD
 62
     1
100
AcDbLine
 10
750.4219092416924
 20
119.8135934979355
 30
0.0
 11
750.0550973406082
 21
120.9131394486137
 31
0.0
  0
LINE
  5
67
330
2
100
AcDbEntity
  8
ANCON-DSD
 62
     1
100
AcDbLine
 10
757.4524714449964
 20
113.8882638586688
 30
0.0
 11
756.5354416922859
 21
113.3995756847537
 31
0.0
  0
LINE
  5
68
330
2
100
AcDbEntity
  8
ANCON-DSD
 62
     1
100
AcDbLine
 10
756.5354416922859
 20
113.3995756847537
 30
0.0
 11
755.8629539728221
 21
114.4991216354319
 31
0.0
  0
INSERT
  5
69
330
2
100
AcDbEntity
  8
ANCON-DSD
 62
     1
100
AcDbBlockReference
  2
*X0
 10
7794.236705637188
 20
16433.03022406174
 30
0.0
 41
-1.0
 50
87.27011424167654
1001
ACAD
1000
HATCH
1002
{
1070
    16
1000
AR-CONC
1040
0.3
1040
0.0
1002
}
  0
INSERT
  5
7C
330
2
100
AcDbEntity
  8
ANCON-DSD
 62
     1
100
AcDbBlockReference
  2
*X0
 10
17383.85368907247
 20
-6111.938450042105
 30
0.0
 41
-1.0
1001
ACAD
1000
HATCH
1002
{
1070
    16
1000
AR-CONC
1040
0.3
1040
0.0
1002
}
  0
LINE
  5
7F
330
2
100
AcDbEntity
  8
20MM-JOINT
 62
     1
100
AcDbLine
 10
659.082342446388
 20
134.7054450489127
 30
0.0
 11
659.2704505099198
 21
134.3295321628804
 31
0.0
  0
LINE
  5
80
330
2
100
AcDbEntity
  8
20MM-JOINT
 62
     1
100
AcDbLine
 10
657.0131469697648
 20
132.2620106040085
 30
0.0
 11
657.3893653560863
 21
133.0138363760729
 31
0.0
  0
LINE
  5
81
330
2
100
AcDbEntity
  8
20MM-JOINT
 62
     1
100
AcDbLine
 10
656.2607124563799
 20
132.0740534752977
 30
0.0
 11
657.0131469697648
 21
132.2620106040085
 31
0.0
  0
LINE
  5
82
330
2
100
AcDbEntity
  8
20MM-JOINT
 62
     1
100
AcDbLine
 10
657.9536895466816
 20
131.6981405892654
 30
0.0
 11
656.6369308427013
 21
130.7583576884902
 31
0.0
  0
LINE
  5
83
330
2
100
AcDbEntity
  8
20MM-JOINT
 62
     1
100
AcDbLine
 10
656.6369308427013
 20
130.7583576884902
 30
0.0
 11
656.2607124563799
 21
132.0740534752977
 31
0.0
  0
LINE
  5
84
330
2
100
AcDbEntity
  8
20MM-JOINT
 62
     1
100
AcDbLine
 10
659.2704505099198
 20
132.6379234900407
 30
0.0
 11
657.9536895466816
 21
131.6981405892654
 31
0.0
  0
LINE
  5
85
330
2
100
AcDbEntity
  8
20MM-JOINT
 62
     1
100
AcDbLine
 10
659.2704505099198
 20
134.3295321628804
 30
0.0
 11
659.2704505099198
 21
132.6379234900407
 31
0.0
  0
LINE
  5
86
330
2
100
AcDbEntity
  8
20MM-JOINT
 62
     1
100
AcDbLine
 10
657.3893653560863
 20
133.0138363760729
 30
0.0
 11
659.082342446388
 21
134.7054450489127
 31
0.0
  0
LINE
  5
87
330
2
100
AcDbEntity
  8
20MM-JOINT
 62
     1
100
AcDbLine
 10
668.8023906647072
 20
108.4256884361021
 30
0.0
 11
669.4748806817425
 21
109.7695777764148
 31
0.0
  0
LINE
  5
88
330
2
100
AcDbEntity
  8
20MM-JOINT
 62
     1
100
AcDbLine
 10
669.7194204174175
 20
108.6089463269895
 30
0.0
 11
669.1692025657913
 21
107.3261424854238
 31
0.0
  0
LINE
  5
89
330
2
100
AcDbEntity
  8
20MM-JOINT
 62
     1
100
AcDbLine
 10
669.1692025657913
 20
107.3261424854238
 30
0.0
 11
668.8023906647072
 21
108.4256884361021
 31
0.0
  0
LINE
  5
8A
330
2
100
AcDbEntity
  8
20MM-JOINT
 62
     1
100
AcDbLine
 10
669.9639624506643
 20
109.1587186050055
 30
0.0
 11
669.7194204174175
 21
108.6089463269895
 31
0.0
  0
LINE
  5
8B
330
2
100
AcDbEntity
  8
20MM-JOINT
 62
     1
100
AcDbLine
 10
669.4748806817425
 20
109.7695777764148
 30
0.0
 11
669.9639624506643
 21
109.1587186050055
 31
0.0
  0
CIRCLE
  5
8C
330
2
100
AcDbEntity
  8
20MM-JOINT
 62
     1
100
AcDbCircle
 10
674.0773324154834
 20
91.68600157974594
 30
0.0
 40
0.3762183863213835
  0
LINE
  5
8D
330
2
100
AcDbEntity
  8
20MM-JOINT
 62
     1
100
AcDbLine
 10
655.5131831154197
 20
117.1644097573843
 30
0.0
 11
655.6965890659617
 21
115.6372625261843
 31
0.0
  0
LINE
  5
8E
330
2
100
AcDbEntity
  8
20MM-JOINT
 62
     1
100
AcDbLine
 10
654.1070715937875
 20
116.2481203029475
 30
0.0
 11
654.1070715937875
 21
117.1644097573843
 31
0.0
  0
LINE
  5
8F
330
2
100
AcDbEntity
  8
20MM-JOINT
 62
     1
100
AcDbLine
 10
654.1070715937875
 20
117.1644097573843
 30
0.0
 11
655.5131831154197
 21
117.1644097573843
 31
0.0
  0
LINE
  5
90
330
2
100
AcDbEntity
  8
20MM-JOINT
 62
     1
100
AcDbLine
 10
654.7795593132512
 20
115.1485743522693
 30
0.0
 11
654.1070715937875
 21
116.2481203029475
 31
0.0
  0
LINE
  5
91
330
2
100
AcDbEntity
  8
20MM-JOINT
 62
     1
100
AcDbLine
 10
655.6965890659617
 20
115.6372625261843
 30
0.0
 11
654.7795593132512
 21
115.1485743522693
 31
0.0
  0
CIRCLE
  5
92
330
2
100
AcDbEntity
  8
20MM-JOINT
 62
     1
100
AcDbCircle
 10
657.1316789301448
 20
99.36657693518396
 30
0.0
 40
0.2659198672028824
  0
LINE
  5
93
330
2
100
AcDbEntity
  8
20MM-JOINT
 62
     1
100
AcDbLine
 10
636.1472519456538
 20
135.2942935479419
 30
0.0
 11
638.4045577450665
 21
134.5424677758774
 31
0.0
  0
LINE
  5
94
330
2
100
AcDbEntity
  8
20MM-JOINT
 62
     1
100
AcDbLine
 10
636.7115783955071
 20
133.7906406324236
 30
0.0
 11
636.3353622684435
 21
135.1063364192311
 31
0.0
  0
LINE
  5
95
330
2
100
AcDbEntity
  8
20MM-JOINT
 62
     1
100
AcDbLine
 10
637.2759048453602
 20
133.0388148603592
 30
0.0
 11
636.7115783955071
 21
133.7906406324236
 31
0.0
  0
LINE
  5
96
330
2
100
AcDbEntity
  8
20MM-JOINT
 62
     1
100
AcDbLine
 10
638.5926658085984
 20
133.2267719890699
 30
0.0
 11
637.2759048453602
 21
133.0388148603592
 31
0.0
  0
LINE
  5
97
330
2
100
AcDbEntity
  8
20MM-JOINT
 62
     1
100
AcDbLine
 10
638.4045577450665
 20
134.5424677758774
 30
0.0
 11
638.5926658085984
 21
133.2267719890699
 31
0.0
  0
LINE
  5
98
330
2
100
AcDbEntity
  8
20MM-JOINT
 62
     1
100
AcDbLine
 10
635.2854106141356
 20
119.4559885090688
 30
0.0
 11
636.7902796409055
 21
117.5764227075183
 31
0.0
  0
LINE
  5
99
330
2
100
AcDbEntity
  8
20MM-JOINT
 62
     1
100
AcDbLine
 10
636.2259554503102
 20
117.0125540641646
 30
0.0
 11
634.3448680372189
 21
117.0125540641646
 31
0.0
  0
LINE
  5
9A
330
2
100
AcDbEntity
  8
20MM-JOINT
 62
     1
100
AcDbLine
 10
634.3448680372189
 20
117.5764227075183
 30
0.0
 11
635.2854106141356
 21
119.4559885090688
 31
0.0
  0
LINE
  5
9B
330
2
100
AcDbEntity
  8
20MM-JOINT
 62
     1
100
AcDbLine
 10
634.3448680372189
 20
117.0125540641646
 30
0.0
 11
634.3448680372189
 21
117.5764227075183
 31
0.0
  0
LINE
  5
9C
330
2
100
AcDbEntity
  8
20MM-JOINT
 62
     1
100
AcDbLine
 10
636.7902796409055
 20
117.5764227075183
 30
0.0
 11
636.2259554503102
 21
117.0125540641646
 31
0.0
  0
INSERT
  5
9D
330
2
100
AcDbEntity
  8
20MM-JOINT
 62
     1
100
AcDbBlockReference
  2
*X0
 10
15356.35538631362
 20
10076.45303563799
 30
0.0
 41
-1.0
 50
54.67191047779144
1001
ACAD
1000
HATCH
1002
{
1070
    16
1000
AR-CONC
1040
0.3
1040
0.0
1002
}
  0
INSERT
  5
9E
330
2
100
AcDbEntity
  8
20MM-JOINT
 62
     1
100
AcDbBlockReference
  2
*X0
 10
11289.33814315107
 20
-14083.34284820863
 30
0.0
 41
-1.0
 50
327.4017962361148
1001
ACAD
1000
HATCH
1002
{
1070
    16
1000
AR-CONC
1040
0.3
1040
0.0
1002
}
  0
LINE
  5
AB
330
2
100
AcDbEntity
  8
20MM-JOINT
 62
     2
100
AcDbLine
 10
705.4633689203037
 20
160.4639362487223
 30
0.0
 11
455.4633689203038
 21
160.4639362487223
 31
0.0
  0
LINE
  5
AC
330
2
100
AcDbEntity
  8
ANCON-DSD
100
AcDbLine
 10
725.4633689203037
 20
73.46393624872229
 30
0.0
 11
725.4633689203037
 21
73.48205681002809
 31
0.0
  0
LINE
  5
AD
330
2
100
AcDbEntity
  8
ANCON-DSD
100
AcDbLine
 10
725.4633689203037
 20
73.46393624872229
 30
0.0
 11
727.4633689203037
 21
73.46393624872229
 31
0.0
  0
LINE
  5
AE
330
2
100
AcDbEntity
  8
ANCON-DSD
100
AcDbLine
 10
725.4633689203037
 20
-2.536063751277708
 30
0.0
 11
727.4633689203037
 21
-2.536063751277708
 31
0.0
  0
DIMENSION
  5
AF
330
2
100
AcDbEntity
  8
DIMS
100
AcDbDimension
280
     0
  2
*D9
 10
727.4633689203037
 20
-13.24966856384443
 30
0.0
 11
726.4633689203037
 21
-22.99966856384443
 31
0.0
 70
    32
 71
     5
 42
2.0
 73
     0
 74
     0
 75
     0
  3
1-2
100
AcDbAlignedDimension
 13
725.4633689203037
 23
-2.536063751277708
 33
0.0
 14
727.4633689203037
 24
-2.536063751277708
 34
0.0
100
AcDbRotatedDimension
1001
ACAD
1000
DSTYLE
1002
{
1070
    40
1040
1.0
1002
}
  0
LINE
  5
BF
330
2
100
AcDbEntity
  8
ANCON-DSD
100
AcDbLine
 10
725.4633689203037
 20
73.48205681002809
 30
0.0
 11
725.4633689203037
 21
-2.536063751277708
 31
0.0
  0
LINE
  5
C0
330
2
100
AcDbEntity
  8
ANCON-DSD
100
AcDbLine
 10
727.4633689203037
 20
73.48205681002809
 30
0.0
 11
727.4633689203037
 21
-2.536063751277708
 31
0.0
  0
DIMENSION
  5
C1
330
2
100
AcDbEntity
  8
20MM-DIMS
100
AcDbDimension
280
     0
  2
*D10
 10
725.4633689203037
 20
-49.11594481089082
 30
0.0
 11
715.4633689203038
 21
-46.11594481089082
 31
0.0
 70
    32
 71
     5
 42
20.0
 73
     0
 74
     0
 75
     0
  3
1-2
100
AcDbAlignedDimension
 13
705.4633689203037
 23
24.46393624872246
 33
0.0
 14
725.4633689203037
 24
-2.536063751277715
 34
0.0
100
AcDbRotatedDimension
1001
ACAD
1000
DSTYLE
1002
{
1070
    40
1040
1.0
1002
}
  0
LINE
  5
CF
330
2
100
AcDbEntity
  8
20MM-JOINT
 62
     2
100
AcDbLine
 10
705.4633689203037
 20
-89.53606375127771
 30
0.0
 11
705.4633689203037
 21
24.46393624872246
 31
0.0
  0
LINE
  5
D0
330
2
100
AcDbEntity
  8
20MM-JOINT
 62
     3
100
AcDbLine
 10
555.4633689203037
 20
26.46393624872252
 30
0.0
 11
557.4633689203038
 21
24.46393624872252
 31
0.0
  0
LINE
  5
D1
330
2
100
AcDbEntity
  8
20MM-JOINT
 62
     3
100
AcDbLine
 10
555.4633689203038
 20
44.46393624872245
 30
0.0
 11
555.4633689203037
 21
26.46393624872252
 31
0.0
  0
LINE
  5
D2
330
2
100
AcDbEntity
  8
20MM-JOINT
 62
     3
100
AcDbLine
 10
557.4633689203038
 20
46.46393624872246
 30
0.0
 11
555.4633689203037
 21
44.46393624872245
 31
0.0
  0
LINE
  5
D3
330
2
100
AcDbEntity
  8
20MM-JOINT
 62
     3
100
AcDbLine
 10
557.4633689203038
 20
46.46393624872246
 30
0.0
 11
557.4633689203038
 21
24.46393624872246
 31
0.0
  0
LINE
  5
D4
330
2
100
AcDbEntity
  8
20MM-JOINT
 62
     3
100
AcDbLine
 10
557.4633689203038
 20
46.46393624872246
 30
0.0
 11
725.4633689203037
 21
46.46393624872246
 31
0.0
  0
LINE
  5
D5
330
2
100
AcDbEntity
  8
20MM-JOINT
  6
CENTER2
 62
     1
100
AcDbLine
 10
545.4633689203038
 20
35.46393624872246
 30
0.0
 11
725.4633689203037
 21
35.46393624872246
 31
0.0
  0
LINE
  5
D7
330
2
100
AcDbEntity
  8
20MM-JOINT
 62
     3
100
AcDbLine
 10
557.4633689203038
 20
24.46393624872246
 30
0.0
 11
725.4633689203037
 21
24.46393624872246
 31
0.0
  0
LINE
  5
D8
330
2
100
AcDbEntity
  8
20MM-JOINT
 62
     2
100
AcDbLine
 10
705.4633689203037
 20
-89.53606375127771
 30
0.0
 11
455.4633689203038
 21
-89.53606375127771
 31
0.0
  0
DIMENSION
  5
D9
330
2
100
AcDbEntity
  8
20MM-DIMS
100
AcDbDimension
280
     0
  2
*D11
 10
705.4633689203037
 20
-49.11594481089082
 30
0.0
 11
630.4633689203037
 21
-46.11594481089082
 31
0.0
 70
    32
 71
     5
 42
150.0
 73
     0
 74
     0
 75
     0
  3
1-2
100
AcDbAlignedDimension
 13
555.4633689203037
 23
26.46393624872252
 33
0.0
 14
705.4633689203037
 24
24.46393624872246
 34
0.0
100
AcDbRotatedDimension
1001
ACAD
1000
DSTYLE
1002
{
1070
    40
1040
1.0
1002
}
  0
LINE
  5
E6
330
2
100
AcDbEntity
  8
CONCRETE
100
AcDbLine
 10
725.4633689203037
 20
-89.53606375127765
 30
0.0
 11
725.4633689203037
 21
160.4639362487223
 31
0.0
  0
INSERT
  5
E8
330
2
100
AcDbEntity
  8
20MM-JOINT
 62
     1
100
AcDbBlockReference
  2
*X1
 10
37798.01386726797
 20
29692.67276795914
 30
0.0
 41
-1.0
 50
327.4017962361148
1001
ACAD
1000
HATCH
1002
{
1070
    16
1000
AR-CONC
1040
0.3
1040
0.0
1002
}
  0
LINE
  5
101
330
2
100
AcDbEntity
  8
20MM-JOINT
 62
     2
100
AcDbLine
 10
705.4633689203037
 20
46.46393624872246
 30
0.0
 11
705.4633689203037
 21
160.4639362487223
 31
0.0
  0
LINE
  5
104
330
2
100
AcDbEntity
  8
ANCON-DSD
  6
CENTER2
 62
     1
100
AcDbLine
 10
725.4633689203036
 20
35.46393624872229
 30
0.0
 11
909.4633689203037
 21
35.46393624872229
 31
0.0
  0
LINE
  5
105
330
2
100
AcDbEntity
  8
ANCON-DSD
  6
HIDDEN
 62
     3
100
AcDbLine
 10
727.4633689203037
 20
47.96393624872229
 30
0.0
 11
885.4633689203037
 21
47.96393624872229
 31
0.0
  0
LINE
  5
106
330
2
100
AcDbEntity
  8
ANCON-DSD
  6
HIDDEN
 62
     3
100
AcDbLine
 10
727.4633689203037
 20
22.96393624872229
 30
0.0
 11
885.4633689203037
 21
22.9639362487223
 31
0.0
  0
DIMENSION
  5
107
330
2
100
AcDbEntity
  8
DIMS
100
AcDbDimension
280
     0
  2
*D12
 10
900.4633689203037
 20
-49.11594481089082
 30
0.0
 11
812.9633689203037
 21
-46.11594481089082
 31
0.0
 70
    32
 71
     5
 42
175.0
 73
     0
 74
     0
 75
     0
  3
1-2
100
AcDbAlignedDimension
 13
725.4633689203037
 23
-2.536063751277708
 33
0.0
 14
900.4633689203037
 24
22.9639362487223
 34
0.0
100
AcDbRotatedDimension
1001
ACAD
1000
DSTYLE
1002
{
1070
    40
1040
1.0
1002
}
  0
LINE
  5
114
330
2
100
AcDbEntity
  8
CONCRETE
  6
Continuous
 62
     2
100
AcDbLine
 10
725.4633689203036
 20
160.4639362487223
 30
0.0
 11
975.4633689203037
 21
160.4639362487223
 31
0.0
  0
LINE
  5
115
330
2
100
AcDbEntity
  8
CONCRETE
  6
Continuous
 62
     2
100
AcDbLine
 10
725.4633689203036
 20
-89.53606375127771
 30
0.0
 11
975.4633689203037
 21
-89.53606375127771
 31
0.0
  0
INSERT
  5
116
330
2
100
AcDbEntity
  8
ANCON-DSD
 62
     1
100
AcDbBlockReference
  2
*X1
 10
16132.51671599655
 20
45049.41012144458
 30
0.0
 41
-1.0
1001
ACAD
1000
HATCH
1002
{
1070
    16
1000
AR-CONC
1040
0.3
1040
0.0
1002
}
  0
LINE
  5
117
330
2
100
AcDbEntity
  8
20MM-JOINT
  6
HIDDEN
 62
     3
100
AcDbLine
 10
725.4633689203037
 20
46.46393624872246
 30
0.0
 11
853.4596466483884
 21
46.46393624872246
 31
0.0
  0
LINE
  5
118
330
2
100
AcDbEntity
  8
20MM-JOINT
  6
HIDDEN
 62
     3
100
AcDbLine
 10
725.4633689203037
 20
24.46393624872246
 30
0.0
 11
853.4596466483884
 21
24.46393624872246
 31
0.0
  0
DIMENSION
  5
119
330
2
100
AcDbEntity
  8
20MM-DIMS
 62
     1
100
AcDbDimension
280
     0
  2
*D13
 10
855.4596466483884
 20
-24.3771410035573
 30
0.0
 11
790.4615077843462
 21
-21.3771410035573
 31
0.0
 70
    32
 71
     5
 42
129.9962777280847
 73
     0
 74
     0
 75
     0
  3
1-2
100
AcDbAlignedDimension
 13
725.4633689203037
 23
-2.536063751277708
 33
0.0
 14
855.4596466483884
 24
26.46393624872246
 34
0.0
100
AcDbRotatedDimension
1001
ACAD
1000
DSTYLE
1002
{
1070
    40
1040
1.0
1002
}
  0
LINE
  5
126
330
2
100
AcDbEntity
  8
ANCON-DSD
  6
Continuous
 62
     3
100
AcDbLine
 10
727.4633689203037
 20
50.46393624872229
 30
0.0
 11
905.4633689203038
 21
50.46393624872229
 31
0.0
  0
LINE
  5
127
330
2
100
AcDbEntity
  8
ANCON-DSD
  6
Continuous
 62
     3
100
AcDbLine
 10
727.4633689203037
 20
20.46393624872229
 30
0.0
 11
905.4633689203038
 21
20.4639362487223
 31
0.0
  0
DIMENSION
  5
128
330
2
100
AcDbEntity
  8
DIMS
100
AcDbDimension
280
     0
  2
*D14
 10
885.4633689203037
 20
-37.30937737497666
 30
0.0
 11
805.4633689203038
 21
-34.30937737497667
 31
0.0
 70
    32
 71
     5
 42
160.0
 73
     0
 74
     0
 75
     0
  3
1-2
100
AcDbAlignedDimension
 13
725.4633689203037
 23
-2.536063751277708
 33
0.0
 14
885.4633689203037
 24
22.9639362487223
 34
0.0
100
AcDbRotatedDimension
1001
ACAD
1000
DSTYLE
1002
{
1070
    40
1040
1.0
1002
}
  0
LINE
  5
1F7
330
2
100
AcDbEntity
  8
SPECD
  6
Continuous
 62
     6
100
AcDbLine
 10
1006.484627558092
 20
231.4594082233009
 30
0.0
 11
1006.484627558092
 21
178.4257156377505
 31
0.0
  0
LINE
  5
1F8
330
2
100
AcDbEntity
  8
SPECP
  6
Continuous
 62
     6
100
AcDbLine
 10
803.9976774514519
 20
260.8259218903947
 30
0.0
 11
871.5875283742139
 21
260.8259218903947
 31
0.0
  0
LINE
  5
1F9
330
2
100
AcDbEntity
  8
SPECD
  6
Continuous
 62
     6
100
AcDbLine
 10
803.9976774514519
 20
231.4594082233009
 30
0.0
 11
803.9976774514519
 21
178.4257156377505
 31
0.0
  0
TEXT
  5
1FA
102
{ACAD_XDICTIONARY
360
1FB
102
}
330
2
100
AcDbEntity
  8
SPECP
  6
Continuous
 62
     6
100
AcDbText
 10
811.8133456254611
 20
252.1888117745512
 30
0.0
 40
5.0
  1
STAIFIX ESD ??
  7
ARIAL
 72
     4
 11
838.0155966486535
 21
254.6888117745512
 31
0.0
100
AcDbText
1001
AcadAnnotative
1000
AnnotativeData
1002
{
1070
     1
1070
     1
1002
}
  0
LINE
  5
1FF
330
2
100
AcDbEntity
  8
SPECP
  6
Continuous
 62
     6
100
AcDbLine
 10
803.9976774514519
 20
248.9079465983934
 30
0.0
 11
871.5875283742139
 21
248.9079465983934
 31
0.0
  0
TEXT
  5
200
102
{ACAD_XDICTIONARY
360
201
102
}
330
2
100
AcDbEntity
  8
SPECD
  6
Continuous
 62
     6
100
AcDbText
 10
814.5192015624555
 20
182.1270607485788
 30
0.0
 40
5.0
  1
LOAD OF ??? kN
  7
ARIAL
 72
     4
 11
841.886186555634
 21
184.6287660691791
 31
0.0
100
AcDbText
1001
AcadAnnotative
1000
AnnotativeData
1002
{
1070
     1
1070
     1
1002
}
  0
LINE
  5
205
330
2
100
AcDbEntity
  8
SPECP
  6
Continuous
 62
     6
100
AcDbLine
 10
803.9976774514519
 20
260.8259218903947
 30
0.0
 11
803.9976774514519
 21
248.9079465983934
 31
0.0
  0
LINE
  5
206
330
2
100
AcDbEntity
  8
SPECP
  6
Continuous
 62
     6
100
AcDbLine
 10
871.5875283742139
 20
260.8259218903947
 30
0.0
 11
871.5875283742139
 21
248.9079465983934
 31
0.0
  0
TEXT
  5
207
102
{ACAD_XDICTIONARY
360
208
102
}
330
2
100
AcDbEntity
  8
SPECD
  6
Continuous
 62
     6
100
AcDbText
 10
812.5396233965989
 20
202.2110433274702
 30
0.0
 40
5.0
  1
SUITABLE FOR A DESIGN JOINT WIDTH OF ?? MM
  7
ARIAL
 72
     4
 11
896.3663628236114
 21
204.7127486480705
 31
0.0
100
AcDbText
1001
AcadAnnotative
1000
AnnotativeData
1002
{
1070
     1
1070
     1
1002
}
  0
LINE
  5
20C
330
2
100
AcDbEntity
  8
SPECD
  6
Continuous
 62
     6
100
AcDbLine
 10
803.9976774514519
 20
231.4594082233009
 30
0.0
 11
1006.484627558092
 21
231.4594082233009
 31
0.0
  0
LINE
  5
20D
330
2
100
AcDbEntity
  8
SPECD
  6
Continuous
 62
     6
100
AcDbLine
 10
803.9976774514519
 20
178.4257156377505
 30
0.0
 11
1006.484627558092
 21
178.4257156377505
 31
0.0
  0
TEXT
  5
20E
102
{ACAD_XDICTIONARY
360
20F
102
}
330
2
100
AcDbEntity
  8
SPECD
  6
Continuous
 62
     6
100
AcDbText
 10
814.0605370277716
 20
192.1619859135411
 30
0.0
 40
5.0
  1
AND CAPABLE OF TRANSFERRING A SERVICEABILITY
  7
ARIAL
 72
     4
 11
905.4623105611959
 21
194.6636912341414
 31
0.0
100
AcDbText
1001
AcadAnnotative
1000
AnnotativeData
1002
{
1070
     1
1070
     1
1002
}
  0
TEXT
  5
213
102
{ACAD_XDICTIONARY
360
214
102
}
330
2
100
AcDbEntity
  8
SPECD
  6
Continuous
 62
     6
100
AcDbText
 10
812.6828887591685
 20
212.11219103714
 30
0.0
 40
5.0
  1
COMPRISING SLEEVE AND DOWEL COMPONENT
  7
ARIAL
 72
     4
 11
895.5444167264262
 21
214.6138963577403
 31
0.0
100
AcDbText
1001
AcadAnnotative
1000
AnnotativeData
1002
{
1070
     1
1070
     1
1002
}
  0
TEXT
  5
218
102
{ACAD_XDICTIONARY
360
219
102
}
330
2
100
AcDbEntity
  8
SPECD
  6
Continuous
 62
     6
100
AcDbText
 10
813.7768075249983
 20
222.2169033629306
 30
0.0
 40
5.0
  1
TWO PART STAINLESS STEEL SHEAR CONNECTOR
  7
ARIAL
 72
     4
 11
900.9084582753393
 21
224.7186086835309
 31
0.0
100
AcDbText
1001
AcadAnnotative
1000
AnnotativeData
1002
{
1070
     1
1070
     1
1002
}
  0
TEXT
  5
21D
102
{ACAD_XDICTIONARY
360
21E
102
}
330
2
100
AcDbEntity
  8
20MM-JOINT
  6
Continuous
 62
     6
100
AcDbText
 10
579.3375999049279
 20
218.6546829125273
 30
0.0
 40
5.0
  1
11.2
  7
ARIAL
 72
     4
 11
586.1350078176156
 21
221.1649148361289
 31
0.0
100
AcDbText
1001
AcadAnnotative
1000
AnnotativeData
1002
{
1070
     1
1070
     1
1002
}
  0
LINE
  5
222
330
2
100
AcDbEntity
  8
20MM-JOINT
  6
Continuous
 62
     6
100
AcDbLine
 10
617.6282213974493
 20
260.9476038771231
 30
0.0
 11
617.6282213974493
 21
207.8493577430303
 31
0.0
  0
TEXT
  5
223
102
{ACAD_XDICTIONARY
360
224
102
}
330
2
100
AcDbEntity
  8
20MM-JOINT
  6
Continuous
 62
     6
100
AcDbText
 10
511.9802340934732
 20
239.7842643299625
 30
0.0
 40
5.0
  1
WIDTH
  7
ARIAL
 72
     4
 11
523.4246406419043
 21
242.2842643299625
 31
0.0
100
AcDbText
1001
AcadAnnotative
1000
AnnotativeData
1002
{
1070
     1
1070
     1
1002
}
  0
TEXT
  5
228
102
{ACAD_XDICTIONARY
360
229
102
}
330
2
100
AcDbEntity
  8
20MM-JOINT
  6
Continuous
 62
     6
100
AcDbText
 10
515.4614061805077
 20
218.6973159275341
 30
0.0
 40
5.0
  1
20 MM
  7
ARIAL
 72
     4
 11
526.1350078176156
 21
221.1649148361289
 31
0.0
100
AcDbText
1001
AcadAnnotative
1000
AnnotativeData
1002
{
1070
     1
1070
     1
1002
}
  0
TEXT
  5
22D
102
{ACAD_XDICTIONARY
360
22E
102
}
330
2
100
AcDbEntity
  8
20MM-JOINT
  6
Continuous
 62
     6
100
AcDbText
 10
498.9754591957924
 20
250.6801823969812
 30
0.0
 40
5.0
  1
DESIGN JOINT
  7
ARIAL
 72
     4
 11
523.4246406419043
 21
253.1818877175815
 31
0.0
100
AcDbText
1001
AcadAnnotative
1000
AnnotativeData
1002
{
1070
     1
1070
     1
1002
}
  0
TEXT
  5
232
102
{ACAD_XDICTIONARY
360
233
102
}
330
2
100
AcDbEntity
  8
20MM-JOINT
  6
Continuous
 62
     6
100
AcDbText
 10
451.1186640334408
 20
250.6818877175815
 30
0.0
 40
5.0
  1
DSD REF:
  7
ARIAL
 72
     4
 11
467.4181183308487
 21
253.1818877175815
 31
0.0
100
AcDbText
1001
AcadAnnotative
1000
AnnotativeData
1002
{
1070
     1
1070
     1
1002
}
  0
TEXT
  5
237
102
{ACAD_XDICTIONARY
360
238
102
}
330
2
100
AcDbEntity
  8
20MM-JOINT
  6
Continuous
 62
     6
100
AcDbText
 10
452.3526067262103
 20
218.8149830489529
 30
0.0
 40
5.0
  1
ESDQ15
  7
ARIAL
 72
     4
 11
466.1350078176155
 21
221.1649148361289
 31
0.0
100
AcDbText
1001
AcadAnnotative
1000
AnnotativeData
1002
{
1070
     1
1070
     1
1002
}
  0
LINE
  5
23C
330
2
100
AcDbEntity
  8
20MM-JOINT
  6
Continuous
 62
     6
100
AcDbLine
 10
442.2495437055869
 20
260.9476038771231
 30
0.0
 11
442.2495437055869
 21
207.8493577430303
 31
0.0
  0
LINE
  5
23D
330
2
100
AcDbEntity
  8
20MM-JOINT
  6
Continuous
 62
     6
100
AcDbLine
 10
492.2495437055869
 20
260.9476038771231
 30
0.0
 11
492.2495437055869
 21
207.8493577430303
 31
0.0
  0
LINE
  5
23E
330
2
100
AcDbEntity
  8
20MM-JOINT
  6
Continuous
 62
     6
100
AcDbLine
 10
552.7576372626497
 20
260.9476038771231
 30
0.0
 11
552.7576372626497
 21
207.8493577430303
 31
0.0
  0
TEXT
  5
23F
102
{ACAD_XDICTIONARY
360
240
102
}
330
2
100
AcDbEntity
  8
20MM-JOINT
  6
Continuous
 62
     6
100
AcDbText
 10
567.118977803973
 20
240.0769512621023
 30
0.0
 40
5.0
  1
LOAD ( kN )
  7
ARIAL
 72
     4
 11
586.1350078176156
 21
241.8862964189918
 31
0.0
100
AcDbText
1001
AcadAnnotative
1000
AnnotativeData
1002
{
1070
     1
1070
     1
1002
}
  0
TEXT
  5
244
102
{ACAD_XDICTIONARY
360
245
102
}
330
2
100
AcDbEntity
  8
20MM-JOINT
  6
Continuous
 62
     6
100
AcDbText
 10
557.7976954028815
 20
250.6867182147131
 30
0.0
 40
5.0
  1
SERVICEABILITY
  7
ARIAL
 72
     4
 11
586.1350078176156
 21
253.1867182147131
 31
0.0
100
AcDbText
1001
AcadAnnotative
1000
AnnotativeData
1002
{
1070
     1
1070
     1
1002
}
  0
LINE
  5
249
330
2
100
AcDbEntity
  8
20MM-JOINT
  6
Continuous
 62
     6
100
AcDbLine
 10
442.2495437055869
 20
260.9476038771231
 30
0.0
 11
617.6282213974493
 21
260.9476038771231
 31
0.0
  0
LINE
  5
24A
330
2
100
AcDbEntity
  8
20MM-JOINT
  6
Continuous
 62
     6
100
AcDbLine
 10
442.2495437055869
 20
234.8768428180774
 30
0.0
 11
617.6282213974493
 21
234.8768428180774
 31
0.0
  0
LINE
  5
24B
330
2
100
AcDbEntity
  8
20MM-JOINT
  6
Continuous
 62
     6
100
AcDbLine
 10
442.2495437055869
 20
207.8493577430304
 30
0.0
 11
617.6282213974493
 21
207.8493577430303
 31
0.0
  0
TEXT
  5
24C
102
{ACAD_XDICTIONARY
360
24D
102
}
330
2
100
AcDbEntity
  8
SPECP
  6
Continuous
 62
     1
100
AcDbText
 10
679.2313696054166
 20
252.1871064539509
 30
0.0
 40
5.0
  1
SPECIFICATION BY PRODUCT
  7
ARIAL
 72
     4
 11
729.87768611292
 21
254.6888117745512
 31
0.0
100
AcDbText
1001
AcadAnnotative
1000
AnnotativeData
1002
{
1070
     1
1070
     1
1002
}
  0
TEXT
  5
251
102
{ACAD_XDICTIONARY
360
252
102
}
330
2
100
AcDbEntity
  8
SPECD
  6
Continuous
 62
     1
100
AcDbText
 10
678.965891682463
 20
222.2526519894548
 30
0.0
 40
5.0
  1
SPECIFICATION BY DESCRIPTION
  7
ARIAL
 72
     4
 11
736.2117989130224
 21
224.7543573100551
 31
0.0
100
AcDbText
1001
AcadAnnotative
1000
AnnotativeData
1002
{
1070
     1
1070
     1
1002
}
  0
MTEXT
  5
256
330
2
100
AcDbEntity
  8
ANCON-TEXT
100
AcDbMText
 10
865.7583979866361
 20
-103.3758011593649
 30
0.0
 40
6.695252439800889
 41
160.2376420553701
 46
0.0
 71
     1
 72
     5
  1
{\fArial|b0|i0|c0|p34;Leviat \PTel:  1300 304 320\PEmail: technical.au@leviat.com\PWeb: ancon.com.au / Leviat.com}
 73
     1
 44
1.0
101
Embedded Object
 70
     1
 10
1.0
 20
0.0
 30
0.0
 11
865.7583979866361
 21
-103.3758011593649
 31
0.0
 40
160.2376420553701
 41
0.0
 42
135.4898050010729
 43
40.5505773622047
 71
     2
 72
     1
 44
160.2376420553701
 45
0.8369065549751111
 73
     0
 74
     0
 46
0.0
  0
LWPOLYLINE
  5
257
330
2
100
AcDbEntity
  8
DIMS
 62
     0
100
AcDbPolyline
 90
        4
 70
     1
 43
0.0
 10
420.4314334358723
 20
281.7088367922645
 10
1016.567578336974
 20
281.7088367922645
 10
1016.567578336974
 20
-160.5598630081307
 10
420.4314334358723
 20
-160.5598630081307
  0
ENDSEC
  0
SECTION
  2
OBJECTS
  0
DICTIONARY
  5
9
330
0
100
AcDbDictionary
281
     1
  3
ACAD_CIP_PREVIOUS_PRODUCT_INFO
350
187
  3
ACAD_COLOR
350
169
  3
ACAD_DETAILVIEWSTYLE
350
182
  3
ACAD_GROUP
350
23
  3
ACAD_LAYOUT
350
D
  3
ACAD_MATERIAL
350
137
  3
ACAD_MLEADERSTYLE
350
17E
  3
ACAD_MLINESTYLE
350
24
  3
ACAD_PLOTSETTINGS
350
25
  3
ACAD_PLOTSTYLENAME
350
8
  3
ACAD_SCALELIST
350
16C
  3
ACAD_SECTIONVIEWSTYLE
350
180
  3
ACAD_TABLESTYLE
350
16A
  3
ACAD_VISUALSTYLE
350
150
  3
ACDB_RECOMPOSE_DATA
350
2C0
  3
AcDbVariableDictionary
350
2A3
  0
DICTIONARY
  5
18D
330
14
100
AcDbDictionary
280
     1
281
     1
  3
ACAD_LAYERSTATES
360
18E
  0
DICTIONARY
  5
2AD
330
6
100
AcDbDictionary
280
     1
281
     1
  3
ADSK_XREC_LAYER_RECONCILED
360
2AE
  0
DICTIONARY
  5
2AF
330
26
100
AcDbDictionary
280
     1
281
     1
  3
ADSK_XREC_LAYER_RECONCILED
360
2B0
  0
DICTIONARY
  5
2B1
330
3F
100
AcDbDictionary
280
     1
281
     1
  3
ADSK_XREC_LAYER_RECONCILED
360
2B2
  0
DICTIONARY
  5
2B3
330
E7
100
AcDbDictionary
280
     1
281
     1
  3
ADSK_XREC_LAYER_RECONCILED
360
2B4
  0
DICTIONARY
  5
2B5
330
3B
100
AcDbDictionary
280
     1
281
     1
  3
ADSK_XREC_LAYER_RECONCILED
360
2B6
  0
DICTIONARY
  5
2B7
330
2D
100
AcDbDictionary
280
     1
281
     1
  3
ADSK_XREC_LAYER_RECONCILED
360
2B8
  0
DICTIONARY
  5
2B9
330
2B
100
AcDbDictionary
280
     1
281
     1
  3
ADSK_XREC_LAYER_RECONCILED
360
2BA
  0
DICTIONARY
  5
2BB
330
C2
100
AcDbDictionary
280
     1
281
     1
  3
ADSK_XREC_LAYER_RECONCILED
360
2BC
  0
DICTIONARY
  5
189
330
188
100
AcDbDictionary
280
     1
281
     1
  3
ADSK_XREC_LAYER_RECONCILED
360
2BD
  0
DICTIONARY
  5
3
330
2
100
AcDbDictionary
280
     1
281
     1
  3
ACAD_LAYOUTSELFREF
360
4
  0
DICTIONARY
  5
F
330
E
100
AcDbDictionary
280
     1
281
     1
  3
ACAD_LAYOUTSELFREF
360
10
  0
DICTIONARY
  5
1FB
330
1FA
100
AcDbDictionary
280
     1
281
     1
  3
AcDbContextDataManager
360
1FC
  0
DICTIONARY
  5
201
330
200
100
AcDbDictionary
280
     1
281
     1
  3
AcDbContextDataManager
360
202
  0
DICTIONARY
  5
208
330
207
100
AcDbDictionary
280
     1
281
     1
  3
AcDbContextDataManager
360
209
  0
DICTIONARY
  5
20F
330
20E
100
AcDbDictionary
280
     1
281
     1
  3
AcDbContextDataManager
360
210
  0
DICTIONARY
  5
214
330
213
100
AcDbDictionary
280
     1
281
     1
  3
AcDbContextDataManager
360
215
  0
DICTIONARY
  5
219
330
218
100
AcDbDictionary
280
     1
281
     1
  3
AcDbContextDataManager
360
21A
  0
DICTIONARY
  5
21E
330
21D
100
AcDbDictionary
280
     1
281
     1
  3
AcDbContextDataManager
360
21F
  0
DICTIONARY
  5
224
330
223
100
AcDbDictionary
280
     1
281
     1
  3
AcDbContextDataManager
360
225
  0
DICTIONARY
  5
229
330
228
100
AcDbDictionary
280
     1
281
     1
  3
AcDbContextDataManager
360
22A
  0
DICTIONARY
  5
22E
330
22D
100
AcDbDictionary
280
     1
281
     1
  3
AcDbContextDataManager
360
22F
  0
DICTIONARY
  5
233
330
232
100
AcDbDictionary
280
     1
281
     1
  3
AcDbContextDataManager
360
234
  0
DICTIONARY
  5
238
330
237
100
AcDbDictionary
280
     1
281
     1
  3
AcDbContextDataManager
360
239
  0
DICTIONARY
  5
240
330
23F
100
AcDbDictionary
280
     1
281
     1
  3
AcDbContextDataManager
360
241
  0
DICTIONARY
  5
245
330
244
100
AcDbDictionary
280
     1
281
     1
  3
AcDbContextDataManager
360
246
  0
DICTIONARY
  5
24D
330
24C
100
AcDbDictionary
280
     1
281
     1
  3
AcDbContextDataManager
360
24E
  0
DICTIONARY
  5
252
330
251
100
AcDbDictionary
280
     1
281
     1
  3
AcDbContextDataManager
360
253
  0
XRECORD
  5
187
102
{ACAD_REACTORS
330
9
102
}
330
9
100
AcDbXrecord
280
     1
300
ACDLT
300
2020
300

  0
DICTIONARY
  5
169
102
{ACAD_REACTORS
330
9
102
}
330
9
100
AcDbDictionary
281
     1
  0
DICTIONARY
  5
182
102
{ACAD_REACTORS
330
9
102
}
330
9
100
AcDbDictionary
281
     1
  3
Imperial24
350
183
  0
DICTIONARY
  5
23
102
{ACAD_REACTORS
330
9
102
}
330
9
100
AcDbDictionary
281
     1
  0
DICTIONARY
  5
D
102
{ACAD_REACTORS
330
9
102
}
330
9
100
AcDbDictionary
281
     1
  3
Layout1
350
13
  3
Model
350
C
  0
DICTIONARY
  5
137
102
{ACAD_REACTORS
330
9
102
}
330
9
100
AcDbDictionary
281
     1
  3
ByBlock
350
140
  3
ByLayer
350
138
  3
Global
350
148
  0
DICTIONARY
  5
17E
102
{ACAD_REACTORS
330
9
102
}
330
9
100
AcDbDictionary
281
     1
  3
Standard
350
17F
  0
DICTIONARY
  5
24
102
{ACAD_REACTORS
330
9
102
}
330
9
100
AcDbDictionary
281
     1
  3
Standard
350
28
  0
DICTIONARY
  5
25
102
{ACAD_REACTORS
330
9
102
}
330
9
100
AcDbDictionary
281
     1
  0
ACDBDICTIONARYWDFLT
  5
8
102
{ACAD_REACTORS
330
9
102
}
330
9
100
AcDbDictionary
281
     1
  3
Normal
350
7
100
AcDbDictionaryWithDefault
340
7
  0
DICTIONARY
  5
16C
102
{ACAD_REACTORS
330
9
102
}
330
9
100
AcDbDictionary
281
     1
  3
A0
350
16D
  3
A1
350
16E
  3
A2
350
16F
  3
A3
350
170
  3
A4
350
171
  3
A5
350
172
  3
A6
350
173
  3
A7
350
174
  3
A8
350
175
  3
A9
350
176
  3
B0
350
177
  3
B1
350
178
  3
B2
350
179
  3
B3
350
17A
  3
B4
350
17B
  3
B5
350
17C
  3
B6
350
17D
  0
DICTIONARY
  5
180
102
{ACAD_REACTORS
330
9
102
}
330
9
100
AcDbDictionary
281
     1
  3
Imperial24
350
181
  0
DICTIONARY
  5
16A
102
{ACAD_REACTORS
330
9
102
}
330
9
100
AcDbDictionary
281
     1
  3
Standard
350
16B
  0
DICTIONARY
  5
150
102
{ACAD_REACTORS
330
9
102
}
330
9
100
AcDbDictionary
281
     1
  3
2dWireframe
350
156
  3
Basic
350
155
  3
Brighten
350
15C
  3
ColorChange
350
160
  3
Conceptual
350
159
  3
Dim
350
15B
  3
EdgeColorOff
350
168
  3
Facepattern
350
15F
  3
Flat
350
151
  3
FlatWithEdges
350
152
  3
Gouraud
350
153
  3
GouraudWithEdges
350
154
  3
Hidden
350
158
  3
JitterOff
350
166
  3
Linepattern
350
15E
  3
OverhangOff
350
167
  3
Realistic
350
15A
  3
Shaded
350
165
  3
Shaded with edges
350
164
  3
Shades of Gray
350
161
  3
Sketchy
350
162
  3
Thicken
350
15D
  3
Wireframe
350
157
  3
X-Ray
350
163
  0
XRECORD
  5
2C0
102
{ACAD_REACTORS
330
9
102
}
330
9
100
AcDbXrecord
280
     1
 90
        1
330
16B
  0
DICTIONARY
  5
2A3
102
{ACAD_REACTORS
330
9
102
}
330
9
100
AcDbDictionary
281
     1
  3
CANNOSCALE
350
2A9
  3
CMLEADERSTYLE
350
2A5
  3
CTABLESTYLE
350
2A4
  3
CVIEWDETAILSTYLE
350
2A6
  3
CVIEWSECTIONSTYLE
350
2A7
  3
LAYEREVAL
350
2AB
  3
LAYERNOTIFY
350
2AC
  3
LIGHTINGUNITS
350
2AA
  3
MSLTSCALE
350
2A8
  0
DICTIONARY
  5
18E
102
{ACAD_REACTORS
330
18D
102
}
330
18D
100
AcDbDictionary
281
     1
  0
XRECORD
  5
2AE
102
{ACAD_REACTORS
330
2AD
102
}
330
2AD
100
AcDbXrecord
280
     1
290
     1
  0
XRECORD
  5
2B0
102
{ACAD_REACTORS
330
2AF
102
}
330
2AF
100
AcDbXrecord
280
     1
290
     1
  0
XRECORD
  5
2B2
102
{ACAD_REACTORS
330
2B1
102
}
330
2B1
100
AcDbXrecord
280
     1
290
     1
  0
XRECORD
  5
2B4
102
{ACAD_REACTORS
330
2B3
102
}
330
2B3
100
AcDbXrecord
280
     1
290
     1
  0
XRECORD
  5
2B6
102
{ACAD_REACTORS
330
2B5
102
}
330
2B5
100
AcDbXrecord
280
     1
290
     1
  0
XRECORD
  5
2B8
102
{ACAD_REACTORS
330
2B7
102
}
330
2B7
100
AcDbXrecord
280
     1
290
     1
  0
XRECORD
  5
2BA
102
{ACAD_REACTORS
330
2B9
102
}
330
2B9
100
AcDbXrecord
280
     1
290
     1
  0
XRECORD
  5
2BC
102
{ACAD_REACTORS
330
2BB
102
}
330
2BB
100
AcDbXrecord
280
     1
290
     1
  0
XRECORD
  5
2BD
102
{ACAD_REACTORS
330
189
102
}
330
189
100
AcDbXrecord
280
     1
290
     1
  0
XRECORD
  5
4
102
{ACAD_REACTORS
330
3
102
}
330
3
100
AcDbXrecord
280
     1
340
2
  0
XRECORD
  5
10
102
{ACAD_REACTORS
330
F
102
}
330
F
100
AcDbXrecord
280
     1
340
E
  0
DICTIONARY
  5
1FC
102
{ACAD_REACTORS
330
1FB
102
}
330
1FB
100
AcDbDictionary
281
     1
  3
ACDB_ANNOTATIONSCALES
350
1FD
  0
DICTIONARY
  5
202
102
{ACAD_REACTORS
330
201
102
}
330
201
100
AcDbDictionary
281
     1
  3
ACDB_ANNOTATIONSCALES
350
203
  0
DICTIONARY
  5
209
102
{ACAD_REACTORS
330
208
102
}
330
208
100
AcDbDictionary
281
     1
  3
ACDB_ANNOTATIONSCALES
350
20A
  0
DICTIONARY
  5
210
102
{ACAD_REACTORS
330
20F
102
}
330
20F
100
AcDbDictionary
281
     1
  3
ACDB_ANNOTATIONSCALES
350
211
  0
DICTIONARY
  5
215
102
{ACAD_REACTORS
330
214
102
}
330
214
100
AcDbDictionary
281
     1
  3
ACDB_ANNOTATIONSCALES
350
216
  0
DICTIONARY
  5
21A
102
{ACAD_REACTORS
330
219
102
}
330
219
100
AcDbDictionary
281
     1
  3
ACDB_ANNOTATIONSCALES
350
21B
  0
DICTIONARY
  5
21F
102
{ACAD_REACTORS
330
21E
102
}
330
21E
100
AcDbDictionary
281
     1
  3
ACDB_ANNOTATIONSCALES
350
220
  0
DICTIONARY
  5
225
102
{ACAD_REACTORS
330
224
102
}
330
224
100
AcDbDictionary
281
     1
  3
ACDB_ANNOTATIONSCALES
350
226
  0
DICTIONARY
  5
22A
102
{ACAD_REACTORS
330
229
102
}
330
229
100
AcDbDictionary
281
     1
  3
ACDB_ANNOTATIONSCALES
350
22B
  0
DICTIONARY
  5
22F
102
{ACAD_REACTORS
330
22E
102
}
330
22E
100
AcDbDictionary
281
     1
  3
ACDB_ANNOTATIONSCALES
350
230
  0
DICTIONARY
  5
234
102
{ACAD_REACTORS
330
233
102
}
330
233
100
AcDbDictionary
281
     1
  3
ACDB_ANNOTATIONSCALES
350
235
  0
DICTIONARY
  5
239
102
{ACAD_REACTORS
330
238
102
}
330
238
100
AcDbDictionary
281
     1
  3
ACDB_ANNOTATIONSCALES
350
23A
  0
DICTIONARY
  5
241
102
{ACAD_REACTORS
330
240
102
}
330
240
100
AcDbDictionary
281
     1
  3
ACDB_ANNOTATIONSCALES
350
242
  0
DICTIONARY
  5
246
102
{ACAD_REACTORS
330
245
102
}
330
245
100
AcDbDictionary
281
     1
  3
ACDB_ANNOTATIONSCALES
350
247
  0
DICTIONARY
  5
24E
102
{ACAD_REACTORS
330
24D
102
}
330
24D
100
AcDbDictionary
281
     1
  3
ACDB_ANNOTATIONSCALES
350
24F
  0
DICTIONARY
  5
253
102
{ACAD_REACTORS
330
252
102
}
330
252
100
AcDbDictionary
281
     1
  3
ACDB_ANNOTATIONSCALES
350
254
  0
ACDBDETAILVIEWSTYLE
  5
183
102
{ACAD_REACTORS
330
182
102
}
330
182
100
AcDbModelDocViewStyle
 70
     0
  3
Imperial24
290
     1
300
Imperial24
 90
        0
100
AcDbDetailViewStyle
 70
     0
 71
     0
 90
        3
 71
     1
340
16
 62
   256
 40
0.24
340
0
 62
   256
 40
0.24
300

 40
0.36
280
     3
 71
     2
340
A
 90
       25
 62
   256
 71
     3
340
16
 62
   256
 40
0.24
 90
        1
 40
0.75
 90
        1
300
%<\AcVar ViewType \f "%tc1">% %<\AcVar ViewDetailId>%\PSCALE %<\AcVar ViewScale \f "%sn">%
 71
     4
340
A
 90
       25
 62
   256
340
A
 90
       25
 62
   256
280
     0
  0
LAYOUT
  5
13
102
{ACAD_REACTORS
330
D
102
}
330
D
100
AcDbPlotSettings
  1

  2
None
  4

  6

 40
0.0
 41
0.0
 42
0.0
 43
0.0
 44
0.0
 45
0.0
 46
0.0
 47
0.0
 48
0.0
 49
0.0
140
0.0
141
0.0
142
1.0
143
1.0
 70
   688
 72
     0
 73
     0
 74
     5
  7
Std pen settings.ctb
 75
    16
147
1.0
 76
     0
 77
     2
 78
   300
148
0.0
149
0.0
100
AcDbLayout
  1
Layout1
 70
     1
 71
     1
 10
-0.1979161059762549
 20
-0.1979166691697489
 11
16.34375024029589
 21
11.49541603298638
 12
0.0
 22
0.0
 32
0.0
 14
1.614583349603368
 24
1.129749872553066
 34
0.0
 15
14.5312501464303
 25
10.1677488529776
 35
0.0
146
0.0
 13
0.0
 23
0.0
 33
0.0
 16
1.0
 26
0.0
 36
0.0
 17
0.0
 27
1.0
 37
0.0
 76
     0
330
E
  0
LAYOUT
  5
C
102
{ACAD_REACTORS
330
D
102
}
330
D
100
AcDbPlotSettings
  1

  2
None
  4

  6

 40
0.0
 41
0.0
 42
0.0
 43
0.0
 44
0.0
 45
0.0
 46
0.0
 47
0.0
 48
0.0
 49
0.0
140
0.0
141
0.0
142
1.0
143
1.0
 70
  1712
 72
     0
 73
     0
 74
     0
  7
Std pen settings.ctb
 75
     0
147
1.0
 76
     0
 77
     2
 78
   300
148
0.0
149
0.0
100
AcDbLayout
  1
Model
 70
     1
 71
     0
 10
0.0
 20
0.0
 11
12.0
 21
9.0
 12
0.0
 22
0.0
 32
0.0
 14
0.0
 24
0.0
 34
0.0
 15
0.0
 25
0.0
 35
0.0
146
0.0
 13
0.0
 23
0.0
 33
0.0
 16
1.0
 26
0.0
 36
0.0
 17
0.0
 27
1.0
 37
0.0
 76
     0
330
2
331
1E
  0
MATERIAL
  5
140
102
{ACAD_XDICTIONARY
360
141
102
}
102
{ACAD_REACTORS
330
137
102
}
330
137
100
AcDbMaterial
  1
ByBlock
 72
     0
 43
0.0208333333333333
 43
0.0
 43
0.0
 43
0.0
 43
0.0
 43
0.0208333333333333
 43
0.0
 43
0.0
 43
0.0
 43
0.0
 43
1.0
 43
0.0
 43
0.0
 43
0.0
 43
0.0
 43
1.0
 77
     0
 47
0.0208333333333333
 47
0.0
 47
0.0
 47
0.0
 47
0.0
 47
0.0208333333333333
 47
0.0
 47
0.0
 47
0.0
 47
0.0
 47
1.0
 47
0.0
 47
0.0
 47
0.0
 47
0.0
 47
1.0
171
     0
 49
0.0208333333333333
 49
0.0
 49
0.0
 49
0.0
 49
0.0
 49
0.0208333333333333
 49
0.0
 49
0.0
 49
0.0
 49
0.0
 49
1.0
 49
0.0
 49
0.0
 49
0.0
 49
0.0
 49
1.0
175
     0
142
0.0208333333333333
142
0.0
142
0.0
142
0.0
142
0.0
142
0.0208333333333333
142
0.0
142
0.0
142
0.0
142
0.0
142
1.0
142
0.0
142
0.0
142
0.0
142
0.0
142
1.0
179
     0
144
0.0208333333333333
144
0.0
144
0.0
144
0.0
144
0.0
144
0.0208333333333333
144
0.0
144
0.0
144
0.0
144
0.0
144
1.0
144
0.0
144
0.0
144
0.0
144
0.0
144
1.0
147
0.0208333333333333
147
0.0
147
0.0
147
0.0
147
0.0
147
0.0208333333333333
147
0.0
147
0.0
147
0.0
147
0.0
147
1.0
147
0.0
147
0.0
147
0.0
147
0.0
147
1.0
  0
MATERIAL
  5
138
102
{ACAD_XDICTIONARY
360
139
102
}
102
{ACAD_REACTORS
330
137
102
}
330
137
100
AcDbMaterial
  1
ByLayer
 72
     0
 43
0.0208333333333333
 43
0.0
 43
0.0
 43
0.0
 43
0.0
 43
0.0208333333333333
 43
0.0
 43
0.0
 43
0.0
 43
0.0
 43
1.0
 43
0.0
 43
0.0
 43
0.0
 43
0.0
 43
1.0
 77
     0
 47
0.0208333333333333
 47
0.0
 47
0.0
 47
0.0
 47
0.0
 47
0.0208333333333333
 47
0.0
 47
0.0
 47
0.0
 47
0.0
 47
1.0
 47
0.0
 47
0.0
 47
0.0
 47
0.0
 47
1.0
171
     0
 49
0.0208333333333333
 49
0.0
 49
0.0
 49
0.0
 49
0.0
 49
0.0208333333333333
 49
0.0
 49
0.0
 49
0.0
 49
0.0
 49
1.0
 49
0.0
 49
0.0
 49
0.0
 49
0.0
 49
1.0
175
     0
142
0.0208333333333333
142
0.0
142
0.0
142
0.0
142
0.0
142
0.0208333333333333
142
0.0
142
0.0
142
0.0
142
0.0
142
1.0
142
0.0
142
0.0
142
0.0
142
0.0
142
1.0
179
     0
144
0.0208333333333333
144
0.0
144
0.0
144
0.0
144
0.0
144
0.0208333333333333
144
0.0
144
0.0
144
0.0
144
0.0
144
1.0
144
0.0
144
0.0
144
0.0
144
0.0
144
1.0
147
0.0208333333333333
147
0.0
147
0.0
147
0.0
147
0.0
147
0.0208333333333333
147
0.0
147
0.0
147
0.0
147
0.0
147
1.0
147
0.0
147
0.0
147
0.0
147
0.0
147
1.0
  0
MATERIAL
  5
148
102
{ACAD_XDICTIONARY
360
149
102
}
102
{ACAD_REACTORS
330
137
102
}
330
137
100
AcDbMaterial
  1
Global
 72
     0
 43
0.0208333333333333
 43
0.0
 43
0.0
 43
0.0
 43
0.0
 43
0.0208333333333333
 43
0.0
 43
0.0
 43
0.0
 43
0.0
 43
1.0
 43
0.0
 43
0.0
 43
0.0
 43
0.0
 43
1.0
 77
     0
 47
0.0208333333333333
 47
0.0
 47
0.0
 47
0.0
 47
0.0
 47
0.0208333333333333
 47
0.0
 47
0.0
 47
0.0
 47
0.0
 47
1.0
 47
0.0
 47
0.0
 47
0.0
 47
0.0
 47
1.0
171
     0
 49
0.0208333333333333
 49
0.0
 49
0.0
 49
0.0
 49
0.0
 49
0.0208333333333333
 49
0.0
 49
0.0
 49
0.0
 49
0.0
 49
1.0
 49
0.0
 49
0.0
 49
0.0
 49
0.0
 49
1.0
175
     0
142
0.0208333333333333
142
0.0
142
0.0
142
0.0
142
0.0
142
0.0208333333333333
142
0.0
142
0.0
142
0.0
142
0.0
142
1.0
142
0.0
142
0.0
142
0.0
142
0.0
142
1.0
179
     0
144
0.0208333333333333
144
0.0
144
0.0
144
0.0
144
0.0
144
0.0208333333333333
144
0.0
144
0.0
144
0.0
144
0.0
144
1.0
144
0.0
144
0.0
144
0.0
144
0.0
144
1.0
147
0.0208333333333333
147
0.0
147
0.0
147
0.0
147
0.0
147
0.0208333333333333
147
0.0
147
0.0
147
0.0
147
0.0
147
1.0
147
0.0
147
0.0
147
0.0
147
0.0
147
1.0
  0
MLEADERSTYLE
  5
17F
102
{ACAD_REACTORS
330
17E
102
}
330
17E
100
AcDbMLeaderStyle
179
     2
170
     2
171
     1
172
     0
 90
        2
 40
0.0
 41
0.0
173
     1
 91
-1056964608
340
19
 92
       -2
290
     1
 42
0.09
291
     1
 43
0.36
  3
Standard
 44
0.18
300

342
16
174
     1
178
     6
175
     1
176
     0
 93
-1056964608
 45
0.18
292
     0
297
     0
 46
0.18
 94
-1056964608
 47
1.0
 49
1.0
140
1.0
293
     1
141
0.0
294
     1
177
     0
142
1.0
295
     1
296
     0
143
0.125
271
     0
272
     9
273
     9
298
     1
  0
MLINESTYLE
  5
28
102
{ACAD_REACTORS
330
24
102
}
330
24
100
AcDbMlineStyle
  2
STANDARD
 70
     0
  3

 62
   256
 51
90.0
 52
90.0
 71
     2
 49
0.5
 62
   256
  6
BYLAYER
 49
-0.5
 62
   256
  6
BYLAYER
  0
ACDBPLACEHOLDER
  5
7
102
{ACAD_REACTORS
330
8
102
}
330
8
  0
SCALE
  5
16D
102
{ACAD_REACTORS
330
16C
102
}
330
16C
100
AcDbScale
 70
     0
300
1:1
140
1.0
141
1.0
290
     1
  0
SCALE
  5
16E
102
{ACAD_REACTORS
330
16C
102
}
330
16C
100
AcDbScale
 70
     0
300
1/128" = 1'-0"
140
0.0078125
141
12.0
290
     0
  0
SCALE
  5
16F
102
{ACAD_REACTORS
330
16C
102
}
330
16C
100
AcDbScale
 70
     0
300
1/64" = 1'-0"
140
0.015625
141
12.0
290
     0
  0
SCALE
  5
170
102
{ACAD_REACTORS
330
16C
102
}
330
16C
100
AcDbScale
 70
     0
300
1/32" = 1'-0"
140
0.03125
141
12.0
290
     0
  0
SCALE
  5
171
102
{ACAD_REACTORS
330
16C
102
}
330
16C
100
AcDbScale
 70
     0
300
1/16" = 1'-0"
140
0.0625
141
12.0
290
     0
  0
SCALE
  5
172
102
{ACAD_REACTORS
330
16C
102
}
330
16C
100
AcDbScale
 70
     0
300
3/32" = 1'-0"
140
0.09375
141
12.0
290
     0
  0
SCALE
  5
173
102
{ACAD_REACTORS
330
16C
102
}
330
16C
100
AcDbScale
 70
     0
300
1/8" = 1'-0"
140
0.125
141
12.0
290
     0
  0
SCALE
  5
174
102
{ACAD_REACTORS
330
16C
102
}
330
16C
100
AcDbScale
 70
     0
300
3/16" = 1'-0"
140
0.1875
141
12.0
290
     0
  0
SCALE
  5
175
102
{ACAD_REACTORS
330
16C
102
}
330
16C
100
AcDbScale
 70
     0
300
1/4" = 1'-0"
140
0.25
141
12.0
290
     0
  0
SCALE
  5
176
102
{ACAD_REACTORS
330
16C
102
}
330
16C
100
AcDbScale
 70
     0
300
3/8" = 1'-0"
140
0.375
141
12.0
290
     0
  0
SCALE
  5
177
102
{ACAD_REACTORS
330
16C
102
}
330
16C
100
AcDbScale
 70
     0
300
1/2" = 1'-0"
140
0.5
141
12.0
290
     0
  0
SCALE
  5
178
102
{ACAD_REACTORS
330
16C
102
}
330
16C
100
AcDbScale
 70
     0
300
3/4" = 1'-0"
140
0.75
141
12.0
290
     0
  0
SCALE
  5
179
102
{ACAD_REACTORS
330
16C
102
}
330
16C
100
AcDbScale
 70
     0
300
1" = 1'-0"
140
1.0
141
12.0
290
     0
  0
SCALE
  5
17A
102
{ACAD_REACTORS
330
16C
102
}
330
16C
100
AcDbScale
 70
     0
300
1-1/2" = 1'-0"
140
1.5
141
12.0
290
     0
  0
SCALE
  5
17B
102
{ACAD_REACTORS
330
16C
102
}
330
16C
100
AcDbScale
 70
     0
300
3" = 1'-0"
140
3.0
141
12.0
290
     0
  0
SCALE
  5
17C
102
{ACAD_REACTORS
330
16C
102
}
330
16C
100
AcDbScale
 70
     0
300
6" = 1'-0"
140
6.0
141
12.0
290
     0
  0
SCALE
  5
17D
102
{ACAD_REACTORS
330
16C
102
}
330
16C
100
AcDbScale
 70
     0
300
1'-0" = 1'-0"
140
12.0
141
12.0
290
     0
  0
ACDBSECTIONVIEWSTYLE
  5
181
102
{ACAD_REACTORS
330
180
102
}
330
180
100
AcDbModelDocViewStyle
 70
     0
  3
Imperial24
290
     1
300
Imperial24
 90
        0
100
AcDbSectionViewStyle
 70
     0
 71
     0
 90
       78
 71
     1
340
16
 62
   256
 40
0.24
340
0
340
0
 62
   256
 40
0.24
300
I, O, Q, S, X, Z
 40
0.48
 90
        3
 40
0.18
 90
        1
 71
     2
340
A
 90
       25
 62
   256
340
A
 90
       50
 62
   256
 40
0.24
 40
0.0
 40
0.24
 71
     3
340
16
 62
   256
 40
0.24
 90
        1
 40
0.75
 90
        1
300
%<\AcVar ViewType \f "%tc1">% %<\AcVar ViewSectionStartId>%-%<\AcVar ViewSectionEndId>%\PSCALE %<\AcVar ViewScale \f "%sn">%
 71
     4
 62
   256
 62
   257
300
ANSI31
 40
1.0
 90
        0
290
     0
290
     0
 90
        6
 40
0.0
 40
1.570796326794896
 40
0.2617993877991494
 40
1.308996938995747
 40
-0.2617993877991494
 40
1.832595714594046
  0
TABLESTYLE
  5
16B
102
{ACAD_XDICTIONARY
360
2BE
102
}
102
{ACAD_REACTORS
330
16A
102
}
330
16A
100
AcDbTableStyle
280
     0
  3
Standard
 70
     0
 71
     0
 40
0.06
 41
0.06
280
     0
281
     0
  7
STANDARD
140
0.18
170
     2
 62
     0
 63
     7
283
     0
 90
      512
 91
        0
  1

274
    -2
284
     1
 64
     0
275
    -2
285
     1
 65
     0
276
    -2
286
     1
 66
     0
277
    -2
287
     1
 67
     0
278
    -2
288
     1
 68
     0
279
    -2
289
     1
 69
     0
  7
STANDARD
140
0.25
170
     5
 62
     0
 63
     7
283
     0
 90
      512
 91
        0
  1

274
    -2
284
     1
 64
     0
275
    -2
285
     1
 65
     0
276
    -2
286
     1
 66
     0
277
    -2
287
     1
 67
     0
278
    -2
288
     1
 68
     0
279
    -2
289
     1
 69
     0
  7
STANDARD
140
0.18
170
     5
 62
     0
 63
     7
283
     0
 90
      512
 91
        0
  1

274
    -2
284
     1
 64
     0
275
    -2
285
     1
 65
     0
276
    -2
286
     1
 66
     0
277
    -2
287
     1
 67
     0
278
    -2
288
     1
 68
     0
279
    -2
289
     1
 69
     0
  0
VISUALSTYLE
  5
156
102
{ACAD_REACTORS
330
150
102
}
330
150
100
AcDbVisualStyle
  2
2dWireframe
 70
     4
177
     3
291
     0
 70
    58
 90
        0
176
     1
 90
        2
176
     1
 90
        0
176
     1
 90
        0
176
     1
 40
0.6
176
     1
 40
30.0
176
     1
 62
     7
420
 16777215
176
     1
 90
        1
176
     1
 90
        4
176
     1
 62
     7
176
     1
 62
   257
176
     1
 90
        1
176
     1
 90
        1
176
     1
 40
1.0
176
     1
 90
        0
176
     1
 62
   257
176
     1
 40
1.0
176
     1
 90
        1
176
     1
 90
        6
176
     1
 90
        2
176
     1
 62
     7
176
     1
 90
        5
176
     1
 90
        0
176
     1
 90
        0
176
     1
290
     0
176
     1
 90
        1
176
     1
 40
0.0
176
     1
 90
        0
176
     1
290
     1
176
     1
290
     1
176
     1
290
     0
176
     1
290
     0
176
     1
290
     0
176
     1
290
     0
176
     1
290
     0
176
     1
290
     0
176
     1
290
     0
176
     1
 90
       50
176
     1
 40
0.0
176
     1
 40
1.0
176
     1
 90
        0
176
     1
 62
    18
420
        0
176
     1
 90
       50
176
     1
 90
        3
176
     1
 62
     5
420
      255
176
     1
290
     0
176
     1
 90
       50
176
     1
 90
       50
176
     1
 90
       50
176
     1
290
     0
176
     1
 90
       50
176
     1
 62
   256
176
     0
 40
1.0
176
     0
 90
        2
176
     1
  1
strokes_ogs.tif
176
     1
290
     0
176
     1
 40
1.0
176
     1
 40
1.0
176
     1
  0
VISUALSTYLE
  5
155
102
{ACAD_REACTORS
330
150
102
}
330
150
100
AcDbVisualStyle
  2
Basic
 70
     7
177
     3
291
     1
 70
    58
 90
        1
176
     1
 90
        0
176
     1
 90
        1
176
     1
 90
        0
176
     1
 40
0.6
176
     1
 40
30.0
176
     1
 62
     7
420
 16777215
176
     1
 90
        0
176
     1
 90
        4
176
     1
 62
     7
176
     1
 62
   257
176
     1
 90
        1
176
     1
 90
        1
176
     1
 40
1.0
176
     1
 90
        8
176
     1
 62
     7
176
     1
 40
1.0
176
     1
 90
        1
176
     1
 90
        6
176
     1
 90
        2
176
     1
 62
     7
176
     1
 90
        5
176
     1
 90
        0
176
     1
 90
        0
176
     1
290
     0
176
     1
 90
        1
176
     1
 40
0.0
176
     1
 90
        0
176
     1
290
     0
176
     1
290
     1
176
     1
290
     1
176
     1
290
     0
176
     1
290
     0
176
     1
290
     0
176
     1
290
     0
176
     1
290
     0
176
     1
290
     0
176
     1
 90
       50
176
     1
 40
0.0
176
     1
 40
1.0
176
     1
 90
        0
176
     1
 62
    18
420
        0
176
     1
 90
       50
176
     1
 90
        3
176
     1
 62
     5
420
      255
176
     1
290
     0
176
     1
 90
       50
176
     1
 90
       50
176
     1
 90
       50
176
     1
290
     0
176
     1
 90
       50
176
     1
 62
   256
176
     0
 40
1.0
176
     0
 90
        2
176
     1
  1
strokes_ogs.tif
176
     1
290
     0
176
     1
 40
1.0
176
     1
 40
1.0
176
     1
  0
VISUALSTYLE
  5
15C
102
{ACAD_REACTORS
330
150
102
}
330
150
100
AcDbVisualStyle
  2
Brighten
 70
    12
177
     3
291
     1
 70
    58
 90
        2
176
     1
 90
        2
176
     1
 90
        0
176
     1
 90
        0
176
     1
 40
0.6
176
     1
 40
30.0
176
     1
 62
     7
420
 16777215
176
     1
 90
        1
176
     1
 90
        4
176
     1
 62
     7
176
     1
 62
   257
176
     1
 90
        1
176
     1
 90
        1
176
     1
 40
1.0
176
     1
 90
        8
176
     1
 62
     7
176
     1
 40
1.0
176
     1
 90
        1
176
     1
 90
        6
176
     1
 90
        2
176
     1
 62
     7
176
     1
 90
        5
176
     1
 90
        0
176
     1
 90
        0
176
     1
290
     0
176
     1
 90
        1
176
     1
 40
50.0
176
     1
 90
        0
176
     1
290
     0
176
     1
290
     1
176
     1
290
     1
176
     1
290
     0
176
     1
290
     0
176
     1
290
     0
176
     1
290
     0
176
     1
290
     0
176
     1
290
     0
176
     1
 90
       50
176
     1
 40
0.0
176
     1
 40
1.0
176
     1
 90
        0
176
     1
 62
    18
420
        0
176
     1
 90
       50
176
     1
 90
        3
176
     1
 62
     5
420
      255
176
     1
290
     0
176
     1
 90
       50
176
     1
 90
       50
176
     1
 90
       50
176
     1
290
     0
176
     1
 90
       50
176
     1
 62
   256
176
     0
 40
1.0
176
     0
 90
        2
176
     1
  1
strokes_ogs.tif
176
     1
290
     0
176
     1
 40
1.0
176
     1
 40
1.0
176
     1
  0
VISUALSTYLE
  5
160
102
{ACAD_REACTORS
330
150
102
}
330
150
100
AcDbVisualStyle
  2
ColorChange
 70
    16
177
     3
291
     1
 70
    58
 90
        2
176
     1
 90
        2
176
     1
 90
        3
176
     1
 90
        0
176
     1
 40
0.6
176
     1
 40
30.0
176
     1
 62
     8
420
  8421504
176
     1
 90
        1
176
     1
 90
        4
176
     1
 62
     7
176
     1
 62
   257
176
     1
 90
        1
176
     1
 90
        1
176
     1
 40
1.0
176
     1
 90
        8
176
     1
 62
     8
420
  8421504
176
     1
 40
1.0
176
     1
 90
        1
176
     1
 90
        6
176
     1
 90
        2
176
     1
 62
     7
176
     1
 90
        5
176
     1
 90
        0
176
     1
 90
        0
176
     1
290
     0
176
     1
 90
        1
176
     1
 40
0.0
176
     1
 90
        0
176
     1
290
     0
176
     1
290
     1
176
     1
290
     1
176
     1
290
     0
176
     1
290
     0
176
     1
290
     0
176
     1
290
     0
176
     1
290
     0
176
     1
290
     0
176
     1
 90
       50
176
     1
 40
0.0
176
     1
 40
1.0
176
     1
 90
        0
176
     1
 62
    18
420
        0
176
     1
 90
       50
176
     1
 90
        3
176
     1
 62
     5
420
      255
176
     1
290
     0
176
     1
 90
       50
176
     1
 90
       50
176
     1
 90
       50
176
     1
290
     0
176
     1
 90
       50
176
     1
 62
   256
176
     0
 40
1.0
176
     0
 90
        2
176
     1
  1
strokes_ogs.tif
176
     1
290
     0
176
     1
 40
1.0
176
     1
 40
1.0
176
     1
  0
VISUALSTYLE
  5
159
102
{ACAD_REACTORS
330
150
102
}
330
150
100
AcDbVisualStyle
  2
Conceptual
 70
     9
177
     3
291
     0
 70
    58
 90
        3
176
     1
 90
        2
176
     1
 90
        0
176
     1
 90
        0
176
     1
 40
0.6
176
     1
 40
30.0
176
     1
 62
     7
420
 16777215
176
     1
 90
        2
176
     1
 90
        2
176
     1
 62
     7
176
     1
 62
   257
176
     1
 90
        1
176
     1
 90
        1
176
     1
 40
179.0
176
     1
 90
        8
176
     1
 62
     7
176
     1
 40
1.0
176
     1
 90
        1
176
     1
 90
        6
176
     1
 90
        2
176
     1
 62
     7
176
     1
 90
        3
176
     1
 90
        0
176
     1
 90
        0
176
     1
290
     0
176
     1
 90
        1
176
     1
 40
0.0
176
     1
 90
        0
176
     1
290
     0
176
     1
290
     1
176
     1
290
     1
176
     1
290
     0
176
     1
290
     0
176
     1
290
     0
176
     1
290
     0
176
     1
290
     0
176
     1
290
     0
176
     1
 90
       50
176
     1
 40
0.0
176
     1
 40
1.0
176
     1
 90
        0
176
     1
 62
    18
420
        0
176
     1
 90
       50
176
     1
 90
        3
176
     1
 62
     5
420
      255
176
     1
290
     0
176
     1
 90
       50
176
     1
 90
       50
176
     1
 90
       50
176
     1
290
     0
176
     1
 90
       50
176
     1
 62
   256
176
     0
 40
1.0
176
     0
 90
        2
176
     1
  1
strokes_ogs.tif
176
     1
290
     0
176
     1
 40
1.0
176
     1
 40
1.0
176
     1
  0
VISUALSTYLE
  5
15B
102
{ACAD_REACTORS
330
150
102
}
330
150
100
AcDbVisualStyle
  2
Dim
 70
    11
177
     3
291
     1
 70
    58
 90
        2
176
     1
 90
        2
176
     1
 90
        0
176
     1
 90
        0
176
     1
 40
0.6
176
     1
 40
30.0
176
     1
 62
     7
420
 16777215
176
     1
 90
        1
176
     1
 90
        4
176
     1
 62
     7
176
     1
 62
   257
176
     1
 90
        1
176
     1
 90
        1
176
     1
 40
1.0
176
     1
 90
        8
176
     1
 62
     7
176
     1
 40
1.0
176
     1
 90
        1
176
     1
 90
        6
176
     1
 90
        2
176
     1
 62
     7
176
     1
 90
        5
176
     1
 90
        0
176
     1
 90
        0
176
     1
290
     0
176
     1
 90
        1
176
     1
 40
-50.0
176
     1
 90
        0
176
     1
290
     0
176
     1
290
     1
176
     1
290
     1
176
     1
290
     0
176
     1
290
     0
176
     1
290
     0
176
     1
290
     0
176
     1
290
     0
176
     1
290
     0
176
     1
 90
       50
176
     1
 40
0.0
176
     1
 40
1.0
176
     1
 90
        0
176
     1
 62
    18
420
        0
176
     1
 90
       50
176
     1
 90
        3
176
     1
 62
     5
420
      255
176
     1
290
     0
176
     1
 90
       50
176
     1
 90
       50
176
     1
 90
       50
176
     1
290
     0
176
     1
 90
       50
176
     1
 62
   256
176
     0
 40
1.0
176
     0
 90
        2
176
     1
  1
strokes_ogs.tif
176
     1
290
     0
176
     1
 40
1.0
176
     1
 40
1.0
176
     1
  0
VISUALSTYLE
  5
168
102
{ACAD_REACTORS
330
150
102
}
330
150
100
AcDbVisualStyle
  2
EdgeColorOff
 70
    22
177
     3
291
     1
 70
    58
 90
        2
176
     0
 90
        2
176
     0
 90
        0
176
     0
 90
        0
176
     0
 40
0.6
176
     0
 40
30.0
176
     0
 62
     7
420
 16777215
176
     0
 90
        1
176
     0
 90
        4
176
     0
 62
     7
176
     0
 62
   257
176
     0
 90
        1
176
     0
 90
        1
176
     0
 40
1.0
176
     0
 90
        8
176
     2
 62
     7
176
     0
 40
1.0
176
     0
 90
        1
176
     0
 90
        6
176
     0
 90
        2
176
     0
 62
     7
176
     0
 90
        5
176
     0
 90
        0
176
     0
 90
        0
176
     0
290
     0
176
     0
 90
        1
176
     0
 40
0.0
176
     0
 90
        0
176
     0
290
     0
176
     0
290
     1
176
     0
290
     1
176
     0
290
     0
176
     0
290
     0
176
     0
290
     0
176
     0
290
     0
176
     0
290
     0
176
     0
290
     0
176
     0
 90
       50
176
     0
 40
0.0
176
     0
 40
1.0
176
     0
 90
        0
176
     0
 62
    18
420
        0
176
     0
 90
       50
176
     0
 90
        3
176
     0
 62
     5
420
      255
176
     0
290
     0
176
     0
 90
       50
176
     0
 90
       50
176
     0
 90
       50
176
     0
290
     0
176
     0
 90
       50
176
     0
 62
   256
176
     0
 40
1.0
176
     0
 90
        2
176
     0
  1
strokes_ogs.tif
176
     0
290
     0
176
     0
 40
1.0
176
     0
 40
1.0
176
     0
  0
VISUALSTYLE
  5
15F
102
{ACAD_REACTORS
330
150
102
}
330
150
100
AcDbVisualStyle
  2
Facepattern
 70
    15
177
     3
291
     1
 70
    58
 90
        2
176
     1
 90
        2
176
     1
 90
        0
176
     1
 90
        0
176
     1
 40
0.6
176
     1
 40
30.0
176
     1
 62
     7
420
 16777215
176
     1
 90
        1
176
     1
 90
        4
176
     1
 62
     7
176
     1
 62
   257
176
     1
 90
        1
176
     1
 90
        1
176
     1
 40
1.0
176
     1
 90
        8
176
     1
 62
     7
176
     1
 40
1.0
176
     1
 90
        1
176
     1
 90
        6
176
     1
 90
        2
176
     1
 62
     7
176
     1
 90
        5
176
     1
 90
        0
176
     1
 90
        0
176
     1
290
     0
176
     1
 90
        1
176
     1
 40
0.0
176
     1
 90
        0
176
     1
290
     0
176
     1
290
     1
176
     1
290
     1
176
     1
290
     0
176
     1
290
     0
176
     1
290
     0
176
     1
290
     0
176
     1
290
     0
176
     1
290
     0
176
     1
 90
       50
176
     1
 40
0.0
176
     1
 40
1.0
176
     1
 90
        0
176
     1
 62
    18
420
        0
176
     1
 90
       50
176
     1
 90
        3
176
     1
 62
     5
420
      255
176
     1
290
     0
176
     1
 90
       50
176
     1
 90
       50
176
     1
 90
       50
176
     1
290
     0
176
     1
 90
       50
176
     1
 62
   256
176
     0
 40
1.0
176
     0
 90
        2
176
     1
  1
strokes_ogs.tif
176
     1
290
     0
176
     1
 40
1.0
176
     1
 40
1.0
176
     1
  0
VISUALSTYLE
  5
151
102
{ACAD_REACTORS
330
150
102
}
330
150
100
AcDbVisualStyle
  2
Flat
 70
     0
177
     3
291
     1
 70
    58
 90
        2
176
     1
 90
        1
176
     1
 90
        1
176
     1
 90
        2
176
     1
 40
0.6
176
     1
 40
30.0
176
     1
 62
     7
420
 16777215
176
     1
 90
        0
176
     1
 90
        0
176
     1
 62
     7
176
     1
 62
   257
176
     1
 90
        1
176
     1
 90
        1
176
     1
 40
1.0
176
     1
 90
        8
176
     1
 62
     7
176
     1
 40
1.0
176
     1
 90
        1
176
     1
 90
        6
176
     1
 90
        2
176
     1
 62
     7
176
     1
 90
        5
176
     1
 90
        0
176
     1
 90
        0
176
     1
290
     0
176
     1
 90
       13
176
     1
 40
0.0
176
     1
 90
        0
176
     1
290
     0
176
     1
290
     1
176
     1
290
     1
176
     1
290
     0
176
     1
290
     0
176
     1
290
     0
176
     1
290
     0
176
     1
290
     0
176
     1
290
     0
176
     1
 90
       50
176
     1
 40
0.0
176
     1
 40
1.0
176
     1
 90
        0
176
     1
 62
    18
420
        0
176
     1
 90
       50
176
     1
 90
        3
176
     1
 62
     5
420
      255
176
     1
290
     0
176
     1
 90
       50
176
     1
 90
       50
176
     1
 90
       50
176
     1
290
     0
176
     1
 90
       50
176
     1
 62
   256
176
     0
 40
1.0
176
     0
 90
        2
176
     1
  1
strokes_ogs.tif
176
     1
290
     0
176
     1
 40
1.0
176
     1
 40
1.0
176
     1
  0
VISUALSTYLE
  5
152
102
{ACAD_REACTORS
330
150
102
}
330
150
100
AcDbVisualStyle
  2
FlatWithEdges
 70
     1
177
     3
291
     1
 70
    58
 90
        2
176
     1
 90
        1
176
     1
 90
        1
176
     1
 90
        2
176
     1
 40
0.6
176
     1
 40
30.0
176
     1
 62
     7
420
 16777215
176
     1
 90
        1
176
     1
 90
        0
176
     1
 62
     7
176
     1
 62
   257
176
     1
 90
        1
176
     1
 90
        1
176
     1
 40
1.0
176
     1
 90
        0
176
     1
 62
   257
176
     1
 40
1.0
176
     1
 90
        1
176
     1
 90
        6
176
     1
 90
        2
176
     1
 62
     7
176
     1
 90
        5
176
     1
 90
        0
176
     1
 90
        0
176
     1
290
     0
176
     1
 90
       13
176
     1
 40
0.0
176
     1
 90
        0
176
     1
290
     0
176
     1
290
     1
176
     1
290
     1
176
     1
290
     0
176
     1
290
     0
176
     1
290
     0
176
     1
290
     0
176
     1
290
     0
176
     1
290
     0
176
     1
 90
       50
176
     1
 40
0.0
176
     1
 40
1.0
176
     1
 90
        0
176
     1
 62
    18
420
        0
176
     1
 90
       50
176
     1
 90
        3
176
     1
 62
     5
420
      255
176
     1
290
     0
176
     1
 90
       50
176
     1
 90
       50
176
     1
 90
       50
176
     1
290
     0
176
     1
 90
       50
176
     1
 62
   256
176
     0
 40
1.0
176
     0
 90
        2
176
     1
  1
strokes_ogs.tif
176
     1
290
     0
176
     1
 40
1.0
176
     1
 40
1.0
176
     1
  0
VISUALSTYLE
  5
153
102
{ACAD_REACTORS
330
150
102
}
330
150
100
AcDbVisualStyle
  2
Gouraud
 70
     2
177
     3
291
     1
 70
    58
 90
        2
176
     1
 90
        2
176
     1
 90
        1
176
     1
 90
        2
176
     1
 40
0.6
176
     1
 40
30.0
176
     1
 62
     7
420
 16777215
176
     1
 90
        0
176
     1
 90
        0
176
     1
 62
     7
176
     1
 62
   257
176
     1
 90
        1
176
     1
 90
        1
176
     1
 40
1.0
176
     1
 90
        0
176
     1
 62
     7
176
     1
 40
1.0
176
     1
 90
        1
176
     1
 90
        6
176
     1
 90
        2
176
     1
 62
     7
176
     1
 90
        5
176
     1
 90
        0
176
     1
 90
        0
176
     1
290
     0
176
     1
 90
       13
176
     1
 40
0.0
176
     1
 90
        0
176
     1
290
     0
176
     1
290
     1
176
     1
290
     1
176
     1
290
     0
176
     1
290
     0
176
     1
290
     0
176
     1
290
     0
176
     1
290
     0
176
     1
290
     0
176
     1
 90
       50
176
     1
 40
0.0
176
     1
 40
1.0
176
     1
 90
        0
176
     1
 62
    18
420
        0
176
     1
 90
       50
176
     1
 90
        3
176
     1
 62
     5
420
      255
176
     1
290
     0
176
     1
 90
       50
176
     1
 90
       50
176
     1
 90
       50
176
     1
290
     0
176
     1
 90
       50
176
     1
 62
   256
176
     0
 40
1.0
176
     0
 90
        2
176
     1
  1
strokes_ogs.tif
176
     1
290
     0
176
     1
 40
1.0
176
     1
 40
1.0
176
     1
  0
VISUALSTYLE
  5
154
102
{ACAD_REACTORS
330
150
102
}
330
150
100
AcDbVisualStyle
  2
GouraudWithEdges
 70
     3
177
     3
291
     1
 70
    58
 90
        2
176
     1
 90
        2
176
     1
 90
        1
176
     1
 90
        2
176
     1
 40
0.6
176
     1
 40
30.0
176
     1
 62
     7
420
 16777215
176
     1
 90
        1
176
     1
 90
        0
176
     1
 62
     7
176
     1
 62
   257
176
     1
 90
        1
176
     1
 90
        1
176
     1
 40
1.0
176
     1
 90
        0
176
     1
 62
   257
176
     1
 40
1.0
176
     1
 90
        1
176
     1
 90
        6
176
     1
 90
        2
176
     1
 62
     7
176
     1
 90
        5
176
     1
 90
        0
176
     1
 90
        0
176
     1
290
     0
176
     1
 90
       13
176
     1
 40
0.0
176
     1
 90
        0
176
     1
290
     0
176
     1
290
     1
176
     1
290
     1
176
     1
290
     0
176
     1
290
     0
176
     1
290
     0
176
     1
290
     0
176
     1
290
     0
176
     1
290
     0
176
     1
 90
       50
176
     1
 40
0.0
176
     1
 40
1.0
176
     1
 90
        0
176
     1
 62
    18
420
        0
176
     1
 90
       50
176
     1
 90
        3
176
     1
 62
     5
420
      255
176
     1
290
     0
176
     1
 90
       50
176
     1
 90
       50
176
     1
 90
       50
176
     1
290
     0
176
     1
 90
       50
176
     1
 62
   256
176
     0
 40
1.0
176
     0
 90
        2
176
     1
  1
strokes_ogs.tif
176
     1
290
     0
176
     1
 40
1.0
176
     1
 40
1.0
176
     1
  0
VISUALSTYLE
  5
158
102
{ACAD_REACTORS
330
150
102
}
330
150
100
AcDbVisualStyle
  2
Hidden
 70
     6
177
     3
291
     0
 70
    58
 90
        1
176
     1
 90
        2
176
     1
 90
        2
176
     1
 90
        0
176
     1
 40
0.6
176
     1
 40
30.0
176
     1
 62
     7
420
 16777215
176
     1
 90
        2
176
     1
 90
        2
176
     1
 62
     7
176
     1
 62
   257
176
     1
 90
        2
176
     1
 90
        1
176
     1
 40
40.0
176
     1
 90
        0
176
     1
 62
   257
176
     1
 40
1.0
176
     1
 90
        1
176
     1
 90
        6
176
     1
 90
        2
176
     1
 62
     7
176
     1
 90
        3
176
     1
 90
        0
176
     1
 90
        0
176
     1
290
     0
176
     1
 90
        1
176
     1
 40
0.0
176
     1
 90
        0
176
     1
290
     0
176
     1
290
     1
176
     1
290
     1
176
     1
290
     0
176
     1
290
     0
176
     1
290
     0
176
     1
290
     0
176
     1
290
     0
176
     1
290
     0
176
     1
 90
       50
176
     1
 40
0.0
176
     1
 40
1.0
176
     1
 90
        0
176
     1
 62
    18
420
        0
176
     1
 90
       50
176
     1
 90
        3
176
     1
 62
     5
420
      255
176
     1
290
     0
176
     1
 90
       50
176
     1
 90
       50
176
     1
 90
       50
176
     1
290
     0
176
     1
 90
       50
176
     1
 62
   256
176
     0
 40
1.0
176
     0
 90
        2
176
     1
  1
strokes_ogs.tif
176
     1
290
     0
176
     1
 40
1.0
176
     1
 40
1.0
176
     1
  0
VISUALSTYLE
  5
166
102
{ACAD_REACTORS
330
150
102
}
330
150
100
AcDbVisualStyle
  2
JitterOff
 70
    20
177
     3
291
     1
 70
    58
 90
        2
176
     0
 90
        2
176
     0
 90
        0
176
     0
 90
        0
176
     0
 40
0.6
176
     0
 40
30.0
176
     0
 62
     7
420
 16777215
176
     0
 90
        1
176
     0
 90
        4
176
     0
 62
     7
176
     0
 62
   257
176
     0
 90
        1
176
     0
 90
        1
176
     0
 40
1.0
176
     0
 90
       10
176
     2
 62
     7
176
     0
 40
1.0
176
     0
 90
        1
176
     0
 90
        6
176
     0
 90
        2
176
     0
 62
     7
176
     0
 90
        5
176
     0
 90
        0
176
     0
 90
        0
176
     0
290
     0
176
     0
 90
        1
176
     0
 40
0.0
176
     0
 90
        0
176
     0
290
     0
176
     0
290
     1
176
     0
290
     1
176
     0
290
     0
176
     0
290
     0
176
     0
290
     0
176
     0
290
     0
176
     0
290
     0
176
     0
290
     0
176
     0
 90
       50
176
     0
 40
0.0
176
     0
 40
1.0
176
     0
 90
        0
176
     0
 62
    18
420
        0
176
     0
 90
       50
176
     0
 90
        3
176
     0
 62
     5
420
      255
176
     0
290
     0
176
     0
 90
       50
176
     0
 90
       50
176
     0
 90
       50
176
     0
290
     0
176
     0
 90
       50
176
     0
 62
   256
176
     0
 40
1.0
176
     0
 90
        2
176
     0
  1
strokes_ogs.tif
176
     0
290
     0
176
     0
 40
1.0
176
     0
 40
1.0
176
     0
  0
VISUALSTYLE
  5
15E
102
{ACAD_REACTORS
330
150
102
}
330
150
100
AcDbVisualStyle
  2
Linepattern
 70
    14
177
     3
291
     1
 70
    58
 90
        2
176
     1
 90
        2
176
     1
 90
        0
176
     1
 90
        0
176
     1
 40
0.6
176
     1
 40
30.0
176
     1
 62
     7
420
 16777215
176
     1
 90
        1
176
     1
 90
        4
176
     1
 62
     7
176
     1
 62
   257
176
     1
 90
        7
176
     1
 90
        7
176
     1
 40
1.0
176
     1
 90
        8
176
     1
 62
     7
176
     1
 40
1.0
176
     1
 90
        1
176
     1
 90
        6
176
     1
 90
        2
176
     1
 62
     7
176
     1
 90
        5
176
     1
 90
        0
176
     1
 90
        0
176
     1
290
     0
176
     1
 90
        1
176
     1
 40
0.0
176
     1
 90
        0
176
     1
290
     0
176
     1
290
     1
176
     1
290
     1
176
     1
290
     0
176
     1
290
     0
176
     1
290
     0
176
     1
290
     0
176
     1
290
     0
176
     1
290
     0
176
     1
 90
       50
176
     1
 40
0.0
176
     1
 40
1.0
176
     1
 90
        0
176
     1
 62
    18
420
        0
176
     1
 90
       50
176
     1
 90
        3
176
     1
 62
     5
420
      255
176
     1
290
     0
176
     1
 90
       50
176
     1
 90
       50
176
     1
 90
       50
176
     1
290
     0
176
     1
 90
       50
176
     1
 62
   256
176
     0
 40
1.0
176
     0
 90
        2
176
     1
  1
strokes_ogs.tif
176
     1
290
     0
176
     1
 40
1.0
176
     1
 40
1.0
176
     1
  0
VISUALSTYLE
  5
167
102
{ACAD_REACTORS
330
150
102
}
330
150
100
AcDbVisualStyle
  2
OverhangOff
 70
    21
177
     3
291
     1
 70
    58
 90
        2
176
     0
 90
        2
176
     0
 90
        0
176
     0
 90
        0
176
     0
 40
0.6
176
     0
 40
30.0
176
     0
 62
     7
420
 16777215
176
     0
 90
        1
176
     0
 90
        4
176
     0
 62
     7
176
     0
 62
   257
176
     0
 90
        1
176
     0
 90
        1
176
     0
 40
1.0
176
     0
 90
        9
176
     2
 62
     7
176
     0
 40
1.0
176
     0
 90
        1
176
     0
 90
        6
176
     0
 90
        2
176
     0
 62
     7
176
     0
 90
        5
176
     0
 90
        0
176
     0
 90
        0
176
     0
290
     0
176
     0
 90
        1
176
     0
 40
0.0
176
     0
 90
        0
176
     0
290
     0
176
     0
290
     1
176
     0
290
     1
176
     0
290
     0
176
     0
290
     0
176
     0
290
     0
176
     0
290
     0
176
     0
290
     0
176
     0
290
     0
176
     0
 90
       50
176
     0
 40
0.0
176
     0
 40
1.0
176
     0
 90
        0
176
     0
 62
    18
420
        0
176
     0
 90
       50
176
     0
 90
        3
176
     0
 62
     5
420
      255
176
     0
290
     0
176
     0
 90
       50
176
     0
 90
       50
176
     0
 90
       50
176
     0
290
     0
176
     0
 90
       50
176
     0
 62
   256
176
     0
 40
1.0
176
     0
 90
        2
176
     0
  1
strokes_ogs.tif
176
     0
290
     0
176
     0
 40
1.0
176
     0
 40
1.0
176
     0
  0
VISUALSTYLE
  5
15A
102
{ACAD_REACTORS
330
150
102
}
330
150
100
AcDbVisualStyle
  2
Realistic
 70
     8
177
     3
291
     0
 70
    58
 90
        2
176
     1
 90
        3
176
     1
 90
        0
176
     1
 90
        2
176
     1
 40
0.6
176
     1
 40
30.0
176
     1
 62
     7
420
 16777215
176
     1
 90
        0
176
     1
 90
        0
176
     1
 62
     7
176
     1
 62
   257
176
     1
 90
        1
176
     1
 90
        1
176
     1
 40
1.0
176
     1
 90
        8
176
     1
 62
   257
176
     1
 40
1.0
176
     1
 90
        1
176
     1
 90
        6
176
     1
 90
        2
176
     1
 62
     7
176
     1
 90
        3
176
     1
 90
        0
176
     1
 90
        0
176
     1
290
     0
176
     1
 90
       13
176
     1
 40
0.0
176
     1
 90
        0
176
     1
290
     0
176
     1
290
     1
176
     1
290
     1
176
     1
290
     0
176
     1
290
     0
176
     1
290
     0
176
     1
290
     0
176
     1
290
     0
176
     1
290
     0
176
     1
 90
       50
176
     1
 40
0.0
176
     1
 40
1.0
176
     1
 90
        0
176
     1
 62
    18
420
        0
176
     1
 90
       50
176
     1
 90
        3
176
     1
 62
     5
420
      255
176
     1
290
     0
176
     1
 90
       50
176
     1
 90
       50
176
     1
 90
       50
176
     1
290
     0
176
     1
 90
       50
176
     1
 62
   256
176
     0
 40
1.0
176
     0
 90
        2
176
     1
  1
strokes_ogs.tif
176
     1
290
     0
176
     1
 40
1.0
176
     1
 40
1.0
176
     1
  0
VISUALSTYLE
  5
165
102
{ACAD_REACTORS
330
150
102
}
330
150
100
AcDbVisualStyle
  2
Shaded
 70
    27
177
     3
291
     0
 70
    58
 90
        2
176
     1
 90
        2
176
     1
 90
        1
176
     1
 90
        2
176
     1
 40
0.6
176
     1
 40
30.0
176
     1
 62
     7
420
 16777215
176
     1
 90
        0
176
     1
 90
        4
176
     1
 62
     7
176
     1
 62
   257
176
     1
 90
        1
176
     1
 90
        1
176
     1
 40
1.0
176
     1
 90
        8
176
     1
 62
   257
176
     1
 40
1.0
176
     1
 90
        1
176
     1
 90
        6
176
     1
 90
        2
176
     1
 62
     8
420
  7895160
176
     1
 90
        3
176
     1
 90
        0
176
     1
 90
        0
176
     1
290
     0
176
     1
 90
        5
176
     1
 40
0.0
176
     1
 90
        0
176
     1
290
     0
176
     1
290
     1
176
     1
290
     1
176
     1
290
     0
176
     1
290
     0
176
     1
290
     0
176
     1
290
     0
176
     1
290
     0
176
     1
290
     0
176
     1
 90
       50
176
     1
 40
0.0
176
     1
 40
1.0
176
     1
 90
        0
176
     1
 62
    18
420
        0
176
     1
 90
       50
176
     1
 90
        3
176
     1
 62
     5
420
      255
176
     1
290
     0
176
     1
 90
       50
176
     1
 90
       50
176
     1
 90
       50
176
     1
290
     0
176
     1
 90
       50
176
     1
 62
   256
176
     0
 40
1.0
176
     0
 90
        2
176
     1
  1
strokes_ogs.tif
176
     1
290
     0
176
     1
 40
1.0
176
     1
 40
1.0
176
     1
  0
VISUALSTYLE
  5
164
102
{ACAD_REACTORS
330
150
102
}
330
150
100
AcDbVisualStyle
  2
Shaded with edges
 70
    26
177
     3
291
     0
 70
    58
 90
        2
176
     1
 90
        2
176
     1
 90
        1
176
     1
 90
        2
176
     1
 40
0.6
176
     1
 40
30.0
176
     1
 62
     7
420
 16777215
176
     1
 90
        1
176
     1
 90
        2
176
     1
 62
     7
176
     1
 62
   257
176
     1
 90
        2
176
     1
 90
        1
176
     1
 40
1.0
176
     1
 90
        8
176
     1
 62
   257
176
     1
 40
1.0
176
     1
 90
        1
176
     1
 90
        6
176
     1
 90
        2
176
     1
 62
     7
176
     1
 90
        3
176
     1
 90
        0
176
     1
 90
        0
176
     1
290
     0
176
     1
 90
        5
176
     1
 40
0.0
176
     1
 90
        0
176
     1
290
     0
176
     1
290
     1
176
     1
290
     1
176
     1
290
     0
176
     1
290
     0
176
     1
290
     0
176
     1
290
     0
176
     1
290
     0
176
     1
290
     0
176
     1
 90
       50
176
     1
 40
0.0
176
     1
 40
1.0
176
     1
 90
        0
176
     1
 62
    18
420
        0
176
     1
 90
       50
176
     1
 90
        3
176
     1
 62
     5
420
      255
176
     1
290
     0
176
     1
 90
       50
176
     1
 90
       50
176
     1
 90
       50
176
     1
290
     0
176
     1
 90
       50
176
     1
 62
   256
176
     0
 40
1.0
176
     0
 90
        2
176
     1
  1
strokes_ogs.tif
176
     1
290
     0
176
     1
 40
1.0
176
     1
 40
1.0
176
     1
  0
VISUALSTYLE
  5
161
102
{ACAD_REACTORS
330
150
102
}
330
150
100
AcDbVisualStyle
  2
Shades of Gray
 70
    23
177
     3
291
     0
 70
    58
 90
        2
176
     1
 90
        2
176
     1
 90
        3
176
     1
 90
        0
176
     1
 40
0.6
176
     1
 40
30.0
176
     1
 62
     7
420
 16777215
176
     1
 90
        2
176
     1
 90
        2
176
     1
 62
     7
176
     1
 62
     7
176
     1
 90
        1
176
     1
 90
        1
176
     1
 40
40.0
176
     1
 90
        8
176
     1
 62
     7
176
     1
 40
1.0
176
     1
 90
        1
176
     1
 90
        6
176
     1
 90
        2
176
     1
 62
     7
176
     1
 90
        3
176
     1
 90
        0
176
     1
 90
        0
176
     1
290
     0
176
     1
 90
        1
176
     1
 40
0.0
176
     1
 90
        0
176
     1
290
     0
176
     1
290
     1
176
     1
290
     1
176
     1
290
     0
176
     1
290
     0
176
     1
290
     0
176
     1
290
     0
176
     1
290
     0
176
     1
290
     0
176
     1
 90
       50
176
     1
 40
0.0
176
     1
 40
1.0
176
     1
 90
        0
176
     1
 62
    18
420
        0
176
     1
 90
       50
176
     1
 90
        3
176
     1
 62
     5
420
      255
176
     1
290
     0
176
     1
 90
       50
176
     1
 90
       50
176
     1
 90
       50
176
     1
290
     0
176
     1
 90
       50
176
     1
 62
   256
176
     0
 40
1.0
176
     0
 90
        2
176
     1
  1
strokes_ogs.tif
176
     1
290
     0
176
     1
 40
1.0
176
     1
 40
1.0
176
     1
  0
VISUALSTYLE
  5
162
102
{ACAD_REACTORS
330
150
102
}
330
150
100
AcDbVisualStyle
  2
Sketchy
 70
    24
177
     3
291
     0
 70
    58
 90
        1
176
     1
 90
        2
176
     1
 90
        2
176
     1
 90
        0
176
     1
 40
0.6
176
     1
 40
30.0
176
     1
 62
     7
420
 16777215
176
     1
 90
        2
176
     1
 90
        2
176
     1
 62
     7
176
     1
 62
     7
176
     1
 90
        1
176
     1
 90
        1
176
     1
 40
40.0
176
     1
 90
       11
176
     1
 62
     7
176
     1
 40
1.0
176
     1
 90
        1
176
     1
 90
        6
176
     1
 90
        2
176
     1
 62
     7
176
     1
 90
        6
176
     1
 90
        0
176
     1
 90
        0
176
     1
290
     0
176
     1
 90
        1
176
     1
 40
0.0
176
     1
 90
        0
176
     1
290
     0
176
     1
290
     1
176
     1
290
     1
176
     1
290
     0
176
     1
290
     0
176
     1
290
     0
176
     1
290
     0
176
     1
290
     0
176
     1
290
     0
176
     1
 90
       50
176
     1
 40
0.0
176
     1
 40
1.0
176
     1
 90
        0
176
     1
 62
    18
420
        0
176
     1
 90
       50
176
     1
 90
        3
176
     1
 62
     5
420
      255
176
     1
290
     0
176
     1
 90
       50
176
     1
 90
       50
176
     1
 90
       50
176
     1
290
     0
176
     1
 90
       50
176
     1
 62
   256
176
     0
 40
1.0
176
     0
 90
        2
176
     1
  1
strokes_ogs.tif
176
     1
290
     0
176
     1
 40
1.0
176
     1
 40
1.0
176
     1
  0
VISUALSTYLE
  5
15D
102
{ACAD_REACTORS
330
150
102
}
330
150
100
AcDbVisualStyle
  2
Thicken
 70
    13
177
     3
291
     1
 70
    58
 90
        2
176
     1
 90
        2
176
     1
 90
        0
176
     1
 90
        0
176
     1
 40
0.6
176
     1
 40
30.0
176
     1
 62
     7
420
 16777215
176
     1
 90
        1
176
     1
 90
        4
176
     1
 62
     7
176
     1
 62
   257
176
     1
 90
        1
176
     1
 90
        1
176
     1
 40
1.0
176
     1
 90
       12
176
     1
 62
     7
176
     1
 40
1.0
176
     1
 90
        1
176
     1
 90
        6
176
     1
 90
        2
176
     1
 62
     7
176
     1
 90
        5
176
     1
 90
        0
176
     1
 90
        0
176
     1
290
     0
176
     1
 90
        1
176
     1
 40
0.0
176
     1
 90
        0
176
     1
290
     0
176
     1
290
     1
176
     1
290
     1
176
     1
290
     0
176
     1
290
     0
176
     1
290
     0
176
     1
290
     0
176
     1
290
     0
176
     1
290
     0
176
     1
 90
       50
176
     1
 40
0.0
176
     1
 40
1.0
176
     1
 90
        0
176
     1
 62
    18
420
        0
176
     1
 90
       50
176
     1
 90
        3
176
     1
 62
     5
420
      255
176
     1
290
     0
176
     1
 90
       50
176
     1
 90
       50
176
     1
 90
       50
176
     1
290
     0
176
     1
 90
       50
176
     1
 62
   256
176
     0
 40
1.0
176
     0
 90
        2
176
     1
  1
strokes_ogs.tif
176
     1
290
     0
176
     1
 40
1.0
176
     1
 40
1.0
176
     1
  0
VISUALSTYLE
  5
157
102
{ACAD_REACTORS
330
150
102
}
330
150
100
AcDbVisualStyle
  2
Wireframe
 70
     5
177
     3
291
     0
 70
    58
 90
        0
176
     1
 90
        2
176
     1
 90
        0
176
     1
 90
        0
176
     1
 40
0.6
176
     1
 40
30.0
176
     1
 62
     7
420
 16777215
176
     1
 90
        1
176
     1
 90
        4
176
     1
 62
     7
176
     1
 62
   257
176
     1
 90
        1
176
     1
 90
        1
176
     1
 40
1.0
176
     1
 90
        0
176
     1
 62
   257
176
     1
 40
1.0
176
     1
 90
        1
176
     1
 90
        6
176
     1
 90
        2
176
     1
 62
     7
176
     1
 90
        3
176
     1
 90
        0
176
     1
 90
        0
176
     1
290
     0
176
     1
 90
        1
176
     1
 40
0.0
176
     1
 90
        0
176
     1
290
     0
176
     1
290
     1
176
     1
290
     1
176
     1
290
     0
176
     1
290
     0
176
     1
290
     0
176
     1
290
     0
176
     1
290
     0
176
     1
290
     0
176
     1
 90
       50
176
     1
 40
0.0
176
     1
 40
1.0
176
     1
 90
        0
176
     1
 62
    18
420
        0
176
     1
 90
       50
176
     1
 90
        3
176
     1
 62
     5
420
      255
176
     1
290
     0
176
     1
 90
       50
176
     1
 90
       50
176
     1
 90
       50
176
     1
290
     0
176
     1
 90
       50
176
     1
 62
   256
176
     0
 40
1.0
176
     0
 90
        2
176
     1
  1
strokes_ogs.tif
176
     1
290
     0
176
     1
 40
1.0
176
     1
 40
1.0
176
     1
  0
VISUALSTYLE
  5
163
102
{ACAD_REACTORS
330
150
102
}
330
150
100
AcDbVisualStyle
  2
X-Ray
 70
    25
177
     3
291
     0
 70
    58
 90
        2
176
     1
 90
        2
176
     1
 90
        1
176
     1
 90
        1
176
     1
 40
0.5
176
     1
 40
30.0
176
     1
 62
     7
420
 16777215
176
     1
 90
        1
176
     1
 90
        0
176
     1
 62
     7
176
     1
 62
   257
176
     1
 90
        1
176
     1
 90
        1
176
     1
 40
1.0
176
     1
 90
        8
176
     1
 62
     7
176
     1
 40
1.0
176
     1
 90
        1
176
     1
 90
        6
176
     1
 90
        2
176
     1
 62
     7
176
     1
 90
        3
176
     1
 90
        0
176
     1
 90
        0
176
     1
290
     0
176
     1
 90
       13
176
     1
 40
0.0
176
     1
 90
        0
176
     1
290
     0
176
     1
290
     1
176
     1
290
     1
176
     1
290
     0
176
     1
290
     0
176
     1
290
     0
176
     1
290
     0
176
     1
290
     0
176
     1
290
     0
176
     1
 90
       50
176
     1
 40
0.0
176
     1
 40
1.0
176
     1
 90
        0
176
     1
 62
    18
420
        0
176
     1
 90
       50
176
     1
 90
        3
176
     1
 62
     5
420
      255
176
     1
290
     0
176
     1
 90
       50
176
     1
 90
       50
176
     1
 90
       50
176
     1
290
     0
176
     1
 90
       50
176
     1
 62
   256
176
     0
 40
1.0
176
     0
 90
        2
176
     1
  1
strokes_ogs.tif
176
     1
290
     0
176
     1
 40
1.0
176
     1
 40
1.0
176
     1
  0
DICTIONARYVAR
  5
2A9
102
{ACAD_REACTORS
330
2A3
102
}
330
2A3
100
DictionaryVariables
280
     0
  1
1:1
  0
DICTIONARYVAR
  5
2A5
102
{ACAD_REACTORS
330
2A3
102
}
330
2A3
100
DictionaryVariables
280
     0
  1
STANDARD
  0
DICTIONARYVAR
  5
2A4
102
{ACAD_REACTORS
330
2A3
102
}
330
2A3
100
DictionaryVariables
280
     0
  1
STANDARD
  0
DICTIONARYVAR
  5
2A6
102
{ACAD_REACTORS
330
2A3
102
}
330
2A3
100
DictionaryVariables
280
     0
  1
Imperial24
  0
DICTIONARYVAR
  5
2A7
102
{ACAD_REACTORS
330
2A3
102
}
330
2A3
100
DictionaryVariables
280
     0
  1
Imperial24
  0
DICTIONARYVAR
  5
2AB
102
{ACAD_REACTORS
330
2A3
102
}
330
2A3
100
DictionaryVariables
280
     0
  1
1
  0
DICTIONARYVAR
  5
2AC
102
{ACAD_REACTORS
330
2A3
102
}
330
2A3
100
DictionaryVariables
280
     0
  1
15
  0
DICTIONARYVAR
  5
2AA
102
{ACAD_REACTORS
330
2A3
102
}
330
2A3
100
DictionaryVariables
280
     0
  1
0
  0
DICTIONARYVAR
  5
2A8
102
{ACAD_REACTORS
330
2A3
102
}
330
2A3
100
DictionaryVariables
280
     0
  1
0
  0
DICTIONARY
  5
1FD
102
{ACAD_REACTORS
330
1FC
102
}
330
1FC
100
AcDbDictionary
281
     1
  3
*A1
350
1FE
  0
DICTIONARY
  5
203
102
{ACAD_REACTORS
330
202
102
}
330
202
100
AcDbDictionary
281
     1
  3
*A1
350
204
  0
DICTIONARY
  5
20A
102
{ACAD_REACTORS
330
209
102
}
330
209
100
AcDbDictionary
281
     1
  3
*A1
350
20B
  0
DICTIONARY
  5
211
102
{ACAD_REACTORS
330
210
102
}
330
210
100
AcDbDictionary
281
     1
  3
*A1
350
212
  0
DICTIONARY
  5
216
102
{ACAD_REACTORS
330
215
102
}
330
215
100
AcDbDictionary
281
     1
  3
*A1
350
217
  0
DICTIONARY
  5
21B
102
{ACAD_REACTORS
330
21A
102
}
330
21A
100
AcDbDictionary
281
     1
  3
*A1
350
21C
  0
DICTIONARY
  5
220
102
{ACAD_REACTORS
330
21F
102
}
330
21F
100
AcDbDictionary
281
     1
  3
*A1
350
221
  0
DICTIONARY
  5
226
102
{ACAD_REACTORS
330
225
102
}
330
225
100
AcDbDictionary
281
     1
  3
*A1
350
227
  0
DICTIONARY
  5
22B
102
{ACAD_REACTORS
330
22A
102
}
330
22A
100
AcDbDictionary
281
     1
  3
*A1
350
22C
  0
DICTIONARY
  5
230
102
{ACAD_REACTORS
330
22F
102
}
330
22F
100
AcDbDictionary
281
     1
  3
*A1
350
231
  0
DICTIONARY
  5
235
102
{ACAD_REACTORS
330
234
102
}
330
234
100
AcDbDictionary
281
     1
  3
*A1
350
236
  0
DICTIONARY
  5
23A
102
{ACAD_REACTORS
330
239
102
}
330
239
100
AcDbDictionary
281
     1
  3
*A1
350
23B
  0
DICTIONARY
  5
242
102
{ACAD_REACTORS
330
241
102
}
330
241
100
AcDbDictionary
281
     1
  3
*A1
350
243
  0
DICTIONARY
  5
247
102
{ACAD_REACTORS
330
246
102
}
330
246
100
AcDbDictionary
281
     1
  3
*A1
350
248
  0
DICTIONARY
  5
24F
102
{ACAD_REACTORS
330
24E
102
}
330
24E
100
AcDbDictionary
281
     1
  3
*A1
350
250
  0
DICTIONARY
  5
254
102
{ACAD_REACTORS
330
253
102
}
330
253
100
AcDbDictionary
281
     1
  3
*A1
350
255
  0
DICTIONARY
  5
141
330
140
100
AcDbDictionary
280
     1
281
     1
  3
BUMPTILE
360
143
  3
DIFFUSETILE
360
142
  3
OPACITYTILE
360
146
  3
REFLECTIONTILE
360
145
  3
REFRACTIONTILE
360
147
  3
SPECULARTILE
360
144
  0
DICTIONARY
  5
139
330
138
100
AcDbDictionary
280
     1
281
     1
  3
BUMPTILE
360
13B
  3
DIFFUSETILE
360
13A
  3
OPACITYTILE
360
13E
  3
REFLECTIONTILE
360
13D
  3
REFRACTIONTILE
360
13F
  3
SPECULARTILE
360
13C
  0
DICTIONARY
  5
149
330
148
100
AcDbDictionary
280
     1
281
     1
  3
BUMPTILE
360
14B
  3
DIFFUSETILE
360
14A
  3
OPACITYTILE
360
14E
  3
REFLECTIONTILE
360
14D
  3
REFRACTIONTILE
360
14F
  3
SPECULARTILE
360
14C
  0
DICTIONARY
  5
2BE
330
16B
100
AcDbDictionary
280
     1
281
     1
  3
ACAD_ROUNDTRIP_2008_TABLESTYLE_CELLSTYLEMAP
360
2BF
  0
ACDB_TEXTOBJECTCONTEXTDATA_CLASS
  5
1FE
102
{ACAD_REACTORS
330
1FD
102
}
330
1FD
100
AcDbObjectContextData
 70
     4
290
     1
100
AcDbAnnotScaleObjectContextData
340
16D
 70
     4
 50
0.0
 10
811.8133456254611
 20
252.1888117745512
 11
838.0155966486535
 21
254.6888117745512
  0
ACDB_TEXTOBJECTCONTEXTDATA_CLASS
  5
204
102
{ACAD_REACTORS
330
203
102
}
330
203
100
AcDbObjectContextData
 70
     4
290
     1
100
AcDbAnnotScaleObjectContextData
340
16D
 70
     4
 50
0.0
 10
814.5192015624555
 20
182.1270607485788
 11
841.886186555634
 21
184.6287660691791
  0
ACDB_TEXTOBJECTCONTEXTDATA_CLASS
  5
20B
102
{ACAD_REACTORS
330
20A
102
}
330
20A
100
AcDbObjectContextData
 70
     4
290
     1
100
AcDbAnnotScaleObjectContextData
340
16D
 70
     4
 50
0.0
 10
812.5396233965989
 20
202.2110433274702
 11
896.3663628236114
 21
204.7127486480705
  0
ACDB_TEXTOBJECTCONTEXTDATA_CLASS
  5
212
102
{ACAD_REACTORS
330
211
102
}
330
211
100
AcDbObjectContextData
 70
     4
290
     1
100
AcDbAnnotScaleObjectContextData
340
16D
 70
     4
 50
0.0
 10
814.0605370277716
 20
192.1619859135411
 11
905.4623105611959
 21
194.6636912341414
  0
ACDB_TEXTOBJECTCONTEXTDATA_CLASS
  5
217
102
{ACAD_REACTORS
330
216
102
}
330
216
100
AcDbObjectContextData
 70
     4
290
     1
100
AcDbAnnotScaleObjectContextData
340
16D
 70
     4
 50
0.0
 10
812.6828887591685
 20
212.11219103714
 11
895.5444167264262
 21
214.6138963577403
  0
ACDB_TEXTOBJECTCONTEXTDATA_CLASS
  5
21C
102
{ACAD_REACTORS
330
21B
102
}
330
21B
100
AcDbObjectContextData
 70
     4
290
     1
100
AcDbAnnotScaleObjectContextData
340
16D
 70
     4
 50
0.0
 10
813.7768075249983
 20
222.2169033629306
 11
900.9084582753393
 21
224.7186086835309
  0
ACDB_TEXTOBJECTCONTEXTDATA_CLASS
  5
221
102
{ACAD_REACTORS
330
220
102
}
330
220
100
AcDbObjectContextData
 70
     4
290
     1
100
AcDbAnnotScaleObjectContextData
340
16D
 70
     4
 50
0.0
 10
579.3375999049279
 20
218.6546829125273
 11
586.1350078176156
 21
221.1649148361289
  0
ACDB_TEXTOBJECTCONTEXTDATA_CLASS
  5
227
102
{ACAD_REACTORS
330
226
102
}
330
226
100
AcDbObjectContextData
 70
     4
290
     1
100
AcDbAnnotScaleObjectContextData
340
16D
 70
     4
 50
0.0
 10
511.9802340934732
 20
239.7842643299625
 11
523.4246406419043
 21
242.2842643299625
  0
ACDB_TEXTOBJECTCONTEXTDATA_CLASS
  5
22C
102
{ACAD_REACTORS
330
22B
102
}
330
22B
100
AcDbObjectContextData
 70
     4
290
     1
100
AcDbAnnotScaleObjectContextData
340
16D
 70
     4
 50
0.0
 10
515.4614061805077
 20
218.6973159275341
 11
526.1350078176156
 21
221.1649148361289
  0
ACDB_TEXTOBJECTCONTEXTDATA_CLASS
  5
231
102
{ACAD_REACTORS
330
230
102
}
330
230
100
AcDbObjectContextData
 70
     4
290
     1
100
AcDbAnnotScaleObjectContextData
340
16D
 70
     4
 50
0.0
 10
498.9754591957924
 20
250.6801823969812
 11
523.4246406419043
 21
253.1818877175815
  0
ACDB_TEXTOBJECTCONTEXTDATA_CLASS
  5
236
102
{ACAD_REACTORS
330
235
102
}
330
235
100
AcDbObjectContextData
 70
     4
290
     1
100
AcDbAnnotScaleObjectContextData
340
16D
 70
     4
 50
0.0
 10
451.1186640334408
 20
250.6818877175815
 11
467.4181183308487
 21
253.1818877175815
  0
ACDB_TEXTOBJECTCONTEXTDATA_CLASS
  5
23B
102
{ACAD_REACTORS
330
23A
102
}
330
23A
100
AcDbObjectContextData
 70
     4
290
     1
100
AcDbAnnotScaleObjectContextData
340
16D
 70
     4
 50
0.0
 10
452.3526067262103
 20
218.8149830489529
 11
466.1350078176155
 21
221.1649148361289
  0
ACDB_TEXTOBJECTCONTEXTDATA_CLASS
  5
243
102
{ACAD_REACTORS
330
242
102
}
330
242
100
AcDbObjectContextData
 70
     4
290
     1
100
AcDbAnnotScaleObjectContextData
340
16D
 70
     4
 50
0.0
 10
567.118977803973
 20
240.0769512621023
 11
586.1350078176156
 21
241.8862964189918
  0
ACDB_TEXTOBJECTCONTEXTDATA_CLASS
  5
248
102
{ACAD_REACTORS
330
247
102
}
330
247
100
AcDbObjectContextData
 70
     4
290
     1
100
AcDbAnnotScaleObjectContextData
340
16D
 70
     4
 50
0.0
 10
557.7976954028815
 20
250.6867182147131
 11
586.1350078176156
 21
253.1867182147131
  0
ACDB_TEXTOBJECTCONTEXTDATA_CLASS
  5
250
102
{ACAD_REACTORS
330
24F
102
}
330
24F
100
AcDbObjectContextData
 70
     4
290
     1
100
AcDbAnnotScaleObjectContextData
340
16D
 70
     4
 50
0.0
 10
679.2313696054166
 20
252.1871064539509
 11
729.87768611292
 21
254.6888117745512
  0
ACDB_TEXTOBJECTCONTEXTDATA_CLASS
  5
255
102
{ACAD_REACTORS
330
254
102
}
330
254
100
AcDbObjectContextData
 70
     4
290
     1
100
AcDbAnnotScaleObjectContextData
340
16D
 70
     4
 50
0.0
 10
678.965891682463
 20
222.2526519894548
 11
736.2117989130224
 21
224.7543573100551
  0
XRECORD
  5
143
102
{ACAD_REACTORS
330
141
102
}
330
141
100
AcDbXrecord
280
     1
270
     1
271
     1
  0
XRECORD
  5
142
102
{ACAD_REACTORS
330
141
102
}
330
141
100
AcDbXrecord
280
     1
270
     1
271
     1
  0
XRECORD
  5
146
102
{ACAD_REACTORS
330
141
102
}
330
141
100
AcDbXrecord
280
     1
270
     1
271
     1
  0
XRECORD
  5
145
102
{ACAD_REACTORS
330
141
102
}
330
141
100
AcDbXrecord
280
     1
270
     1
271
     1
  0
XRECORD
  5
147
102
{ACAD_REACTORS
330
141
102
}
330
141
100
AcDbXrecord
280
     1
270
     1
271
     1
  0
XRECORD
  5
144
102
{ACAD_REACTORS
330
141
102
}
330
141
100
AcDbXrecord
280
     1
270
     1
271
     1
  0
XRECORD
  5
13B
102
{ACAD_REACTORS
330
139
102
}
330
139
100
AcDbXrecord
280
     1
270
     1
271
     1
  0
XRECORD
  5
13A
102
{ACAD_REACTORS
330
139
102
}
330
139
100
AcDbXrecord
280
     1
270
     1
271
     1
  0
XRECORD
  5
13E
102
{ACAD_REACTORS
330
139
102
}
330
139
100
AcDbXrecord
280
     1
270
     1
271
     1
  0
XRECORD
  5
13D
102
{ACAD_REACTORS
330
139
102
}
330
139
100
AcDbXrecord
280
     1
270
     1
271
     1
  0
XRECORD
  5
13F
102
{ACAD_REACTORS
330
139
102
}
330
139
100
AcDbXrecord
280
     1
270
     1
271
     1
  0
XRECORD
  5
13C
102
{ACAD_REACTORS
330
139
102
}
330
139
100
AcDbXrecord
280
     1
270
     1
271
     1
  0
XRECORD
  5
14B
102
{ACAD_REACTORS
330
149
102
}
330
149
100
AcDbXrecord
280
     1
270
     1
271
     1
  0
XRECORD
  5
14A
102
{ACAD_REACTORS
330
149
102
}
330
149
100
AcDbXrecord
280
     1
270
     1
271
     1
  0
XRECORD
  5
14E
102
{ACAD_REACTORS
330
149
102
}
330
149
100
AcDbXrecord
280
     1
270
     1
271
     1
  0
XRECORD
  5
14D
102
{ACAD_REACTORS
330
149
102
}
330
149
100
AcDbXrecord
280
     1
270
     1
271
     1
  0
XRECORD
  5
14F
102
{ACAD_REACTORS
330
149
102
}
330
149
100
AcDbXrecord
280
     1
270
     1
271
     1
  0
XRECORD
  5
14C
102
{ACAD_REACTORS
330
149
102
}
330
149
100
AcDbXrecord
280
     1
270
     1
271
     1
  0
CELLSTYLEMAP
  5
2BF
102
{ACAD_REACTORS
330
2BE
102
}
330
2BE
100
AcDbCellStyleMap
 90
        3
300
CELLSTYLE
  1
TABLEFORMAT_BEGIN
 90
        5
170
     1
 91
        0
 92
    32768
 62
   257
 93
        1
300
CONTENTFORMAT
  1
CONTENTFORMAT_BEGIN
 90
        0
 91
        0
 92
      512
 93
        0
300

 40
0.0
140
1.0
 94
        5
 62
     0
340
16
144
0.25
309
CONTENTFORMAT_END
171
     0
 94
        0
309
TABLEFORMAT_END
  1
CELLSTYLE_BEGIN
 90
        1
 91
        1
300
_TITLE
309
CELLSTYLE_END
300
CELLSTYLE
  1
TABLEFORMAT_BEGIN
 90
        5
170
     1
 91
        0
 92
        0
 62
   257
 93
        1
300
CONTENTFORMAT
  1
CONTENTFORMAT_BEGIN
 90
        0
 91
        0
 92
      512
 93
        0
300

 40
0.0
140
1.0
 94
        5
 62
     0
340
16
144
0.18
309
CONTENTFORMAT_END
171
     0
 94
        0
309
TABLEFORMAT_END
  1
CELLSTYLE_BEGIN
 90
        2
 91
        1
300
_HEADER
309
CELLSTYLE_END
300
CELLSTYLE
  1
TABLEFORMAT_BEGIN
 90
        5
170
     1
 91
        0
 92
        0
 62
   257
 93
        1
300
CONTENTFORMAT
  1
CONTENTFORMAT_BEGIN
 90
        0
 91
        0
 92
      512
 93
        0
300

 40
0.0
140
1.0
 94
        2
 62
     0
340
16
144
0.18
309
CONTENTFORMAT_END
171
     0
 94
        0
309
TABLEFORMAT_END
  1
CELLSTYLE_BEGIN
 90
        3
 91
        2
300
_DATA
309
CELLSTYLE_END
  0
ENDSEC
  0
EOF
