  0
SECTION
  2
HEADER
  9
$ACADVER
  1
AC1032
  9
$ACADMAINTVER
 90
      155
  9
$DWGCODEPAGE
  3
ANSI_1252
  9
$LASTSAVEDBY
  1
falinoori
  9
$REQUIREDVERSIONS
160
                 0
  9
$INSBASE
 10
0.0
 20
-0.0000000000000142
 30
0.0
  9
$EXTMIN
 10
-356.2168102631276
 20
-283.9888189523843
 30
0.0
  9
$EXTMAX
 10
410.321013576994
 20
253.984526581286
 30
0.0
  9
$LIMMIN
 10
0.0
 20
0.0
  9
$LIMMAX
 10
420.0
 20
297.0
  9
$ORTHOMODE
 70
     1
  9
$REGENMODE
 70
     1
  9
$FILLMODE
 70
     1
  9
$QTEXTMODE
 70
     0
  9
$MIRRTEXT
 70
     1
  9
$LTSCALE
 40
0.25
  9
$ATTMODE
 70
     1
  9
$TEXTSIZE
 40
5.0
  9
$TRACEWID
 40
10.0
  9
$TEXTSTYLE
  7
ARIAL
  9
$CLAYER
  8
DIMS
  9
$CELTYPE
  6
ByLayer
  9
$CECOLOR
 62
   256
  9
$CELTSCALE
 40
1.0
  9
$DISPSILH
 70
     0
  9
$DIMSCALE
 40
2.0
  9
$DIMASZ
 40
2.0
  9
$DIMEXO
 40
4.5
  9
$DIMDLI
 40
0.0
  9
$DIMRND
 40
1.0
  9
$DIMDLE
 40
0.0
  9
$DIMEXE
 40
1.5
  9
$DIMTP
 40
0.0
  9
$DIMTM
 40
0.0
  9
$DIMTXT
 40
1.8
  9
$DIMCEN
 40
0.0
  9
$DIMTSZ
 40
0.0
  9
$DIMTOL
 70
     0
  9
$DIMLIM
 70
     0
  9
$DIMTIH
 70
     0
  9
$DIMTOH
 70
     0
  9
$DIMSE1
 70
     0
  9
$DIMSE2
 70
     0
  9
$DIMTAD
 70
     1
  9
$DIMZIN
 70
    12
  9
$DIMBLK
  1

  9
$DIMASO
 70
     1
  9
$DIMSHO
 70
     0
  9
$DIMPOST
  1

  9
$DIMAPOST
  1

  9
$DIMALT
 70
     0
  9
$DIMALTD
 70
     0
  9
$DIMALTF
 40
25.4
  9
$DIMLFAC
 40
1.0
  9
$DIMTOFL
 70
     0
  9
$DIMTVP
 40
0.0
  9
$DIMTIX
 70
     0
  9
$DIMSOXD
 70
     0
  9
$DIMSAH
 70
     0
  9
$DIMBLK1
  1

  9
$DIMBLK2
  1

  9
$DIMSTYLE
  2
1-2
  9
$DIMCLRD
 70
     0
  9
$DIMCLRE
 70
     0
  9
$DIMCLRT
 70
     0
  9
$DIMTFAC
 40
1.25
  9
$DIMGAP
 40
0.1
  9
$DIMJUST
 70
     0
  9
$DIMSD1
 70
     0
  9
$DIMSD2
 70
     0
  9
$DIMTOLJ
 70
     1
  9
$DIMTZIN
 70
    12
  9
$DIMALTZ
 70
    12
  9
$DIMALTTZ
 70
    12
  9
$DIMUPT
 70
     0
  9
$DIMDEC
 70
     2
  9
$DIMTDEC
 70
     2
  9
$DIMALTU
 70
     2
  9
$DIMALTTD
 70
     0
  9
$DIMTXSTY
  7
STANDARD
  9
$DIMAUNIT
 70
     0
  9
$DIMADEC
 70
     0
  9
$DIMALTRND
 40
0.0
  9
$DIMAZIN
 70
     0
  9
$DIMDSEP
 70
    46
  9
$DIMATFIT
 70
     3
  9
$DIMFRAC
 70
     0
  9
$DIMLDRBLK
  1

  9
$DIMLUNIT
 70
     2
  9
$DIMLWD
 70
    -2
  9
$DIMLWE
 70
    -2
  9
$DIMTMOVE
 70
     2
  9
$DIMFXL
 40
1.0
  9
$DIMFXLON
 70
     0
  9
$DIMJOGANG
 40
0.7853981633974483
  9
$DIMTFILL
 70
     0
  9
$DIMTFILLCLR
 70
     0
  9
$DIMARCSYM
 70
     0
  9
$DIMLTYPE
  6

  9
$DIMLTEX1
  6

  9
$DIMLTEX2
  6

  9
$DIMTXTDIRECTION
 70
     0
  9
$LUNITS
 70
     2
  9
$LUPREC
 70
     2
  9
$SKETCHINC
 40
1.0
  9
$FILLETRAD
 40
0.0
  9
$AUNITS
 70
     0
  9
$AUPREC
 70
     4
  9
$MENU
  1
acad
  9
$ELEVATION
 40
0.0
  9
$PELEVATION
 40
0.0
  9
$THICKNESS
 40
0.0
  9
$LIMCHECK
 70
     0
  9
$CHAMFERA
 40
0.0
  9
$CHAMFERB
 40
0.0
  9
$CHAMFERC
 40
0.0
  9
$CHAMFERD
 40
0.0
  9
$SKPOLY
 70
     0
  9
$TDCREATE
 40
2449527.946145833
  9
$TDUCREATE
 40
2449527.529488426
  9
$TDUPDATE
 40
2459590.418240741
  9
$TDUUPDATE
 40
2459589.959907408
  9
$TDINDWG
 40
0.4404573148
  9
$TDUSRTIMER
 40
0.4404573148
  9
$USRTIMER
 70
     1
  9
$ANGBASE
 50
0.0
  9
$ANGDIR
 70
     0
  9
$PDMODE
 70
     0
  9
$PDSIZE
 40
0.0
  9
$PLINEWID
 40
0.0
  9
$SPLFRAME
 70
     0
  9
$SPLINETYPE
 70
     6
  9
$SPLINESEGS
 70
     8
  9
$HANDSEED
  5
224
  9
$SURFTAB1
 70
    18
  9
$SURFTAB2
 70
    18
  9
$SURFTYPE
 70
     6
  9
$SURFU
 70
    18
  9
$SURFV
 70
    18
  9
$UCSBASE
  2

  9
$UCSNAME
  2

  9
$UCSORG
 10
0.0
 20
0.0
 30
0.0
  9
$UCSXDIR
 10
1.0
 20
0.0
 30
0.0
  9
$UCSYDIR
 10
0.0
 20
1.0
 30
0.0
  9
$UCSORTHOREF
  2

  9
$UCSORTHOVIEW
 70
     0
  9
$UCSORGTOP
 10
0.0
 20
0.0
 30
0.0
  9
$UCSORGBOTTOM
 10
0.0
 20
0.0
 30
0.0
  9
$UCSORGLEFT
 10
0.0
 20
0.0
 30
0.0
  9
$UCSORGRIGHT
 10
0.0
 20
0.0
 30
0.0
  9
$UCSORGFRONT
 10
0.0
 20
0.0
 30
0.0
  9
$UCSORGBACK
 10
0.0
 20
0.0
 30
0.0
  9
$PUCSBASE
  2

  9
$PUCSNAME
  2

  9
$PUCSORG
 10
0.0
 20
0.0
 30
0.0
  9
$PUCSXDIR
 10
1.0
 20
0.0
 30
0.0
  9
$PUCSYDIR
 10
0.0
 20
1.0
 30
0.0
  9
$PUCSORTHOREF
  2

  9
$PUCSORTHOVIEW
 70
     0
  9
$PUCSORGTOP
 10
0.0
 20
0.0
 30
0.0
  9
$PUCSORGBOTTOM
 10
0.0
 20
0.0
 30
0.0
  9
$PUCSORGLEFT
 10
0.0
 20
0.0
 30
0.0
  9
$PUCSORGRIGHT
 10
0.0
 20
0.0
 30
0.0
  9
$PUCSORGFRONT
 10
0.0
 20
0.0
 30
0.0
  9
$PUCSORGBACK
 10
0.0
 20
0.0
 30
0.0
  9
$USERI1
 70
     0
  9
$USERI2
 70
     0
  9
$USERI3
 70
     0
  9
$USERI4
 70
     0
  9
$USERI5
 70
     0
  9
$USERR1
 40
0.0
  9
$USERR2
 40
0.0
  9
$USERR3
 40
0.0
  9
$USERR4
 40
0.0
  9
$USERR5
 40
0.0
  9
$WORLDVIEW
 70
     1
  9
$SHADEDGE
 70
     3
  9
$SHADEDIF
 70
    70
  9
$TILEMODE
 70
     1
  9
$MAXACTVP
 70
    16
  9
$PINSBASE
 10
0.0
 20
0.0
 30
0.0
  9
$PLIMCHECK
 70
     0
  9
$PEXTMIN
 10
1.614583349603368
 20
1.129749872553066
 30
0.0
  9
$PEXTMAX
 10
14.5312501464303
 20
10.1677488529776
 30
0.0
  9
$PLIMMIN
 10
-0.1979161059762549
 20
-0.1979166691697489
  9
$PLIMMAX
 10
16.34375024029589
 20
11.49541603298638
  9
$UNITMODE
 70
     0
  9
$VISRETAIN
 70
     0
  9
$PLINEGEN
 70
     0
  9
$PSLTSCALE
 70
     1
  9
$TREEDEPTH
 70
  3020
  9
$CMLSTYLE
  2
Standard
  9
$CMLJUST
 70
     0
  9
$CMLSCALE
 40
1.0
  9
$PROXYGRAPHICS
 70
     1
  9
$MEASUREMENT
 70
     0
  9
$CELWEIGHT
370
    -1
  9
$ENDCAPS
280
     0
  9
$JOINSTYLE
280
     0
  9
$LWDISPLAY
290
     0
  9
$INSUNITS
 70
     0
  9
$HYPERLINKBASE
  1

  9
$STYLESHEET
  1

  9
$XEDIT
290
     1
  9
$CEPSNTYPE
380
     0
  9
$PSTYLEMODE
290
     1
  9
$FINGERPRINTGUID
  2
{327B5A29-1702-4D52-93BB-268ED8D2516C}
  9
$VERSIONGUID
  2
{2E93F800-7314-AD4F-99FF-F84792D6D19C}
  9
$EXTNAMES
290
     1
  9
$PSVPSCALE
 40
0.0
  9
$OLESTARTUP
290
     0
  9
$SORTENTS
280
   127
  9
$INDEXCTL
280
     0
  9
$HIDETEXT
280
     0
  9
$XCLIPFRAME
280
     2
  9
$HALOGAP
280
     0
  9
$OBSCOLOR
 70
   257
  9
$OBSLTYPE
280
     0
  9
$INTERSECTIONDISPLAY
280
     0
  9
$INTERSECTIONCOLOR
 70
   257
  9
$DIMASSOC
280
     1
  9
$PROJECTNAME
  1

  9
$CAMERADISPLAY
290
     0
  9
$LENSLENGTH
 40
50.0
  9
$CAMERAHEIGHT
 40
0.0
  9
$STEPSPERSEC
 40
2.0
  9
$STEPSIZE
 40
6.0
  9
$3DDWFPREC
 40
2.0
  9
$PSOLWIDTH
 40
0.25
  9
$PSOLHEIGHT
 40
4.0
  9
$LOFTANG1
 40
1.570796326794896
  9
$LOFTANG2
 40
1.570796326794896
  9
$LOFTMAG1
 40
0.0
  9
$LOFTMAG2
 40
0.0
  9
$LOFTPARAM
 70
     7
  9
$LOFTNORMALS
280
     1
  9
$LATITUDE
 40
37.795
  9
$LONGITUDE
 40
-122.394
  9
$NORTHDIRECTION
 40
0.0
  9
$TIMEZONE
 70
 -8000
  9
$LIGHTGLYPHDISPLAY
280
     1
  9
$TILEMODELIGHTSYNCH
280
     1
  9
$CMATERIAL
347
112
  9
$SOLIDHIST
280
     0
  9
$SHOWHIST
280
     1
  9
$DWFFRAME
280
     2
  9
$DGNFRAME
280
     0
  9
$REALWORLDSCALE
290
     1
  9
$INTERFERECOLOR
 62
     1
  9
$INTERFEREOBJVS
345
134
  9
$INTERFEREVPVS
346
131
  9
$CSHADOW
280
     0
  9
$SHADOWPLANELOCATION
 40
0.0
  0
ENDSEC
  0
SECTION
  2
CLASSES
  0
CLASS
  1
ACDBDICTIONARYWDFLT
  2
AcDbDictionaryWithDefault
  3
ObjectDBX Classes
 90
        0
 91
        1
280
     0
281
     0
  0
CLASS
  1
MATERIAL
  2
AcDbMaterial
  3
ObjectDBX Classes
 90
     1153
 91
        3
280
     0
281
     0
  0
CLASS
  1
VISUALSTYLE
  2
AcDbVisualStyle
  3
ObjectDBX Classes
 90
     4095
 91
       24
280
     0
281
     0
  0
CLASS
  1
TABLESTYLE
  2
AcDbTableStyle
  3
ObjectDBX Classes
 90
     4095
 91
        1
280
     0
281
     0
  0
CLASS
  1
SCALE
  2
AcDbScale
  3
ObjectDBX Classes
 90
     1153
 91
       17
280
     0
281
     0
  0
CLASS
  1
MLEADERSTYLE
  2
AcDbMLeaderStyle
  3
ACDB_MLEADERSTYLE_CLASS
 90
     4095
 91
        1
280
     0
281
     0
  0
CLASS
  1
ACDBSECTIONVIEWSTYLE
  2
AcDbSectionViewStyle
  3
ObjectDBX Classes
 90
     1025
 91
        1
280
     0
281
     0
  0
CLASS
  1
ACDBDETAILVIEWSTYLE
  2
AcDbDetailViewStyle
  3
ObjectDBX Classes
 90
     1025
 91
        1
280
     0
281
     0
  0
CLASS
  1
SORTENTSTABLE
  2
AcDbSortentsTable
  3
ObjectDBX Classes
 90
        0
 91
        1
280
     0
281
     0
  0
CLASS
  1
ACDB_TEXTOBJECTCONTEXTDATA_CLASS
  2
AcDbTextObjectContextData
  3
ObjectDBX Classes
 90
     1153
 91
       33
280
     0
281
     0
  0
CLASS
  1
DICTIONARYVAR
  2
AcDbDictionaryVar
  3
ObjectDBX Classes
 90
        0
 91
       18
280
     0
281
     0
  0
CLASS
  1
CELLSTYLEMAP
  2
AcDbCellStyleMap
  3
ObjectDBX Classes
 90
     1152
 91
        1
280
     0
281
     0
  0
ENDSEC
  0
SECTION
  2
TABLES
  0
TABLE
  2
VPORT
  5
1D
330
0
100
AcDbSymbolTable
 70
     1
  0
VPORT
  5
1E
330
1D
100
AcDbSymbolTableRecord
100
AcDbViewportTableRecord
  2
*Active
 70
     0
 10
0.0
 20
0.0
 11
1.0
 21
1.0
 12
44.40546861034341
 22
-32.36570255606802
 13
0.0
 23
0.0
 14
5.0
 24
5.0
 15
10.0
 25
10.0
 16
0.0
 26
0.0
 36
1.0
 17
0.0
 27
0.0
 37
0.0
 40
664.6315830538006
 41
1.787234042553191
 42
50.0
 43
0.0
 44
0.0
 50
0.0
 51
0.0
 71
     0
 72
   100
 73
     1
 74
     1
 75
     0
 76
     0
 77
     0
 78
     0
281
     0
 65
     1
110
0.0
120
0.0
130
0.0
111
1.0
121
0.0
131
0.0
112
0.0
122
1.0
132
0.0
 79
     0
146
0.0
348
130
 60
     3
 61
     5
292
     1
282
     1
141
0.0
142
0.0
 63
   250
421
  3355443
1001
ACAD_NAV_VCDISPLAY
1070
     3
  0
ENDTAB
  0
TABLE
  2
LTYPE
  5
18
330
0
100
AcDbSymbolTable
 70
     3
  0
LTYPE
  5
19
330
18
100
AcDbSymbolTableRecord
100
AcDbLinetypeTableRecord
  2
ByBlock
 70
     0
  3

 72
    65
 73
     0
 40
0.0
  0
LTYPE
  5
1A
330
18
100
AcDbSymbolTableRecord
100
AcDbLinetypeTableRecord
  2
ByLayer
 70
     0
  3

 72
    65
 73
     0
 40
0.0
  0
LTYPE
  5
A
330
18
100
AcDbSymbolTableRecord
100
AcDbLinetypeTableRecord
  2
CONTINUOUS
 70
     0
  3
Solid line
 72
    65
 73
     0
 40
0.0
  0
LTYPE
  5
72
330
18
100
AcDbSymbolTableRecord
100
AcDbLinetypeTableRecord
  2
CENTER2
 70
     0
  3
___ _ ___ _ ___ _ ___ _ ___ _ ___ _ ___ _ ___ _
 72
    65
 73
     4
 40
28.575
 49
19.05
 74
     0
 49
-3.174999999999999
 74
     0
 49
3.174999999999999
 74
     0
 49
-3.174999999999999
 74
     0
  0
LTYPE
  5
36
330
18
100
AcDbSymbolTableRecord
100
AcDbLinetypeTableRecord
  2
HIDDEN
 70
     0
  3
__ __ __ __ __ __ __ __ __ __ __ __ __ __ __ __
 72
    65
 73
     2
 40
9.524999999999998
 49
6.349999999999999
 74
     0
 49
-3.174999999999999
 74
     0
  0
ENDTAB
  0
TABLE
  2
LAYER
  5
14
102
{ACAD_XDICTIONARY
360
165
102
}
330
0
100
AcDbSymbolTable
 70
    11
  0
LAYER
  5
6
102
{ACAD_XDICTIONARY
360
204
102
}
330
14
100
AcDbSymbolTableRecord
100
AcDbLayerTableRecord
  2
0
 70
     0
 62
     7
  6
CONTINUOUS
370
    -3
390
7
347
122
348
0
  0
LAYER
  5
26
102
{ACAD_XDICTIONARY
360
206
102
}
330
14
100
AcDbSymbolTableRecord
100
AcDbLayerTableRecord
  2
DIMS
 70
     0
 62
     1
  6
CONTINUOUS
370
    -3
390
7
347
122
348
0
  0
LAYER
  5
38
102
{ACAD_XDICTIONARY
360
208
102
}
330
14
100
AcDbSymbolTableRecord
100
AcDbLayerTableRecord
  2
ANCON-DSD
 70
     0
 62
     3
  6
CONTINUOUS
370
    -3
390
7
347
122
348
0
  0
LAYER
  5
51
330
14
100
AcDbSymbolTableRecord
100
AcDbLayerTableRecord
  2
DEFPOINTS
 70
     0
 62
     7
  6
CONTINUOUS
290
     0
370
    -3
390
7
347
122
348
0
  0
LAYER
  5
DE
102
{ACAD_XDICTIONARY
360
20A
102
}
330
14
100
AcDbSymbolTableRecord
100
AcDbLayerTableRecord
  2
CONCRETE
 70
     0
 62
     2
  6
CONTINUOUS
370
    -3
390
7
347
122
348
0
  0
LAYER
  5
35
102
{ACAD_XDICTIONARY
360
20C
102
}
330
14
100
AcDbSymbolTableRecord
100
AcDbLayerTableRecord
  2
20MM-JOINT
 70
     0
 62
     7
  6
CONTINUOUS
370
    -3
390
7
347
122
348
0
  0
LAYER
  5
49
102
{ACAD_XDICTIONARY
360
20E
102
}
330
14
100
AcDbSymbolTableRecord
100
AcDbLayerTableRecord
  2
ANCON-TEXT
 70
     0
 62
     6
  6
CONTINUOUS
370
    -3
390
7
347
122
348
0
  0
LAYER
  5
2E
102
{ACAD_XDICTIONARY
360
210
102
}
330
14
100
AcDbSymbolTableRecord
100
AcDbLayerTableRecord
  2
SPECP
 70
     0
 62
     6
  6
CONTINUOUS
370
    -3
390
7
347
122
348
0
  0
LAYER
  5
2B
102
{ACAD_XDICTIONARY
360
212
102
}
330
14
100
AcDbSymbolTableRecord
100
AcDbLayerTableRecord
  2
SPECD
 70
     0
 62
     6
  6
CONTINUOUS
370
    -3
390
7
347
122
348
0
  0
LAYER
  5
87
102
{ACAD_XDICTIONARY
360
214
102
}
330
14
100
AcDbSymbolTableRecord
100
AcDbLayerTableRecord
  2
20MM-DIMS
 70
     0
 62
     1
  6
CONTINUOUS
370
    -3
390
7
347
122
348
0
  0
LAYER
  5
162
102
{ACAD_XDICTIONARY
360
163
102
}
330
14
100
AcDbSymbolTableRecord
100
AcDbLayerTableRecord
  2
ANCON_OUTLINE1
 70
     0
 62
     9
  6
CONTINUOUS
370
    15
390
7
347
122
348
0
  0
ENDTAB
  0
TABLE
  2
STYLE
  5
15
330
0
100
AcDbSymbolTable
 70
     3
  0
STYLE
  5
16
330
15
100
AcDbSymbolTableRecord
100
AcDbTextStyleTableRecord
  2
STANDARD
 70
     0
 40
0.0
 41
1.0
 50
0.0
 71
     0
 42
6.0
  3
txt.shx
  4

  0
STYLE
  5
27
330
15
100
AcDbSymbolTableRecord
100
AcDbTextStyleTableRecord
  2
ROMANS
 70
     0
 40
0.0
 41
1.0
 50
0.0
 71
     0
 42
5.0
  3
romans
  4

  0
STYLE
  5
171
330
15
100
AcDbSymbolTableRecord
100
AcDbTextStyleTableRecord
  2
ARIAL
 70
     0
 40
5.0
 41
1.0
 50
0.0
 71
     0
 42
5.0
  3
arial.ttf
  4

1001
AcadAnnotative
1000
AnnotativeData
1002
{
1070
     1
1070
     1
1002
}
1001
ACAD
1000
Arial
1071
       34
  0
ENDTAB
  0
TABLE
  2
VIEW
  5
1B
330
0
100
AcDbSymbolTable
 70
     0
  0
ENDTAB
  0
TABLE
  2
UCS
  5
1C
330
0
100
AcDbSymbolTable
 70
     0
  0
ENDTAB
  0
TABLE
  2
APPID
  5
1F
330
0
100
AcDbSymbolTable
 70
     4
  0
APPID
  5
20
330
1F
100
AcDbSymbolTableRecord
100
AcDbRegAppTableRecord
  2
ACAD
 70
     0
  0
APPID
  5
164
330
1F
100
AcDbSymbolTableRecord
100
AcDbRegAppTableRecord
  2
ACAD_NAV_VCDISPLAY
 70
     0
  0
APPID
  5
172
330
1F
100
AcDbSymbolTableRecord
100
AcDbRegAppTableRecord
  2
AcadAnnoPO
 70
     0
  0
APPID
  5
175
330
1F
100
AcDbSymbolTableRecord
100
AcDbRegAppTableRecord
  2
AcadAnnotative
 70
     0
  0
ENDTAB
  0
TABLE
  2
DIMSTYLE
  5
21
330
0
100
AcDbSymbolTable
 70
     1
100
AcDbDimStyleTable
 71
     0
  0
DIMSTYLE
105
29
102
{ACAD_REACTORS
330
78
330
C1
330
86
330
94
330
D0
330
A2
330
48
330
F5
330
102
330
AF
102
}
330
21
100
AcDbSymbolTableRecord
100
AcDbDimStyleTableRecord
  2
1-2
 70
     0
 40
2.0
 41
2.0
 42
4.5
 43
0.0
 44
1.5
 45
1.0
 73
     0
 74
     0
 77
     1
 78
    12
140
1.8
141
0.0
146
1.25
147
0.1
171
     0
271
     2
272
     2
274
     0
279
     2
284
    12
285
    12
286
    12
340
16
  0
ENDTAB
  0
TABLE
  2
BLOCK_RECORD
  5
1
330
0
100
AcDbSymbolTable
 70
    11
  0
BLOCK_RECORD
  5
2
102
{ACAD_XDICTIONARY
360
3
102
}
330
1
100
AcDbSymbolTableRecord
100
AcDbBlockTableRecord
  2
*Model_Space
340
C
 70
     0
280
     1
281
     0
  0
BLOCK_RECORD
  5
E
102
{ACAD_XDICTIONARY
360
F
102
}
330
1
100
AcDbSymbolTableRecord
100
AcDbBlockTableRecord
  2
*Paper_Space
340
13
 70
     0
280
     1
281
     0
  0
BLOCK_RECORD
  5
79
330
1
100
AcDbSymbolTableRecord
100
AcDbBlockTableRecord
  2
*D0
340
0
 70
     0
280
     1
281
     0
  0
BLOCK_RECORD
  5
C2
330
1
100
AcDbSymbolTableRecord
100
AcDbBlockTableRecord
  2
*D1
340
0
 70
     0
280
     1
281
     0
  0
BLOCK_RECORD
  5
88
330
1
100
AcDbSymbolTableRecord
100
AcDbBlockTableRecord
  2
*D2
340
0
 70
     0
280
     1
281
     0
  0
BLOCK_RECORD
  5
95
330
1
100
AcDbSymbolTableRecord
100
AcDbBlockTableRecord
  2
*D3
340
0
 70
     0
280
     1
281
     0
  0
BLOCK_RECORD
  5
4A
330
1
100
AcDbSymbolTableRecord
100
AcDbBlockTableRecord
  2
*D4
340
0
 70
     0
280
     1
281
     0
  0
BLOCK_RECORD
  5
F6
330
1
100
AcDbSymbolTableRecord
100
AcDbBlockTableRecord
  2
*D5
340
0
 70
     0
280
     1
281
     0
  0
BLOCK_RECORD
  5
103
330
1
100
AcDbSymbolTableRecord
100
AcDbBlockTableRecord
  2
*D6
340
0
 70
     0
280
     1
281
     0
  0
BLOCK_RECORD
  5
B0
330
1
100
AcDbSymbolTableRecord
100
AcDbBlockTableRecord
  2
*D7
340
0
 70
     0
280
     1
281
     0
  0
BLOCK_RECORD
  5
D1
330
1
100
AcDbSymbolTableRecord
100
AcDbBlockTableRecord
  2
*D8
340
0
 70
     0
280
     1
281
     0
  0
BLOCK_RECORD
  5
A3
330
1
100
AcDbSymbolTableRecord
100
AcDbBlockTableRecord
  2
*D9
340
0
 70
     0
280
     1
281
     0
  0
ENDTAB
  0
ENDSEC
  0
SECTION
  2
BLOCKS
  0
BLOCK
  5
5
330
2
100
AcDbEntity
  8
0
100
AcDbBlockBegin
  2
*Model_Space
 70
     0
 10
0.0
 20
0.0
 30
0.0
  3
*Model_Space
  1

  0
ENDBLK
  5
B
330
2
100
AcDbEntity
  8
0
100
AcDbBlockEnd
  0
BLOCK
  5
11
330
E
100
AcDbEntity
 67
     1
  8
0
100
AcDbBlockBegin
  2
*Paper_Space
 70
     0
 10
0.0
 20
0.0
 30
0.0
  3
*Paper_Space
  1

  0
ENDBLK
  5
12
330
E
100
AcDbEntity
 67
     1
  8
0
100
AcDbBlockEnd
  0
BLOCK
  5
84
330
79
100
AcDbEntity
  8
0
100
AcDbBlockBegin
  2
*D0
 70
     1
 10
0.0
 20
0.0
 30
0.0
  3
*D0
  1

  0
LINE
  5
7A
330
79
100
AcDbEntity
  8
0
  6
ByBlock
 62
     0
440
 16777216
100
AcDbLine
 10
4.0
 20
-129.15
 30
0.0
 11
4.0
 21
-156.9096954321413
 31
0.0
  0
LINE
  5
7B
330
79
100
AcDbEntity
  8
0
  6
ByBlock
 62
     0
440
 16777216
100
AcDbLine
 10
0.0
 20
-129.15
 30
0.0
 11
0.0
 21
-156.9096954321413
 31
0.0
  0
LINE
  5
7C
330
79
100
AcDbEntity
  8
0
  6
ByBlock
 62
     0
440
 16777216
100
AcDbLine
 10
8.0
 20
-153.9096954321413
 30
0.0
 11
12.0
 21
-153.9096954321413
 31
0.0
  0
LINE
  5
7D
330
79
100
AcDbEntity
  8
0
  6
ByBlock
 62
     0
440
 16777216
100
AcDbLine
 10
-4.0
 20
-153.9096954321413
 30
0.0
 11
-8.0
 21
-153.9096954321413
 31
0.0
  0
SOLID
  5
7E
330
79
100
AcDbEntity
  8
0
  6
ByBlock
 62
     0
440
 16777216
100
AcDbTrace
 10
8.0
 20
-153.2430287654746
 30
0.0
 11
8.0
 21
-154.5763620988079
 31
0.0
 12
4.0
 22
-153.9096954321413
 32
0.0
 13
4.0
 23
-153.9096954321413
 33
0.0
  0
SOLID
  5
7F
330
79
100
AcDbEntity
  8
0
  6
ByBlock
 62
     0
440
 16777216
100
AcDbTrace
 10
-4.0
 20
-153.2430287654746
 30
0.0
 11
-4.0
 21
-154.5763620988079
 31
0.0
 12
0.0
 22
-153.9096954321413
 32
0.0
 13
0.0
 23
-153.9096954321413
 33
0.0
  0
TEXT
  5
80
330
79
100
AcDbEntity
  8
0
  6
ByBlock
 62
     0
440
 16777216
100
AcDbText
 10
-7.757404178567298
 20
-152.1096954321413
 30
0.0
 40
3.6
  1
4
  7
ROMANS
 72
     1
 11
-5.957404178567298
 21
-150.3096954321413
 31
0.0
100
AcDbText
 73
     2
  0
POINT
  5
81
330
79
100
AcDbEntity
  8
DEFPOINTS
  6
ByBlock
 62
     0
440
 16777216
100
AcDbPoint
 10
4.0
 20
-120.15
 30
0.0
  0
POINT
  5
82
330
79
100
AcDbEntity
  8
DEFPOINTS
  6
ByBlock
 62
     0
440
 16777216
100
AcDbPoint
 10
0.0
 20
-120.15
 30
0.0
  0
POINT
  5
83
330
79
100
AcDbEntity
  8
DEFPOINTS
  6
ByBlock
 62
     0
440
 16777216
100
AcDbPoint
 10
0.0
 20
-153.9096954321413
 30
0.0
  0
ENDBLK
  5
85
330
79
100
AcDbEntity
  8
0
100
AcDbBlockEnd
  0
BLOCK
  5
CC
330
C2
100
AcDbEntity
  8
0
100
AcDbBlockBegin
  2
*D1
 70
     1
 10
0.0
 20
0.0
 30
0.0
  3
*D1
  1

  0
LINE
  5
C3
330
C2
100
AcDbEntity
  8
0
  6
ByBlock
 62
     0
440
 16777216
100
AcDbLine
 10
-127.9999999999998
 20
-134.0
 30
0.0
 11
-127.9999999999998
 21
-156.9096954321413
 31
0.0
  0
LINE
  5
C4
330
C2
100
AcDbEntity
  8
0
  6
ByBlock
 62
     0
440
 16777216
100
AcDbLine
 10
-62.99999999999989
 20
-64.0
 30
0.0
 11
-62.99999999999989
 21
-156.9096954321413
 31
0.0
  0
LINE
  5
C5
330
C2
100
AcDbEntity
  8
0
  6
ByBlock
 62
     0
440
 16777216
100
AcDbLine
 10
-123.9999999999998
 20
-153.9096954321413
 30
0.0
 11
-66.99999999999988
 21
-153.9096954321413
 31
0.0
  0
SOLID
  5
C6
330
C2
100
AcDbEntity
  8
0
  6
ByBlock
 62
     0
440
 16777216
100
AcDbTrace
 10
-123.9999999999998
 20
-153.2430287654746
 30
0.0
 11
-123.9999999999998
 21
-154.5763620988079
 31
0.0
 12
-127.9999999999998
 22
-153.9096954321413
 32
0.0
 13
-127.9999999999998
 23
-153.9096954321413
 33
0.0
  0
SOLID
  5
C7
330
C2
100
AcDbEntity
  8
0
  6
ByBlock
 62
     0
440
 16777216
100
AcDbTrace
 10
-66.99999999999988
 20
-153.2430287654746
 30
0.0
 11
-66.99999999999988
 21
-154.5763620988079
 31
0.0
 12
-62.99999999999989
 22
-153.9096954321413
 32
0.0
 13
-62.99999999999989
 23
-153.9096954321413
 33
0.0
  0
TEXT
  5
C8
330
C2
100
AcDbEntity
  8
0
  6
ByBlock
 62
     0
440
 16777216
100
AcDbText
 10
-99.01428571428557
 20
-152.1096954321413
 30
0.0
 40
3.6
  1
65
  7
ROMANS
 72
     1
 11
-95.49999999999984
 21
-150.3096954321413
 31
0.0
100
AcDbText
 73
     2
  0
POINT
  5
C9
330
C2
100
AcDbEntity
  8
DEFPOINTS
  6
ByBlock
 62
     0
440
 16777216
100
AcDbPoint
 10
-127.9999999999998
 20
-125.0
 30
0.0
  0
POINT
  5
CA
330
C2
100
AcDbEntity
  8
DEFPOINTS
  6
ByBlock
 62
     0
440
 16777216
100
AcDbPoint
 10
-62.99999999999989
 20
-55.0
 30
0.0
  0
POINT
  5
CB
330
C2
100
AcDbEntity
  8
DEFPOINTS
  6
ByBlock
 62
     0
440
 16777216
100
AcDbPoint
 10
-62.99999999999989
 20
-153.9096954321413
 30
0.0
  0
ENDBLK
  5
CD
330
C2
100
AcDbEntity
  8
0
100
AcDbBlockEnd
  0
BLOCK
  5
92
330
88
100
AcDbEntity
  8
0
100
AcDbBlockBegin
  2
*D2
 70
     1
 10
0.0
 20
0.0
 30
0.0
  3
*D2
  1

  0
LINE
  5
89
330
88
100
AcDbEntity
  8
0
  6
ByBlock
 62
     0
440
 16777216
100
AcDbLine
 10
-62.99999999999989
 20
-64.0
 30
0.0
 11
-62.99999999999989
 21
-156.9096954321413
 31
0.0
  0
LINE
  5
8A
330
88
100
AcDbEntity
  8
0
  6
ByBlock
 62
     0
440
 16777216
100
AcDbLine
 10
-27.99999999999989
 20
-69.0
 30
0.0
 11
-27.99999999999989
 21
-156.9096954321413
 31
0.0
  0
LINE
  5
8B
330
88
100
AcDbEntity
  8
0
  6
ByBlock
 62
     0
440
 16777216
100
AcDbLine
 10
-58.99999999999988
 20
-153.9096954321413
 30
0.0
 11
-31.99999999999989
 21
-153.9096954321413
 31
0.0
  0
SOLID
  5
8C
330
88
100
AcDbEntity
  8
0
  6
ByBlock
 62
     0
440
 16777216
100
AcDbTrace
 10
-58.99999999999988
 20
-153.2430287654746
 30
0.0
 11
-58.99999999999988
 21
-154.5763620988079
 31
0.0
 12
-62.99999999999989
 22
-153.9096954321413
 32
0.0
 13
-62.99999999999989
 23
-153.9096954321413
 33
0.0
  0
SOLID
  5
8D
330
88
100
AcDbEntity
  8
0
  6
ByBlock
 62
     0
440
 16777216
100
AcDbTrace
 10
-31.99999999999989
 20
-153.2430287654746
 30
0.0
 11
-31.99999999999989
 21
-154.5763620988079
 31
0.0
 12
-27.99999999999989
 22
-153.9096954321413
 32
0.0
 13
-27.99999999999989
 23
-153.9096954321413
 33
0.0
  0
TEXT
  5
8E
330
88
100
AcDbEntity
  8
0
  6
ByBlock
 62
     0
440
 16777216
100
AcDbText
 10
-48.92857142857131
 20
-152.1096954321413
 30
0.0
 40
3.6
  1
35
  7
ROMANS
 72
     1
 11
-45.49999999999989
 21
-150.3096954321413
 31
0.0
100
AcDbText
 73
     2
  0
POINT
  5
8F
330
88
100
AcDbEntity
  8
DEFPOINTS
  6
ByBlock
 62
     0
440
 16777216
100
AcDbPoint
 10
-62.99999999999989
 20
-55.0
 30
0.0
  0
POINT
  5
90
330
88
100
AcDbEntity
  8
DEFPOINTS
  6
ByBlock
 62
     0
440
 16777216
100
AcDbPoint
 10
-27.99999999999989
 20
-60.0
 30
0.0
  0
POINT
  5
91
330
88
100
AcDbEntity
  8
DEFPOINTS
  6
ByBlock
 62
     0
440
 16777216
100
AcDbPoint
 10
-27.99999999999989
 20
-153.9096954321413
 30
0.0
  0
ENDBLK
  5
93
330
88
100
AcDbEntity
  8
0
100
AcDbBlockEnd
  0
BLOCK
  5
A0
330
95
100
AcDbEntity
  8
0
100
AcDbBlockBegin
  2
*D3
 70
     1
 10
0.0
 20
0.0
 30
0.0
  3
*D3
  1

  0
LINE
  5
96
330
95
100
AcDbEntity
  8
0
  6
ByBlock
 62
     0
440
 16777216
100
AcDbLine
 10
-27.99999999999989
 20
-69.0
 30
0.0
 11
-27.99999999999989
 21
-156.9096954321413
 31
0.0
  0
LINE
  5
97
330
95
100
AcDbEntity
  8
0
  6
ByBlock
 62
     0
440
 16777216
100
AcDbLine
 10
-19.99999999999985
 20
-69.0
 30
0.0
 11
-19.99999999999985
 21
-156.9096954321413
 31
0.0
  0
LINE
  5
98
330
95
100
AcDbEntity
  8
0
  6
ByBlock
 62
     0
440
 16777216
100
AcDbLine
 10
-31.99999999999989
 20
-153.9096954321413
 30
0.0
 11
-35.99999999999989
 21
-153.9096954321413
 31
0.0
  0
LINE
  5
99
330
95
100
AcDbEntity
  8
0
  6
ByBlock
 62
     0
440
 16777216
100
AcDbLine
 10
-15.99999999999986
 20
-153.9096954321413
 30
0.0
 11
-11.99999999999985
 21
-153.9096954321413
 31
0.0
  0
SOLID
  5
9A
330
95
100
AcDbEntity
  8
0
  6
ByBlock
 62
     0
440
 16777216
100
AcDbTrace
 10
-31.99999999999989
 20
-153.2430287654746
 30
0.0
 11
-31.99999999999989
 21
-154.5763620988079
 31
0.0
 12
-27.99999999999989
 22
-153.9096954321413
 32
0.0
 13
-27.99999999999989
 23
-153.9096954321413
 33
0.0
  0
SOLID
  5
9B
330
95
100
AcDbEntity
  8
0
  6
ByBlock
 62
     0
440
 16777216
100
AcDbTrace
 10
-15.99999999999986
 20
-153.2430287654746
 30
0.0
 11
-15.99999999999986
 21
-154.5763620988079
 31
0.0
 12
-19.99999999999985
 22
-153.9096954321413
 32
0.0
 13
-19.99999999999985
 23
-153.9096954321413
 33
0.0
  0
TEXT
  5
9C
330
95
100
AcDbEntity
  8
0
  6
ByBlock
 62
     0
440
 16777216
100
AcDbText
 10
-16.10672142725876
 20
-152.1096954321413
 30
0.0
 40
3.6
  1
8
  7
ROMANS
 72
     1
 11
-14.39243571297304
 21
-150.3096954321413
 31
0.0
100
AcDbText
 73
     2
  0
POINT
  5
9D
330
95
100
AcDbEntity
  8
DEFPOINTS
  6
ByBlock
 62
     0
440
 16777216
100
AcDbPoint
 10
-27.99999999999989
 20
-60.0
 30
0.0
  0
POINT
  5
9E
330
95
100
AcDbEntity
  8
DEFPOINTS
  6
ByBlock
 62
     0
440
 16777216
100
AcDbPoint
 10
-19.99999999999985
 20
-60.0
 30
0.0
  0
POINT
  5
9F
330
95
100
AcDbEntity
  8
DEFPOINTS
  6
ByBlock
 62
     0
440
 16777216
100
AcDbPoint
 10
-19.99999999999985
 20
-153.9096954321413
 30
0.0
  0
ENDBLK
  5
A1
330
95
100
AcDbEntity
  8
0
100
AcDbBlockEnd
  0
BLOCK
  5
54
330
4A
100
AcDbEntity
  8
0
100
AcDbBlockBegin
  2
*D4
 70
     1
 10
0.0
 20
0.0
 30
0.0
  3
*D4
  1

  0
LINE
  5
4B
330
4A
100
AcDbEntity
  8
0
  6
ByBlock
 62
     0
440
 16777216
100
AcDbLine
 10
314.0000000000001
 20
-37.50000000000002
 30
0.0
 11
332.30106930743
 21
-37.50000000000002
 31
0.0
  0
LINE
  5
4C
330
4A
100
AcDbEntity
  8
0
  6
ByBlock
 62
     0
440
 16777216
100
AcDbLine
 10
314.0000000000001
 20
37.49999999999998
 30
0.0
 11
332.30106930743
 21
37.49999999999998
 31
0.0
  0
LINE
  5
4D
330
4A
100
AcDbEntity
  8
0
  6
ByBlock
 62
     0
440
 16777216
100
AcDbLine
 10
329.30106930743
 20
-33.50000000000001
 30
0.0
 11
329.30106930743
 21
33.49999999999998
 31
0.0
  0
SOLID
  5
4E
330
4A
100
AcDbEntity
  8
0
  6
ByBlock
 62
     0
440
 16777216
100
AcDbTrace
 10
328.6344026407633
 20
-33.50000000000001
 30
0.0
 11
329.9677359740967
 21
-33.50000000000001
 31
0.0
 12
329.30106930743
 22
-37.50000000000002
 32
0.0
 13
329.30106930743
 23
-37.50000000000002
 33
0.0
  0
SOLID
  5
4F
330
4A
100
AcDbEntity
  8
0
  6
ByBlock
 62
     0
440
 16777216
100
AcDbTrace
 10
328.6344026407633
 20
33.49999999999998
 30
0.0
 11
329.9677359740967
 21
33.49999999999998
 31
0.0
 12
329.30106930743
 22
37.49999999999998
 32
0.0
 13
329.30106930743
 23
37.49999999999998
 33
0.0
  0
POINT
  5
50
330
4A
100
AcDbEntity
  8
DEFPOINTS
  6
ByBlock
 62
     0
440
 16777216
100
AcDbPoint
 10
305.0000000000001
 20
-37.50000000000002
 30
0.0
  0
POINT
  5
52
330
4A
100
AcDbEntity
  8
DEFPOINTS
  6
ByBlock
 62
     0
440
 16777216
100
AcDbPoint
 10
305.0000000000001
 20
37.49999999999998
 30
0.0
  0
POINT
  5
53
330
4A
100
AcDbEntity
  8
DEFPOINTS
  6
ByBlock
 62
     0
440
 16777216
100
AcDbPoint
 10
329.30106930743
 20
37.49999999999998
 30
0.0
  0
ENDBLK
  5
55
330
4A
100
AcDbEntity
  8
0
100
AcDbBlockEnd
  0
BLOCK
  5
100
330
F6
100
AcDbEntity
  8
0
100
AcDbBlockBegin
  2
*D5
 70
     1
 10
0.0
 20
0.0
 30
0.0
  3
*D5
  1

  0
LINE
  5
F7
330
F6
100
AcDbEntity
  8
0
  6
ByBlock
 62
     0
440
 16777216
100
AcDbLine
 10
0.0000000000001451
 20
-64.00000000000002
 30
0.0
 11
0.0000000000001451
 21
-168.9109032596188
 31
0.0
  0
LINE
  5
F8
330
F6
100
AcDbEntity
  8
0
  6
ByBlock
 62
     0
440
 16777216
100
AcDbLine
 10
270.0000000000001
 20
-33.14999999999994
 30
0.0
 11
270.0000000000001
 21
-168.9109032596188
 31
0.0
  0
LINE
  5
F9
330
F6
100
AcDbEntity
  8
0
  6
ByBlock
 62
     0
440
 16777216
100
AcDbLine
 10
4.000000000000144
 20
-165.9109032596188
 30
0.0
 11
266.0000000000001
 21
-165.9109032596188
 31
0.0
  0
SOLID
  5
FA
330
F6
100
AcDbEntity
  8
0
  6
ByBlock
 62
     0
440
 16777216
100
AcDbTrace
 10
4.000000000000144
 20
-165.2442365929521
 30
0.0
 11
4.000000000000144
 21
-166.5775699262855
 31
0.0
 12
0.0000000000001451
 22
-165.9109032596188
 32
0.0
 13
0.0000000000001451
 23
-165.9109032596188
 33
0.0
  0
SOLID
  5
FB
330
F6
100
AcDbEntity
  8
0
  6
ByBlock
 62
     0
440
 16777216
100
AcDbTrace
 10
266.0000000000001
 20
-165.2442365929521
 30
0.0
 11
266.0000000000001
 21
-166.5775699262855
 31
0.0
 12
270.0000000000001
 22
-165.9109032596188
 32
0.0
 13
270.0000000000001
 23
-165.9109032596188
 33
0.0
  0
TEXT
  5
FC
330
F6
100
AcDbEntity
  8
0
  6
ByBlock
 62
     0
440
 16777216
100
AcDbText
 10
129.857142857143
 20
-164.1109032596188
 30
0.0
 40
3.6
  1
270
  7
ROMANS
 72
     1
 11
135.0000000000001
 21
-162.3109032596188
 31
0.0
100
AcDbText
 73
     2
  0
POINT
  5
FD
330
F6
100
AcDbEntity
  8
DEFPOINTS
  6
ByBlock
 62
     0
440
 16777216
100
AcDbPoint
 10
0.0000000000001451
 20
-55.00000000000001
 30
0.0
  0
POINT
  5
FE
330
F6
100
AcDbEntity
  8
DEFPOINTS
  6
ByBlock
 62
     0
440
 16777216
100
AcDbPoint
 10
270.0000000000001
 20
-24.14999999999994
 30
0.0
  0
POINT
  5
FF
330
F6
100
AcDbEntity
  8
DEFPOINTS
  6
ByBlock
 62
     0
440
 16777216
100
AcDbPoint
 10
270.0000000000001
 20
-165.9109032596188
 30
0.0
  0
ENDBLK
  5
101
330
F6
100
AcDbEntity
  8
0
100
AcDbBlockEnd
  0
BLOCK
  5
10D
330
103
100
AcDbEntity
  8
0
100
AcDbBlockBegin
  2
*D6
 70
     1
 10
0.0
 20
0.0
 30
0.0
  3
*D6
  1

  0
LINE
  5
104
330
103
100
AcDbEntity
  8
0
  6
ByBlock
 62
     0
440
 16777216
100
AcDbLine
 10
0.0
 20
-64.00000000000002
 30
0.0
 11
0.0
 21
-180.9109032596188
 31
0.0
  0
LINE
  5
105
330
103
100
AcDbEntity
  8
0
  6
ByBlock
 62
     0
440
 16777216
100
AcDbLine
 10
300.0000000000001
 20
-46.50000000000001
 30
0.0
 11
300.0000000000001
 21
-180.9109032596188
 31
0.0
  0
LINE
  5
106
330
103
100
AcDbEntity
  8
0
  6
ByBlock
 62
     0
440
 16777216
100
AcDbLine
 10
4.0
 20
-177.9109032596188
 30
0.0
 11
296.0000000000001
 21
-177.9109032596188
 31
0.0
  0
SOLID
  5
107
330
103
100
AcDbEntity
  8
0
  6
ByBlock
 62
     0
440
 16777216
100
AcDbTrace
 10
4.0
 20
-177.2442365929522
 30
0.0
 11
4.0
 21
-178.5775699262855
 31
0.0
 12
0.0
 22
-177.9109032596188
 32
0.0
 13
0.0
 23
-177.9109032596188
 33
0.0
  0
SOLID
  5
108
330
103
100
AcDbEntity
  8
0
  6
ByBlock
 62
     0
440
 16777216
100
AcDbTrace
 10
296.0000000000001
 20
-177.2442365929522
 30
0.0
 11
296.0000000000001
 21
-178.5775699262855
 31
0.0
 12
300.0000000000001
 22
-177.9109032596188
 32
0.0
 13
300.0000000000001
 23
-177.9109032596188
 33
0.0
  0
TEXT
  5
109
330
103
100
AcDbEntity
  8
0
  6
ByBlock
 62
     0
440
 16777216
100
AcDbText
 10
144.8571428571429
 20
-176.1109032596188
 30
0.0
 40
3.6
  1
300
  7
ROMANS
 72
     1
 11
150.0
 21
-174.3109032596188
 31
0.0
100
AcDbText
 73
     2
  0
POINT
  5
10A
330
103
100
AcDbEntity
  8
DEFPOINTS
  6
ByBlock
 62
     0
440
 16777216
100
AcDbPoint
 10
0.0
 20
-55.00000000000001
 30
0.0
  0
POINT
  5
10B
330
103
100
AcDbEntity
  8
DEFPOINTS
  6
ByBlock
 62
     0
440
 16777216
100
AcDbPoint
 10
300.0000000000001
 20
-37.50000000000002
 30
0.0
  0
POINT
  5
10C
330
103
100
AcDbEntity
  8
DEFPOINTS
  6
ByBlock
 62
     0
440
 16777216
100
AcDbPoint
 10
300.0000000000001
 20
-177.9109032596188
 30
0.0
  0
ENDBLK
  5
10E
330
103
100
AcDbEntity
  8
0
100
AcDbBlockEnd
  0
BLOCK
  5
BA
330
B0
100
AcDbEntity
  8
0
100
AcDbBlockBegin
  2
*D7
 70
     1
 10
0.0
 20
0.0
 30
0.0
  3
*D7
  1

  0
LINE
  5
B1
330
B0
100
AcDbEntity
  8
0
  6
ByBlock
 62
     0
440
 16777216
100
AcDbLine
 10
4.0
 20
-64.0
 30
0.0
 11
4.0
 21
-156.9096954321413
 31
0.0
  0
LINE
  5
B2
330
B0
100
AcDbEntity
  8
0
  6
ByBlock
 62
     0
440
 16777216
100
AcDbLine
 10
50.00000000000016
 20
-93.79670764967332
 30
0.0
 11
50.00000000000016
 21
-156.9096954321413
 31
0.0
  0
LINE
  5
B3
330
B0
100
AcDbEntity
  8
0
  6
ByBlock
 62
     0
440
 16777216
100
AcDbLine
 10
8.0
 20
-153.9096954321413
 30
0.0
 11
46.00000000000016
 21
-153.9096954321413
 31
0.0
  0
SOLID
  5
B4
330
B0
100
AcDbEntity
  8
0
  6
ByBlock
 62
     0
440
 16777216
100
AcDbTrace
 10
8.0
 20
-153.2430287654746
 30
0.0
 11
8.0
 21
-154.5763620988079
 31
0.0
 12
4.0
 22
-153.9096954321413
 32
0.0
 13
4.0
 23
-153.9096954321413
 33
0.0
  0
SOLID
  5
B5
330
B0
100
AcDbEntity
  8
0
  6
ByBlock
 62
     0
440
 16777216
100
AcDbTrace
 10
46.00000000000016
 20
-153.2430287654746
 30
0.0
 11
46.00000000000016
 21
-154.5763620988079
 31
0.0
 12
50.00000000000016
 22
-153.9096954321413
 32
0.0
 13
50.00000000000016
 23
-153.9096954321413
 33
0.0
  0
TEXT
  5
B6
330
B0
100
AcDbEntity
  8
0
  6
ByBlock
 62
     0
440
 16777216
100
AcDbText
 10
23.57142857142866
 20
-152.1096954321413
 30
0.0
 40
3.6
  1
46
  7
ROMANS
 72
     1
 11
27.00000000000008
 21
-150.3096954321413
 31
0.0
100
AcDbText
 73
     2
  0
POINT
  5
B7
330
B0
100
AcDbEntity
  8
DEFPOINTS
  6
ByBlock
 62
     0
440
 16777216
100
AcDbPoint
 10
4.0
 20
-55.0
 30
0.0
  0
POINT
  5
B8
330
B0
100
AcDbEntity
  8
DEFPOINTS
  6
ByBlock
 62
     0
440
 16777216
100
AcDbPoint
 10
50.00000000000016
 20
-84.79670764967332
 30
0.0
  0
POINT
  5
B9
330
B0
100
AcDbEntity
  8
DEFPOINTS
  6
ByBlock
 62
     0
440
 16777216
100
AcDbPoint
 10
50.00000000000016
 20
-153.9096954321413
 30
0.0
  0
ENDBLK
  5
BB
330
B0
100
AcDbEntity
  8
0
100
AcDbBlockEnd
  0
BLOCK
  5
DB
330
D1
100
AcDbEntity
  8
0
100
AcDbBlockBegin
  2
*D8
 70
     1
 10
0.0
 20
0.0
 30
0.0
  3
*D8
  1

  0
LINE
  5
D2
330
D1
100
AcDbEntity
  8
0
  6
ByBlock
 62
     0
440
 16777216
100
AcDbLine
 10
-310.0
 20
-28.10733408074236
 30
0.0
 11
-310.0
 21
-180.9109032596188
 31
0.0
  0
LINE
  5
D3
330
D1
100
AcDbEntity
  8
0
  6
ByBlock
 62
     0
440
 16777216
100
AcDbLine
 10
-19.99999999999985
 20
-69.0
 30
0.0
 11
-19.99999999999985
 21
-180.9109032596188
 31
0.0
  0
LINE
  5
D4
330
D1
100
AcDbEntity
  8
0
  6
ByBlock
 62
     0
440
 16777216
100
AcDbLine
 10
-306.0
 20
-177.9109032596188
 30
0.0
 11
-23.99999999999986
 21
-177.9109032596188
 31
0.0
  0
SOLID
  5
D5
330
D1
100
AcDbEntity
  8
0
  6
ByBlock
 62
     0
440
 16777216
100
AcDbTrace
 10
-306.0
 20
-177.2442365929522
 30
0.0
 11
-306.0
 21
-178.5775699262855
 31
0.0
 12
-310.0
 22
-177.9109032596188
 32
0.0
 13
-310.0
 23
-177.9109032596188
 33
0.0
  0
SOLID
  5
D6
330
D1
100
AcDbEntity
  8
0
  6
ByBlock
 62
     0
440
 16777216
100
AcDbTrace
 10
-23.99999999999986
 20
-177.2442365929522
 30
0.0
 11
-23.99999999999986
 21
-178.5775699262855
 31
0.0
 12
-19.99999999999985
 22
-177.9109032596188
 32
0.0
 13
-19.99999999999985
 23
-177.9109032596188
 33
0.0
  0
TEXT
  5
D7
330
D1
100
AcDbEntity
  8
0
  6
ByBlock
 62
     0
440
 16777216
100
AcDbText
 10
-170.1428571428571
 20
-176.1109032596188
 30
0.0
 40
3.6
  1
290
  7
ROMANS
 72
     1
 11
-164.9999999999999
 21
-174.3109032596188
 31
0.0
100
AcDbText
 73
     2
  0
POINT
  5
D8
330
D1
100
AcDbEntity
  8
DEFPOINTS
  6
ByBlock
 62
     0
440
 16777216
100
AcDbPoint
 10
-310.0
 20
-19.10733408074236
 30
0.0
  0
POINT
  5
D9
330
D1
100
AcDbEntity
  8
DEFPOINTS
  6
ByBlock
 62
     0
440
 16777216
100
AcDbPoint
 10
-19.99999999999985
 20
-60.0
 30
0.0
  0
POINT
  5
DA
330
D1
100
AcDbEntity
  8
DEFPOINTS
  6
ByBlock
 62
     0
440
 16777216
100
AcDbPoint
 10
-19.99999999999985
 20
-177.9109032596188
 30
0.0
  0
ENDBLK
  5
DC
330
D1
100
AcDbEntity
  8
0
100
AcDbBlockEnd
  0
BLOCK
  5
AD
330
A3
100
AcDbEntity
  8
0
100
AcDbBlockBegin
  2
*D9
 70
     1
 10
0.0
 20
0.0
 30
0.0
  3
*D9
  1

  0
LINE
  5
A4
330
A3
100
AcDbEntity
  8
0
  6
ByBlock
 62
     0
440
 16777216
100
AcDbLine
 10
-19.99999999999985
 20
-69.0
 30
0.0
 11
-19.99999999999985
 21
-180.9109032596188
 31
0.0
  0
LINE
  5
A5
330
A3
100
AcDbEntity
  8
0
  6
ByBlock
 62
     0
440
 16777216
100
AcDbLine
 10
0.0
 20
-129.15
 30
0.0
 11
0.0
 21
-180.9109032596188
 31
0.0
  0
LINE
  5
A6
330
A3
100
AcDbEntity
  8
0
  6
ByBlock
 62
     0
440
 16777216
100
AcDbLine
 10
-15.99999999999986
 20
-177.9109032596188
 30
0.0
 11
-4.0
 21
-177.9109032596188
 31
0.0
  0
SOLID
  5
A7
330
A3
100
AcDbEntity
  8
0
  6
ByBlock
 62
     0
440
 16777216
100
AcDbTrace
 10
-15.99999999999986
 20
-177.2442365929522
 30
0.0
 11
-15.99999999999986
 21
-178.5775699262855
 31
0.0
 12
-19.99999999999985
 22
-177.9109032596188
 32
0.0
 13
-19.99999999999985
 23
-177.9109032596188
 33
0.0
  0
SOLID
  5
A8
330
A3
100
AcDbEntity
  8
0
  6
ByBlock
 62
     0
440
 16777216
100
AcDbTrace
 10
-4.0
 20
-177.2442365929522
 30
0.0
 11
-4.0
 21
-178.5775699262855
 31
0.0
 12
0.0
 22
-177.9109032596188
 32
0.0
 13
0.0
 23
-177.9109032596188
 33
0.0
  0
TEXT
  5
A9
330
A3
100
AcDbEntity
  8
0
  6
ByBlock
 62
     0
440
 16777216
100
AcDbText
 10
-13.42857142857135
 20
-176.1109032596188
 30
0.0
 40
3.6
  1
20
  7
ROMANS
 72
     1
 11
-9.999999999999928
 21
-174.3109032596188
 31
0.0
100
AcDbText
 73
     2
  0
POINT
  5
AA
330
A3
100
AcDbEntity
  8
DEFPOINTS
  6
ByBlock
 62
     0
440
 16777216
100
AcDbPoint
 10
-19.99999999999985
 20
-60.0
 30
0.0
  0
POINT
  5
AB
330
A3
100
AcDbEntity
  8
DEFPOINTS
  6
ByBlock
 62
     0
440
 16777216
100
AcDbPoint
 10
0.0
 20
-120.15
 30
0.0
  0
POINT
  5
AC
330
A3
100
AcDbEntity
  8
DEFPOINTS
  6
ByBlock
 62
     0
440
 16777216
100
AcDbPoint
 10
0.0
 20
-177.9109032596188
 30
0.0
  0
ENDBLK
  5
AE
330
A3
100
AcDbEntity
  8
0
100
AcDbBlockEnd
  0
ENDSEC
  0
SECTION
  2
ENTITIES
  0
TEXT
  5
2A
330
2
100
AcDbEntity
  8
SPECD
 62
     6
100
AcDbText
 10
335.0626818677756
 20
1.955775844977941
 30
0.0
 40
3.0
  1
MAX. LATERAL MOVEMENT
  7
ROMANS
 72
     4
 11
364.1341104392042
 21
3.455775844977942
 31
0.0
100
AcDbText
  0
LINE
  5
2C
330
2
100
AcDbEntity
  8
SPECD
 62
     6
100
AcDbLine
 10
367.3426369991831
 20
199.3270789939532
 30
0.0
 11
367.3426369991831
 21
146.2933864084028
 31
0.0
  0
LINE
  5
2D
330
2
100
AcDbEntity
  8
SPECP
 62
     6
100
AcDbLine
 10
232.4455378153047
 20
228.693592661047
 30
0.0
 11
232.4455378153047
 21
216.7756173690458
 31
0.0
  0
TEXT
  5
2F
102
{ACAD_XDICTIONARY
360
1F6
102
}
330
2
100
AcDbEntity
  8
SPECP
 62
     6
100
AcDbText
 10
172.4786538387211
 20
220.0564825452035
 30
0.0
 40
5.0
  1
STAIFIX DSD ??
  7
ARIAL
 72
     4
 11
198.8736060897443
 21
222.5564825452035
 31
0.0
100
AcDbText
1001
AcadAnnotative
1000
AnnotativeData
1002
{
1070
     1
1070
     1
1002
}
  0
LINE
  5
30
330
2
100
AcDbEntity
  8
SPECP
 62
     6
100
AcDbLine
 10
164.8556868925427
 20
228.693592661047
 30
0.0
 11
164.8556868925427
 21
216.7756173690458
 31
0.0
  0
LINE
  5
31
330
2
100
AcDbEntity
  8
SPECP
 62
     6
100
AcDbLine
 10
164.8556868925427
 20
216.7756173690458
 30
0.0
 11
232.4455378153047
 21
216.7756173690458
 31
0.0
  0
LINE
  5
32
330
2
100
AcDbEntity
  8
SPECP
 62
     6
100
AcDbLine
 10
164.8556868925427
 20
228.693592661047
 30
0.0
 11
232.4455378153047
 21
228.693592661047
 31
0.0
  0
TEXT
  5
33
102
{ACAD_XDICTIONARY
360
1F2
102
}
330
2
100
AcDbEntity
  8
SPECD
 62
     6
100
AcDbText
 10
175.3772110035463
 20
149.9947315192312
 30
0.0
 40
5.0
  1
LOAD OF ??? kN
  7
ARIAL
 72
     4
 11
202.744195996725
 21
152.4964368398314
 31
0.0
100
AcDbText
1001
AcadAnnotative
1000
AnnotativeData
1002
{
1070
     1
1070
     1
1002
}
  0
LINE
  5
34
330
2
100
AcDbEntity
  8
20MM-JOINT
  6
HIDDEN
 62
     3
100
AcDbLine
 10
247.9999999999999
 20
20.89266591925764
 30
0.0
 11
249.9999999999999
 21
18.89266591925764
 31
0.0
  0
LINE
  5
37
330
2
100
AcDbEntity
  8
ANCON-DSD
  6
Continuous
100
AcDbLine
 10
58.00000000000016
 20
79.87464986740281
 30
0.0
 11
58.00000000000016
 21
37.5
 31
0.0
  0
LINE
  5
39
330
2
100
AcDbEntity
  8
SPECD
 62
     6
100
AcDbLine
 10
164.8556868925427
 20
199.3270789939532
 30
0.0
 11
164.8556868925427
 21
146.2933864084028
 31
0.0
  0
TEXT
  5
3A
102
{ACAD_XDICTIONARY
360
1EE
102
}
330
2
100
AcDbEntity
  8
SPECD
 62
     6
100
AcDbText
 10
174.7220596448588
 20
170.0787140981225
 30
0.0
 40
5.0
  1
SUITABLE FOR A DESIGN JOINT WIDTH OF ?? MM
  7
ARIAL
 72
     4
 11
258.5487990718711
 21
172.5804194187228
 31
0.0
100
AcDbText
1001
AcadAnnotative
1000
AnnotativeData
1002
{
1070
     1
1070
     1
1002
}
  0
LINE
  5
3B
330
2
100
AcDbEntity
  8
SPECD
 62
     6
100
AcDbLine
 10
164.8556868925427
 20
199.3270789939532
 30
0.0
 11
367.3426369991831
 21
199.3270789939532
 31
0.0
  0
LINE
  5
3C
330
2
100
AcDbEntity
  8
SPECD
 62
     6
100
AcDbLine
 10
164.8556868925427
 20
146.2933864084028
 30
0.0
 11
367.3426369991831
 21
146.2933864084028
 31
0.0
  0
TEXT
  5
3D
102
{ACAD_XDICTIONARY
360
1EA
102
}
330
2
100
AcDbEntity
  8
SPECD
 62
     6
100
AcDbText
 10
174.9185464688623
 20
160.0296566841934
 30
0.0
 40
5.0
  1
AND CAPABLE OF TRANSFERRING A SERVICEABILITY
  7
ARIAL
 72
     4
 11
266.3203200022866
 21
162.5313620047937
 31
0.0
100
AcDbText
1001
AcadAnnotative
1000
AnnotativeData
1002
{
1070
     1
1070
     1
1002
}
  0
TEXT
  5
3E
102
{ACAD_XDICTIONARY
360
1E6
102
}
330
2
100
AcDbEntity
  8
SPECD
 62
     6
100
AcDbText
 10
173.5408982002592
 20
179.9798618077923
 30
0.0
 40
5.0
  1
COMPRISING SLEEVE AND DOWEL COMPONENT
  7
ARIAL
 72
     4
 11
256.4024261675171
 21
182.4815671283925
 31
0.0
100
AcDbText
1001
AcadAnnotative
1000
AnnotativeData
1002
{
1070
     1
1070
     1
1002
}
  0
TEXT
  5
3F
102
{ACAD_XDICTIONARY
360
1E2
102
}
330
2
100
AcDbEntity
  8
SPECD
 62
     6
100
AcDbText
 10
174.634816966089
 20
190.0845741335828
 30
0.0
 40
5.0
  1
TWO PART STAINLESS STEEL SHEAR CONNECTOR
  7
ARIAL
 72
     4
 11
261.7664677164301
 21
192.5862794541832
 31
0.0
100
AcDbText
1001
AcadAnnotative
1000
AnnotativeData
1002
{
1070
     1
1070
     1
1002
}
  0
TEXT
  5
40
330
2
100
AcDbEntity
  8
SPECD
 62
     6
100
AcDbText
 10
356.4198247249184
 20
-5.51366293336914
 30
0.0
 40
3.0
  1
22 MM
  7
ROMANS
 72
     4
 11
364.1341104392042
 21
-4.01366293336914
 31
0.0
100
AcDbText
  0
LINE
  5
41
330
2
100
AcDbEntity
  8
20MM-JOINT
  6
HIDDEN
 62
     3
100
AcDbLine
 10
247.9999999999999
 20
-21.10733408074236
 30
0.0
 11
249.9999999999999
 21
-19.10733408074236
 31
0.0
  0
LINE
  5
42
330
2
100
AcDbEntity
  8
ANCON-DSD
  6
Continuous
100
AcDbLine
 10
58.00000000000015
 20
-37.50000000000002
 30
0.0
 11
58.00000000000016
 21
-79.79670764967332
 31
0.0
  0
LINE
  5
43
330
2
100
AcDbEntity
  8
20MM-JOINT
  6
HIDDEN
 62
     3
100
AcDbLine
 10
249.9999999999999
 20
18.89266591925764
 30
0.0
 11
249.9999999999999
 21
-19.10733408074236
 31
0.0
  0
LINE
  5
44
330
2
100
AcDbEntity
  8
20MM-JOINT
  6
HIDDEN
 62
     3
100
AcDbLine
 10
247.9999999999999
 20
20.89266591925764
 30
0.0
 11
247.9999999999999
 21
-21.10733408074236
 31
0.0
  0
LINE
  5
45
330
2
100
AcDbEntity
  8
ANCON-DSD
  6
HIDDEN
100
AcDbLine
 10
270.0000000000001
 20
-24.14999999999994
 30
0.0
 11
270.0000000000001
 21
24.15000000000008
 31
0.0
  0
LINE
  5
46
330
2
100
AcDbEntity
  8
ANCON-DSD
  6
Continuous
100
AcDbLine
 10
300.0000000000001
 20
-37.50000000000002
 30
0.0
 11
300.0000000000001
 21
37.49999999999999
 31
0.0
  0
LINE
  5
47
330
2
100
AcDbEntity
  8
ANCON-DSD
  6
Continuous
100
AcDbLine
 10
305.0000000000001
 20
-37.50000000000002
 30
0.0
 11
305.0000000000001
 21
37.49999999999999
 31
0.0
  0
DIMENSION
  5
48
330
2
100
AcDbEntity
  8
ANCON-TEXT
100
AcDbDimension
280
     0
  2
*D4
 10
329.30106930743
 20
37.49999999999998
 30
0.0
 11
21.5
 21
-150.3096954321413
 31
0.0
  1
 
 71
     5
 42
-1.0
 73
     0
 74
     0
 75
     0
  3
1-2
100
AcDbAlignedDimension
 13
305.0000000000001
 23
-37.50000000000002
 33
0.0
 14
305.0000000000001
 24
37.49999999999998
 34
0.0
 50
90.0
100
AcDbRotatedDimension
  0
TEXT
  5
56
102
{ACAD_XDICTIONARY
360
1DE
102
}
330
2
100
AcDbEntity
  8
20MM-JOINT
 62
     6
100
AcDbText
 10
-102.6540032530132
 20
186.9586349572788
 30
0.0
 40
5.0
  1
151.8
  7
ARIAL
 72
     4
 11
-93.91423517661483
 21
189.4262338658736
 31
0.0
100
AcDbText
1001
AcadAnnotative
1000
AnnotativeData
1002
{
1070
     1
1070
     1
1002
}
  0
TEXT
  5
57
102
{ACAD_XDICTIONARY
360
1DA
102
}
330
2
100
AcDbEntity
  8
20MM-JOINT
 62
     6
100
AcDbText
 10
-122.2515475913488
 20
218.9480372444578
 30
0.0
 40
5.0
  1
SERVICEABILITY
  7
ARIAL
 72
     4
 11
-93.91423517661483
 21
221.4480372444578
 31
0.0
100
AcDbText
1001
AcadAnnotative
1000
AnnotativeData
1002
{
1070
     1
1070
     1
1002
}
  0
TEXT
  5
58
102
{ACAD_XDICTIONARY
360
1D6
102
}
330
2
100
AcDbEntity
  8
20MM-JOINT
 62
     6
100
AcDbText
 10
-112.9302651902574
 20
208.3382702918471
 30
0.0
 40
5.0
  1
LOAD ( kN )
  7
ARIAL
 72
     4
 11
-93.91423517661483
 21
210.1476154487365
 31
0.0
100
AcDbText
1001
AcadAnnotative
1000
AnnotativeData
1002
{
1070
     1
1070
     1
1002
}
  0
TEXT
  5
59
102
{ACAD_XDICTIONARY
360
1D2
102
}
330
2
100
AcDbEntity
  8
20MM-JOINT
 62
     6
100
AcDbText
 10
-164.5878368137226
 20
186.9586349572788
 30
0.0
 40
5.0
  1
20 MM
  7
ARIAL
 72
     4
 11
-153.9142351766148
 21
189.4262338658736
 31
0.0
100
AcDbText
1001
AcadAnnotative
1000
AnnotativeData
1002
{
1070
     1
1070
     1
1002
}
  0
TEXT
  5
5A
102
{ACAD_XDICTIONARY
360
1CE
102
}
330
2
100
AcDbEntity
  8
20MM-JOINT
 62
     6
100
AcDbText
 10
-168.0690089007571
 20
208.0455833597072
 30
0.0
 40
5.0
  1
WIDTH
  7
ARIAL
 72
     4
 11
-156.624602352326
 21
210.5455833597072
 31
0.0
100
AcDbText
1001
AcadAnnotative
1000
AnnotativeData
1002
{
1070
     1
1070
     1
1002
}
  0
LINE
  5
5B
330
2
100
AcDbEntity
  8
ANCON-DSD
100
AcDbLine
 10
3.999999999999992
 20
54.99999999999997
 30
0.0
 11
-0.0000000000000073
 21
54.99999999999997
 31
0.0
  0
LINE
  5
5C
330
2
100
AcDbEntity
  8
ANCON-DSD
  6
Continuous
100
AcDbLine
 10
42.00000000000016
 20
79.87464986740281
 30
0.0
 11
42.00000000000017
 21
37.5
 31
0.0
  0
LINE
  5
5D
330
2
100
AcDbEntity
  8
20MM-JOINT
  6
Continuous
 62
     3
100
AcDbLine
 10
-19.99999999999987
 20
60.0
 30
0.0
 11
-27.99999999999989
 21
60.0
 31
0.0
  0
LINE
  5
5E
330
2
100
AcDbEntity
  8
20MM-JOINT
  6
Continuous
 62
     3
100
AcDbLine
 10
-54.99999999999989
 20
50.0
 30
0.0
 11
-54.99999999999989
 21
20.89266591925764
 31
0.0
  0
LINE
  5
5F
330
2
100
AcDbEntity
  8
20MM-JOINT
  6
Continuous
 62
     3
100
AcDbLine
 10
-19.99999999999988
 20
20.89266591925764
 30
0.0
 11
0.0000000000000209
 21
20.89266591925764
 31
0.0
  0
LINE
  5
60
330
2
100
AcDbEntity
  8
20MM-JOINT
  6
Continuous
 62
     3
100
AcDbLine
 10
-119.9999999999999
 20
120.0
 30
0.0
 11
-135.9999999999999
 21
120.0
 31
0.0
  0
LINE
  5
61
330
2
100
AcDbEntity
  8
20MM-JOINT
  6
Continuous
 62
     3
100
AcDbLine
 10
-70.99999999999988
 20
50.0
 30
0.0
 11
-70.99999999999988
 21
20.89266591925764
 31
0.0
  0
LINE
  5
62
330
2
100
AcDbEntity
  8
20MM-JOINT
  6
Continuous
 62
     3
100
AcDbLine
 10
-135.9999999999999
 20
120.0
 30
0.0
 11
-135.9999999999999
 21
20.89266591925764
 31
0.0
  0
LINE
  5
63
330
2
100
AcDbEntity
  8
20MM-JOINT
  6
Continuous
 62
     3
100
AcDbLine
 10
-119.9999999999999
 20
120.0
 30
0.0
 11
-119.9999999999999
 21
20.89266591925764
 31
0.0
  0
LINE
  5
64
330
2
100
AcDbEntity
  8
20MM-JOINT
  6
Continuous
 62
     3
100
AcDbLine
 10
-54.99999999999989
 20
49.99999999999994
 30
0.0
 11
-70.99999999999988
 21
50.0
 31
0.0
  0
LINE
  5
65
330
2
100
AcDbEntity
  8
20MM-JOINT
 62
     6
100
AcDbLine
 10
-62.42102159678104
 20
229.2089229068678
 30
0.0
 11
-62.42102159678104
 21
176.110676772775
 31
0.0
  0
LINE
  5
66
330
2
100
AcDbEntity
  8
20MM-JOINT
 62
     6
100
AcDbLine
 10
-127.2916057315806
 20
229.2089229068678
 30
0.0
 11
-127.2916057315806
 21
176.110676772775
 31
0.0
  0
TEXT
  5
67
102
{ACAD_XDICTIONARY
360
1CA
102
}
330
2
100
AcDbEntity
  8
20MM-JOINT
 62
     6
100
AcDbText
 10
-229.8316976595616
 20
187.0763020786976
 30
0.0
 40
5.0
  1
DSDQ150
  7
ARIAL
 72
     4
 11
-213.9142351766148
 21
189.4262338658736
 31
0.0
100
AcDbText
1001
AcadAnnotative
1000
AnnotativeData
1002
{
1070
     1
1070
     1
1002
}
  0
TEXT
  5
68
102
{ACAD_XDICTIONARY
360
1C6
102
}
330
2
100
AcDbEntity
  8
20MM-JOINT
 62
     6
100
AcDbText
 10
-228.9305789607896
 20
218.9432067473262
 30
0.0
 40
5.0
  1
DSD REF:
  7
ARIAL
 72
     4
 11
-212.6311246633817
 21
221.4432067473262
 31
0.0
100
AcDbText
1001
AcadAnnotative
1000
AnnotativeData
1002
{
1070
     1
1070
     1
1002
}
  0
LINE
  5
69
330
2
100
AcDbEntity
  8
20MM-JOINT
 62
     3
100
AcDbLine
 10
-310.0
 20
18.89266591925764
 30
0.0
 11
-308.0
 21
20.89266591925764
 31
0.0
  0
LINE
  5
6A
330
2
100
AcDbEntity
  8
20MM-JOINT
 62
     6
100
AcDbLine
 10
-187.7996992886435
 20
229.2089229068678
 30
0.0
 11
-187.7996992886435
 21
176.110676772775
 31
0.0
  0
LINE
  5
6B
330
2
100
AcDbEntity
  8
20MM-JOINT
 62
     6
100
AcDbLine
 10
-237.7996992886435
 20
229.2089229068678
 30
0.0
 11
-237.7996992886435
 21
176.110676772775
 31
0.0
  0
TEXT
  5
6C
102
{ACAD_XDICTIONARY
360
1C2
102
}
330
2
100
AcDbEntity
  8
20MM-JOINT
 62
     6
100
AcDbText
 10
-181.0737837984379
 20
218.941501426726
 30
0.0
 40
5.0
  1
DESIGN JOINT
  7
ARIAL
 72
     4
 11
-156.624602352326
 21
221.4432067473262
 31
0.0
100
AcDbText
1001
AcadAnnotative
1000
AnnotativeData
1002
{
1070
     1
1070
     1
1002
}
  0
LINE
  5
6D
330
2
100
AcDbEntity
  8
20MM-JOINT
 62
     6
100
AcDbLine
 10
-237.7996992886435
 20
176.1106767727751
 30
0.0
 11
-62.42102159678104
 21
176.110676772775
 31
0.0
  0
LINE
  5
6E
330
2
100
AcDbEntity
  8
20MM-JOINT
 62
     6
100
AcDbLine
 10
-237.7996992886435
 20
203.1381618478222
 30
0.0
 11
-62.42102159678101
 21
203.1381618478222
 31
0.0
  0
LINE
  5
6F
330
2
100
AcDbEntity
  8
20MM-JOINT
 62
     6
100
AcDbLine
 10
-237.7996992886435
 20
229.2089229068678
 30
0.0
 11
-62.42102159678104
 21
229.2089229068678
 31
0.0
  0
LINE
  5
70
330
2
100
AcDbEntity
  8
20MM-JOINT
  6
Continuous
 62
     3
100
AcDbLine
 10
-308.0
 20
20.89266591925764
 30
0.0
 11
-27.99999999999989
 21
20.89266591925764
 31
0.0
  0
LINE
  5
71
330
2
100
AcDbEntity
  8
20MM-JOINT
  6
CENTER2
 62
     1
100
AcDbLine
 10
0.0000000000000238
 20
0.0000000000000018
 30
0.0
 11
-320.0
 21
-0.0000000000000568
 31
0.0
  0
LINE
  5
73
330
2
100
AcDbEntity
  8
ANCON-DSD
100
AcDbLine
 10
4.000000000000033
 20
-55.00000000000001
 30
0.0
 11
0.0000000000000339
 21
-55.00000000000001
 31
0.0
  0
LINE
  5
74
330
2
100
AcDbEntity
  8
ANCON-DSD
  6
Continuous
100
AcDbLine
 10
42.00000000000016
 20
-37.50000000000002
 30
0.0
 11
42.00000000000016
 21
-79.79670764967332
 31
0.0
  0
LINE
  5
75
330
2
100
AcDbEntity
  8
20MM-JOINT
  6
Continuous
 62
     3
100
AcDbLine
 10
-19.99999999999985
 20
-60.0
 30
0.0
 11
-27.99999999999989
 21
-60.0
 31
0.0
  0
LINE
  5
76
330
2
100
AcDbEntity
  8
20MM-JOINT
  6
Continuous
 62
     3
100
AcDbLine
 10
-54.99999999999988
 20
-21.10733408074236
 30
0.0
 11
-54.99999999999989
 21
-50.0
 31
0.0
  0
LINE
  5
77
330
2
100
AcDbEntity
  8
20MM-JOINT
  6
Continuous
 62
     3
100
AcDbLine
 10
-19.99999999999988
 20
-21.10733408074236
 30
0.0
 11
0.0000000000000267
 21
-21.10733408074236
 31
0.0
  0
DIMENSION
  5
78
330
2
100
AcDbEntity
  8
DIMS
100
AcDbDimension
280
     0
  2
*D0
 10
0.0
 20
-153.9096954321413
 30
0.0
 11
-5.957404178567298
 21
-150.3096954321413
 31
0.0
 70
   128
 71
     5
 42
-1.0
 73
     0
 74
     0
 75
     0
  3
1-2
100
AcDbAlignedDimension
 13
4.0
 23
-120.15
 33
0.0
 14
0.0
 24
-120.15
 34
0.0
100
AcDbRotatedDimension
  0
DIMENSION
  5
86
330
2
100
AcDbEntity
  8
20MM-DIMS
100
AcDbDimension
280
     0
  2
*D2
 10
-27.99999999999989
 20
-153.9096954321413
 30
0.0
 11
-45.49999999999989
 21
-150.3096954321413
 31
0.0
 71
     5
 42
-1.0
 73
     0
 74
     0
 75
     0
  3
1-2
100
AcDbAlignedDimension
 13
-62.99999999999989
 23
-55.0
 33
0.0
 14
-27.99999999999989
 24
-60.0
 34
0.0
100
AcDbRotatedDimension
  0
DIMENSION
  5
94
330
2
100
AcDbEntity
  8
20MM-DIMS
100
AcDbDimension
280
     0
  2
*D3
 10
-19.99999999999985
 20
-153.9096954321413
 30
0.0
 11
-14.39243571297304
 21
-150.3096954321413
 31
0.0
 70
   128
 71
     5
 42
-1.0
 73
     0
 74
     0
 75
     0
  3
1-2
100
AcDbAlignedDimension
 13
-27.99999999999989
 23
-60.0
 33
0.0
 14
-19.99999999999985
 24
-60.0
 34
0.0
100
AcDbRotatedDimension
  0
DIMENSION
  5
A2
330
2
100
AcDbEntity
  8
20MM-DIMS
100
AcDbDimension
280
     0
  2
*D9
 10
0.0
 20
-177.9109032596188
 30
0.0
 11
-9.999999999999928
 21
-174.3109032596188
 31
0.0
 71
     5
 42
-1.0
 73
     0
 74
     0
 75
     0
  3
1-2
100
AcDbAlignedDimension
 13
-19.99999999999985
 23
-60.0
 33
0.0
 14
0.0
 24
-120.15
 34
0.0
100
AcDbRotatedDimension
  0
DIMENSION
  5
AF
330
2
100
AcDbEntity
  8
DIMS
100
AcDbDimension
280
     0
  2
*D7
 10
50.00000000000016
 20
-153.9096954321413
 30
0.0
 11
27.00000000000008
 21
-150.3096954321413
 31
0.0
 71
     5
 42
-1.0
 73
     0
 74
     0
 75
     0
  3
1-2
100
AcDbAlignedDimension
 13
4.0
 23
-55.0
 33
0.0
 14
50.00000000000016
 24
-84.79670764967332
 34
0.0
100
AcDbRotatedDimension
  0
LINE
  5
BC
330
2
100
AcDbEntity
  8
20MM-JOINT
  6
Continuous
 62
     3
100
AcDbLine
 10
-70.99999999999988
 20
-21.10733408074236
 30
0.0
 11
-70.99999999999988
 21
-50.0
 31
0.0
  0
LINE
  5
BD
330
2
100
AcDbEntity
  8
20MM-JOINT
  6
Continuous
 62
     3
100
AcDbLine
 10
-119.9999999999998
 20
-120.0
 30
0.0
 11
-135.9999999999998
 21
-120.0
 31
0.0
  0
LINE
  5
BE
330
2
100
AcDbEntity
  8
20MM-JOINT
  6
Continuous
 62
     3
100
AcDbLine
 10
-119.9999999999998
 20
-21.10733408074236
 30
0.0
 11
-119.9999999999998
 21
-120.0
 31
0.0
  0
LINE
  5
BF
330
2
100
AcDbEntity
  8
20MM-JOINT
  6
Continuous
 62
     3
100
AcDbLine
 10
-135.9999999999999
 20
-21.10733408074236
 30
0.0
 11
-135.9999999999998
 21
-120.0
 31
0.0
  0
LINE
  5
C0
330
2
100
AcDbEntity
  8
20MM-JOINT
  6
Continuous
 62
     3
100
AcDbLine
 10
-54.99999999999989
 20
-50.0
 30
0.0
 11
-70.99999999999988
 21
-50.0
 31
0.0
  0
DIMENSION
  5
C1
330
2
100
AcDbEntity
  8
20MM-DIMS
100
AcDbDimension
280
     0
  2
*D1
 10
-62.99999999999989
 20
-153.9096954321413
 30
0.0
 11
-95.49999999999984
 21
-150.3096954321413
 31
0.0
 71
     5
 42
-1.0
 73
     0
 74
     0
 75
     0
  3
1-2
100
AcDbAlignedDimension
 13
-127.9999999999998
 23
-125.0
 33
0.0
 14
-62.99999999999989
 24
-55.0
 34
0.0
100
AcDbRotatedDimension
  0
LINE
  5
CE
330
2
100
AcDbEntity
  8
20MM-JOINT
 62
     3
100
AcDbLine
 10
-308.0
 20
-21.10733408074236
 30
0.0
 11
-310.0
 21
-19.10733408074236
 31
0.0
  0
LINE
  5
CF
330
2
100
AcDbEntity
  8
20MM-JOINT
  6
Continuous
 62
     3
100
AcDbLine
 10
-308.0
 20
-21.10733408074236
 30
0.0
 11
-27.99999999999989
 21
-21.10733408074236
 31
0.0
  0
DIMENSION
  5
D0
330
2
100
AcDbEntity
  8
20MM-DIMS
100
AcDbDimension
280
     0
  2
*D8
 10
-19.99999999999985
 20
-177.9109032596188
 30
0.0
 11
-164.9999999999999
 21
-174.3109032596188
 31
0.0
 71
     5
 42
-1.0
 73
     0
 74
     0
 75
     0
  3
1-2
100
AcDbAlignedDimension
 13
-310.0
 23
-19.10733408074236
 33
0.0
 14
-19.99999999999985
 24
-60.0
 34
0.0
100
AcDbRotatedDimension
  0
LINE
  5
DD
330
2
100
AcDbEntity
  8
CONCRETE
100
AcDbLine
 10
0.0000000000001705
 20
-240.2728586436023
 30
0.0
 11
0.0000000000001137
 21
173.297501804489
 31
0.0
  0
LINE
  5
DF
330
2
100
AcDbEntity
  8
20MM-JOINT
 62
     2
100
AcDbLine
 10
-19.99999999999994
 20
-240.2819189242553
 30
0.0
 11
-20.0
 21
173.2884415238362
 31
0.0
  0
LINE
  5
E0
330
2
100
AcDbEntity
  8
ANCON-DSD
100
AcDbLine
 10
3.999999999999999
 20
54.99999999999998
 30
0.0
 11
4.0
 21
-55.00000000000001
 31
0.0
  0
LINE
  5
E1
330
2
100
AcDbEntity
  8
ANCON-DSD
100
AcDbLine
 10
0.0
 20
54.99999999999997
 30
0.0
 11
0.0
 21
-55.00000000000001
 31
0.0
  0
LINE
  5
E2
330
2
100
AcDbEntity
  8
ANCON-DSD
  6
CENTER2
 62
     1
100
AcDbLine
 10
50.00000000000016
 20
84.87464986740281
 30
0.0
 11
50.00000000000016
 21
-84.79670764967332
 31
0.0
  0
LINE
  5
E3
330
2
100
AcDbEntity
  8
20MM-JOINT
 62
     3
100
AcDbLine
 10
-19.99999999999987
 20
60.0
 30
0.0
 11
-19.99999999999985
 21
-60.0
 31
0.0
  0
LINE
  5
E4
330
2
100
AcDbEntity
  8
20MM-JOINT
 62
     3
100
AcDbLine
 10
-27.99999999999989
 20
60.0
 30
0.0
 11
-27.99999999999989
 21
-60.0
 31
0.0
  0
LINE
  5
E5
330
2
100
AcDbEntity
  8
20MM-JOINT
  6
CENTER2
 62
     1
100
AcDbLine
 10
-62.99999999999989
 20
55.0
 30
0.0
 11
-62.99999999999989
 21
-55.0
 31
0.0
  0
LINE
  5
E6
330
2
100
AcDbEntity
  8
20MM-JOINT
  6
CENTER2
 62
     1
100
AcDbLine
 10
-128.0
 20
125.0
 30
0.0
 11
-127.9999999999998
 21
-125.0
 31
0.0
  0
LINE
  5
E7
330
2
100
AcDbEntity
  8
20MM-JOINT
 62
     3
100
AcDbLine
 10
-310.0
 20
18.89266591925764
 30
0.0
 11
-310.0
 21
-19.10733408074236
 31
0.0
  0
LINE
  5
E8
330
2
100
AcDbEntity
  8
20MM-JOINT
 62
     3
100
AcDbLine
 10
-308.0
 20
20.89266591925764
 30
0.0
 11
-308.0
 21
-21.10733408074236
 31
0.0
  0
LINE
  5
E9
330
2
100
AcDbEntity
  8
20MM-JOINT
 62
     3
100
AcDbLine
 10
0.0000000000001261
 20
60.0
 30
0.0
 11
0.0000000000001439
 21
-60.0
 31
0.0
  0
LINE
  5
EA
330
2
100
AcDbEntity
  8
DIMS
  6
CENTER2
100
AcDbLine
 10
304.9999999999998
 20
-0.0000000000000142
 30
0.0
 11
0.0
 21
-0.0000000000000142
 31
0.0
  0
TEXT
  5
EB
102
{ACAD_XDICTIONARY
360
1BE
102
}
330
2
100
AcDbEntity
  8
SPECD
 62
     1
100
AcDbText
 10
40.0893790465074
 20
220.0547772246032
 30
0.0
 40
5.0
  1
SPECIFICATION BY PRODUCT
  7
ARIAL
 72
     4
 11
90.73569555401082
 21
222.5564825452035
 31
0.0
100
AcDbText
1001
AcadAnnotative
1000
AnnotativeData
1002
{
1070
     1
1070
     1
1002
}
  0
TEXT
  5
EC
102
{ACAD_XDICTIONARY
360
1BA
102
}
330
2
100
AcDbEntity
  8
SPECD
 62
     1
100
AcDbText
 10
39.82390112355398
 20
190.1203227601071
 30
0.0
 40
5.0
  1
SPECIFICATION BY DESCRIPTION
  7
ARIAL
 72
     4
 11
97.06980835411332
 21
192.6220280807074
 31
0.0
100
AcDbText
1001
AcadAnnotative
1000
AnnotativeData
1002
{
1070
     1
1070
     1
1002
}
  0
LINE
  5
ED
330
2
100
AcDbEntity
  8
ANCON-DSD
  6
HIDDEN
100
AcDbLine
 10
270.0000000000001
 20
24.15000000000008
 30
0.0
 11
4.0
 21
24.15000000000008
 31
0.0
  0
LINE
  5
EE
330
2
100
AcDbEntity
  8
ANCON-DSD
  6
HIDDEN
100
AcDbLine
 10
270.0000000000002
 20
-24.14999999999994
 30
0.0
 11
4.0
 21
-24.14999999999994
 31
0.0
  0
LINE
  5
EF
330
2
100
AcDbEntity
  8
ANCON-DSD
  6
Continuous
100
AcDbLine
 10
58.00000000000016
 20
79.87464986740279
 30
0.0
 11
42.00000000000016
 21
79.87464986740281
 31
0.0
  0
LINE
  5
F0
330
2
100
AcDbEntity
  8
ANCON-DSD
  6
Continuous
100
AcDbLine
 10
58.00000000000016
 20
-79.79670764967332
 30
0.0
 11
42.00000000000016
 21
-79.79670764967332
 31
0.0
  0
LINE
  5
F1
330
2
100
AcDbEntity
  8
20MM-JOINT
  6
HIDDEN
 62
     3
100
AcDbLine
 10
0.0000000000000008
 20
-21.10733408074236
 30
0.0
 11
247.9999999999999
 21
-21.10733408074236
 31
0.0
  0
LINE
  5
F2
330
2
100
AcDbEntity
  8
20MM-JOINT
  6
HIDDEN
 62
     3
100
AcDbLine
 10
0.0000000000000008
 20
20.89266591925764
 30
0.0
 11
247.9999999999999
 21
20.89266591925764
 31
0.0
  0
LINE
  5
F3
330
2
100
AcDbEntity
  8
ANCON-DSD
  6
Continuous
100
AcDbLine
 10
305.0000000000001
 20
37.49999999999998
 30
0.0
 11
0.0
 21
37.49999999999999
 31
0.0
  0
LINE
  5
F4
330
2
100
AcDbEntity
  8
ANCON-DSD
  6
Continuous
100
AcDbLine
 10
305.0000000000001
 20
-37.50000000000002
 30
0.0
 11
0.0
 21
-37.50000000000002
 31
0.0
  0
DIMENSION
  5
F5
330
2
100
AcDbEntity
  8
DIMS
100
AcDbDimension
280
     0
  2
*D5
 10
270.0000000000001
 20
-165.9109032596188
 30
0.0
 11
135.0000000000001
 21
-162.3109032596188
 31
0.0
 71
     5
 42
-1.0
 73
     0
 74
     0
 75
     0
  3
1-2
100
AcDbAlignedDimension
 13
0.0000000000001451
 23
-55.00000000000001
 33
0.0
 14
270.0000000000001
 24
-24.14999999999994
 34
0.0
100
AcDbRotatedDimension
  0
DIMENSION
  5
102
330
2
100
AcDbEntity
  8
DIMS
100
AcDbDimension
280
     0
  2
*D6
 10
300.0000000000001
 20
-177.9109032596188
 30
0.0
 11
150.0
 21
-174.3109032596188
 31
0.0
 71
     5
 42
-1.0
 73
     0
 74
     0
 75
     0
  3
1-2
100
AcDbAlignedDimension
 13
0.0
 23
-55.00000000000001
 33
0.0
 14
300.0000000000001
 24
-37.50000000000002
 34
0.0
100
AcDbRotatedDimension
  0
MTEXT
  5
16F
330
2
100
AcDbEntity
  8
ANCON-TEXT
100
AcDbMText
 10
243.964194188163
 20
-226.901911641265
 30
0.0
 40
6.695252439800889
 41
160.2376420553701
 46
0.0
 71
     1
 72
     5
  1
{\fArial|b0|i0|c0|p34;Leviat \PTel:  1300 304 320\PEmail: technical.au@leviat.com\PWeb: ancon.com.au / Leviat.com}
 73
     1
 44
1.0
101
Embedded Object
 70
     1
 10
1.0
 20
0.0
 30
0.0
 11
243.964194188163
 21
-226.901911641265
 31
0.0
 40
160.2376420553701
 41
0.0
 42
135.4898050010729
 43
40.5505773622047
 71
     2
 72
     1
 44
160.2376420553701
 45
0.8369065549751111
 73
     0
 74
     0
 46
0.0
  0
LWPOLYLINE
  5
170
330
2
100
AcDbEntity
  8
DIMS
 62
     0
100
AcDbPolyline
 90
        4
 70
     1
 43
0.0
 10
-356.2168102631276
 20
253.984526581286
 10
402.1586370315522
 20
253.984526581286
 10
402.1586370315522
 20
-283.9888189523843
 10
-356.2168102631276
 20
-283.9888189523843
  0
ENDSEC
  0
SECTION
  2
OBJECTS
  0
DICTIONARY
  5
9
330
0
100
AcDbDictionary
281
     1
  3
ACAD_CIP_PREVIOUS_PRODUCT_INFO
350
161
  3
ACAD_COLOR
350
143
  3
ACAD_DETAILVIEWSTYLE
350
15C
  3
ACAD_GROUP
350
23
  3
ACAD_LAYOUT
350
D
  3
ACAD_MATERIAL
350
111
  3
ACAD_MLEADERSTYLE
350
158
  3
ACAD_MLINESTYLE
350
24
  3
ACAD_PLOTSETTINGS
350
25
  3
ACAD_PLOTSTYLENAME
350
8
  3
ACAD_SCALELIST
350
146
  3
ACAD_SECTIONVIEWSTYLE
350
15A
  3
ACAD_TABLESTYLE
350
144
  3
ACAD_VISUALSTYLE
350
12A
  3
ACDB_RECOMPOSE_DATA
350
223
  3
AcDbVariableDictionary
350
217
  0
DICTIONARY
  5
165
330
14
100
AcDbDictionary
280
     1
281
     1
  3
ACAD_LAYERSTATES
360
166
  0
DICTIONARY
  5
204
330
6
100
AcDbDictionary
280
     1
281
     1
  3
ADSK_XREC_LAYER_RECONCILED
360
205
  0
DICTIONARY
  5
206
330
26
100
AcDbDictionary
280
     1
281
     1
  3
ADSK_XREC_LAYER_RECONCILED
360
207
  0
DICTIONARY
  5
208
330
38
100
AcDbDictionary
280
     1
281
     1
  3
ADSK_XREC_LAYER_RECONCILED
360
209
  0
DICTIONARY
  5
20A
330
DE
100
AcDbDictionary
280
     1
281
     1
  3
ADSK_XREC_LAYER_RECONCILED
360
20B
  0
DICTIONARY
  5
20C
330
35
100
AcDbDictionary
280
     1
281
     1
  3
ADSK_XREC_LAYER_RECONCILED
360
20D
  0
DICTIONARY
  5
20E
330
49
100
AcDbDictionary
280
     1
281
     1
  3
ADSK_XREC_LAYER_RECONCILED
360
20F
  0
DICTIONARY
  5
210
330
2E
100
AcDbDictionary
280
     1
281
     1
  3
ADSK_XREC_LAYER_RECONCILED
360
211
  0
DICTIONARY
  5
212
330
2B
100
AcDbDictionary
280
     1
281
     1
  3
ADSK_XREC_LAYER_RECONCILED
360
213
  0
DICTIONARY
  5
214
330
87
100
AcDbDictionary
280
     1
281
     1
  3
ADSK_XREC_LAYER_RECONCILED
360
215
  0
DICTIONARY
  5
163
330
162
100
AcDbDictionary
280
     1
281
     1
  3
ADSK_XREC_LAYER_RECONCILED
360
216
  0
DICTIONARY
  5
3
330
2
100
AcDbDictionary
280
     1
281
     1
  3
ACAD_LAYOUTSELFREF
360
4
  0
DICTIONARY
  5
F
330
E
100
AcDbDictionary
280
     1
281
     1
  3
ACAD_LAYOUTSELFREF
360
10
  0
DICTIONARY
  5
1F6
330
2F
100
AcDbDictionary
280
     1
281
     1
  3
AcDbContextDataManager
360
1F7
  0
DICTIONARY
  5
1F2
330
33
100
AcDbDictionary
280
     1
281
     1
  3
AcDbContextDataManager
360
1F3
  0
DICTIONARY
  5
1EE
330
3A
100
AcDbDictionary
280
     1
281
     1
  3
AcDbContextDataManager
360
1EF
  0
DICTIONARY
  5
1EA
330
3D
100
AcDbDictionary
280
     1
281
     1
  3
AcDbContextDataManager
360
1EB
  0
DICTIONARY
  5
1E6
330
3E
100
AcDbDictionary
280
     1
281
     1
  3
AcDbContextDataManager
360
1E7
  0
DICTIONARY
  5
1E2
330
3F
100
AcDbDictionary
280
     1
281
     1
  3
AcDbContextDataManager
360
1E3
  0
DICTIONARY
  5
1DE
330
56
100
AcDbDictionary
280
     1
281
     1
  3
AcDbContextDataManager
360
1DF
  0
DICTIONARY
  5
1DA
330
57
100
AcDbDictionary
280
     1
281
     1
  3
AcDbContextDataManager
360
1DB
  0
DICTIONARY
  5
1D6
330
58
100
AcDbDictionary
280
     1
281
     1
  3
AcDbContextDataManager
360
1D7
  0
DICTIONARY
  5
1D2
330
59
100
AcDbDictionary
280
     1
281
     1
  3
AcDbContextDataManager
360
1D3
  0
DICTIONARY
  5
1CE
330
5A
100
AcDbDictionary
280
     1
281
     1
  3
AcDbContextDataManager
360
1CF
  0
DICTIONARY
  5
1CA
330
67
100
AcDbDictionary
280
     1
281
     1
  3
AcDbContextDataManager
360
1CB
  0
DICTIONARY
  5
1C6
330
68
100
AcDbDictionary
280
     1
281
     1
  3
AcDbContextDataManager
360
1C7
  0
DICTIONARY
  5
1C2
330
6C
100
AcDbDictionary
280
     1
281
     1
  3
AcDbContextDataManager
360
1C3
  0
DICTIONARY
  5
1BE
330
EB
100
AcDbDictionary
280
     1
281
     1
  3
AcDbContextDataManager
360
1BF
  0
DICTIONARY
  5
1BA
330
EC
100
AcDbDictionary
280
     1
281
     1
  3
AcDbContextDataManager
360
1BB
  0
XRECORD
  5
161
102
{ACAD_REACTORS
330
9
102
}
330
9
100
AcDbXrecord
280
     1
300
ACDLT
300
2020
300

  0
DICTIONARY
  5
143
102
{ACAD_REACTORS
330
9
102
}
330
9
100
AcDbDictionary
281
     1
  0
DICTIONARY
  5
15C
102
{ACAD_REACTORS
330
9
102
}
330
9
100
AcDbDictionary
281
     1
  3
Imperial24
350
15D
  0
DICTIONARY
  5
23
102
{ACAD_REACTORS
330
9
102
}
330
9
100
AcDbDictionary
281
     1
  0
DICTIONARY
  5
D
102
{ACAD_REACTORS
330
9
102
}
330
9
100
AcDbDictionary
281
     1
  3
Layout1
350
13
  3
Model
350
C
  0
DICTIONARY
  5
111
102
{ACAD_REACTORS
330
9
102
}
330
9
100
AcDbDictionary
281
     1
  3
ByBlock
350
11A
  3
ByLayer
350
112
  3
Global
350
122
  0
DICTIONARY
  5
158
102
{ACAD_REACTORS
330
9
102
}
330
9
100
AcDbDictionary
281
     1
  3
Standard
350
159
  0
DICTIONARY
  5
24
102
{ACAD_REACTORS
330
9
102
}
330
9
100
AcDbDictionary
281
     1
  3
Standard
350
28
  0
DICTIONARY
  5
25
102
{ACAD_REACTORS
330
9
102
}
330
9
100
AcDbDictionary
281
     1
  0
ACDBDICTIONARYWDFLT
  5
8
102
{ACAD_REACTORS
330
9
102
}
330
9
100
AcDbDictionary
281
     1
  3
Normal
350
7
100
AcDbDictionaryWithDefault
340
7
  0
DICTIONARY
  5
146
102
{ACAD_REACTORS
330
9
102
}
330
9
100
AcDbDictionary
281
     1
  3
A0
350
147
  3
A1
350
148
  3
A2
350
149
  3
A3
350
14A
  3
A4
350
14B
  3
A5
350
14C
  3
A6
350
14D
  3
A7
350
14E
  3
A8
350
14F
  3
A9
350
150
  3
B0
350
151
  3
B1
350
152
  3
B2
350
153
  3
B3
350
154
  3
B4
350
155
  3
B5
350
156
  3
B6
350
157
  0
DICTIONARY
  5
15A
102
{ACAD_REACTORS
330
9
102
}
330
9
100
AcDbDictionary
281
     1
  3
Imperial24
350
15B
  0
DICTIONARY
  5
144
102
{ACAD_REACTORS
330
9
102
}
330
9
100
AcDbDictionary
281
     1
  3
Standard
350
145
  0
DICTIONARY
  5
12A
102
{ACAD_REACTORS
330
9
102
}
330
9
100
AcDbDictionary
281
     1
  3
2dWireframe
350
130
  3
Basic
350
12F
  3
Brighten
350
136
  3
ColorChange
350
13A
  3
Conceptual
350
133
  3
Dim
350
135
  3
EdgeColorOff
350
142
  3
Facepattern
350
139
  3
Flat
350
12B
  3
FlatWithEdges
350
12C
  3
Gouraud
350
12D
  3
GouraudWithEdges
350
12E
  3
Hidden
350
132
  3
JitterOff
350
140
  3
Linepattern
350
138
  3
OverhangOff
350
141
  3
Realistic
350
134
  3
Shaded
350
13F
  3
Shaded with edges
350
13E
  3
Shades of Gray
350
13B
  3
Sketchy
350
13C
  3
Thicken
350
137
  3
Wireframe
350
131
  3
X-Ray
350
13D
  0
XRECORD
  5
223
102
{ACAD_REACTORS
330
9
102
}
330
9
100
AcDbXrecord
280
     1
 90
        1
330
145
  0
DICTIONARY
  5
217
102
{ACAD_REACTORS
330
9
102
}
330
9
100
AcDbDictionary
281
     1
  3
CANNOSCALE
350
21D
  3
CMLEADERSTYLE
350
219
  3
CTABLESTYLE
350
218
  3
CVIEWDETAILSTYLE
350
21A
  3
CVIEWSECTIONSTYLE
350
21B
  3
LAYEREVAL
350
21F
  3
LAYERNOTIFY
350
220
  3
LIGHTINGUNITS
350
21E
  3
MSLTSCALE
350
21C
  0
DICTIONARY
  5
166
102
{ACAD_REACTORS
330
165
102
}
330
165
100
AcDbDictionary
281
     1
  0
XRECORD
  5
205
102
{ACAD_REACTORS
330
204
102
}
330
204
100
AcDbXrecord
280
     1
290
     1
  0
XRECORD
  5
207
102
{ACAD_REACTORS
330
206
102
}
330
206
100
AcDbXrecord
280
     1
290
     1
  0
XRECORD
  5
209
102
{ACAD_REACTORS
330
208
102
}
330
208
100
AcDbXrecord
280
     1
290
     1
  0
XRECORD
  5
20B
102
{ACAD_REACTORS
330
20A
102
}
330
20A
100
AcDbXrecord
280
     1
290
     1
  0
XRECORD
  5
20D
102
{ACAD_REACTORS
330
20C
102
}
330
20C
100
AcDbXrecord
280
     1
290
     1
  0
XRECORD
  5
20F
102
{ACAD_REACTORS
330
20E
102
}
330
20E
100
AcDbXrecord
280
     1
290
     1
  0
XRECORD
  5
211
102
{ACAD_REACTORS
330
210
102
}
330
210
100
AcDbXrecord
280
     1
290
     1
  0
XRECORD
  5
213
102
{ACAD_REACTORS
330
212
102
}
330
212
100
AcDbXrecord
280
     1
290
     1
  0
XRECORD
  5
215
102
{ACAD_REACTORS
330
214
102
}
330
214
100
AcDbXrecord
280
     1
290
     1
  0
XRECORD
  5
216
102
{ACAD_REACTORS
330
163
102
}
330
163
100
AcDbXrecord
280
     1
290
     1
  0
XRECORD
  5
4
102
{ACAD_REACTORS
330
3
102
}
330
3
100
AcDbXrecord
280
     1
340
2
  0
XRECORD
  5
10
102
{ACAD_REACTORS
330
F
102
}
330
F
100
AcDbXrecord
280
     1
340
E
  0
DICTIONARY
  5
1F7
102
{ACAD_REACTORS
330
1F6
102
}
330
1F6
100
AcDbDictionary
281
     1
  3
ACDB_ANNOTATIONSCALES
350
1F8
  0
DICTIONARY
  5
1F3
102
{ACAD_REACTORS
330
1F2
102
}
330
1F2
100
AcDbDictionary
281
     1
  3
ACDB_ANNOTATIONSCALES
350
1F4
  0
DICTIONARY
  5
1EF
102
{ACAD_REACTORS
330
1EE
102
}
330
1EE
100
AcDbDictionary
281
     1
  3
ACDB_ANNOTATIONSCALES
350
1F0
  0
DICTIONARY
  5
1EB
102
{ACAD_REACTORS
330
1EA
102
}
330
1EA
100
AcDbDictionary
281
     1
  3
ACDB_ANNOTATIONSCALES
350
1EC
  0
DICTIONARY
  5
1E7
102
{ACAD_REACTORS
330
1E6
102
}
330
1E6
100
AcDbDictionary
281
     1
  3
ACDB_ANNOTATIONSCALES
350
1E8
  0
DICTIONARY
  5
1E3
102
{ACAD_REACTORS
330
1E2
102
}
330
1E2
100
AcDbDictionary
281
     1
  3
ACDB_ANNOTATIONSCALES
350
1E4
  0
DICTIONARY
  5
1DF
102
{ACAD_REACTORS
330
1DE
102
}
330
1DE
100
AcDbDictionary
281
     1
  3
ACDB_ANNOTATIONSCALES
350
1E0
  0
DICTIONARY
  5
1DB
102
{ACAD_REACTORS
330
1DA
102
}
330
1DA
100
AcDbDictionary
281
     1
  3
ACDB_ANNOTATIONSCALES
350
1DC
  0
DICTIONARY
  5
1D7
102
{ACAD_REACTORS
330
1D6
102
}
330
1D6
100
AcDbDictionary
281
     1
  3
ACDB_ANNOTATIONSCALES
350
1D8
  0
DICTIONARY
  5
1D3
102
{ACAD_REACTORS
330
1D2
102
}
330
1D2
100
AcDbDictionary
281
     1
  3
ACDB_ANNOTATIONSCALES
350
1D4
  0
DICTIONARY
  5
1CF
102
{ACAD_REACTORS
330
1CE
102
}
330
1CE
100
AcDbDictionary
281
     1
  3
ACDB_ANNOTATIONSCALES
350
1D0
  0
DICTIONARY
  5
1CB
102
{ACAD_REACTORS
330
1CA
102
}
330
1CA
100
AcDbDictionary
281
     1
  3
ACDB_ANNOTATIONSCALES
350
1CC
  0
DICTIONARY
  5
1C7
102
{ACAD_REACTORS
330
1C6
102
}
330
1C6
100
AcDbDictionary
281
     1
  3
ACDB_ANNOTATIONSCALES
350
1C8
  0
DICTIONARY
  5
1C3
102
{ACAD_REACTORS
330
1C2
102
}
330
1C2
100
AcDbDictionary
281
     1
  3
ACDB_ANNOTATIONSCALES
350
1C4
  0
DICTIONARY
  5
1BF
102
{ACAD_REACTORS
330
1BE
102
}
330
1BE
100
AcDbDictionary
281
     1
  3
ACDB_ANNOTATIONSCALES
350
1C0
  0
DICTIONARY
  5
1BB
102
{ACAD_REACTORS
330
1BA
102
}
330
1BA
100
AcDbDictionary
281
     1
  3
ACDB_ANNOTATIONSCALES
350
1BC
  0
ACDBDETAILVIEWSTYLE
  5
15D
102
{ACAD_REACTORS
330
15C
102
}
330
15C
100
AcDbModelDocViewStyle
 70
     0
  3
Imperial24
290
     1
300
Imperial24
 90
        0
100
AcDbDetailViewStyle
 70
     0
 71
     0
 90
        3
 71
     1
340
16
 62
   256
 40
0.24
340
0
 62
   256
 40
0.24
300

 40
0.36
280
     3
 71
     2
340
A
 90
       25
 62
   256
 71
     3
340
16
 62
   256
 40
0.24
 90
        1
 40
0.75
 90
        1
300
%<\AcVar ViewType \f "%tc1">% %<\AcVar ViewDetailId>%\PSCALE %<\AcVar ViewScale \f "%sn">%
 71
     4
340
A
 90
       25
 62
   256
340
A
 90
       25
 62
   256
280
     0
  0
LAYOUT
  5
13
102
{ACAD_REACTORS
330
D
102
}
330
D
100
AcDbPlotSettings
  1

  2
None
  4

  6

 40
0.0
 41
0.0
 42
0.0
 43
0.0
 44
0.0
 45
0.0
 46
0.0
 47
0.0
 48
0.0
 49
0.0
140
0.0
141
0.0
142
1.0
143
1.0
 70
   688
 72
     0
 73
     0
 74
     5
  7
Std pen settings.ctb
 75
    16
147
1.0
 76
     0
 77
     2
 78
   300
148
0.0
149
0.0
100
AcDbLayout
  1
Layout1
 70
     1
 71
     1
 10
-0.1979161059762549
 20
-0.1979166691697489
 11
16.34375024029589
 21
11.49541603298638
 12
0.0
 22
0.0
 32
0.0
 14
1.614583349603368
 24
1.129749872553066
 34
0.0
 15
14.5312501464303
 25
10.1677488529776
 35
0.0
146
0.0
 13
0.0
 23
0.0
 33
0.0
 16
1.0
 26
0.0
 36
0.0
 17
0.0
 27
1.0
 37
0.0
 76
     0
330
E
  0
LAYOUT
  5
C
102
{ACAD_REACTORS
330
D
102
}
330
D
100
AcDbPlotSettings
  1

  2
None
  4

  6

 40
0.0
 41
0.0
 42
0.0
 43
0.0
 44
0.0
 45
0.0
 46
0.0
 47
0.0
 48
0.0
 49
0.0
140
0.0
141
0.0
142
1.0
143
1.0
 70
  1712
 72
     0
 73
     0
 74
     0
  7
Std pen settings.ctb
 75
     0
147
1.0
 76
     0
 77
     2
 78
   300
148
0.0
149
0.0
100
AcDbLayout
  1
Model
 70
     1
 71
     0
 10
0.0
 20
0.0
 11
12.0
 21
9.0
 12
0.0
 22
0.0
 32
0.0
 14
0.0
 24
0.0
 34
0.0
 15
0.0
 25
0.0
 35
0.0
146
0.0
 13
0.0
 23
0.0
 33
0.0
 16
1.0
 26
0.0
 36
0.0
 17
0.0
 27
1.0
 37
0.0
 76
     0
330
2
331
1E
  0
MATERIAL
  5
11A
102
{ACAD_XDICTIONARY
360
11B
102
}
102
{ACAD_REACTORS
330
111
102
}
330
111
100
AcDbMaterial
  1
ByBlock
 72
     0
 43
0.0208333333333333
 43
0.0
 43
0.0
 43
0.0
 43
0.0
 43
0.0208333333333333
 43
0.0
 43
0.0
 43
0.0
 43
0.0
 43
1.0
 43
0.0
 43
0.0
 43
0.0
 43
0.0
 43
1.0
 77
     0
 47
0.0208333333333333
 47
0.0
 47
0.0
 47
0.0
 47
0.0
 47
0.0208333333333333
 47
0.0
 47
0.0
 47
0.0
 47
0.0
 47
1.0
 47
0.0
 47
0.0
 47
0.0
 47
0.0
 47
1.0
171
     0
 49
0.0208333333333333
 49
0.0
 49
0.0
 49
0.0
 49
0.0
 49
0.0208333333333333
 49
0.0
 49
0.0
 49
0.0
 49
0.0
 49
1.0
 49
0.0
 49
0.0
 49
0.0
 49
0.0
 49
1.0
175
     0
142
0.0208333333333333
142
0.0
142
0.0
142
0.0
142
0.0
142
0.0208333333333333
142
0.0
142
0.0
142
0.0
142
0.0
142
1.0
142
0.0
142
0.0
142
0.0
142
0.0
142
1.0
179
     0
144
0.0208333333333333
144
0.0
144
0.0
144
0.0
144
0.0
144
0.0208333333333333
144
0.0
144
0.0
144
0.0
144
0.0
144
1.0
144
0.0
144
0.0
144
0.0
144
0.0
144
1.0
147
0.0208333333333333
147
0.0
147
0.0
147
0.0
147
0.0
147
0.0208333333333333
147
0.0
147
0.0
147
0.0
147
0.0
147
1.0
147
0.0
147
0.0
147
0.0
147
0.0
147
1.0
  0
MATERIAL
  5
112
102
{ACAD_XDICTIONARY
360
113
102
}
102
{ACAD_REACTORS
330
111
102
}
330
111
100
AcDbMaterial
  1
ByLayer
 72
     0
 43
0.0208333333333333
 43
0.0
 43
0.0
 43
0.0
 43
0.0
 43
0.0208333333333333
 43
0.0
 43
0.0
 43
0.0
 43
0.0
 43
1.0
 43
0.0
 43
0.0
 43
0.0
 43
0.0
 43
1.0
 77
     0
 47
0.0208333333333333
 47
0.0
 47
0.0
 47
0.0
 47
0.0
 47
0.0208333333333333
 47
0.0
 47
0.0
 47
0.0
 47
0.0
 47
1.0
 47
0.0
 47
0.0
 47
0.0
 47
0.0
 47
1.0
171
     0
 49
0.0208333333333333
 49
0.0
 49
0.0
 49
0.0
 49
0.0
 49
0.0208333333333333
 49
0.0
 49
0.0
 49
0.0
 49
0.0
 49
1.0
 49
0.0
 49
0.0
 49
0.0
 49
0.0
 49
1.0
175
     0
142
0.0208333333333333
142
0.0
142
0.0
142
0.0
142
0.0
142
0.0208333333333333
142
0.0
142
0.0
142
0.0
142
0.0
142
1.0
142
0.0
142
0.0
142
0.0
142
0.0
142
1.0
179
     0
144
0.0208333333333333
144
0.0
144
0.0
144
0.0
144
0.0
144
0.0208333333333333
144
0.0
144
0.0
144
0.0
144
0.0
144
1.0
144
0.0
144
0.0
144
0.0
144
0.0
144
1.0
147
0.0208333333333333
147
0.0
147
0.0
147
0.0
147
0.0
147
0.0208333333333333
147
0.0
147
0.0
147
0.0
147
0.0
147
1.0
147
0.0
147
0.0
147
0.0
147
0.0
147
1.0
  0
MATERIAL
  5
122
102
{ACAD_XDICTIONARY
360
123
102
}
102
{ACAD_REACTORS
330
111
102
}
330
111
100
AcDbMaterial
  1
Global
 72
     0
 43
0.0208333333333333
 43
0.0
 43
0.0
 43
0.0
 43
0.0
 43
0.0208333333333333
 43
0.0
 43
0.0
 43
0.0
 43
0.0
 43
1.0
 43
0.0
 43
0.0
 43
0.0
 43
0.0
 43
1.0
 77
     0
 47
0.0208333333333333
 47
0.0
 47
0.0
 47
0.0
 47
0.0
 47
0.0208333333333333
 47
0.0
 47
0.0
 47
0.0
 47
0.0
 47
1.0
 47
0.0
 47
0.0
 47
0.0
 47
0.0
 47
1.0
171
     0
 49
0.0208333333333333
 49
0.0
 49
0.0
 49
0.0
 49
0.0
 49
0.0208333333333333
 49
0.0
 49
0.0
 49
0.0
 49
0.0
 49
1.0
 49
0.0
 49
0.0
 49
0.0
 49
0.0
 49
1.0
175
     0
142
0.0208333333333333
142
0.0
142
0.0
142
0.0
142
0.0
142
0.0208333333333333
142
0.0
142
0.0
142
0.0
142
0.0
142
1.0
142
0.0
142
0.0
142
0.0
142
0.0
142
1.0
179
     0
144
0.0208333333333333
144
0.0
144
0.0
144
0.0
144
0.0
144
0.0208333333333333
144
0.0
144
0.0
144
0.0
144
0.0
144
1.0
144
0.0
144
0.0
144
0.0
144
0.0
144
1.0
147
0.0208333333333333
147
0.0
147
0.0
147
0.0
147
0.0
147
0.0208333333333333
147
0.0
147
0.0
147
0.0
147
0.0
147
1.0
147
0.0
147
0.0
147
0.0
147
0.0
147
1.0
  0
MLEADERSTYLE
  5
159
102
{ACAD_REACTORS
330
158
102
}
330
158
100
AcDbMLeaderStyle
179
     2
170
     2
171
     1
172
     0
 90
        2
 40
0.0
 41
0.0
173
     1
 91
-1056964608
340
19
 92
       -2
290
     1
 42
0.09
291
     1
 43
0.36
  3
Standard
 44
0.18
300

342
16
174
     1
178
     6
175
     1
176
     0
 93
-1056964608
 45
0.18
292
     0
297
     0
 46
0.18
 94
-1056964608
 47
1.0
 49
1.0
140
1.0
293
     1
141
0.0
294
     1
177
     0
142
1.0
295
     1
296
     0
143
0.125
271
     0
272
     9
273
     9
298
     1
  0
MLINESTYLE
  5
28
102
{ACAD_REACTORS
330
24
102
}
330
24
100
AcDbMlineStyle
  2
STANDARD
 70
     0
  3

 62
   256
 51
90.0
 52
90.0
 71
     2
 49
0.5
 62
   256
  6
BYLAYER
 49
-0.5
 62
   256
  6
BYLAYER
  0
ACDBPLACEHOLDER
  5
7
102
{ACAD_REACTORS
330
8
102
}
330
8
  0
SCALE
  5
147
102
{ACAD_REACTORS
330
146
102
}
330
146
100
AcDbScale
 70
     0
300
1:1
140
1.0
141
1.0
290
     1
  0
SCALE
  5
148
102
{ACAD_REACTORS
330
146
102
}
330
146
100
AcDbScale
 70
     0
300
1/128" = 1'-0"
140
0.0078125
141
12.0
290
     0
  0
SCALE
  5
149
102
{ACAD_REACTORS
330
146
102
}
330
146
100
AcDbScale
 70
     0
300
1/64" = 1'-0"
140
0.015625
141
12.0
290
     0
  0
SCALE
  5
14A
102
{ACAD_REACTORS
330
146
102
}
330
146
100
AcDbScale
 70
     0
300
1/32" = 1'-0"
140
0.03125
141
12.0
290
     0
  0
SCALE
  5
14B
102
{ACAD_REACTORS
330
146
102
}
330
146
100
AcDbScale
 70
     0
300
1/16" = 1'-0"
140
0.0625
141
12.0
290
     0
  0
SCALE
  5
14C
102
{ACAD_REACTORS
330
146
102
}
330
146
100
AcDbScale
 70
     0
300
3/32" = 1'-0"
140
0.09375
141
12.0
290
     0
  0
SCALE
  5
14D
102
{ACAD_REACTORS
330
146
102
}
330
146
100
AcDbScale
 70
     0
300
1/8" = 1'-0"
140
0.125
141
12.0
290
     0
  0
SCALE
  5
14E
102
{ACAD_REACTORS
330
146
102
}
330
146
100
AcDbScale
 70
     0
300
3/16" = 1'-0"
140
0.1875
141
12.0
290
     0
  0
SCALE
  5
14F
102
{ACAD_REACTORS
330
146
102
}
330
146
100
AcDbScale
 70
     0
300
1/4" = 1'-0"
140
0.25
141
12.0
290
     0
  0
SCALE
  5
150
102
{ACAD_REACTORS
330
146
102
}
330
146
100
AcDbScale
 70
     0
300
3/8" = 1'-0"
140
0.375
141
12.0
290
     0
  0
SCALE
  5
151
102
{ACAD_REACTORS
330
146
102
}
330
146
100
AcDbScale
 70
     0
300
1/2" = 1'-0"
140
0.5
141
12.0
290
     0
  0
SCALE
  5
152
102
{ACAD_REACTORS
330
146
102
}
330
146
100
AcDbScale
 70
     0
300
3/4" = 1'-0"
140
0.75
141
12.0
290
     0
  0
SCALE
  5
153
102
{ACAD_REACTORS
330
146
102
}
330
146
100
AcDbScale
 70
     0
300
1" = 1'-0"
140
1.0
141
12.0
290
     0
  0
SCALE
  5
154
102
{ACAD_REACTORS
330
146
102
}
330
146
100
AcDbScale
 70
     0
300
1-1/2" = 1'-0"
140
1.5
141
12.0
290
     0
  0
SCALE
  5
155
102
{ACAD_REACTORS
330
146
102
}
330
146
100
AcDbScale
 70
     0
300
3" = 1'-0"
140
3.0
141
12.0
290
     0
  0
SCALE
  5
156
102
{ACAD_REACTORS
330
146
102
}
330
146
100
AcDbScale
 70
     0
300
6" = 1'-0"
140
6.0
141
12.0
290
     0
  0
SCALE
  5
157
102
{ACAD_REACTORS
330
146
102
}
330
146
100
AcDbScale
 70
     0
300
1'-0" = 1'-0"
140
12.0
141
12.0
290
     0
  0
ACDBSECTIONVIEWSTYLE
  5
15B
102
{ACAD_REACTORS
330
15A
102
}
330
15A
100
AcDbModelDocViewStyle
 70
     0
  3
Imperial24
290
     1
300
Imperial24
 90
        0
100
AcDbSectionViewStyle
 70
     0
 71
     0
 90
       78
 71
     1
340
16
 62
   256
 40
0.24
340
0
340
0
 62
   256
 40
0.24
300
I, O, Q, S, X, Z
 40
0.48
 90
        3
 40
0.18
 90
        1
 71
     2
340
A
 90
       25
 62
   256
340
A
 90
       50
 62
   256
 40
0.24
 40
0.0
 40
0.24
 71
     3
340
16
 62
   256
 40
0.24
 90
        1
 40
0.75
 90
        1
300
%<\AcVar ViewType \f "%tc1">% %<\AcVar ViewSectionStartId>%-%<\AcVar ViewSectionEndId>%\PSCALE %<\AcVar ViewScale \f "%sn">%
 71
     4
 62
   256
 62
   257
300
ANSI31
 40
1.0
 90
        0
290
     0
290
     0
 90
        6
 40
0.0
 40
1.570796326794896
 40
0.2617993877991494
 40
1.308996938995747
 40
-0.2617993877991494
 40
1.832595714594046
  0
TABLESTYLE
  5
145
102
{ACAD_XDICTIONARY
360
221
102
}
102
{ACAD_REACTORS
330
144
102
}
330
144
100
AcDbTableStyle
280
     0
  3
Standard
 70
     0
 71
     0
 40
0.06
 41
0.06
280
     0
281
     0
  7
STANDARD
140
0.18
170
     2
 62
     0
 63
     7
283
     0
 90
      512
 91
        0
  1

274
    -2
284
     1
 64
     0
275
    -2
285
     1
 65
     0
276
    -2
286
     1
 66
     0
277
    -2
287
     1
 67
     0
278
    -2
288
     1
 68
     0
279
    -2
289
     1
 69
     0
  7
STANDARD
140
0.25
170
     5
 62
     0
 63
     7
283
     0
 90
      512
 91
        0
  1

274
    -2
284
     1
 64
     0
275
    -2
285
     1
 65
     0
276
    -2
286
     1
 66
     0
277
    -2
287
     1
 67
     0
278
    -2
288
     1
 68
     0
279
    -2
289
     1
 69
     0
  7
STANDARD
140
0.18
170
     5
 62
     0
 63
     7
283
     0
 90
      512
 91
        0
  1

274
    -2
284
     1
 64
     0
275
    -2
285
     1
 65
     0
276
    -2
286
     1
 66
     0
277
    -2
287
     1
 67
     0
278
    -2
288
     1
 68
     0
279
    -2
289
     1
 69
     0
  0
VISUALSTYLE
  5
130
102
{ACAD_REACTORS
330
12A
102
}
330
12A
100
AcDbVisualStyle
  2
2dWireframe
 70
     4
177
     3
291
     0
 70
    58
 90
        0
176
     1
 90
        2
176
     1
 90
        0
176
     1
 90
        0
176
     1
 40
0.6
176
     1
 40
30.0
176
     1
 62
     7
420
 16777215
176
     1
 90
        1
176
     1
 90
        4
176
     1
 62
     7
176
     1
 62
   257
176
     1
 90
        1
176
     1
 90
        1
176
     1
 40
1.0
176
     1
 90
        0
176
     1
 62
   257
176
     1
 40
1.0
176
     1
 90
        1
176
     1
 90
        6
176
     1
 90
        2
176
     1
 62
     7
176
     1
 90
        5
176
     1
 90
        0
176
     1
 90
        0
176
     1
290
     0
176
     1
 90
        1
176
     1
 40
0.0
176
     1
 90
        0
176
     1
290
     1
176
     1
290
     1
176
     1
290
     0
176
     1
290
     0
176
     1
290
     0
176
     1
290
     0
176
     1
290
     0
176
     1
290
     0
176
     1
290
     0
176
     1
 90
       50
176
     1
 40
0.0
176
     1
 40
1.0
176
     1
 90
        0
176
     1
 62
    18
420
        0
176
     1
 90
       50
176
     1
 90
        3
176
     1
 62
     5
420
      255
176
     1
290
     0
176
     1
 90
       50
176
     1
 90
       50
176
     1
 90
       50
176
     1
290
     0
176
     1
 90
       50
176
     1
 62
   256
176
     0
 40
1.0
176
     0
 90
        2
176
     1
  1
strokes_ogs.tif
176
     1
290
     0
176
     1
 40
1.0
176
     1
 40
1.0
176
     1
  0
VISUALSTYLE
  5
12F
102
{ACAD_REACTORS
330
12A
102
}
330
12A
100
AcDbVisualStyle
  2
Basic
 70
     7
177
     3
291
     1
 70
    58
 90
        1
176
     1
 90
        0
176
     1
 90
        1
176
     1
 90
        0
176
     1
 40
0.6
176
     1
 40
30.0
176
     1
 62
     7
420
 16777215
176
     1
 90
        0
176
     1
 90
        4
176
     1
 62
     7
176
     1
 62
   257
176
     1
 90
        1
176
     1
 90
        1
176
     1
 40
1.0
176
     1
 90
        8
176
     1
 62
     7
176
     1
 40
1.0
176
     1
 90
        1
176
     1
 90
        6
176
     1
 90
        2
176
     1
 62
     7
176
     1
 90
        5
176
     1
 90
        0
176
     1
 90
        0
176
     1
290
     0
176
     1
 90
        1
176
     1
 40
0.0
176
     1
 90
        0
176
     1
290
     0
176
     1
290
     1
176
     1
290
     1
176
     1
290
     0
176
     1
290
     0
176
     1
290
     0
176
     1
290
     0
176
     1
290
     0
176
     1
290
     0
176
     1
 90
       50
176
     1
 40
0.0
176
     1
 40
1.0
176
     1
 90
        0
176
     1
 62
    18
420
        0
176
     1
 90
       50
176
     1
 90
        3
176
     1
 62
     5
420
      255
176
     1
290
     0
176
     1
 90
       50
176
     1
 90
       50
176
     1
 90
       50
176
     1
290
     0
176
     1
 90
       50
176
     1
 62
   256
176
     0
 40
1.0
176
     0
 90
        2
176
     1
  1
strokes_ogs.tif
176
     1
290
     0
176
     1
 40
1.0
176
     1
 40
1.0
176
     1
  0
VISUALSTYLE
  5
136
102
{ACAD_REACTORS
330
12A
102
}
330
12A
100
AcDbVisualStyle
  2
Brighten
 70
    12
177
     3
291
     1
 70
    58
 90
        2
176
     1
 90
        2
176
     1
 90
        0
176
     1
 90
        0
176
     1
 40
0.6
176
     1
 40
30.0
176
     1
 62
     7
420
 16777215
176
     1
 90
        1
176
     1
 90
        4
176
     1
 62
     7
176
     1
 62
   257
176
     1
 90
        1
176
     1
 90
        1
176
     1
 40
1.0
176
     1
 90
        8
176
     1
 62
     7
176
     1
 40
1.0
176
     1
 90
        1
176
     1
 90
        6
176
     1
 90
        2
176
     1
 62
     7
176
     1
 90
        5
176
     1
 90
        0
176
     1
 90
        0
176
     1
290
     0
176
     1
 90
        1
176
     1
 40
50.0
176
     1
 90
        0
176
     1
290
     0
176
     1
290
     1
176
     1
290
     1
176
     1
290
     0
176
     1
290
     0
176
     1
290
     0
176
     1
290
     0
176
     1
290
     0
176
     1
290
     0
176
     1
 90
       50
176
     1
 40
0.0
176
     1
 40
1.0
176
     1
 90
        0
176
     1
 62
    18
420
        0
176
     1
 90
       50
176
     1
 90
        3
176
     1
 62
     5
420
      255
176
     1
290
     0
176
     1
 90
       50
176
     1
 90
       50
176
     1
 90
       50
176
     1
290
     0
176
     1
 90
       50
176
     1
 62
   256
176
     0
 40
1.0
176
     0
 90
        2
176
     1
  1
strokes_ogs.tif
176
     1
290
     0
176
     1
 40
1.0
176
     1
 40
1.0
176
     1
  0
VISUALSTYLE
  5
13A
102
{ACAD_REACTORS
330
12A
102
}
330
12A
100
AcDbVisualStyle
  2
ColorChange
 70
    16
177
     3
291
     1
 70
    58
 90
        2
176
     1
 90
        2
176
     1
 90
        3
176
     1
 90
        0
176
     1
 40
0.6
176
     1
 40
30.0
176
     1
 62
     8
420
  8421504
176
     1
 90
        1
176
     1
 90
        4
176
     1
 62
     7
176
     1
 62
   257
176
     1
 90
        1
176
     1
 90
        1
176
     1
 40
1.0
176
     1
 90
        8
176
     1
 62
     8
420
  8421504
176
     1
 40
1.0
176
     1
 90
        1
176
     1
 90
        6
176
     1
 90
        2
176
     1
 62
     7
176
     1
 90
        5
176
     1
 90
        0
176
     1
 90
        0
176
     1
290
     0
176
     1
 90
        1
176
     1
 40
0.0
176
     1
 90
        0
176
     1
290
     0
176
     1
290
     1
176
     1
290
     1
176
     1
290
     0
176
     1
290
     0
176
     1
290
     0
176
     1
290
     0
176
     1
290
     0
176
     1
290
     0
176
     1
 90
       50
176
     1
 40
0.0
176
     1
 40
1.0
176
     1
 90
        0
176
     1
 62
    18
420
        0
176
     1
 90
       50
176
     1
 90
        3
176
     1
 62
     5
420
      255
176
     1
290
     0
176
     1
 90
       50
176
     1
 90
       50
176
     1
 90
       50
176
     1
290
     0
176
     1
 90
       50
176
     1
 62
   256
176
     0
 40
1.0
176
     0
 90
        2
176
     1
  1
strokes_ogs.tif
176
     1
290
     0
176
     1
 40
1.0
176
     1
 40
1.0
176
     1
  0
VISUALSTYLE
  5
133
102
{ACAD_REACTORS
330
12A
102
}
330
12A
100
AcDbVisualStyle
  2
Conceptual
 70
     9
177
     3
291
     0
 70
    58
 90
        3
176
     1
 90
        2
176
     1
 90
        0
176
     1
 90
        0
176
     1
 40
0.6
176
     1
 40
30.0
176
     1
 62
     7
420
 16777215
176
     1
 90
        2
176
     1
 90
        2
176
     1
 62
     7
176
     1
 62
   257
176
     1
 90
        1
176
     1
 90
        1
176
     1
 40
179.0
176
     1
 90
        8
176
     1
 62
     7
176
     1
 40
1.0
176
     1
 90
        1
176
     1
 90
        6
176
     1
 90
        2
176
     1
 62
     7
176
     1
 90
        3
176
     1
 90
        0
176
     1
 90
        0
176
     1
290
     0
176
     1
 90
        1
176
     1
 40
0.0
176
     1
 90
        0
176
     1
290
     0
176
     1
290
     1
176
     1
290
     1
176
     1
290
     0
176
     1
290
     0
176
     1
290
     0
176
     1
290
     0
176
     1
290
     0
176
     1
290
     0
176
     1
 90
       50
176
     1
 40
0.0
176
     1
 40
1.0
176
     1
 90
        0
176
     1
 62
    18
420
        0
176
     1
 90
       50
176
     1
 90
        3
176
     1
 62
     5
420
      255
176
     1
290
     0
176
     1
 90
       50
176
     1
 90
       50
176
     1
 90
       50
176
     1
290
     0
176
     1
 90
       50
176
     1
 62
   256
176
     0
 40
1.0
176
     0
 90
        2
176
     1
  1
strokes_ogs.tif
176
     1
290
     0
176
     1
 40
1.0
176
     1
 40
1.0
176
     1
  0
VISUALSTYLE
  5
135
102
{ACAD_REACTORS
330
12A
102
}
330
12A
100
AcDbVisualStyle
  2
Dim
 70
    11
177
     3
291
     1
 70
    58
 90
        2
176
     1
 90
        2
176
     1
 90
        0
176
     1
 90
        0
176
     1
 40
0.6
176
     1
 40
30.0
176
     1
 62
     7
420
 16777215
176
     1
 90
        1
176
     1
 90
        4
176
     1
 62
     7
176
     1
 62
   257
176
     1
 90
        1
176
     1
 90
        1
176
     1
 40
1.0
176
     1
 90
        8
176
     1
 62
     7
176
     1
 40
1.0
176
     1
 90
        1
176
     1
 90
        6
176
     1
 90
        2
176
     1
 62
     7
176
     1
 90
        5
176
     1
 90
        0
176
     1
 90
        0
176
     1
290
     0
176
     1
 90
        1
176
     1
 40
-50.0
176
     1
 90
        0
176
     1
290
     0
176
     1
290
     1
176
     1
290
     1
176
     1
290
     0
176
     1
290
     0
176
     1
290
     0
176
     1
290
     0
176
     1
290
     0
176
     1
290
     0
176
     1
 90
       50
176
     1
 40
0.0
176
     1
 40
1.0
176
     1
 90
        0
176
     1
 62
    18
420
        0
176
     1
 90
       50
176
     1
 90
        3
176
     1
 62
     5
420
      255
176
     1
290
     0
176
     1
 90
       50
176
     1
 90
       50
176
     1
 90
       50
176
     1
290
     0
176
     1
 90
       50
176
     1
 62
   256
176
     0
 40
1.0
176
     0
 90
        2
176
     1
  1
strokes_ogs.tif
176
     1
290
     0
176
     1
 40
1.0
176
     1
 40
1.0
176
     1
  0
VISUALSTYLE
  5
142
102
{ACAD_REACTORS
330
12A
102
}
330
12A
100
AcDbVisualStyle
  2
EdgeColorOff
 70
    22
177
     3
291
     1
 70
    58
 90
        2
176
     0
 90
        2
176
     0
 90
        0
176
     0
 90
        0
176
     0
 40
0.6
176
     0
 40
30.0
176
     0
 62
     7
420
 16777215
176
     0
 90
        1
176
     0
 90
        4
176
     0
 62
     7
176
     0
 62
   257
176
     0
 90
        1
176
     0
 90
        1
176
     0
 40
1.0
176
     0
 90
        8
176
     2
 62
     7
176
     0
 40
1.0
176
     0
 90
        1
176
     0
 90
        6
176
     0
 90
        2
176
     0
 62
     7
176
     0
 90
        5
176
     0
 90
        0
176
     0
 90
        0
176
     0
290
     0
176
     0
 90
        1
176
     0
 40
0.0
176
     0
 90
        0
176
     0
290
     0
176
     0
290
     1
176
     0
290
     1
176
     0
290
     0
176
     0
290
     0
176
     0
290
     0
176
     0
290
     0
176
     0
290
     0
176
     0
290
     0
176
     0
 90
       50
176
     0
 40
0.0
176
     0
 40
1.0
176
     0
 90
        0
176
     0
 62
    18
420
        0
176
     0
 90
       50
176
     0
 90
        3
176
     0
 62
     5
420
      255
176
     0
290
     0
176
     0
 90
       50
176
     0
 90
       50
176
     0
 90
       50
176
     0
290
     0
176
     0
 90
       50
176
     0
 62
   256
176
     0
 40
1.0
176
     0
 90
        2
176
     0
  1
strokes_ogs.tif
176
     0
290
     0
176
     0
 40
1.0
176
     0
 40
1.0
176
     0
  0
VISUALSTYLE
  5
139
102
{ACAD_REACTORS
330
12A
102
}
330
12A
100
AcDbVisualStyle
  2
Facepattern
 70
    15
177
     3
291
     1
 70
    58
 90
        2
176
     1
 90
        2
176
     1
 90
        0
176
     1
 90
        0
176
     1
 40
0.6
176
     1
 40
30.0
176
     1
 62
     7
420
 16777215
176
     1
 90
        1
176
     1
 90
        4
176
     1
 62
     7
176
     1
 62
   257
176
     1
 90
        1
176
     1
 90
        1
176
     1
 40
1.0
176
     1
 90
        8
176
     1
 62
     7
176
     1
 40
1.0
176
     1
 90
        1
176
     1
 90
        6
176
     1
 90
        2
176
     1
 62
     7
176
     1
 90
        5
176
     1
 90
        0
176
     1
 90
        0
176
     1
290
     0
176
     1
 90
        1
176
     1
 40
0.0
176
     1
 90
        0
176
     1
290
     0
176
     1
290
     1
176
     1
290
     1
176
     1
290
     0
176
     1
290
     0
176
     1
290
     0
176
     1
290
     0
176
     1
290
     0
176
     1
290
     0
176
     1
 90
       50
176
     1
 40
0.0
176
     1
 40
1.0
176
     1
 90
        0
176
     1
 62
    18
420
        0
176
     1
 90
       50
176
     1
 90
        3
176
     1
 62
     5
420
      255
176
     1
290
     0
176
     1
 90
       50
176
     1
 90
       50
176
     1
 90
       50
176
     1
290
     0
176
     1
 90
       50
176
     1
 62
   256
176
     0
 40
1.0
176
     0
 90
        2
176
     1
  1
strokes_ogs.tif
176
     1
290
     0
176
     1
 40
1.0
176
     1
 40
1.0
176
     1
  0
VISUALSTYLE
  5
12B
102
{ACAD_REACTORS
330
12A
102
}
330
12A
100
AcDbVisualStyle
  2
Flat
 70
     0
177
     3
291
     1
 70
    58
 90
        2
176
     1
 90
        1
176
     1
 90
        1
176
     1
 90
        2
176
     1
 40
0.6
176
     1
 40
30.0
176
     1
 62
     7
420
 16777215
176
     1
 90
        0
176
     1
 90
        0
176
     1
 62
     7
176
     1
 62
   257
176
     1
 90
        1
176
     1
 90
        1
176
     1
 40
1.0
176
     1
 90
        8
176
     1
 62
     7
176
     1
 40
1.0
176
     1
 90
        1
176
     1
 90
        6
176
     1
 90
        2
176
     1
 62
     7
176
     1
 90
        5
176
     1
 90
        0
176
     1
 90
        0
176
     1
290
     0
176
     1
 90
       13
176
     1
 40
0.0
176
     1
 90
        0
176
     1
290
     0
176
     1
290
     1
176
     1
290
     1
176
     1
290
     0
176
     1
290
     0
176
     1
290
     0
176
     1
290
     0
176
     1
290
     0
176
     1
290
     0
176
     1
 90
       50
176
     1
 40
0.0
176
     1
 40
1.0
176
     1
 90
        0
176
     1
 62
    18
420
        0
176
     1
 90
       50
176
     1
 90
        3
176
     1
 62
     5
420
      255
176
     1
290
     0
176
     1
 90
       50
176
     1
 90
       50
176
     1
 90
       50
176
     1
290
     0
176
     1
 90
       50
176
     1
 62
   256
176
     0
 40
1.0
176
     0
 90
        2
176
     1
  1
strokes_ogs.tif
176
     1
290
     0
176
     1
 40
1.0
176
     1
 40
1.0
176
     1
  0
VISUALSTYLE
  5
12C
102
{ACAD_REACTORS
330
12A
102
}
330
12A
100
AcDbVisualStyle
  2
FlatWithEdges
 70
     1
177
     3
291
     1
 70
    58
 90
        2
176
     1
 90
        1
176
     1
 90
        1
176
     1
 90
        2
176
     1
 40
0.6
176
     1
 40
30.0
176
     1
 62
     7
420
 16777215
176
     1
 90
        1
176
     1
 90
        0
176
     1
 62
     7
176
     1
 62
   257
176
     1
 90
        1
176
     1
 90
        1
176
     1
 40
1.0
176
     1
 90
        0
176
     1
 62
   257
176
     1
 40
1.0
176
     1
 90
        1
176
     1
 90
        6
176
     1
 90
        2
176
     1
 62
     7
176
     1
 90
        5
176
     1
 90
        0
176
     1
 90
        0
176
     1
290
     0
176
     1
 90
       13
176
     1
 40
0.0
176
     1
 90
        0
176
     1
290
     0
176
     1
290
     1
176
     1
290
     1
176
     1
290
     0
176
     1
290
     0
176
     1
290
     0
176
     1
290
     0
176
     1
290
     0
176
     1
290
     0
176
     1
 90
       50
176
     1
 40
0.0
176
     1
 40
1.0
176
     1
 90
        0
176
     1
 62
    18
420
        0
176
     1
 90
       50
176
     1
 90
        3
176
     1
 62
     5
420
      255
176
     1
290
     0
176
     1
 90
       50
176
     1
 90
       50
176
     1
 90
       50
176
     1
290
     0
176
     1
 90
       50
176
     1
 62
   256
176
     0
 40
1.0
176
     0
 90
        2
176
     1
  1
strokes_ogs.tif
176
     1
290
     0
176
     1
 40
1.0
176
     1
 40
1.0
176
     1
  0
VISUALSTYLE
  5
12D
102
{ACAD_REACTORS
330
12A
102
}
330
12A
100
AcDbVisualStyle
  2
Gouraud
 70
     2
177
     3
291
     1
 70
    58
 90
        2
176
     1
 90
        2
176
     1
 90
        1
176
     1
 90
        2
176
     1
 40
0.6
176
     1
 40
30.0
176
     1
 62
     7
420
 16777215
176
     1
 90
        0
176
     1
 90
        0
176
     1
 62
     7
176
     1
 62
   257
176
     1
 90
        1
176
     1
 90
        1
176
     1
 40
1.0
176
     1
 90
        0
176
     1
 62
     7
176
     1
 40
1.0
176
     1
 90
        1
176
     1
 90
        6
176
     1
 90
        2
176
     1
 62
     7
176
     1
 90
        5
176
     1
 90
        0
176
     1
 90
        0
176
     1
290
     0
176
     1
 90
       13
176
     1
 40
0.0
176
     1
 90
        0
176
     1
290
     0
176
     1
290
     1
176
     1
290
     1
176
     1
290
     0
176
     1
290
     0
176
     1
290
     0
176
     1
290
     0
176
     1
290
     0
176
     1
290
     0
176
     1
 90
       50
176
     1
 40
0.0
176
     1
 40
1.0
176
     1
 90
        0
176
     1
 62
    18
420
        0
176
     1
 90
       50
176
     1
 90
        3
176
     1
 62
     5
420
      255
176
     1
290
     0
176
     1
 90
       50
176
     1
 90
       50
176
     1
 90
       50
176
     1
290
     0
176
     1
 90
       50
176
     1
 62
   256
176
     0
 40
1.0
176
     0
 90
        2
176
     1
  1
strokes_ogs.tif
176
     1
290
     0
176
     1
 40
1.0
176
     1
 40
1.0
176
     1
  0
VISUALSTYLE
  5
12E
102
{ACAD_REACTORS
330
12A
102
}
330
12A
100
AcDbVisualStyle
  2
GouraudWithEdges
 70
     3
177
     3
291
     1
 70
    58
 90
        2
176
     1
 90
        2
176
     1
 90
        1
176
     1
 90
        2
176
     1
 40
0.6
176
     1
 40
30.0
176
     1
 62
     7
420
 16777215
176
     1
 90
        1
176
     1
 90
        0
176
     1
 62
     7
176
     1
 62
   257
176
     1
 90
        1
176
     1
 90
        1
176
     1
 40
1.0
176
     1
 90
        0
176
     1
 62
   257
176
     1
 40
1.0
176
     1
 90
        1
176
     1
 90
        6
176
     1
 90
        2
176
     1
 62
     7
176
     1
 90
        5
176
     1
 90
        0
176
     1
 90
        0
176
     1
290
     0
176
     1
 90
       13
176
     1
 40
0.0
176
     1
 90
        0
176
     1
290
     0
176
     1
290
     1
176
     1
290
     1
176
     1
290
     0
176
     1
290
     0
176
     1
290
     0
176
     1
290
     0
176
     1
290
     0
176
     1
290
     0
176
     1
 90
       50
176
     1
 40
0.0
176
     1
 40
1.0
176
     1
 90
        0
176
     1
 62
    18
420
        0
176
     1
 90
       50
176
     1
 90
        3
176
     1
 62
     5
420
      255
176
     1
290
     0
176
     1
 90
       50
176
     1
 90
       50
176
     1
 90
       50
176
     1
290
     0
176
     1
 90
       50
176
     1
 62
   256
176
     0
 40
1.0
176
     0
 90
        2
176
     1
  1
strokes_ogs.tif
176
     1
290
     0
176
     1
 40
1.0
176
     1
 40
1.0
176
     1
  0
VISUALSTYLE
  5
132
102
{ACAD_REACTORS
330
12A
102
}
330
12A
100
AcDbVisualStyle
  2
Hidden
 70
     6
177
     3
291
     0
 70
    58
 90
        1
176
     1
 90
        2
176
     1
 90
        2
176
     1
 90
        0
176
     1
 40
0.6
176
     1
 40
30.0
176
     1
 62
     7
420
 16777215
176
     1
 90
        2
176
     1
 90
        2
176
     1
 62
     7
176
     1
 62
   257
176
     1
 90
        2
176
     1
 90
        1
176
     1
 40
40.0
176
     1
 90
        0
176
     1
 62
   257
176
     1
 40
1.0
176
     1
 90
        1
176
     1
 90
        6
176
     1
 90
        2
176
     1
 62
     7
176
     1
 90
        3
176
     1
 90
        0
176
     1
 90
        0
176
     1
290
     0
176
     1
 90
        1
176
     1
 40
0.0
176
     1
 90
        0
176
     1
290
     0
176
     1
290
     1
176
     1
290
     1
176
     1
290
     0
176
     1
290
     0
176
     1
290
     0
176
     1
290
     0
176
     1
290
     0
176
     1
290
     0
176
     1
 90
       50
176
     1
 40
0.0
176
     1
 40
1.0
176
     1
 90
        0
176
     1
 62
    18
420
        0
176
     1
 90
       50
176
     1
 90
        3
176
     1
 62
     5
420
      255
176
     1
290
     0
176
     1
 90
       50
176
     1
 90
       50
176
     1
 90
       50
176
     1
290
     0
176
     1
 90
       50
176
     1
 62
   256
176
     0
 40
1.0
176
     0
 90
        2
176
     1
  1
strokes_ogs.tif
176
     1
290
     0
176
     1
 40
1.0
176
     1
 40
1.0
176
     1
  0
VISUALSTYLE
  5
140
102
{ACAD_REACTORS
330
12A
102
}
330
12A
100
AcDbVisualStyle
  2
JitterOff
 70
    20
177
     3
291
     1
 70
    58
 90
        2
176
     0
 90
        2
176
     0
 90
        0
176
     0
 90
        0
176
     0
 40
0.6
176
     0
 40
30.0
176
     0
 62
     7
420
 16777215
176
     0
 90
        1
176
     0
 90
        4
176
     0
 62
     7
176
     0
 62
   257
176
     0
 90
        1
176
     0
 90
        1
176
     0
 40
1.0
176
     0
 90
       10
176
     2
 62
     7
176
     0
 40
1.0
176
     0
 90
        1
176
     0
 90
        6
176
     0
 90
        2
176
     0
 62
     7
176
     0
 90
        5
176
     0
 90
        0
176
     0
 90
        0
176
     0
290
     0
176
     0
 90
        1
176
     0
 40
0.0
176
     0
 90
        0
176
     0
290
     0
176
     0
290
     1
176
     0
290
     1
176
     0
290
     0
176
     0
290
     0
176
     0
290
     0
176
     0
290
     0
176
     0
290
     0
176
     0
290
     0
176
     0
 90
       50
176
     0
 40
0.0
176
     0
 40
1.0
176
     0
 90
        0
176
     0
 62
    18
420
        0
176
     0
 90
       50
176
     0
 90
        3
176
     0
 62
     5
420
      255
176
     0
290
     0
176
     0
 90
       50
176
     0
 90
       50
176
     0
 90
       50
176
     0
290
     0
176
     0
 90
       50
176
     0
 62
   256
176
     0
 40
1.0
176
     0
 90
        2
176
     0
  1
strokes_ogs.tif
176
     0
290
     0
176
     0
 40
1.0
176
     0
 40
1.0
176
     0
  0
VISUALSTYLE
  5
138
102
{ACAD_REACTORS
330
12A
102
}
330
12A
100
AcDbVisualStyle
  2
Linepattern
 70
    14
177
     3
291
     1
 70
    58
 90
        2
176
     1
 90
        2
176
     1
 90
        0
176
     1
 90
        0
176
     1
 40
0.6
176
     1
 40
30.0
176
     1
 62
     7
420
 16777215
176
     1
 90
        1
176
     1
 90
        4
176
     1
 62
     7
176
     1
 62
   257
176
     1
 90
        7
176
     1
 90
        7
176
     1
 40
1.0
176
     1
 90
        8
176
     1
 62
     7
176
     1
 40
1.0
176
     1
 90
        1
176
     1
 90
        6
176
     1
 90
        2
176
     1
 62
     7
176
     1
 90
        5
176
     1
 90
        0
176
     1
 90
        0
176
     1
290
     0
176
     1
 90
        1
176
     1
 40
0.0
176
     1
 90
        0
176
     1
290
     0
176
     1
290
     1
176
     1
290
     1
176
     1
290
     0
176
     1
290
     0
176
     1
290
     0
176
     1
290
     0
176
     1
290
     0
176
     1
290
     0
176
     1
 90
       50
176
     1
 40
0.0
176
     1
 40
1.0
176
     1
 90
        0
176
     1
 62
    18
420
        0
176
     1
 90
       50
176
     1
 90
        3
176
     1
 62
     5
420
      255
176
     1
290
     0
176
     1
 90
       50
176
     1
 90
       50
176
     1
 90
       50
176
     1
290
     0
176
     1
 90
       50
176
     1
 62
   256
176
     0
 40
1.0
176
     0
 90
        2
176
     1
  1
strokes_ogs.tif
176
     1
290
     0
176
     1
 40
1.0
176
     1
 40
1.0
176
     1
  0
VISUALSTYLE
  5
141
102
{ACAD_REACTORS
330
12A
102
}
330
12A
100
AcDbVisualStyle
  2
OverhangOff
 70
    21
177
     3
291
     1
 70
    58
 90
        2
176
     0
 90
        2
176
     0
 90
        0
176
     0
 90
        0
176
     0
 40
0.6
176
     0
 40
30.0
176
     0
 62
     7
420
 16777215
176
     0
 90
        1
176
     0
 90
        4
176
     0
 62
     7
176
     0
 62
   257
176
     0
 90
        1
176
     0
 90
        1
176
     0
 40
1.0
176
     0
 90
        9
176
     2
 62
     7
176
     0
 40
1.0
176
     0
 90
        1
176
     0
 90
        6
176
     0
 90
        2
176
     0
 62
     7
176
     0
 90
        5
176
     0
 90
        0
176
     0
 90
        0
176
     0
290
     0
176
     0
 90
        1
176
     0
 40
0.0
176
     0
 90
        0
176
     0
290
     0
176
     0
290
     1
176
     0
290
     1
176
     0
290
     0
176
     0
290
     0
176
     0
290
     0
176
     0
290
     0
176
     0
290
     0
176
     0
290
     0
176
     0
 90
       50
176
     0
 40
0.0
176
     0
 40
1.0
176
     0
 90
        0
176
     0
 62
    18
420
        0
176
     0
 90
       50
176
     0
 90
        3
176
     0
 62
     5
420
      255
176
     0
290
     0
176
     0
 90
       50
176
     0
 90
       50
176
     0
 90
       50
176
     0
290
     0
176
     0
 90
       50
176
     0
 62
   256
176
     0
 40
1.0
176
     0
 90
        2
176
     0
  1
strokes_ogs.tif
176
     0
290
     0
176
     0
 40
1.0
176
     0
 40
1.0
176
     0
  0
VISUALSTYLE
  5
134
102
{ACAD_REACTORS
330
12A
102
}
330
12A
100
AcDbVisualStyle
  2
Realistic
 70
     8
177
     3
291
     0
 70
    58
 90
        2
176
     1
 90
        3
176
     1
 90
        0
176
     1
 90
        2
176
     1
 40
0.6
176
     1
 40
30.0
176
     1
 62
     7
420
 16777215
176
     1
 90
        0
176
     1
 90
        0
176
     1
 62
     7
176
     1
 62
   257
176
     1
 90
        1
176
     1
 90
        1
176
     1
 40
1.0
176
     1
 90
        8
176
     1
 62
   257
176
     1
 40
1.0
176
     1
 90
        1
176
     1
 90
        6
176
     1
 90
        2
176
     1
 62
     7
176
     1
 90
        3
176
     1
 90
        0
176
     1
 90
        0
176
     1
290
     0
176
     1
 90
       13
176
     1
 40
0.0
176
     1
 90
        0
176
     1
290
     0
176
     1
290
     1
176
     1
290
     1
176
     1
290
     0
176
     1
290
     0
176
     1
290
     0
176
     1
290
     0
176
     1
290
     0
176
     1
290
     0
176
     1
 90
       50
176
     1
 40
0.0
176
     1
 40
1.0
176
     1
 90
        0
176
     1
 62
    18
420
        0
176
     1
 90
       50
176
     1
 90
        3
176
     1
 62
     5
420
      255
176
     1
290
     0
176
     1
 90
       50
176
     1
 90
       50
176
     1
 90
       50
176
     1
290
     0
176
     1
 90
       50
176
     1
 62
   256
176
     0
 40
1.0
176
     0
 90
        2
176
     1
  1
strokes_ogs.tif
176
     1
290
     0
176
     1
 40
1.0
176
     1
 40
1.0
176
     1
  0
VISUALSTYLE
  5
13F
102
{ACAD_REACTORS
330
12A
102
}
330
12A
100
AcDbVisualStyle
  2
Shaded
 70
    27
177
     3
291
     0
 70
    58
 90
        2
176
     1
 90
        2
176
     1
 90
        1
176
     1
 90
        2
176
     1
 40
0.6
176
     1
 40
30.0
176
     1
 62
     7
420
 16777215
176
     1
 90
        0
176
     1
 90
        4
176
     1
 62
     7
176
     1
 62
   257
176
     1
 90
        1
176
     1
 90
        1
176
     1
 40
1.0
176
     1
 90
        8
176
     1
 62
   257
176
     1
 40
1.0
176
     1
 90
        1
176
     1
 90
        6
176
     1
 90
        2
176
     1
 62
     8
420
  7895160
176
     1
 90
        3
176
     1
 90
        0
176
     1
 90
        0
176
     1
290
     0
176
     1
 90
        5
176
     1
 40
0.0
176
     1
 90
        0
176
     1
290
     0
176
     1
290
     1
176
     1
290
     1
176
     1
290
     0
176
     1
290
     0
176
     1
290
     0
176
     1
290
     0
176
     1
290
     0
176
     1
290
     0
176
     1
 90
       50
176
     1
 40
0.0
176
     1
 40
1.0
176
     1
 90
        0
176
     1
 62
    18
420
        0
176
     1
 90
       50
176
     1
 90
        3
176
     1
 62
     5
420
      255
176
     1
290
     0
176
     1
 90
       50
176
     1
 90
       50
176
     1
 90
       50
176
     1
290
     0
176
     1
 90
       50
176
     1
 62
   256
176
     0
 40
1.0
176
     0
 90
        2
176
     1
  1
strokes_ogs.tif
176
     1
290
     0
176
     1
 40
1.0
176
     1
 40
1.0
176
     1
  0
VISUALSTYLE
  5
13E
102
{ACAD_REACTORS
330
12A
102
}
330
12A
100
AcDbVisualStyle
  2
Shaded with edges
 70
    26
177
     3
291
     0
 70
    58
 90
        2
176
     1
 90
        2
176
     1
 90
        1
176
     1
 90
        2
176
     1
 40
0.6
176
     1
 40
30.0
176
     1
 62
     7
420
 16777215
176
     1
 90
        1
176
     1
 90
        2
176
     1
 62
     7
176
     1
 62
   257
176
     1
 90
        2
176
     1
 90
        1
176
     1
 40
1.0
176
     1
 90
        8
176
     1
 62
   257
176
     1
 40
1.0
176
     1
 90
        1
176
     1
 90
        6
176
     1
 90
        2
176
     1
 62
     7
176
     1
 90
        3
176
     1
 90
        0
176
     1
 90
        0
176
     1
290
     0
176
     1
 90
        5
176
     1
 40
0.0
176
     1
 90
        0
176
     1
290
     0
176
     1
290
     1
176
     1
290
     1
176
     1
290
     0
176
     1
290
     0
176
     1
290
     0
176
     1
290
     0
176
     1
290
     0
176
     1
290
     0
176
     1
 90
       50
176
     1
 40
0.0
176
     1
 40
1.0
176
     1
 90
        0
176
     1
 62
    18
420
        0
176
     1
 90
       50
176
     1
 90
        3
176
     1
 62
     5
420
      255
176
     1
290
     0
176
     1
 90
       50
176
     1
 90
       50
176
     1
 90
       50
176
     1
290
     0
176
     1
 90
       50
176
     1
 62
   256
176
     0
 40
1.0
176
     0
 90
        2
176
     1
  1
strokes_ogs.tif
176
     1
290
     0
176
     1
 40
1.0
176
     1
 40
1.0
176
     1
  0
VISUALSTYLE
  5
13B
102
{ACAD_REACTORS
330
12A
102
}
330
12A
100
AcDbVisualStyle
  2
Shades of Gray
 70
    23
177
     3
291
     0
 70
    58
 90
        2
176
     1
 90
        2
176
     1
 90
        3
176
     1
 90
        0
176
     1
 40
0.6
176
     1
 40
30.0
176
     1
 62
     7
420
 16777215
176
     1
 90
        2
176
     1
 90
        2
176
     1
 62
     7
176
     1
 62
     7
176
     1
 90
        1
176
     1
 90
        1
176
     1
 40
40.0
176
     1
 90
        8
176
     1
 62
     7
176
     1
 40
1.0
176
     1
 90
        1
176
     1
 90
        6
176
     1
 90
        2
176
     1
 62
     7
176
     1
 90
        3
176
     1
 90
        0
176
     1
 90
        0
176
     1
290
     0
176
     1
 90
        1
176
     1
 40
0.0
176
     1
 90
        0
176
     1
290
     0
176
     1
290
     1
176
     1
290
     1
176
     1
290
     0
176
     1
290
     0
176
     1
290
     0
176
     1
290
     0
176
     1
290
     0
176
     1
290
     0
176
     1
 90
       50
176
     1
 40
0.0
176
     1
 40
1.0
176
     1
 90
        0
176
     1
 62
    18
420
        0
176
     1
 90
       50
176
     1
 90
        3
176
     1
 62
     5
420
      255
176
     1
290
     0
176
     1
 90
       50
176
     1
 90
       50
176
     1
 90
       50
176
     1
290
     0
176
     1
 90
       50
176
     1
 62
   256
176
     0
 40
1.0
176
     0
 90
        2
176
     1
  1
strokes_ogs.tif
176
     1
290
     0
176
     1
 40
1.0
176
     1
 40
1.0
176
     1
  0
VISUALSTYLE
  5
13C
102
{ACAD_REACTORS
330
12A
102
}
330
12A
100
AcDbVisualStyle
  2
Sketchy
 70
    24
177
     3
291
     0
 70
    58
 90
        1
176
     1
 90
        2
176
     1
 90
        2
176
     1
 90
        0
176
     1
 40
0.6
176
     1
 40
30.0
176
     1
 62
     7
420
 16777215
176
     1
 90
        2
176
     1
 90
        2
176
     1
 62
     7
176
     1
 62
     7
176
     1
 90
        1
176
     1
 90
        1
176
     1
 40
40.0
176
     1
 90
       11
176
     1
 62
     7
176
     1
 40
1.0
176
     1
 90
        1
176
     1
 90
        6
176
     1
 90
        2
176
     1
 62
     7
176
     1
 90
        6
176
     1
 90
        0
176
     1
 90
        0
176
     1
290
     0
176
     1
 90
        1
176
     1
 40
0.0
176
     1
 90
        0
176
     1
290
     0
176
     1
290
     1
176
     1
290
     1
176
     1
290
     0
176
     1
290
     0
176
     1
290
     0
176
     1
290
     0
176
     1
290
     0
176
     1
290
     0
176
     1
 90
       50
176
     1
 40
0.0
176
     1
 40
1.0
176
     1
 90
        0
176
     1
 62
    18
420
        0
176
     1
 90
       50
176
     1
 90
        3
176
     1
 62
     5
420
      255
176
     1
290
     0
176
     1
 90
       50
176
     1
 90
       50
176
     1
 90
       50
176
     1
290
     0
176
     1
 90
       50
176
     1
 62
   256
176
     0
 40
1.0
176
     0
 90
        2
176
     1
  1
strokes_ogs.tif
176
     1
290
     0
176
     1
 40
1.0
176
     1
 40
1.0
176
     1
  0
VISUALSTYLE
  5
137
102
{ACAD_REACTORS
330
12A
102
}
330
12A
100
AcDbVisualStyle
  2
Thicken
 70
    13
177
     3
291
     1
 70
    58
 90
        2
176
     1
 90
        2
176
     1
 90
        0
176
     1
 90
        0
176
     1
 40
0.6
176
     1
 40
30.0
176
     1
 62
     7
420
 16777215
176
     1
 90
        1
176
     1
 90
        4
176
     1
 62
     7
176
     1
 62
   257
176
     1
 90
        1
176
     1
 90
        1
176
     1
 40
1.0
176
     1
 90
       12
176
     1
 62
     7
176
     1
 40
1.0
176
     1
 90
        1
176
     1
 90
        6
176
     1
 90
        2
176
     1
 62
     7
176
     1
 90
        5
176
     1
 90
        0
176
     1
 90
        0
176
     1
290
     0
176
     1
 90
        1
176
     1
 40
0.0
176
     1
 90
        0
176
     1
290
     0
176
     1
290
     1
176
     1
290
     1
176
     1
290
     0
176
     1
290
     0
176
     1
290
     0
176
     1
290
     0
176
     1
290
     0
176
     1
290
     0
176
     1
 90
       50
176
     1
 40
0.0
176
     1
 40
1.0
176
     1
 90
        0
176
     1
 62
    18
420
        0
176
     1
 90
       50
176
     1
 90
        3
176
     1
 62
     5
420
      255
176
     1
290
     0
176
     1
 90
       50
176
     1
 90
       50
176
     1
 90
       50
176
     1
290
     0
176
     1
 90
       50
176
     1
 62
   256
176
     0
 40
1.0
176
     0
 90
        2
176
     1
  1
strokes_ogs.tif
176
     1
290
     0
176
     1
 40
1.0
176
     1
 40
1.0
176
     1
  0
VISUALSTYLE
  5
131
102
{ACAD_REACTORS
330
12A
102
}
330
12A
100
AcDbVisualStyle
  2
Wireframe
 70
     5
177
     3
291
     0
 70
    58
 90
        0
176
     1
 90
        2
176
     1
 90
        0
176
     1
 90
        0
176
     1
 40
0.6
176
     1
 40
30.0
176
     1
 62
     7
420
 16777215
176
     1
 90
        1
176
     1
 90
        4
176
     1
 62
     7
176
     1
 62
   257
176
     1
 90
        1
176
     1
 90
        1
176
     1
 40
1.0
176
     1
 90
        0
176
     1
 62
   257
176
     1
 40
1.0
176
     1
 90
        1
176
     1
 90
        6
176
     1
 90
        2
176
     1
 62
     7
176
     1
 90
        3
176
     1
 90
        0
176
     1
 90
        0
176
     1
290
     0
176
     1
 90
        1
176
     1
 40
0.0
176
     1
 90
        0
176
     1
290
     0
176
     1
290
     1
176
     1
290
     1
176
     1
290
     0
176
     1
290
     0
176
     1
290
     0
176
     1
290
     0
176
     1
290
     0
176
     1
290
     0
176
     1
 90
       50
176
     1
 40
0.0
176
     1
 40
1.0
176
     1
 90
        0
176
     1
 62
    18
420
        0
176
     1
 90
       50
176
     1
 90
        3
176
     1
 62
     5
420
      255
176
     1
290
     0
176
     1
 90
       50
176
     1
 90
       50
176
     1
 90
       50
176
     1
290
     0
176
     1
 90
       50
176
     1
 62
   256
176
     0
 40
1.0
176
     0
 90
        2
176
     1
  1
strokes_ogs.tif
176
     1
290
     0
176
     1
 40
1.0
176
     1
 40
1.0
176
     1
  0
VISUALSTYLE
  5
13D
102
{ACAD_REACTORS
330
12A
102
}
330
12A
100
AcDbVisualStyle
  2
X-Ray
 70
    25
177
     3
291
     0
 70
    58
 90
        2
176
     1
 90
        2
176
     1
 90
        1
176
     1
 90
        1
176
     1
 40
0.5
176
     1
 40
30.0
176
     1
 62
     7
420
 16777215
176
     1
 90
        1
176
     1
 90
        0
176
     1
 62
     7
176
     1
 62
   257
176
     1
 90
        1
176
     1
 90
        1
176
     1
 40
1.0
176
     1
 90
        8
176
     1
 62
     7
176
     1
 40
1.0
176
     1
 90
        1
176
     1
 90
        6
176
     1
 90
        2
176
     1
 62
     7
176
     1
 90
        3
176
     1
 90
        0
176
     1
 90
        0
176
     1
290
     0
176
     1
 90
       13
176
     1
 40
0.0
176
     1
 90
        0
176
     1
290
     0
176
     1
290
     1
176
     1
290
     1
176
     1
290
     0
176
     1
290
     0
176
     1
290
     0
176
     1
290
     0
176
     1
290
     0
176
     1
290
     0
176
     1
 90
       50
176
     1
 40
0.0
176
     1
 40
1.0
176
     1
 90
        0
176
     1
 62
    18
420
        0
176
     1
 90
       50
176
     1
 90
        3
176
     1
 62
     5
420
      255
176
     1
290
     0
176
     1
 90
       50
176
     1
 90
       50
176
     1
 90
       50
176
     1
290
     0
176
     1
 90
       50
176
     1
 62
   256
176
     0
 40
1.0
176
     0
 90
        2
176
     1
  1
strokes_ogs.tif
176
     1
290
     0
176
     1
 40
1.0
176
     1
 40
1.0
176
     1
  0
DICTIONARYVAR
  5
21D
102
{ACAD_REACTORS
330
217
102
}
330
217
100
DictionaryVariables
280
     0
  1
1:1
  0
DICTIONARYVAR
  5
219
102
{ACAD_REACTORS
330
217
102
}
330
217
100
DictionaryVariables
280
     0
  1
STANDARD
  0
DICTIONARYVAR
  5
218
102
{ACAD_REACTORS
330
217
102
}
330
217
100
DictionaryVariables
280
     0
  1
STANDARD
  0
DICTIONARYVAR
  5
21A
102
{ACAD_REACTORS
330
217
102
}
330
217
100
DictionaryVariables
280
     0
  1
Imperial24
  0
DICTIONARYVAR
  5
21B
102
{ACAD_REACTORS
330
217
102
}
330
217
100
DictionaryVariables
280
     0
  1
Imperial24
  0
DICTIONARYVAR
  5
21F
102
{ACAD_REACTORS
330
217
102
}
330
217
100
DictionaryVariables
280
     0
  1
1
  0
DICTIONARYVAR
  5
220
102
{ACAD_REACTORS
330
217
102
}
330
217
100
DictionaryVariables
280
     0
  1
15
  0
DICTIONARYVAR
  5
21E
102
{ACAD_REACTORS
330
217
102
}
330
217
100
DictionaryVariables
280
     0
  1
0
  0
DICTIONARYVAR
  5
21C
102
{ACAD_REACTORS
330
217
102
}
330
217
100
DictionaryVariables
280
     0
  1
0
  0
DICTIONARY
  5
1F8
102
{ACAD_REACTORS
330
1F7
102
}
330
1F7
100
AcDbDictionary
281
     1
  3
*A1
350
1F9
  0
DICTIONARY
  5
1F4
102
{ACAD_REACTORS
330
1F3
102
}
330
1F3
100
AcDbDictionary
281
     1
  3
*A1
350
1F5
  0
DICTIONARY
  5
1F0
102
{ACAD_REACTORS
330
1EF
102
}
330
1EF
100
AcDbDictionary
281
     1
  3
*A1
350
1F1
  0
DICTIONARY
  5
1EC
102
{ACAD_REACTORS
330
1EB
102
}
330
1EB
100
AcDbDictionary
281
     1
  3
*A1
350
1ED
  0
DICTIONARY
  5
1E8
102
{ACAD_REACTORS
330
1E7
102
}
330
1E7
100
AcDbDictionary
281
     1
  3
*A1
350
1E9
  0
DICTIONARY
  5
1E4
102
{ACAD_REACTORS
330
1E3
102
}
330
1E3
100
AcDbDictionary
281
     1
  3
*A1
350
1E5
  0
DICTIONARY
  5
1E0
102
{ACAD_REACTORS
330
1DF
102
}
330
1DF
100
AcDbDictionary
281
     1
  3
*A1
350
1E1
  0
DICTIONARY
  5
1DC
102
{ACAD_REACTORS
330
1DB
102
}
330
1DB
100
AcDbDictionary
281
     1
  3
*A1
350
1DD
  0
DICTIONARY
  5
1D8
102
{ACAD_REACTORS
330
1D7
102
}
330
1D7
100
AcDbDictionary
281
     1
  3
*A1
350
1D9
  0
DICTIONARY
  5
1D4
102
{ACAD_REACTORS
330
1D3
102
}
330
1D3
100
AcDbDictionary
281
     1
  3
*A1
350
1D5
  0
DICTIONARY
  5
1D0
102
{ACAD_REACTORS
330
1CF
102
}
330
1CF
100
AcDbDictionary
281
     1
  3
*A1
350
1D1
  0
DICTIONARY
  5
1CC
102
{ACAD_REACTORS
330
1CB
102
}
330
1CB
100
AcDbDictionary
281
     1
  3
*A1
350
1CD
  0
DICTIONARY
  5
1C8
102
{ACAD_REACTORS
330
1C7
102
}
330
1C7
100
AcDbDictionary
281
     1
  3
*A1
350
1C9
  0
DICTIONARY
  5
1C4
102
{ACAD_REACTORS
330
1C3
102
}
330
1C3
100
AcDbDictionary
281
     1
  3
*A1
350
1C5
  0
DICTIONARY
  5
1C0
102
{ACAD_REACTORS
330
1BF
102
}
330
1BF
100
AcDbDictionary
281
     1
  3
*A1
350
1C1
  0
DICTIONARY
  5
1BC
102
{ACAD_REACTORS
330
1BB
102
}
330
1BB
100
AcDbDictionary
281
     1
  3
*A1
350
1BD
  0
DICTIONARY
  5
11B
330
11A
100
AcDbDictionary
280
     1
281
     1
  3
BUMPTILE
360
11D
  3
DIFFUSETILE
360
11C
  3
OPACITYTILE
360
120
  3
REFLECTIONTILE
360
11F
  3
REFRACTIONTILE
360
121
  3
SPECULARTILE
360
11E
  0
DICTIONARY
  5
113
330
112
100
AcDbDictionary
280
     1
281
     1
  3
BUMPTILE
360
115
  3
DIFFUSETILE
360
114
  3
OPACITYTILE
360
118
  3
REFLECTIONTILE
360
117
  3
REFRACTIONTILE
360
119
  3
SPECULARTILE
360
116
  0
DICTIONARY
  5
123
330
122
100
AcDbDictionary
280
     1
281
     1
  3
BUMPTILE
360
125
  3
DIFFUSETILE
360
124
  3
OPACITYTILE
360
128
  3
REFLECTIONTILE
360
127
  3
REFRACTIONTILE
360
129
  3
SPECULARTILE
360
126
  0
DICTIONARY
  5
221
330
145
100
AcDbDictionary
280
     1
281
     1
  3
ACAD_ROUNDTRIP_2008_TABLESTYLE_CELLSTYLEMAP
360
222
  0
ACDB_TEXTOBJECTCONTEXTDATA_CLASS
  5
1F9
102
{ACAD_REACTORS
330
1F8
102
}
330
1F8
100
AcDbObjectContextData
 70
     4
290
     1
100
AcDbAnnotScaleObjectContextData
340
147
 70
     4
 50
0.0
 10
172.4786538387211
 20
220.0564825452035
 11
198.8736060897443
 21
222.5564825452035
  0
ACDB_TEXTOBJECTCONTEXTDATA_CLASS
  5
1F5
102
{ACAD_REACTORS
330
1F4
102
}
330
1F4
100
AcDbObjectContextData
 70
     4
290
     1
100
AcDbAnnotScaleObjectContextData
340
147
 70
     4
 50
0.0
 10
175.3772110035463
 20
149.9947315192312
 11
202.744195996725
 21
152.4964368398314
  0
ACDB_TEXTOBJECTCONTEXTDATA_CLASS
  5
1F1
102
{ACAD_REACTORS
330
1F0
102
}
330
1F0
100
AcDbObjectContextData
 70
     4
290
     1
100
AcDbAnnotScaleObjectContextData
340
147
 70
     4
 50
0.0
 10
174.7220596448588
 20
170.0787140981225
 11
258.5487990718711
 21
172.5804194187228
  0
ACDB_TEXTOBJECTCONTEXTDATA_CLASS
  5
1ED
102
{ACAD_REACTORS
330
1EC
102
}
330
1EC
100
AcDbObjectContextData
 70
     4
290
     1
100
AcDbAnnotScaleObjectContextData
340
147
 70
     4
 50
0.0
 10
174.9185464688623
 20
160.0296566841934
 11
266.3203200022866
 21
162.5313620047937
  0
ACDB_TEXTOBJECTCONTEXTDATA_CLASS
  5
1E9
102
{ACAD_REACTORS
330
1E8
102
}
330
1E8
100
AcDbObjectContextData
 70
     4
290
     1
100
AcDbAnnotScaleObjectContextData
340
147
 70
     4
 50
0.0
 10
173.5408982002592
 20
179.9798618077923
 11
256.4024261675171
 21
182.4815671283925
  0
ACDB_TEXTOBJECTCONTEXTDATA_CLASS
  5
1E5
102
{ACAD_REACTORS
330
1E4
102
}
330
1E4
100
AcDbObjectContextData
 70
     4
290
     1
100
AcDbAnnotScaleObjectContextData
340
147
 70
     4
 50
0.0
 10
174.634816966089
 20
190.0845741335828
 11
261.7664677164301
 21
192.5862794541832
  0
ACDB_TEXTOBJECTCONTEXTDATA_CLASS
  5
1E1
102
{ACAD_REACTORS
330
1E0
102
}
330
1E0
100
AcDbObjectContextData
 70
     4
290
     1
100
AcDbAnnotScaleObjectContextData
340
147
 70
     4
 50
0.0
 10
-102.6540032530132
 20
186.9586349572788
 11
-93.91423517661483
 21
189.4262338658736
  0
ACDB_TEXTOBJECTCONTEXTDATA_CLASS
  5
1DD
102
{ACAD_REACTORS
330
1DC
102
}
330
1DC
100
AcDbObjectContextData
 70
     4
290
     1
100
AcDbAnnotScaleObjectContextData
340
147
 70
     4
 50
0.0
 10
-122.2515475913488
 20
218.9480372444578
 11
-93.91423517661483
 21
221.4480372444578
  0
ACDB_TEXTOBJECTCONTEXTDATA_CLASS
  5
1D9
102
{ACAD_REACTORS
330
1D8
102
}
330
1D8
100
AcDbObjectContextData
 70
     4
290
     1
100
AcDbAnnotScaleObjectContextData
340
147
 70
     4
 50
0.0
 10
-112.9302651902574
 20
208.3382702918471
 11
-93.91423517661483
 21
210.1476154487365
  0
ACDB_TEXTOBJECTCONTEXTDATA_CLASS
  5
1D5
102
{ACAD_REACTORS
330
1D4
102
}
330
1D4
100
AcDbObjectContextData
 70
     4
290
     1
100
AcDbAnnotScaleObjectContextData
340
147
 70
     4
 50
0.0
 10
-164.5878368137226
 20
186.9586349572788
 11
-153.9142351766148
 21
189.4262338658736
  0
ACDB_TEXTOBJECTCONTEXTDATA_CLASS
  5
1D1
102
{ACAD_REACTORS
330
1D0
102
}
330
1D0
100
AcDbObjectContextData
 70
     4
290
     1
100
AcDbAnnotScaleObjectContextData
340
147
 70
     4
 50
0.0
 10
-168.0690089007571
 20
208.0455833597072
 11
-156.624602352326
 21
210.5455833597072
  0
ACDB_TEXTOBJECTCONTEXTDATA_CLASS
  5
1CD
102
{ACAD_REACTORS
330
1CC
102
}
330
1CC
100
AcDbObjectContextData
 70
     4
290
     1
100
AcDbAnnotScaleObjectContextData
340
147
 70
     4
 50
0.0
 10
-229.8316976595616
 20
187.0763020786976
 11
-213.9142351766148
 21
189.4262338658736
  0
ACDB_TEXTOBJECTCONTEXTDATA_CLASS
  5
1C9
102
{ACAD_REACTORS
330
1C8
102
}
330
1C8
100
AcDbObjectContextData
 70
     4
290
     1
100
AcDbAnnotScaleObjectContextData
340
147
 70
     4
 50
0.0
 10
-228.9305789607896
 20
218.9432067473262
 11
-212.6311246633817
 21
221.4432067473262
  0
ACDB_TEXTOBJECTCONTEXTDATA_CLASS
  5
1C5
102
{ACAD_REACTORS
330
1C4
102
}
330
1C4
100
AcDbObjectContextData
 70
     4
290
     1
100
AcDbAnnotScaleObjectContextData
340
147
 70
     4
 50
0.0
 10
-181.0737837984379
 20
218.941501426726
 11
-156.624602352326
 21
221.4432067473262
  0
ACDB_TEXTOBJECTCONTEXTDATA_CLASS
  5
1C1
102
{ACAD_REACTORS
330
1C0
102
}
330
1C0
100
AcDbObjectContextData
 70
     4
290
     1
100
AcDbAnnotScaleObjectContextData
340
147
 70
     4
 50
0.0
 10
40.0893790465074
 20
220.0547772246032
 11
90.73569555401082
 21
222.5564825452035
  0
ACDB_TEXTOBJECTCONTEXTDATA_CLASS
  5
1BD
102
{ACAD_REACTORS
330
1BC
102
}
330
1BC
100
AcDbObjectContextData
 70
     4
290
     1
100
AcDbAnnotScaleObjectContextData
340
147
 70
     4
 50
0.0
 10
39.82390112355398
 20
190.1203227601071
 11
97.06980835411332
 21
192.6220280807074
  0
XRECORD
  5
11D
102
{ACAD_REACTORS
330
11B
102
}
330
11B
100
AcDbXrecord
280
     1
270
     1
271
     1
  0
XRECORD
  5
11C
102
{ACAD_REACTORS
330
11B
102
}
330
11B
100
AcDbXrecord
280
     1
270
     1
271
     1
  0
XRECORD
  5
120
102
{ACAD_REACTORS
330
11B
102
}
330
11B
100
AcDbXrecord
280
     1
270
     1
271
     1
  0
XRECORD
  5
11F
102
{ACAD_REACTORS
330
11B
102
}
330
11B
100
AcDbXrecord
280
     1
270
     1
271
     1
  0
XRECORD
  5
121
102
{ACAD_REACTORS
330
11B
102
}
330
11B
100
AcDbXrecord
280
     1
270
     1
271
     1
  0
XRECORD
  5
11E
102
{ACAD_REACTORS
330
11B
102
}
330
11B
100
AcDbXrecord
280
     1
270
     1
271
     1
  0
XRECORD
  5
115
102
{ACAD_REACTORS
330
113
102
}
330
113
100
AcDbXrecord
280
     1
270
     1
271
     1
  0
XRECORD
  5
114
102
{ACAD_REACTORS
330
113
102
}
330
113
100
AcDbXrecord
280
     1
270
     1
271
     1
  0
XRECORD
  5
118
102
{ACAD_REACTORS
330
113
102
}
330
113
100
AcDbXrecord
280
     1
270
     1
271
     1
  0
XRECORD
  5
117
102
{ACAD_REACTORS
330
113
102
}
330
113
100
AcDbXrecord
280
     1
270
     1
271
     1
  0
XRECORD
  5
119
102
{ACAD_REACTORS
330
113
102
}
330
113
100
AcDbXrecord
280
     1
270
     1
271
     1
  0
XRECORD
  5
116
102
{ACAD_REACTORS
330
113
102
}
330
113
100
AcDbXrecord
280
     1
270
     1
271
     1
  0
XRECORD
  5
125
102
{ACAD_REACTORS
330
123
102
}
330
123
100
AcDbXrecord
280
     1
270
     1
271
     1
  0
XRECORD
  5
124
102
{ACAD_REACTORS
330
123
102
}
330
123
100
AcDbXrecord
280
     1
270
     1
271
     1
  0
XRECORD
  5
128
102
{ACAD_REACTORS
330
123
102
}
330
123
100
AcDbXrecord
280
     1
270
     1
271
     1
  0
XRECORD
  5
127
102
{ACAD_REACTORS
330
123
102
}
330
123
100
AcDbXrecord
280
     1
270
     1
271
     1
  0
XRECORD
  5
129
102
{ACAD_REACTORS
330
123
102
}
330
123
100
AcDbXrecord
280
     1
270
     1
271
     1
  0
XRECORD
  5
126
102
{ACAD_REACTORS
330
123
102
}
330
123
100
AcDbXrecord
280
     1
270
     1
271
     1
  0
CELLSTYLEMAP
  5
222
102
{ACAD_REACTORS
330
221
102
}
330
221
100
AcDbCellStyleMap
 90
        3
300
CELLSTYLE
  1
TABLEFORMAT_BEGIN
 90
        5
170
     1
 91
        0
 92
    32768
 62
   257
 93
        1
300
CONTENTFORMAT
  1
CONTENTFORMAT_BEGIN
 90
        0
 91
        0
 92
      512
 93
        0
300

 40
0.0
140
1.0
 94
        5
 62
     0
340
16
144
0.25
309
CONTENTFORMAT_END
171
     0
 94
        0
309
TABLEFORMAT_END
  1
CELLSTYLE_BEGIN
 90
        1
 91
        1
300
_TITLE
309
CELLSTYLE_END
300
CELLSTYLE
  1
TABLEFORMAT_BEGIN
 90
        5
170
     1
 91
        0
 92
        0
 62
   257
 93
        1
300
CONTENTFORMAT
  1
CONTENTFORMAT_BEGIN
 90
        0
 91
        0
 92
      512
 93
        0
300

 40
0.0
140
1.0
 94
        5
 62
     0
340
16
144
0.18
309
CONTENTFORMAT_END
171
     0
 94
        0
309
TABLEFORMAT_END
  1
CELLSTYLE_BEGIN
 90
        2
 91
        1
300
_HEADER
309
CELLSTYLE_END
300
CELLSTYLE
  1
TABLEFORMAT_BEGIN
 90
        5
170
     1
 91
        0
 92
        0
 62
   257
 93
        1
300
CONTENTFORMAT
  1
CONTENTFORMAT_BEGIN
 90
        0
 91
        0
 92
      512
 93
        0
300

 40
0.0
140
1.0
 94
        2
 62
     0
340
16
144
0.18
309
CONTENTFORMAT_END
171
     0
 94
        0
309
TABLEFORMAT_END
  1
CELLSTYLE_BEGIN
 90
        3
 91
        2
300
_DATA
309
CELLSTYLE_END
  0
ENDSEC
  0
EOF
