  0
SECTION
  2
HEADER
  9
$ACADVER
  1
AC1032
  9
$ACADMAINTVER
 90
      155
  9
$DWGCODEPAGE
  3
ANSI_1252
  9
$LASTSAVEDBY
  1
falinoori
  9
$REQUIREDVERSIONS
160
                 0
  9
$INSBASE
 10
-0.0000000000004034
 20
0.0000000000000568
 30
0.0
  9
$EXTMIN
 10
-144.831702091014
 20
-261.9378075349628
 30
0.0
  9
$EXTMAX
 10
441.9960821703396
 20
152.9917228790457
 30
0.0
  9
$LIMMIN
 10
0.0
 20
0.0
  9
$LIMMAX
 10
420.0
 20
297.0
  9
$ORTHOMODE
 70
     0
  9
$REGENMODE
 70
     1
  9
$FILLMODE
 70
     1
  9
$QTEXTMODE
 70
     0
  9
$MIRRTEXT
 70
     1
  9
$LTSCALE
 40
0.25
  9
$ATTMODE
 70
     1
  9
$TEXTSIZE
 40
5.0
  9
$TRACEWID
 40
10.0
  9
$TEXTSTYLE
  7
ARIAL
  9
$CLAYER
  8
DIMS
  9
$CELTYPE
  6
BYLAYER
  9
$CECOLOR
 62
   256
  9
$CELTSCALE
 40
1.0
  9
$DISPSILH
 70
     0
  9
$DIMSCALE
 40
0.0
  9
$DIMASZ
 40
4.0
  9
$DIMEXO
 40
3.0
  9
$DIMDLI
 40
10.0
  9
$DIMRND
 40
0.0
  9
$DIMDLE
 40
1.25
  9
$DIMEXE
 40
3.0
  9
$DIMTP
 40
0.0
  9
$DIMTM
 40
0.0
  9
$DIMTXT
 40
3.0
  9
$DIMCEN
 40
-3.0
  9
$DIMTSZ
 40
0.0
  9
$DIMTOL
 70
     0
  9
$DIMLIM
 70
     0
  9
$DIMTIH
 70
     0
  9
$DIMTOH
 70
     0
  9
$DIMSE1
 70
     0
  9
$DIMSE2
 70
     0
  9
$DIMTAD
 70
     1
  9
$DIMZIN
 70
    12
  9
$DIMBLK
  1

  9
$DIMASO
 70
     1
  9
$DIMSHO
 70
     0
  9
$DIMPOST
  1

  9
$DIMAPOST
  1

  9
$DIMALT
 70
     0
  9
$DIMALTD
 70
     2
  9
$DIMALTF
 40
0.039
  9
$DIMLFAC
 40
1.0
  9
$DIMTOFL
 70
     0
  9
$DIMTVP
 40
1.5
  9
$DIMTIX
 70
     0
  9
$DIMSOXD
 70
     0
  9
$DIMSAH
 70
     0
  9
$DIMBLK1
  1

  9
$DIMBLK2
  1

  9
$DIMSTYLE
  2
1-2
  9
$DIMCLRD
 70
     0
  9
$DIMCLRE
 70
     0
  9
$DIMCLRT
 70
     0
  9
$DIMTFAC
 40
0.75
  9
$DIMGAP
 40
1.5
  9
$DIMJUST
 70
     0
  9
$DIMSD1
 70
     0
  9
$DIMSD2
 70
     0
  9
$DIMTOLJ
 70
     1
  9
$DIMTZIN
 70
    12
  9
$DIMALTZ
 70
    12
  9
$DIMALTTZ
 70
    12
  9
$DIMUPT
 70
     0
  9
$DIMDEC
 70
     2
  9
$DIMTDEC
 70
     2
  9
$DIMALTU
 70
     2
  9
$DIMALTTD
 70
     2
  9
$DIMTXSTY
  7
ROMANS
  9
$DIMAUNIT
 70
     0
  9
$DIMADEC
 70
     0
  9
$DIMALTRND
 40
0.0
  9
$DIMAZIN
 70
     0
  9
$DIMDSEP
 70
    46
  9
$DIMATFIT
 70
     3
  9
$DIMFRAC
 70
     0
  9
$DIMLDRBLK
  1

  9
$DIMLUNIT
 70
     2
  9
$DIMLWD
 70
    -2
  9
$DIMLWE
 70
    -2
  9
$DIMTMOVE
 70
     2
  9
$DIMFXL
 40
1.0
  9
$DIMFXLON
 70
     0
  9
$DIMJOGANG
 40
0.7853981633974483
  9
$DIMTFILL
 70
     0
  9
$DIMTFILLCLR
 70
     0
  9
$DIMARCSYM
 70
     0
  9
$DIMLTYPE
  6

  9
$DIMLTEX1
  6

  9
$DIMLTEX2
  6

  9
$DIMTXTDIRECTION
 70
     0
  9
$LUNITS
 70
     2
  9
$LUPREC
 70
     2
  9
$SKETCHINC
 40
1.0
  9
$FILLETRAD
 40
0.0
  9
$AUNITS
 70
     0
  9
$AUPREC
 70
     4
  9
$MENU
  1
acad
  9
$ELEVATION
 40
0.0
  9
$PELEVATION
 40
0.0
  9
$THICKNESS
 40
0.0
  9
$LIMCHECK
 70
     0
  9
$CHAMFERA
 40
0.0
  9
$CHAMFERB
 40
0.0
  9
$CHAMFERC
 40
0.0
  9
$CHAMFERD
 40
0.0
  9
$SKPOLY
 70
     0
  9
$TDCREATE
 40
2449527.946145833
  9
$TDUCREATE
 40
2449527.529488426
  9
$TDUPDATE
 40
2459590.418935185
  9
$TDUUPDATE
 40
2459589.960601852
  9
$TDINDWG
 40
0.2497447917
  9
$TDUSRTIMER
 40
0.2497447917
  9
$USRTIMER
 70
     1
  9
$ANGBASE
 50
0.0
  9
$ANGDIR
 70
     0
  9
$PDMODE
 70
     0
  9
$PDSIZE
 40
0.0
  9
$PLINEWID
 40
0.0
  9
$SPLFRAME
 70
     0
  9
$SPLINETYPE
 70
     6
  9
$SPLINESEGS
 70
     8
  9
$HANDSEED
  5
18B
  9
$SURFTAB1
 70
    18
  9
$SURFTAB2
 70
    18
  9
$SURFTYPE
 70
     6
  9
$SURFU
 70
    18
  9
$SURFV
 70
    18
  9
$UCSBASE
  2

  9
$UCSNAME
  2

  9
$UCSORG
 10
0.0
 20
0.0
 30
0.0
  9
$UCSXDIR
 10
1.0
 20
0.0
 30
0.0
  9
$UCSYDIR
 10
0.0
 20
1.0
 30
0.0
  9
$UCSORTHOREF
  2

  9
$UCSORTHOVIEW
 70
     0
  9
$UCSORGTOP
 10
0.0
 20
0.0
 30
0.0
  9
$UCSORGBOTTOM
 10
0.0
 20
0.0
 30
0.0
  9
$UCSORGLEFT
 10
0.0
 20
0.0
 30
0.0
  9
$UCSORGRIGHT
 10
0.0
 20
0.0
 30
0.0
  9
$UCSORGFRONT
 10
0.0
 20
0.0
 30
0.0
  9
$UCSORGBACK
 10
0.0
 20
0.0
 30
0.0
  9
$PUCSBASE
  2

  9
$PUCSNAME
  2

  9
$PUCSORG
 10
0.0
 20
0.0
 30
0.0
  9
$PUCSXDIR
 10
1.0
 20
0.0
 30
0.0
  9
$PUCSYDIR
 10
0.0
 20
1.0
 30
0.0
  9
$PUCSORTHOREF
  2

  9
$PUCSORTHOVIEW
 70
     0
  9
$PUCSORGTOP
 10
0.0
 20
0.0
 30
0.0
  9
$PUCSORGBOTTOM
 10
0.0
 20
0.0
 30
0.0
  9
$PUCSORGLEFT
 10
0.0
 20
0.0
 30
0.0
  9
$PUCSORGRIGHT
 10
0.0
 20
0.0
 30
0.0
  9
$PUCSORGFRONT
 10
0.0
 20
0.0
 30
0.0
  9
$PUCSORGBACK
 10
0.0
 20
0.0
 30
0.0
  9
$USERI1
 70
     0
  9
$USERI2
 70
     0
  9
$USERI3
 70
     0
  9
$USERI4
 70
     0
  9
$USERI5
 70
     0
  9
$USERR1
 40
0.0
  9
$USERR2
 40
0.0
  9
$USERR3
 40
0.0
  9
$USERR4
 40
0.0
  9
$USERR5
 40
0.0
  9
$WORLDVIEW
 70
     1
  9
$SHADEDGE
 70
     3
  9
$SHADEDIF
 70
    70
  9
$TILEMODE
 70
     1
  9
$MAXACTVP
 70
    16
  9
$PINSBASE
 10
0.0
 20
0.0
 30
0.0
  9
$PLIMCHECK
 70
     0
  9
$PEXTMIN
 10
1.000000000000000E+20
 20
1.000000000000000E+20
 30
1.000000000000000E+20
  9
$PEXTMAX
 10
-1.000000000000000E+20
 20
-1.000000000000000E+20
 30
-1.000000000000000E+20
  9
$PLIMMIN
 10
0.0
 20
0.0
  9
$PLIMMAX
 10
420.0
 20
297.0
  9
$UNITMODE
 70
     0
  9
$VISRETAIN
 70
     0
  9
$PLINEGEN
 70
     0
  9
$PSLTSCALE
 70
     1
  9
$TREEDEPTH
 70
  3020
  9
$CMLSTYLE
  2
STANDARD
  9
$CMLJUST
 70
     0
  9
$CMLSCALE
 40
1.0
  9
$PROXYGRAPHICS
 70
     1
  9
$MEASUREMENT
 70
     0
  9
$CELWEIGHT
370
    -1
  9
$ENDCAPS
280
     0
  9
$JOINSTYLE
280
     0
  9
$LWDISPLAY
290
     0
  9
$INSUNITS
 70
     0
  9
$HYPERLINKBASE
  1

  9
$STYLESHEET
  1

  9
$XEDIT
290
     1
  9
$CEPSNTYPE
380
     0
  9
$PSTYLEMODE
290
     1
  9
$FINGERPRINTGUID
  2
{627E28B1-AD1D-11D6-AAC6-0010A4A25215}
  9
$VERSIONGUID
  2
{F2AB0BBB-E199-2348-B9D1-23489E5E62FE}
  9
$EXTNAMES
290
     1
  9
$PSVPSCALE
 40
0.0
  9
$OLESTARTUP
290
     0
  9
$SORTENTS
280
   127
  9
$INDEXCTL
280
     0
  9
$HIDETEXT
280
     0
  9
$XCLIPFRAME
280
     2
  9
$HALOGAP
280
     0
  9
$OBSCOLOR
 70
   257
  9
$OBSLTYPE
280
     0
  9
$INTERSECTIONDISPLAY
280
     0
  9
$INTERSECTIONCOLOR
 70
   257
  9
$DIMASSOC
280
     1
  9
$PROJECTNAME
  1

  9
$CAMERADISPLAY
290
     0
  9
$LENSLENGTH
 40
50.0
  9
$CAMERAHEIGHT
 40
0.0
  9
$STEPSPERSEC
 40
2.0
  9
$STEPSIZE
 40
6.0
  9
$3DDWFPREC
 40
2.0
  9
$PSOLWIDTH
 40
0.25
  9
$PSOLHEIGHT
 40
4.0
  9
$LOFTANG1
 40
1.570796326794896
  9
$LOFTANG2
 40
1.570796326794896
  9
$LOFTMAG1
 40
0.0
  9
$LOFTMAG2
 40
0.0
  9
$LOFTPARAM
 70
     7
  9
$LOFTNORMALS
280
     1
  9
$LATITUDE
 40
37.795
  9
$LONGITUDE
 40
-122.394
  9
$NORTHDIRECTION
 40
0.0
  9
$TIMEZONE
 70
 -8000
  9
$LIGHTGLYPHDISPLAY
280
     1
  9
$TILEMODELIGHTSYNCH
280
     1
  9
$CMATERIAL
347
87
  9
$SOLIDHIST
280
     0
  9
$SHOWHIST
280
     1
  9
$DWFFRAME
280
     2
  9
$DGNFRAME
280
     0
  9
$REALWORLDSCALE
290
     1
  9
$INTERFERECOLOR
 62
     1
  9
$INTERFEREOBJVS
345
A9
  9
$INTERFEREVPVS
346
A6
  9
$CSHADOW
280
     0
  9
$SHADOWPLANELOCATION
 40
0.0
  0
ENDSEC
  0
SECTION
  2
CLASSES
  0
CLASS
  1
DICTIONARYVAR
  2
AcDbDictionaryVar
  3
ObjectDBX Classes
 90
        0
 91
       18
280
     0
281
     0
  0
CLASS
  1
ACDBDICTIONARYWDFLT
  2
AcDbDictionaryWithDefault
  3
ObjectDBX Classes
 90
        0
 91
        1
280
     0
281
     0
  0
CLASS
  1
MATERIAL
  2
AcDbMaterial
  3
ObjectDBX Classes
 90
     1153
 91
        3
280
     0
281
     0
  0
CLASS
  1
VISUALSTYLE
  2
AcDbVisualStyle
  3
ObjectDBX Classes
 90
     4095
 91
       24
280
     0
281
     0
  0
CLASS
  1
TABLESTYLE
  2
AcDbTableStyle
  3
ObjectDBX Classes
 90
     4095
 91
        1
280
     0
281
     0
  0
CLASS
  1
SCALE
  2
AcDbScale
  3
ObjectDBX Classes
 90
     1153
 91
       17
280
     0
281
     0
  0
CLASS
  1
MLEADERSTYLE
  2
AcDbMLeaderStyle
  3
ACDB_MLEADERSTYLE_CLASS
 90
     4095
 91
        1
280
     0
281
     0
  0
CLASS
  1
ACDBSECTIONVIEWSTYLE
  2
AcDbSectionViewStyle
  3
ObjectDBX Classes
 90
     1025
 91
        1
280
     0
281
     0
  0
CLASS
  1
ACDBDETAILVIEWSTYLE
  2
AcDbDetailViewStyle
  3
ObjectDBX Classes
 90
     1025
 91
        1
280
     0
281
     0
  0
CLASS
  1
SORTENTSTABLE
  2
AcDbSortentsTable
  3
ObjectDBX Classes
 90
        0
 91
        1
280
     0
281
     0
  0
CLASS
  1
ACDB_TEXTOBJECTCONTEXTDATA_CLASS
  2
AcDbTextObjectContextData
  3
ObjectDBX Classes
 90
     1153
 91
       31
280
     0
281
     0
  0
CLASS
  1
CELLSTYLEMAP
  2
AcDbCellStyleMap
  3
ObjectDBX Classes
 90
     1152
 91
        1
280
     0
281
     0
  0
ENDSEC
  0
SECTION
  2
TABLES
  0
TABLE
  2
VPORT
  5
19
330
0
100
AcDbSymbolTable
 70
     1
  0
VPORT
  5
1A
330
19
100
AcDbSymbolTableRecord
100
AcDbViewportTableRecord
  2
*Active
 70
     0
 10
0.0
 20
0.0
 11
1.0
 21
1.0
 12
108.0314518383055
 22
87.55187135781511
 13
0.0
 23
0.0
 14
5.0
 24
5.0
 15
10.0
 25
10.0
 16
0.0
 26
0.0
 36
1.0
 17
0.0
 27
0.0
 37
0.0
 40
727.3446129295598
 41
1.787234042553191
 42
50.0
 43
0.0
 44
0.0
 50
0.0
 51
0.0
 71
     0
 72
   100
 73
     1
 74
     1
 75
     0
 76
     0
 77
     0
 78
     0
281
     0
 65
     1
110
0.0
120
0.0
130
0.0
111
1.0
121
0.0
131
0.0
112
0.0
122
1.0
132
0.0
 79
     0
146
0.0
348
A5
 60
     3
 61
     5
292
     1
282
     1
141
0.0
142
0.0
 63
   250
421
  3355443
1001
ACAD_NAV_VCDISPLAY
1070
     3
  0
ENDTAB
  0
TABLE
  2
LTYPE
  5
14
330
0
100
AcDbSymbolTable
 70
     2
  0
LTYPE
  5
15
330
14
100
AcDbSymbolTableRecord
100
AcDbLinetypeTableRecord
  2
BYBLOCK
 70
     0
  3

 72
    65
 73
     0
 40
0.0
  0
LTYPE
  5
16
330
14
100
AcDbSymbolTableRecord
100
AcDbLinetypeTableRecord
  2
BYLAYER
 70
     0
  3

 72
    65
 73
     0
 40
0.0
  0
LTYPE
  5
8
330
14
100
AcDbSymbolTableRecord
100
AcDbLinetypeTableRecord
  2
CONTINUOUS
 70
     0
  3
Solid line
 72
    65
 73
     0
 40
0.0
  0
LTYPE
  5
34
330
14
100
AcDbSymbolTableRecord
100
AcDbLinetypeTableRecord
  2
CENTER2
 70
     0
  3
___ _ ___ _ ___ _ ___ _ ___ _ ___ _ ___ _ ___ _
 72
    65
 73
     4
 40
28.575
 49
19.05
 74
     0
 49
-3.174999999999999
 74
     0
 49
3.174999999999999
 74
     0
 49
-3.174999999999999
 74
     0
  0
ENDTAB
  0
TABLE
  2
LAYER
  5
10
102
{ACAD_XDICTIONARY
360
DA
102
}
330
0
100
AcDbSymbolTable
 70
     8
  0
LAYER
  5
4
102
{ACAD_XDICTIONARY
360
171
102
}
330
10
100
AcDbSymbolTableRecord
100
AcDbLayerTableRecord
  2
0
 70
     0
 62
     7
  6
CONTINUOUS
370
    -3
390
5
347
97
348
0
  0
LAYER
  5
22
102
{ACAD_XDICTIONARY
360
173
102
}
330
10
100
AcDbSymbolTableRecord
100
AcDbLayerTableRecord
  2
DIMS
 70
     0
 62
     1
  6
CONTINUOUS
370
    -3
390
5
347
97
348
0
  0
LAYER
  5
32
102
{ACAD_XDICTIONARY
360
175
102
}
330
10
100
AcDbSymbolTableRecord
100
AcDbLayerTableRecord
  2
ANCON-DSD
 70
     0
 62
     3
  6
CONTINUOUS
370
    -3
390
5
347
97
348
0
  0
LAYER
  5
5C
330
10
100
AcDbSymbolTableRecord
100
AcDbLayerTableRecord
  2
DEFPOINTS
 70
     0
 62
     7
  6
CONTINUOUS
290
     0
370
    -3
390
5
347
97
348
0
  0
LAYER
  5
27
102
{ACAD_XDICTIONARY
360
177
102
}
330
10
100
AcDbSymbolTableRecord
100
AcDbLayerTableRecord
  2
ANCON-TEXT
 70
     0
 62
     6
  6
CONTINUOUS
370
    -3
390
5
347
97
348
0
  0
LAYER
  5
45
102
{ACAD_XDICTIONARY
360
179
102
}
330
10
100
AcDbSymbolTableRecord
100
AcDbLayerTableRecord
  2
SPECP
 70
     0
 62
     6
  6
CONTINUOUS
370
    -3
390
5
347
97
348
0
  0
LAYER
  5
2D
102
{ACAD_XDICTIONARY
360
17B
102
}
330
10
100
AcDbSymbolTableRecord
100
AcDbLayerTableRecord
  2
SPECD
 70
     0
 62
     6
  6
CONTINUOUS
370
    -3
390
5
347
97
348
0
  0
LAYER
  5
D7
102
{ACAD_XDICTIONARY
360
D8
102
}
330
10
100
AcDbSymbolTableRecord
100
AcDbLayerTableRecord
  2
ANCON_OUTLINE1
 70
     0
 62
     9
  6
CONTINUOUS
370
    15
390
5
347
97
348
0
  0
ENDTAB
  0
TABLE
  2
STYLE
  5
11
330
0
100
AcDbSymbolTable
 70
     3
  0
STYLE
  5
12
330
11
100
AcDbSymbolTableRecord
100
AcDbTextStyleTableRecord
  2
STANDARD
 70
     0
 40
0.0
 41
1.0
 50
0.0
 71
     0
 42
6.0
  3
txt.shx
  4

  0
STYLE
  5
23
330
11
100
AcDbSymbolTableRecord
100
AcDbTextStyleTableRecord
  2
ROMANS
 70
     0
 40
0.0
 41
1.0
 50
0.0
 71
     0
 42
5.0
  3
romans
  4

  0
STYLE
  5
E6
330
11
100
AcDbSymbolTableRecord
100
AcDbTextStyleTableRecord
  2
ARIAL
 70
     0
 40
5.0
 41
1.0
 50
0.0
 71
     0
 42
5.0
  3
arial.ttf
  4

1001
AcadAnnotative
1000
AnnotativeData
1002
{
1070
     1
1070
     1
1002
}
1001
ACAD
1000
Arial
1071
       34
  0
ENDTAB
  0
TABLE
  2
VIEW
  5
17
330
0
100
AcDbSymbolTable
 70
     0
  0
ENDTAB
  0
TABLE
  2
UCS
  5
18
330
0
100
AcDbSymbolTable
 70
     0
  0
ENDTAB
  0
TABLE
  2
APPID
  5
1B
330
0
100
AcDbSymbolTable
 70
     4
  0
APPID
  5
1C
330
1B
100
AcDbSymbolTableRecord
100
AcDbRegAppTableRecord
  2
ACAD
 70
     0
  0
APPID
  5
D9
330
1B
100
AcDbSymbolTableRecord
100
AcDbRegAppTableRecord
  2
ACAD_NAV_VCDISPLAY
 70
     0
  0
APPID
  5
E7
330
1B
100
AcDbSymbolTableRecord
100
AcDbRegAppTableRecord
  2
AcadAnnoPO
 70
     0
  0
APPID
  5
EA
330
1B
100
AcDbSymbolTableRecord
100
AcDbRegAppTableRecord
  2
AcadAnnotative
 70
     0
  0
ENDTAB
  0
TABLE
  2
DIMSTYLE
  5
1D
330
0
100
AcDbSymbolTable
 70
     1
100
AcDbDimStyleTable
 71
     0
  0
DIMSTYLE
105
25
102
{ACAD_REACTORS
330
53
330
68
102
}
330
1D
100
AcDbSymbolTableRecord
100
AcDbDimStyleTableRecord
  2
1-2
 70
     0
 40
0.0
 41
4.0
 42
3.0
 43
10.0
 44
3.0
 46
1.25
 73
     0
 74
     0
 77
     1
 78
    12
140
3.0
141
-3.0
143
0.039
145
1.5
146
0.75
147
1.5
271
     2
272
     2
279
     2
284
    12
285
    12
286
    12
340
23
  0
ENDTAB
  0
TABLE
  2
BLOCK_RECORD
  5
1
330
0
100
AcDbSymbolTable
 70
     3
  0
BLOCK_RECORD
  5
2
330
1
100
AcDbSymbolTableRecord
100
AcDbBlockTableRecord
  2
*MODEL_SPACE
340
A
 70
     0
280
     1
281
     0
  0
BLOCK_RECORD
  5
C
330
1
100
AcDbSymbolTableRecord
100
AcDbBlockTableRecord
  2
*PAPER_SPACE
340
F
 70
     0
280
     1
281
     0
  0
BLOCK_RECORD
  5
54
330
1
100
AcDbSymbolTableRecord
100
AcDbBlockTableRecord
  2
*D0
340
0
 70
     0
280
     1
281
     0
  0
BLOCK_RECORD
  5
69
330
1
100
AcDbSymbolTableRecord
100
AcDbBlockTableRecord
  2
*D1
340
0
 70
     0
280
     1
281
     0
  0
ENDTAB
  0
ENDSEC
  0
SECTION
  2
BLOCKS
  0
BLOCK
  5
3
330
2
100
AcDbEntity
  8
0
100
AcDbBlockBegin
  2
*MODEL_SPACE
 70
     0
 10
0.0
 20
0.0
 30
0.0
  3
*MODEL_SPACE
  1

  0
ENDBLK
  5
9
330
2
100
AcDbEntity
  8
0
100
AcDbBlockEnd
  0
BLOCK
  5
D
330
C
100
AcDbEntity
 67
     1
  8
0
100
AcDbBlockBegin
  2
*PAPER_SPACE
 70
     0
 10
0.0
 20
0.0
 30
0.0
  3
*PAPER_SPACE
  1

  0
ENDBLK
  5
E
330
C
100
AcDbEntity
 67
     1
  8
0
100
AcDbBlockEnd
  0
BLOCK
  5
5F
330
54
100
AcDbEntity
  8
0
100
AcDbBlockBegin
  2
*D0
 70
     1
 10
0.0
 20
0.0
 30
0.0
  3
*D0
  1

  0
LINE
  5
55
330
54
100
AcDbEntity
  8
0
  6
ByBlock
 62
     0
440
 16777216
100
AcDbLine
 10
-100.0760440072941
 20
-10.99999999999994
 30
0.0
 11
-100.0760440072941
 21
-156.3772292583532
 31
0.0
  0
LINE
  5
56
330
54
100
AcDbEntity
  8
0
  6
ByBlock
 62
     0
440
 16777216
100
AcDbLine
 10
100.0760440072941
 20
-10.99999999999994
 30
0.0
 11
100.0760440072941
 21
-156.3772292583532
 31
0.0
  0
LINE
  5
57
330
54
100
AcDbEntity
  8
0
  6
ByBlock
 62
     0
440
 16777216
100
AcDbLine
 10
-96.07604400729417
 20
-153.3772292583532
 30
0.0
 11
96.07604400729417
 21
-153.3772292583532
 31
0.0
  0
SOLID
  5
58
330
54
100
AcDbEntity
  8
0
  6
ByBlock
 62
     0
440
 16777216
100
AcDbTrace
 10
-96.07604400729417
 20
-152.7105625916865
 30
0.0
 11
-96.07604400729417
 21
-154.0438959250199
 31
0.0
 12
-100.0760440072941
 22
-153.3772292583532
 32
0.0
 13
-100.0760440072941
 23
-153.3772292583532
 33
0.0
  0
SOLID
  5
59
330
54
100
AcDbEntity
  8
0
  6
ByBlock
 62
     0
440
 16777216
100
AcDbTrace
 10
96.07604400729417
 20
-152.7105625916865
 30
0.0
 11
96.07604400729417
 21
-154.0438959250199
 31
0.0
 12
100.0760440072941
 22
-153.3772292583532
 32
0.0
 13
100.0760440072941
 23
-153.3772292583532
 33
0.0
  0
TEXT
  5
5A
330
54
100
AcDbEntity
  8
0
  6
ByBlock
 62
     0
440
 16777216
100
AcDbText
 10
-4.285714285714285
 20
-151.8772292583532
 30
0.0
 40
3.0
  1
200
  7
ROMANS
 72
     1
 11
0.0
 21
-150.3772292583532
 31
0.0
100
AcDbText
 73
     2
  0
POINT
  5
5B
330
54
100
AcDbEntity
  8
DEFPOINTS
  6
ByBlock
 62
     0
440
 16777216
100
AcDbPoint
 10
-100.0760440072941
 20
-7.999999999999943
 30
0.0
  0
POINT
  5
5D
330
54
100
AcDbEntity
  8
DEFPOINTS
  6
ByBlock
 62
     0
440
 16777216
100
AcDbPoint
 10
100.0760440072941
 20
-7.999999999999943
 30
0.0
  0
POINT
  5
5E
330
54
100
AcDbEntity
  8
DEFPOINTS
  6
ByBlock
 62
     0
440
 16777216
100
AcDbPoint
 10
100.0760440072941
 20
-153.3772292583532
 30
0.0
  0
ENDBLK
  5
60
330
54
100
AcDbEntity
  8
0
100
AcDbBlockEnd
  0
BLOCK
  5
73
330
69
100
AcDbEntity
  8
0
100
AcDbBlockBegin
  2
*D1
 70
     1
 10
0.0
 20
0.0
 30
0.0
  3
*D1
  1

  0
LINE
  5
6A
330
69
100
AcDbEntity
  8
0
  6
ByBlock
 62
     0
440
 16777216
100
AcDbLine
 10
-55.07604400729394
 20
-102.9999999999999
 30
0.0
 11
-55.07604400729394
 21
-130.6269332649298
 31
0.0
  0
LINE
  5
6B
330
69
100
AcDbEntity
  8
0
  6
ByBlock
 62
     0
440
 16777216
100
AcDbLine
 10
55.07604400729395
 20
-102.9999999999999
 30
0.0
 11
55.07604400729395
 21
-130.6269332649298
 31
0.0
  0
LINE
  5
6C
330
69
100
AcDbEntity
  8
0
  6
ByBlock
 62
     0
440
 16777216
100
AcDbLine
 10
-51.07604400729393
 20
-127.6269332649299
 30
0.0
 11
51.07604400729394
 21
-127.6269332649299
 31
0.0
  0
SOLID
  5
6D
330
69
100
AcDbEntity
  8
0
  6
ByBlock
 62
     0
440
 16777216
100
AcDbTrace
 10
-51.07604400729393
 20
-126.9602665982632
 30
0.0
 11
-51.07604400729393
 21
-128.2935999315965
 31
0.0
 12
-55.07604400729394
 22
-127.6269332649299
 32
0.0
 13
-55.07604400729394
 23
-127.6269332649299
 33
0.0
  0
SOLID
  5
6E
330
69
100
AcDbEntity
  8
0
  6
ByBlock
 62
     0
440
 16777216
100
AcDbTrace
 10
51.07604400729394
 20
-126.9602665982632
 30
0.0
 11
51.07604400729394
 21
-128.2935999315965
 31
0.0
 12
55.07604400729395
 22
-127.6269332649299
 32
0.0
 13
55.07604400729395
 23
-127.6269332649299
 33
0.0
  0
TEXT
  5
6F
330
69
100
AcDbEntity
  8
0
  6
ByBlock
 62
     0
440
 16777216
100
AcDbText
 10
-4.499999999999996
 20
-126.1269332649298
 30
0.0
 40
3.0
  1
110
  7
ROMANS
 72
     1
 11
0.0000000000000036
 21
-124.6269332649299
 31
0.0
100
AcDbText
 73
     2
  0
POINT
  5
70
330
69
100
AcDbEntity
  8
DEFPOINTS
  6
ByBlock
 62
     0
440
 16777216
100
AcDbPoint
 10
-55.07604400729394
 20
-99.99999999999994
 30
0.0
  0
POINT
  5
71
330
69
100
AcDbEntity
  8
DEFPOINTS
  6
ByBlock
 62
     0
440
 16777216
100
AcDbPoint
 10
55.07604400729395
 20
-99.99999999999994
 30
0.0
  0
POINT
  5
72
330
69
100
AcDbEntity
  8
DEFPOINTS
  6
ByBlock
 62
     0
440
 16777216
100
AcDbPoint
 10
55.07604400729395
 20
-127.6269332649299
 30
0.0
  0
ENDBLK
  5
74
330
69
100
AcDbEntity
  8
0
100
AcDbBlockEnd
  0
ENDSEC
  0
SECTION
  2
ENTITIES
  0
LINE
  5
26
330
2
100
AcDbEntity
  8
ANCON-TEXT
 62
     6
100
AcDbLine
 10
391.2774768988637
 20
131.4358114813628
 30
0.0
 11
391.2774768988637
 21
78.33756534727007
 31
0.0
  0
TEXT
  5
28
102
{ACAD_XDICTIONARY
360
163
102
}
330
2
100
AcDbEntity
  8
ANCON-TEXT
 62
     6
100
AcDbText
 10
353.9571828278976
 20
89.11048942536181
 30
0.0
 40
5.0
  1
???
  7
ARIAL
 72
     4
 11
359.78426331903
 21
91.65312244036863
 31
0.0
100
AcDbText
1001
AcadAnnotative
1000
AnnotativeData
1002
{
1070
     1
1070
     1
1002
}
  0
LINE
  5
29
330
2
100
AcDbEntity
  8
ANCON-TEXT
 62
     6
100
AcDbLine
 10
326.4068927640641
 20
131.4358114813628
 30
0.0
 11
326.4068927640641
 21
78.33756534727007
 31
0.0
  0
TEXT
  5
2A
102
{ACAD_XDICTIONARY
360
15F
102
}
330
2
100
AcDbEntity
  8
ANCON-TEXT
 62
     6
100
AcDbText
 10
340.7682333053874
 20
110.5651588663421
 30
0.0
 40
5.0
  1
LOAD ( kN )
  7
ARIAL
 72
     4
 11
359.78426331903
 21
112.3745040232316
 31
0.0
100
AcDbText
1001
AcadAnnotative
1000
AnnotativeData
1002
{
1070
     1
1070
     1
1002
}
  0
TEXT
  5
2B
102
{ACAD_XDICTIONARY
360
15B
102
}
330
2
100
AcDbEntity
  8
ANCON-TEXT
 62
     6
100
AcDbText
 10
331.446950904296
 20
121.1749258189528
 30
0.0
 40
5.0
  1
SERVICEABILITY
  7
ARIAL
 72
     4
 11
359.78426331903
 21
123.6749258189528
 31
0.0
100
AcDbText
1001
AcadAnnotative
1000
AnnotativeData
1002
{
1070
     1
1070
     1
1002
}
  0
LINE
  5
2C
330
2
100
AcDbEntity
  8
SPECD
 62
     6
100
AcDbLine
 10
392.0637747848044
 20
33.39158049367097
 30
0.0
 11
392.0637747848044
 21
-19.64211209187937
 31
0.0
  0
LINE
  5
2E
330
2
100
AcDbEntity
  8
ANCON-TEXT
 62
     6
100
AcDbLine
 10
265.8987992070013
 20
131.4358114813628
 30
0.0
 11
265.8987992070013
 21
78.33756534727007
 31
0.0
  0
TEXT
  5
2F
102
{ACAD_XDICTIONARY
360
157
102
}
330
2
100
AcDbEntity
  8
ANCON-TEXT
 62
     6
100
AcDbText
 10
224.7679195348552
 20
121.1700953218212
 30
0.0
 40
5.0
  1
DSD REF:
  7
ARIAL
 72
     4
 11
241.0673738322631
 21
123.6700953218212
 31
0.0
100
AcDbText
1001
AcadAnnotative
1000
AnnotativeData
1002
{
1070
     1
1070
     1
1002
}
  0
TEXT
  5
30
102
{ACAD_XDICTIONARY
360
153
102
}
330
2
100
AcDbEntity
  8
ANCON-TEXT
 62
     6
100
AcDbText
 10
223.8668008360832
 20
89.30319065319265
 30
0.0
 40
5.0
  1
DSDQ130
  7
ARIAL
 72
     4
 11
239.7842633190299
 21
91.65312244036863
 31
0.0
100
AcDbText
1001
AcadAnnotative
1000
AnnotativeData
1002
{
1070
     1
1070
     1
1002
}
  0
CIRCLE
  5
31
330
2
100
AcDbEntity
  8
ANCON-DSD
100
AcDbCircle
 10
44.99999999999928
 20
90.00000000000005
 30
0.0
 40
2.5
  0
LINE
  5
33
330
2
100
AcDbEntity
  8
DIMS
  6
CENTER2
100
AcDbLine
 10
44.99999999999926
 20
95.50000000000006
 30
0.0
 11
44.99999999999929
 21
84.50000000000006
 31
0.0
  0
LINE
  5
35
330
2
100
AcDbEntity
  8
DIMS
  6
CENTER2
100
AcDbLine
 10
39.49999999999928
 20
90.00000000000007
 30
0.0
 11
50.49999999999928
 21
90.00000000000007
 31
0.0
  0
LINE
  5
36
330
2
100
AcDbEntity
  8
ANCON-TEXT
 62
     6
100
AcDbLine
 10
215.8987992070013
 20
131.4358114813628
 30
0.0
 11
215.8987992070013
 21
78.33756534727007
 31
0.0
  0
CIRCLE
  5
37
330
2
100
AcDbEntity
  8
ANCON-DSD
100
AcDbCircle
 10
-45.00000000000071
 20
90.00000000000005
 30
0.0
 40
2.5
  0
LINE
  5
38
330
2
100
AcDbEntity
  8
DIMS
  6
CENTER2
100
AcDbLine
 10
-45.00000000000073
 20
95.50000000000006
 30
0.0
 11
-45.00000000000069
 21
84.50000000000006
 31
0.0
  0
LINE
  5
39
330
2
100
AcDbEntity
  8
DIMS
  6
CENTER2
100
AcDbLine
 10
-50.50000000000071
 20
90.00000000000007
 30
0.0
 11
-39.50000000000071
 21
90.00000000000007
 31
0.0
  0
LINE
  5
3A
330
2
100
AcDbEntity
  8
ANCON-DSD
100
AcDbLine
 10
55.07604400729395
 20
100.0
 30
0.0
 11
-55.07604400729394
 21
100.0
 31
0.0
  0
LINE
  5
3B
330
2
100
AcDbEntity
  8
DIMS
  6
CENTER2
100
AcDbLine
 10
-23.00000000000059
 20
52.50000000000006
 30
0.0
 11
22.99999999999942
 21
52.50000000000006
 31
0.0
  0
CIRCLE
  5
3C
330
2
100
AcDbEntity
  8
ANCON-DSD
100
AcDbCircle
 10
-0.0000000000005866
 20
52.50000000000007
 30
0.0
 40
20.0
  0
CIRCLE
  5
3D
330
2
100
AcDbEntity
  8
ANCON-DSD
100
AcDbCircle
 10
-0.0000000000005866
 20
52.50000000000007
 30
0.0
 40
18.0
  0
LINE
  5
3E
330
2
100
AcDbEntity
  8
ANCON-DSD
100
AcDbLine
 10
100.0760440072941
 20
8.000000000000056
 30
0.0
 11
100.0760440072941
 21
-7.999999999999943
 31
0.0
  0
LINE
  5
3F
330
2
100
AcDbEntity
  8
DIMS
  6
CENTER2
100
AcDbLine
 10
39.49999999999991
 20
-89.99999999999994
 30
0.0
 11
50.4999999999999
 21
-89.99999999999994
 31
0.0
  0
CIRCLE
  5
40
330
2
100
AcDbEntity
  8
ANCON-DSD
100
AcDbCircle
 10
44.99999999999991
 20
-89.99999999999994
 30
0.0
 40
2.5
  0
LINE
  5
41
330
2
100
AcDbEntity
  8
DIMS
  6
CENTER2
100
AcDbLine
 10
44.99999999999988
 20
-84.49999999999993
 30
0.0
 11
44.99999999999992
 21
-95.49999999999995
 31
0.0
  0
LINE
  5
42
330
2
100
AcDbEntity
  8
ANCON-DSD
100
AcDbLine
 10
55.07604400729395
 20
8.000000000000056
 30
0.0
 11
100.0760440072941
 21
8.000000000000056
 31
0.0
  0
LINE
  5
43
330
2
100
AcDbEntity
  8
ANCON-DSD
100
AcDbLine
 10
55.07604400729395
 20
-7.999999999999943
 30
0.0
 11
100.0760440072941
 21
-7.999999999999943
 31
0.0
  0
LINE
  5
44
330
2
100
AcDbEntity
  8
SPECP
 62
     6
100
AcDbLine
 10
257.1666756009259
 20
62.75809416076476
 30
0.0
 11
257.166675600926
 21
50.84011886876351
 31
0.0
  0
LINE
  5
46
330
2
100
AcDbEntity
  8
SPECP
 62
     6
100
AcDbLine
 10
189.5768246781639
 20
62.75809416076476
 30
0.0
 11
189.5768246781639
 21
50.84011886876351
 31
0.0
  0
LINE
  5
47
330
2
100
AcDbEntity
  8
SPECD
 62
     6
100
AcDbLine
 10
189.5768246781639
 20
33.39158049367097
 30
0.0
 11
189.5768246781639
 21
-19.64211209187937
 31
0.0
  0
TEXT
  5
48
102
{ACAD_XDICTIONARY
360
14F
102
}
330
2
100
AcDbEntity
  8
SPECP
 62
     6
100
AcDbText
 10
197.1997916243424
 20
54.12098404492127
 30
0.0
 40
5.0
  1
STAIFIX DSD ??
  7
ARIAL
 72
     4
 11
223.5947438753655
 21
56.62098404492127
 31
0.0
100
AcDbText
1001
AcadAnnotative
1000
AnnotativeData
1002
{
1070
     1
1070
     1
1002
}
  0
LINE
  5
49
330
2
100
AcDbEntity
  8
SPECP
 62
     6
100
AcDbLine
 10
189.5768246781639
 20
50.84011886876351
 30
0.0
 11
257.166675600926
 21
50.84011886876351
 31
0.0
  0
LINE
  5
4A
330
2
100
AcDbEntity
  8
SPECP
 62
     6
100
AcDbLine
 10
189.5768246781639
 20
62.75809416076476
 30
0.0
 11
257.1666756009259
 21
62.75809416076476
 31
0.0
  0
TEXT
  5
4B
102
{ACAD_XDICTIONARY
360
14B
102
}
330
2
100
AcDbEntity
  8
SPECD
 62
     6
100
AcDbText
 10
200.0983487891675
 20
-15.94076698105109
 30
0.0
 40
5.0
  1
LOAD OF ??? kN
  7
ARIAL
 72
     4
 11
227.4653337823462
 21
-13.43906166045082
 31
0.0
100
AcDbText
1001
AcadAnnotative
1000
AnnotativeData
1002
{
1070
     1
1070
     1
1002
}
  0
LINE
  5
4C
330
2
100
AcDbEntity
  8
DIMS
  6
CENTER2
100
AcDbLine
 10
-50.50000000000008
 20
-89.99999999999994
 30
0.0
 11
-39.50000000000009
 21
-89.99999999999994
 31
0.0
  0
CIRCLE
  5
4D
330
2
100
AcDbEntity
  8
ANCON-DSD
100
AcDbCircle
 10
-45.00000000000008
 20
-89.99999999999992
 30
0.0
 40
2.5
  0
LINE
  5
4E
330
2
100
AcDbEntity
  8
DIMS
  6
CENTER2
100
AcDbLine
 10
-45.00000000000009
 20
-84.49999999999993
 30
0.0
 11
-45.00000000000006
 21
-95.49999999999993
 31
0.0
  0
LINE
  5
4F
330
2
100
AcDbEntity
  8
ANCON-DSD
100
AcDbLine
 10
-100.0760440072941
 20
8.000000000000056
 30
0.0
 11
-100.0760440072941
 21
-7.999999999999943
 31
0.0
  0
LINE
  5
50
330
2
100
AcDbEntity
  8
ANCON-DSD
100
AcDbLine
 10
-100.0760440072941
 20
8.000000000000056
 30
0.0
 11
-55.07604400729394
 21
8.022793999117595
 31
0.0
  0
LINE
  5
51
330
2
100
AcDbEntity
  8
ANCON-DSD
100
AcDbLine
 10
-100.0760440072941
 20
-7.999999999999943
 30
0.0
 11
-55.07604400729394
 21
-7.977206000882404
 31
0.0
  0
LINE
  5
52
330
2
100
AcDbEntity
  8
ANCON-DSD
100
AcDbLine
 10
-55.07604400729394
 20
-99.97720600088241
 30
0.0
 11
55.07604400729395
 21
-99.99999999999994
 31
0.0
  0
DIMENSION
  5
53
330
2
100
AcDbEntity
  8
DIMS
100
AcDbDimension
280
     0
  2
*D0
 10
100.0760440072941
 20
-153.3772292583532
 30
0.0
 11
0.0
 21
-150.3772292583532
 31
0.0
  1
200
 71
     5
 42
-1.0
 73
     0
 74
     0
 75
     0
  3
1-2
100
AcDbAlignedDimension
 13
-100.0760440072941
 23
-7.999999999999943
 33
0.0
 14
100.0760440072941
 24
-7.999999999999943
 34
0.0
100
AcDbRotatedDimension
  0
LINE
  5
61
330
2
100
AcDbEntity
  8
ANCON-DSD
100
AcDbLine
 10
55.07604400729395
 20
-99.99999999999994
 30
0.0
 11
-55.07604400729394
 21
-99.99999999999994
 31
0.0
  0
LINE
  5
62
330
2
100
AcDbEntity
  8
DIMS
  6
CENTER2
100
AcDbLine
 10
-110.0760440072942
 20
0.0000000000000568
 30
0.0
 11
110.0760440072942
 21
0.0000000000000568
 31
0.0
  0
TEXT
  5
63
102
{ACAD_XDICTIONARY
360
147
102
}
330
2
100
AcDbEntity
  8
SPECP
 62
     1
100
AcDbText
 10
64.81051683212864
 20
54.119278724321
 30
0.0
 40
5.0
  1
SPECIFICATION BY PRODUCT
  7
ARIAL
 72
     4
 11
115.456833339632
 21
56.62098404492127
 31
0.0
100
AcDbText
1001
AcadAnnotative
1000
AnnotativeData
1002
{
1070
     1
1070
     1
1002
}
  0
TEXT
  5
64
102
{ACAD_XDICTIONARY
360
143
102
}
330
2
100
AcDbEntity
  8
SPECD
 62
     1
100
AcDbText
 10
64.54503890917521
 20
24.18482425982487
 30
0.0
 40
5.0
  1
SPECIFICATION BY DESCRIPTION
  7
ARIAL
 72
     4
 11
121.7909461397345
 21
26.68652958042514
 31
0.0
100
AcDbText
1001
AcadAnnotative
1000
AnnotativeData
1002
{
1070
     1
1070
     1
1002
}
  0
LINE
  5
65
330
2
100
AcDbEntity
  8
DIMS
  6
CENTER2
100
AcDbLine
 10
-23.00000000000022
 20
-52.49999999999994
 30
0.0
 11
22.99999999999978
 21
-52.49999999999994
 31
0.0
  0
CIRCLE
  5
66
330
2
100
AcDbEntity
  8
ANCON-DSD
100
AcDbCircle
 10
-0.0000000000002202
 20
-52.49999999999995
 30
0.0
 40
20.0
  0
CIRCLE
  5
67
330
2
100
AcDbEntity
  8
ANCON-DSD
100
AcDbCircle
 10
-0.0000000000002202
 20
-52.49999999999995
 30
0.0
 40
18.0
  0
DIMENSION
  5
68
330
2
100
AcDbEntity
  8
DIMS
100
AcDbDimension
280
     0
  2
*D1
 10
55.07604400729395
 20
-127.6269332649299
 30
0.0
 11
0.0000000000000036
 21
-124.6269332649299
 31
0.0
  1
110
 71
     5
 42
-1.0
 73
     0
 74
     0
 75
     0
  3
1-2
100
AcDbAlignedDimension
 13
-55.07604400729394
 23
-99.99999999999994
 33
0.0
 14
55.07604400729395
 24
-99.99999999999994
 34
0.0
100
AcDbRotatedDimension
  0
LINE
  5
75
330
2
100
AcDbEntity
  8
DIMS
  6
CENTER2
100
AcDbLine
 10
-0.0000000000007873
 20
110.0
 30
0.0
 11
-0.0000000000000195
 21
-109.9999999999999
 31
0.0
  0
LINE
  5
76
330
2
100
AcDbEntity
  8
ANCON-DSD
100
AcDbLine
 10
-55.07604400729394
 20
100.0
 30
0.0
 11
-55.07604400729394
 21
-99.99999999999994
 31
0.0
  0
LINE
  5
77
330
2
100
AcDbEntity
  8
ANCON-DSD
100
AcDbLine
 10
55.0760440072944
 20
100.0
 30
0.0
 11
55.07604400729395
 21
-99.99999999999994
 31
0.0
  0
TEXT
  5
78
102
{ACAD_XDICTIONARY
360
13F
102
}
330
2
100
AcDbEntity
  8
ANCON-TEXT
 62
     6
100
AcDbText
 10
285.6294895948876
 20
110.2724719342023
 30
0.0
 40
5.0
  1
WIDTH
  7
ARIAL
 72
     4
 11
297.0738961433188
 21
112.7724719342023
 31
0.0
100
AcDbText
1001
AcadAnnotative
1000
AnnotativeData
1002
{
1070
     1
1070
     1
1002
}
  0
TEXT
  5
79
102
{ACAD_XDICTIONARY
360
13B
102
}
330
2
100
AcDbEntity
  8
ANCON-TEXT
 62
     6
100
AcDbText
 10
289.1106616819222
 20
89.11219474596208
 30
0.0
 40
5.0
  1
?? MM
  7
ARIAL
 72
     4
 11
299.78426331903
 21
91.65312244036863
 31
0.0
100
AcDbText
1001
AcadAnnotative
1000
AnnotativeData
1002
{
1070
     1
1070
     1
1002
}
  0
TEXT
  5
7A
102
{ACAD_XDICTIONARY
360
137
102
}
330
2
100
AcDbEntity
  8
ANCON-TEXT
 62
     6
100
AcDbText
 10
272.6247146972069
 20
121.1683900012209
 30
0.0
 40
5.0
  1
DESIGN JOINT
  7
ARIAL
 72
     4
 11
297.0738961433188
 21
123.6700953218212
 31
0.0
100
AcDbText
1001
AcadAnnotative
1000
AnnotativeData
1002
{
1070
     1
1070
     1
1002
}
  0
LINE
  5
7B
330
2
100
AcDbEntity
  8
ANCON-TEXT
 62
     6
100
AcDbLine
 10
215.8987992070012
 20
131.4358114813629
 30
0.0
 11
391.2774768988637
 21
131.4358114813628
 31
0.0
  0
LINE
  5
7C
330
2
100
AcDbEntity
  8
ANCON-TEXT
 62
     6
100
AcDbLine
 10
215.8987992070013
 20
105.3650504223172
 30
0.0
 11
391.2774768988637
 21
105.3650504223172
 31
0.0
  0
LINE
  5
7D
330
2
100
AcDbEntity
  8
ANCON-TEXT
 62
     6
100
AcDbLine
 10
215.8987992070012
 20
78.33756534727013
 30
0.0
 11
391.2774768988637
 21
78.33756534727007
 31
0.0
  0
TEXT
  5
7E
102
{ACAD_XDICTIONARY
360
133
102
}
330
2
100
AcDbEntity
  8
SPECD
 62
     6
100
AcDbText
 10
198.6204430086975
 20
4.344575573186382
 30
0.0
 40
5.0
  1
SUITABLE FOR A DESIGN JOINT WIDTH OF ?? MM
  7
ARIAL
 72
     4
 11
282.4471824357098
 21
6.846280893786655
 31
0.0
100
AcDbText
1001
AcadAnnotative
1000
AnnotativeData
1002
{
1070
     1
1070
     1
1002
}
  0
LINE
  5
7F
330
2
100
AcDbEntity
  8
SPECD
 62
     6
100
AcDbLine
 10
189.5768246781639
 20
33.39158049367097
 30
0.0
 11
392.0637747848044
 21
33.39158049367097
 31
0.0
  0
LINE
  5
80
330
2
100
AcDbEntity
  8
SPECD
 62
     6
100
AcDbLine
 10
189.5768246781639
 20
-19.64211209187937
 30
0.0
 11
392.0637747848044
 21
-19.64211209187937
 31
0.0
  0
TEXT
  5
81
102
{ACAD_XDICTIONARY
360
12F
102
}
330
2
100
AcDbEntity
  8
SPECD
 62
     6
100
AcDbText
 10
199.6396842544836
 20
-5.90584181608883
 30
0.0
 40
5.0
  1
AND CAPABLE OF TRANSFERRING A SERVICEABILITY
  7
ARIAL
 72
     4
 11
291.0414577879079
 21
-3.404136495488558
 31
0.0
100
AcDbText
1001
AcadAnnotative
1000
AnnotativeData
1002
{
1070
     1
1070
     1
1002
}
  0
TEXT
  5
82
102
{ACAD_XDICTIONARY
360
12B
102
}
330
2
100
AcDbEntity
  8
SPECD
 62
     6
100
AcDbText
 10
198.2620359858805
 20
14.04436330751003
 30
0.0
 40
5.0
  1
COMPRISING SLEEVE AND DOWEL COMPONENT
  7
ARIAL
 72
     4
 11
281.1235639531383
 21
16.5460686281103
 31
0.0
100
AcDbText
1001
AcadAnnotative
1000
AnnotativeData
1002
{
1070
     1
1070
     1
1002
}
  0
TEXT
  5
83
102
{ACAD_XDICTIONARY
360
127
102
}
330
2
100
AcDbEntity
  8
SPECD
 62
     6
100
AcDbText
 10
199.3559547517103
 20
24.14907563330062
 30
0.0
 40
5.0
  1
TWO PART STAINLESS STEEL SHEAR CONNECTOR
  7
ARIAL
 72
     4
 11
286.4876055020513
 21
26.65078095390089
 31
0.0
100
AcDbText
1001
AcadAnnotative
1000
AnnotativeData
1002
{
1070
     1
1070
     1
1002
}
  0
MTEXT
  5
E4
330
2
100
AcDbEntity
  8
ANCON-TEXT
100
AcDbMText
 10
284.8022112755614
 20
-115.4503017204474
 30
0.0
 40
6.695252439800889
 41
160.2376420553701
 46
0.0
 71
     1
 72
     5
  1
{\fArial|b0|i0|c0|p34;Leviat \PTel:  1300 304 320\PEmail: technical.au@leviat.com\PWeb: ancon.com.au / Leviat.com}
 73
     1
 44
1.0
101
Embedded Object
 70
     1
 10
1.0
 20
0.0
 30
0.0
 11
284.8022112755614
 21
-115.4503017204474
 31
0.0
 40
160.2376420553701
 41
0.0
 42
135.4898050010729
 43
40.5505773622047
 71
     2
 72
     1
 44
160.2376420553701
 45
0.8369065549751111
 73
     0
 74
     0
 46
0.0
  0
LWPOLYLINE
  5
E5
330
2
100
AcDbEntity
  8
DIMS
 62
     0
100
AcDbPolyline
 90
        4
 70
     1
 43
0.0
 10
-144.831702091014
 20
152.9917228790457
 10
431.1915154118296
 20
152.9917228790457
 10
431.1915154118296
 20
-165.5489949863763
 10
-144.831702091014
 20
-165.5489949863763
  0
ENDSEC
  0
SECTION
  2
OBJECTS
  0
DICTIONARY
  5
7
330
0
100
AcDbDictionary
281
     1
  3
ACAD_CIP_PREVIOUS_PRODUCT_INFO
350
D6
  3
ACAD_COLOR
350
B8
  3
ACAD_DETAILVIEWSTYLE
350
D1
  3
ACAD_GROUP
350
1F
  3
ACAD_LAYOUT
350
B
  3
ACAD_MATERIAL
350
86
  3
ACAD_MLEADERSTYLE
350
CD
  3
ACAD_MLINESTYLE
350
20
  3
ACAD_PLOTSETTINGS
350
21
  3
ACAD_PLOTSTYLENAME
350
6
  3
ACAD_SCALELIST
350
BB
  3
ACAD_SECTIONVIEWSTYLE
350
CF
  3
ACAD_TABLESTYLE
350
B9
  3
ACAD_VISUALSTYLE
350
9F
  3
ACDB_RECOMPOSE_DATA
350
18A
  3
AcDbVariableDictionary
350
17E
  0
DICTIONARY
  5
DA
330
10
100
AcDbDictionary
280
     1
281
     1
  3
ACAD_LAYERSTATES
360
DB
  0
DICTIONARY
  5
171
330
4
100
AcDbDictionary
280
     1
281
     1
  3
ADSK_XREC_LAYER_RECONCILED
360
172
  0
DICTIONARY
  5
173
330
22
100
AcDbDictionary
280
     1
281
     1
  3
ADSK_XREC_LAYER_RECONCILED
360
174
  0
DICTIONARY
  5
175
330
32
100
AcDbDictionary
280
     1
281
     1
  3
ADSK_XREC_LAYER_RECONCILED
360
176
  0
DICTIONARY
  5
177
330
27
100
AcDbDictionary
280
     1
281
     1
  3
ADSK_XREC_LAYER_RECONCILED
360
178
  0
DICTIONARY
  5
179
330
45
100
AcDbDictionary
280
     1
281
     1
  3
ADSK_XREC_LAYER_RECONCILED
360
17A
  0
DICTIONARY
  5
17B
330
2D
100
AcDbDictionary
280
     1
281
     1
  3
ADSK_XREC_LAYER_RECONCILED
360
17C
  0
DICTIONARY
  5
D8
330
D7
100
AcDbDictionary
280
     1
281
     1
  3
ADSK_XREC_LAYER_RECONCILED
360
17D
  0
DICTIONARY
  5
163
330
28
100
AcDbDictionary
280
     1
281
     1
  3
AcDbContextDataManager
360
164
  0
DICTIONARY
  5
15F
330
2A
100
AcDbDictionary
280
     1
281
     1
  3
AcDbContextDataManager
360
160
  0
DICTIONARY
  5
15B
330
2B
100
AcDbDictionary
280
     1
281
     1
  3
AcDbContextDataManager
360
15C
  0
DICTIONARY
  5
157
330
2F
100
AcDbDictionary
280
     1
281
     1
  3
AcDbContextDataManager
360
158
  0
DICTIONARY
  5
153
330
30
100
AcDbDictionary
280
     1
281
     1
  3
AcDbContextDataManager
360
154
  0
DICTIONARY
  5
14F
330
48
100
AcDbDictionary
280
     1
281
     1
  3
AcDbContextDataManager
360
150
  0
DICTIONARY
  5
14B
330
4B
100
AcDbDictionary
280
     1
281
     1
  3
AcDbContextDataManager
360
14C
  0
DICTIONARY
  5
147
330
63
100
AcDbDictionary
280
     1
281
     1
  3
AcDbContextDataManager
360
148
  0
DICTIONARY
  5
143
330
64
100
AcDbDictionary
280
     1
281
     1
  3
AcDbContextDataManager
360
144
  0
DICTIONARY
  5
13F
330
78
100
AcDbDictionary
280
     1
281
     1
  3
AcDbContextDataManager
360
140
  0
DICTIONARY
  5
13B
330
79
100
AcDbDictionary
280
     1
281
     1
  3
AcDbContextDataManager
360
13C
  0
DICTIONARY
  5
137
330
7A
100
AcDbDictionary
280
     1
281
     1
  3
AcDbContextDataManager
360
138
  0
DICTIONARY
  5
133
330
7E
100
AcDbDictionary
280
     1
281
     1
  3
AcDbContextDataManager
360
134
  0
DICTIONARY
  5
12F
330
81
100
AcDbDictionary
280
     1
281
     1
  3
AcDbContextDataManager
360
130
  0
DICTIONARY
  5
12B
330
82
100
AcDbDictionary
280
     1
281
     1
  3
AcDbContextDataManager
360
12C
  0
DICTIONARY
  5
127
330
83
100
AcDbDictionary
280
     1
281
     1
  3
AcDbContextDataManager
360
128
  0
XRECORD
  5
D6
102
{ACAD_REACTORS
330
7
102
}
330
7
100
AcDbXrecord
280
     1
300
ACDLT
300
2020
300

  0
DICTIONARY
  5
B8
102
{ACAD_REACTORS
330
7
102
}
330
7
100
AcDbDictionary
281
     1
  0
DICTIONARY
  5
D1
102
{ACAD_REACTORS
330
7
102
}
330
7
100
AcDbDictionary
281
     1
  3
Imperial24
350
D2
  0
DICTIONARY
  5
1F
102
{ACAD_REACTORS
330
7
102
}
330
7
100
AcDbDictionary
281
     1
  0
DICTIONARY
  5
B
102
{ACAD_REACTORS
330
7
102
}
330
7
100
AcDbDictionary
281
     1
  3
Layout1
350
F
  3
Model
350
A
  0
DICTIONARY
  5
86
102
{ACAD_REACTORS
330
7
102
}
330
7
100
AcDbDictionary
281
     1
  3
ByBlock
350
8F
  3
ByLayer
350
87
  3
Global
350
97
  0
DICTIONARY
  5
CD
102
{ACAD_REACTORS
330
7
102
}
330
7
100
AcDbDictionary
281
     1
  3
Standard
350
CE
  0
DICTIONARY
  5
20
102
{ACAD_REACTORS
330
7
102
}
330
7
100
AcDbDictionary
281
     1
  3
STANDARD
350
24
  0
DICTIONARY
  5
21
102
{ACAD_REACTORS
330
7
102
}
330
7
100
AcDbDictionary
281
     1
  0
ACDBDICTIONARYWDFLT
  5
6
102
{ACAD_REACTORS
330
7
102
}
330
7
100
AcDbDictionary
281
     1
  3
Normal
350
5
100
AcDbDictionaryWithDefault
340
5
  0
DICTIONARY
  5
BB
102
{ACAD_REACTORS
330
7
102
}
330
7
100
AcDbDictionary
281
     1
  3
A0
350
BC
  3
A1
350
BD
  3
A2
350
BE
  3
A3
350
BF
  3
A4
350
C0
  3
A5
350
C1
  3
A6
350
C2
  3
A7
350
C3
  3
A8
350
C4
  3
A9
350
C5
  3
B0
350
C6
  3
B1
350
C7
  3
B2
350
C8
  3
B3
350
C9
  3
B4
350
CA
  3
B5
350
CB
  3
B6
350
CC
  0
DICTIONARY
  5
CF
102
{ACAD_REACTORS
330
7
102
}
330
7
100
AcDbDictionary
281
     1
  3
Imperial24
350
D0
  0
DICTIONARY
  5
B9
102
{ACAD_REACTORS
330
7
102
}
330
7
100
AcDbDictionary
281
     1
  3
Standard
350
BA
  0
DICTIONARY
  5
9F
102
{ACAD_REACTORS
330
7
102
}
330
7
100
AcDbDictionary
281
     1
  3
2dWireframe
350
A5
  3
Basic
350
A4
  3
Brighten
350
AB
  3
ColorChange
350
AF
  3
Conceptual
350
A8
  3
Dim
350
AA
  3
EdgeColorOff
350
B7
  3
Facepattern
350
AE
  3
Flat
350
A0
  3
FlatWithEdges
350
A1
  3
Gouraud
350
A2
  3
GouraudWithEdges
350
A3
  3
Hidden
350
A7
  3
JitterOff
350
B5
  3
Linepattern
350
AD
  3
OverhangOff
350
B6
  3
Realistic
350
A9
  3
Shaded
350
B4
  3
Shaded with edges
350
B3
  3
Shades of Gray
350
B0
  3
Sketchy
350
B1
  3
Thicken
350
AC
  3
Wireframe
350
A6
  3
X-Ray
350
B2
  0
XRECORD
  5
18A
102
{ACAD_REACTORS
330
7
102
}
330
7
100
AcDbXrecord
280
     1
 90
        1
330
BA
  0
DICTIONARY
  5
17E
102
{ACAD_REACTORS
330
7
102
}
330
7
100
AcDbDictionary
281
     1
  3
CANNOSCALE
350
184
  3
CMLEADERSTYLE
350
180
  3
CTABLESTYLE
350
17F
  3
CVIEWDETAILSTYLE
350
181
  3
CVIEWSECTIONSTYLE
350
182
  3
LAYEREVAL
350
186
  3
LAYERNOTIFY
350
187
  3
LIGHTINGUNITS
350
185
  3
MSLTSCALE
350
183
  0
DICTIONARY
  5
DB
102
{ACAD_REACTORS
330
DA
102
}
330
DA
100
AcDbDictionary
281
     1
  0
XRECORD
  5
172
102
{ACAD_REACTORS
330
171
102
}
330
171
100
AcDbXrecord
280
     1
290
     1
  0
XRECORD
  5
174
102
{ACAD_REACTORS
330
173
102
}
330
173
100
AcDbXrecord
280
     1
290
     1
  0
XRECORD
  5
176
102
{ACAD_REACTORS
330
175
102
}
330
175
100
AcDbXrecord
280
     1
290
     1
  0
XRECORD
  5
178
102
{ACAD_REACTORS
330
177
102
}
330
177
100
AcDbXrecord
280
     1
290
     1
  0
XRECORD
  5
17A
102
{ACAD_REACTORS
330
179
102
}
330
179
100
AcDbXrecord
280
     1
290
     1
  0
XRECORD
  5
17C
102
{ACAD_REACTORS
330
17B
102
}
330
17B
100
AcDbXrecord
280
     1
290
     1
  0
XRECORD
  5
17D
102
{ACAD_REACTORS
330
D8
102
}
330
D8
100
AcDbXrecord
280
     1
290
     1
  0
DICTIONARY
  5
164
102
{ACAD_REACTORS
330
163
102
}
330
163
100
AcDbDictionary
281
     1
  3
ACDB_ANNOTATIONSCALES
350
165
  0
DICTIONARY
  5
160
102
{ACAD_REACTORS
330
15F
102
}
330
15F
100
AcDbDictionary
281
     1
  3
ACDB_ANNOTATIONSCALES
350
161
  0
DICTIONARY
  5
15C
102
{ACAD_REACTORS
330
15B
102
}
330
15B
100
AcDbDictionary
281
     1
  3
ACDB_ANNOTATIONSCALES
350
15D
  0
DICTIONARY
  5
158
102
{ACAD_REACTORS
330
157
102
}
330
157
100
AcDbDictionary
281
     1
  3
ACDB_ANNOTATIONSCALES
350
159
  0
DICTIONARY
  5
154
102
{ACAD_REACTORS
330
153
102
}
330
153
100
AcDbDictionary
281
     1
  3
ACDB_ANNOTATIONSCALES
350
155
  0
DICTIONARY
  5
150
102
{ACAD_REACTORS
330
14F
102
}
330
14F
100
AcDbDictionary
281
     1
  3
ACDB_ANNOTATIONSCALES
350
151
  0
DICTIONARY
  5
14C
102
{ACAD_REACTORS
330
14B
102
}
330
14B
100
AcDbDictionary
281
     1
  3
ACDB_ANNOTATIONSCALES
350
14D
  0
DICTIONARY
  5
148
102
{ACAD_REACTORS
330
147
102
}
330
147
100
AcDbDictionary
281
     1
  3
ACDB_ANNOTATIONSCALES
350
149
  0
DICTIONARY
  5
144
102
{ACAD_REACTORS
330
143
102
}
330
143
100
AcDbDictionary
281
     1
  3
ACDB_ANNOTATIONSCALES
350
145
  0
DICTIONARY
  5
140
102
{ACAD_REACTORS
330
13F
102
}
330
13F
100
AcDbDictionary
281
     1
  3
ACDB_ANNOTATIONSCALES
350
141
  0
DICTIONARY
  5
13C
102
{ACAD_REACTORS
330
13B
102
}
330
13B
100
AcDbDictionary
281
     1
  3
ACDB_ANNOTATIONSCALES
350
13D
  0
DICTIONARY
  5
138
102
{ACAD_REACTORS
330
137
102
}
330
137
100
AcDbDictionary
281
     1
  3
ACDB_ANNOTATIONSCALES
350
139
  0
DICTIONARY
  5
134
102
{ACAD_REACTORS
330
133
102
}
330
133
100
AcDbDictionary
281
     1
  3
ACDB_ANNOTATIONSCALES
350
135
  0
DICTIONARY
  5
130
102
{ACAD_REACTORS
330
12F
102
}
330
12F
100
AcDbDictionary
281
     1
  3
ACDB_ANNOTATIONSCALES
350
131
  0
DICTIONARY
  5
12C
102
{ACAD_REACTORS
330
12B
102
}
330
12B
100
AcDbDictionary
281
     1
  3
ACDB_ANNOTATIONSCALES
350
12D
  0
DICTIONARY
  5
128
102
{ACAD_REACTORS
330
127
102
}
330
127
100
AcDbDictionary
281
     1
  3
ACDB_ANNOTATIONSCALES
350
129
  0
ACDBDETAILVIEWSTYLE
  5
D2
102
{ACAD_REACTORS
330
D1
102
}
330
D1
100
AcDbModelDocViewStyle
 70
     0
  3
Imperial24
290
     1
300
Imperial24
 90
        0
100
AcDbDetailViewStyle
 70
     0
 71
     0
 90
        3
 71
     1
340
12
 62
   256
 40
0.24
340
0
 62
   256
 40
0.24
300

 40
0.36
280
     3
 71
     2
340
8
 90
       25
 62
   256
 71
     3
340
12
 62
   256
 40
0.24
 90
        1
 40
0.75
 90
        1
300
%<\AcVar ViewType \f "%tc1">% %<\AcVar ViewDetailId>%\PSCALE %<\AcVar ViewScale \f "%sn">%
 71
     4
340
8
 90
       25
 62
   256
340
8
 90
       25
 62
   256
280
     0
  0
LAYOUT
  5
F
102
{ACAD_REACTORS
330
B
102
}
330
B
100
AcDbPlotSettings
  1

  2
Ancon 2
  4

  6

 40
0.0
 41
0.0
 42
0.0
 43
0.0
 44
0.0
 45
0.0
 46
0.0
 47
0.0
 48
0.0
 49
0.0
140
0.0
141
0.0
142
1.0
143
1.0
 70
   688
 72
     0
 73
     0
 74
     5
  7

 75
    16
147
1.0
 76
     0
 77
     2
 78
   300
148
0.0
149
0.0
100
AcDbLayout
  1
Layout1
 70
     1
 71
     1
 10
0.0
 20
0.0
 11
420.0
 21
297.0
 12
0.0
 22
0.0
 32
0.0
 14
1.000000000000000E+20
 24
1.000000000000000E+20
 34
1.000000000000000E+20
 15
-1.000000000000000E+20
 25
-1.000000000000000E+20
 35
-1.000000000000000E+20
146
0.0
 13
0.0
 23
0.0
 33
0.0
 16
1.0
 26
0.0
 36
0.0
 17
0.0
 27
1.0
 37
0.0
 76
     0
330
C
  0
LAYOUT
  5
A
102
{ACAD_REACTORS
330
B
102
}
330
B
100
AcDbPlotSettings
  1

  2
Ancon 2
  4

  6

 40
0.0
 41
0.0
 42
0.0
 43
0.0
 44
0.0
 45
0.0
 46
0.0
 47
0.0
 48
0.0
 49
0.0
140
0.0
141
0.0
142
1.0
143
1.0
 70
  1712
 72
     0
 73
     0
 74
     0
  7

 75
     0
147
1.0
 76
     0
 77
     2
 78
   300
148
0.0
149
0.0
100
AcDbLayout
  1
Model
 70
     1
 71
     0
 10
0.0
 20
0.0
 11
12.0
 21
9.0
 12
0.0
 22
0.0
 32
0.0
 14
0.0
 24
0.0
 34
0.0
 15
0.0
 25
0.0
 35
0.0
146
0.0
 13
0.0
 23
0.0
 33
0.0
 16
1.0
 26
0.0
 36
0.0
 17
0.0
 27
1.0
 37
0.0
 76
     0
330
2
331
1A
  0
MATERIAL
  5
8F
102
{ACAD_XDICTIONARY
360
90
102
}
102
{ACAD_REACTORS
330
86
102
}
330
86
100
AcDbMaterial
  1
ByBlock
 72
     0
 43
0.0208333333333333
 43
0.0
 43
0.0
 43
0.0
 43
0.0
 43
0.0208333333333333
 43
0.0
 43
0.0
 43
0.0
 43
0.0
 43
1.0
 43
0.0
 43
0.0
 43
0.0
 43
0.0
 43
1.0
 77
     0
 47
0.0208333333333333
 47
0.0
 47
0.0
 47
0.0
 47
0.0
 47
0.0208333333333333
 47
0.0
 47
0.0
 47
0.0
 47
0.0
 47
1.0
 47
0.0
 47
0.0
 47
0.0
 47
0.0
 47
1.0
171
     0
 49
0.0208333333333333
 49
0.0
 49
0.0
 49
0.0
 49
0.0
 49
0.0208333333333333
 49
0.0
 49
0.0
 49
0.0
 49
0.0
 49
1.0
 49
0.0
 49
0.0
 49
0.0
 49
0.0
 49
1.0
175
     0
142
0.0208333333333333
142
0.0
142
0.0
142
0.0
142
0.0
142
0.0208333333333333
142
0.0
142
0.0
142
0.0
142
0.0
142
1.0
142
0.0
142
0.0
142
0.0
142
0.0
142
1.0
179
     0
144
0.0208333333333333
144
0.0
144
0.0
144
0.0
144
0.0
144
0.0208333333333333
144
0.0
144
0.0
144
0.0
144
0.0
144
1.0
144
0.0
144
0.0
144
0.0
144
0.0
144
1.0
147
0.0208333333333333
147
0.0
147
0.0
147
0.0
147
0.0
147
0.0208333333333333
147
0.0
147
0.0
147
0.0
147
0.0
147
1.0
147
0.0
147
0.0
147
0.0
147
0.0
147
1.0
  0
MATERIAL
  5
87
102
{ACAD_XDICTIONARY
360
88
102
}
102
{ACAD_REACTORS
330
86
102
}
330
86
100
AcDbMaterial
  1
ByLayer
 72
     0
 43
0.0208333333333333
 43
0.0
 43
0.0
 43
0.0
 43
0.0
 43
0.0208333333333333
 43
0.0
 43
0.0
 43
0.0
 43
0.0
 43
1.0
 43
0.0
 43
0.0
 43
0.0
 43
0.0
 43
1.0
 77
     0
 47
0.0208333333333333
 47
0.0
 47
0.0
 47
0.0
 47
0.0
 47
0.0208333333333333
 47
0.0
 47
0.0
 47
0.0
 47
0.0
 47
1.0
 47
0.0
 47
0.0
 47
0.0
 47
0.0
 47
1.0
171
     0
 49
0.0208333333333333
 49
0.0
 49
0.0
 49
0.0
 49
0.0
 49
0.0208333333333333
 49
0.0
 49
0.0
 49
0.0
 49
0.0
 49
1.0
 49
0.0
 49
0.0
 49
0.0
 49
0.0
 49
1.0
175
     0
142
0.0208333333333333
142
0.0
142
0.0
142
0.0
142
0.0
142
0.0208333333333333
142
0.0
142
0.0
142
0.0
142
0.0
142
1.0
142
0.0
142
0.0
142
0.0
142
0.0
142
1.0
179
     0
144
0.0208333333333333
144
0.0
144
0.0
144
0.0
144
0.0
144
0.0208333333333333
144
0.0
144
0.0
144
0.0
144
0.0
144
1.0
144
0.0
144
0.0
144
0.0
144
0.0
144
1.0
147
0.0208333333333333
147
0.0
147
0.0
147
0.0
147
0.0
147
0.0208333333333333
147
0.0
147
0.0
147
0.0
147
0.0
147
1.0
147
0.0
147
0.0
147
0.0
147
0.0
147
1.0
  0
MATERIAL
  5
97
102
{ACAD_XDICTIONARY
360
98
102
}
102
{ACAD_REACTORS
330
86
102
}
330
86
100
AcDbMaterial
  1
Global
 72
     0
 43
0.0208333333333333
 43
0.0
 43
0.0
 43
0.0
 43
0.0
 43
0.0208333333333333
 43
0.0
 43
0.0
 43
0.0
 43
0.0
 43
1.0
 43
0.0
 43
0.0
 43
0.0
 43
0.0
 43
1.0
 77
     0
 47
0.0208333333333333
 47
0.0
 47
0.0
 47
0.0
 47
0.0
 47
0.0208333333333333
 47
0.0
 47
0.0
 47
0.0
 47
0.0
 47
1.0
 47
0.0
 47
0.0
 47
0.0
 47
0.0
 47
1.0
171
     0
 49
0.0208333333333333
 49
0.0
 49
0.0
 49
0.0
 49
0.0
 49
0.0208333333333333
 49
0.0
 49
0.0
 49
0.0
 49
0.0
 49
1.0
 49
0.0
 49
0.0
 49
0.0
 49
0.0
 49
1.0
175
     0
142
0.0208333333333333
142
0.0
142
0.0
142
0.0
142
0.0
142
0.0208333333333333
142
0.0
142
0.0
142
0.0
142
0.0
142
1.0
142
0.0
142
0.0
142
0.0
142
0.0
142
1.0
179
     0
144
0.0208333333333333
144
0.0
144
0.0
144
0.0
144
0.0
144
0.0208333333333333
144
0.0
144
0.0
144
0.0
144
0.0
144
1.0
144
0.0
144
0.0
144
0.0
144
0.0
144
1.0
147
0.0208333333333333
147
0.0
147
0.0
147
0.0
147
0.0
147
0.0208333333333333
147
0.0
147
0.0
147
0.0
147
0.0
147
1.0
147
0.0
147
0.0
147
0.0
147
0.0
147
1.0
  0
MLEADERSTYLE
  5
CE
102
{ACAD_REACTORS
330
CD
102
}
330
CD
100
AcDbMLeaderStyle
179
     2
170
     2
171
     1
172
     0
 90
        2
 40
0.0
 41
0.0
173
     1
 91
-1056964608
340
15
 92
       -2
290
     1
 42
0.09
291
     1
 43
0.36
  3
Standard
 44
0.18
300

342
12
174
     1
178
     6
175
     1
176
     0
 93
-1056964608
 45
0.18
292
     0
297
     0
 46
0.18
 94
-1056964608
 47
1.0
 49
1.0
140
1.0
293
     1
141
0.0
294
     1
177
     0
142
1.0
295
     1
296
     0
143
0.125
271
     0
272
     9
273
     9
298
     1
  0
MLINESTYLE
  5
24
102
{ACAD_REACTORS
330
20
102
}
330
20
100
AcDbMlineStyle
  2
STANDARD
 70
     0
  3

 62
   256
 51
90.0
 52
90.0
 71
     2
 49
0.5
 62
   256
  6
BYLAYER
 49
-0.5
 62
   256
  6
BYLAYER
  0
ACDBPLACEHOLDER
  5
5
102
{ACAD_REACTORS
330
6
102
}
330
6
  0
SCALE
  5
BC
102
{ACAD_REACTORS
330
BB
102
}
330
BB
100
AcDbScale
 70
     0
300
1:1
140
1.0
141
1.0
290
     1
  0
SCALE
  5
BD
102
{ACAD_REACTORS
330
BB
102
}
330
BB
100
AcDbScale
 70
     0
300
1/128" = 1'-0"
140
0.0078125
141
12.0
290
     0
  0
SCALE
  5
BE
102
{ACAD_REACTORS
330
BB
102
}
330
BB
100
AcDbScale
 70
     0
300
1/64" = 1'-0"
140
0.015625
141
12.0
290
     0
  0
SCALE
  5
BF
102
{ACAD_REACTORS
330
BB
102
}
330
BB
100
AcDbScale
 70
     0
300
1/32" = 1'-0"
140
0.03125
141
12.0
290
     0
  0
SCALE
  5
C0
102
{ACAD_REACTORS
330
BB
102
}
330
BB
100
AcDbScale
 70
     0
300
1/16" = 1'-0"
140
0.0625
141
12.0
290
     0
  0
SCALE
  5
C1
102
{ACAD_REACTORS
330
BB
102
}
330
BB
100
AcDbScale
 70
     0
300
3/32" = 1'-0"
140
0.09375
141
12.0
290
     0
  0
SCALE
  5
C2
102
{ACAD_REACTORS
330
BB
102
}
330
BB
100
AcDbScale
 70
     0
300
1/8" = 1'-0"
140
0.125
141
12.0
290
     0
  0
SCALE
  5
C3
102
{ACAD_REACTORS
330
BB
102
}
330
BB
100
AcDbScale
 70
     0
300
3/16" = 1'-0"
140
0.1875
141
12.0
290
     0
  0
SCALE
  5
C4
102
{ACAD_REACTORS
330
BB
102
}
330
BB
100
AcDbScale
 70
     0
300
1/4" = 1'-0"
140
0.25
141
12.0
290
     0
  0
SCALE
  5
C5
102
{ACAD_REACTORS
330
BB
102
}
330
BB
100
AcDbScale
 70
     0
300
3/8" = 1'-0"
140
0.375
141
12.0
290
     0
  0
SCALE
  5
C6
102
{ACAD_REACTORS
330
BB
102
}
330
BB
100
AcDbScale
 70
     0
300
1/2" = 1'-0"
140
0.5
141
12.0
290
     0
  0
SCALE
  5
C7
102
{ACAD_REACTORS
330
BB
102
}
330
BB
100
AcDbScale
 70
     0
300
3/4" = 1'-0"
140
0.75
141
12.0
290
     0
  0
SCALE
  5
C8
102
{ACAD_REACTORS
330
BB
102
}
330
BB
100
AcDbScale
 70
     0
300
1" = 1'-0"
140
1.0
141
12.0
290
     0
  0
SCALE
  5
C9
102
{ACAD_REACTORS
330
BB
102
}
330
BB
100
AcDbScale
 70
     0
300
1-1/2" = 1'-0"
140
1.5
141
12.0
290
     0
  0
SCALE
  5
CA
102
{ACAD_REACTORS
330
BB
102
}
330
BB
100
AcDbScale
 70
     0
300
3" = 1'-0"
140
3.0
141
12.0
290
     0
  0
SCALE
  5
CB
102
{ACAD_REACTORS
330
BB
102
}
330
BB
100
AcDbScale
 70
     0
300
6" = 1'-0"
140
6.0
141
12.0
290
     0
  0
SCALE
  5
CC
102
{ACAD_REACTORS
330
BB
102
}
330
BB
100
AcDbScale
 70
     0
300
1'-0" = 1'-0"
140
12.0
141
12.0
290
     0
  0
ACDBSECTIONVIEWSTYLE
  5
D0
102
{ACAD_REACTORS
330
CF
102
}
330
CF
100
AcDbModelDocViewStyle
 70
     0
  3
Imperial24
290
     1
300
Imperial24
 90
        0
100
AcDbSectionViewStyle
 70
     0
 71
     0
 90
       78
 71
     1
340
12
 62
   256
 40
0.24
340
0
340
0
 62
   256
 40
0.24
300
I, O, Q, S, X, Z
 40
0.48
 90
        3
 40
0.18
 90
        1
 71
     2
340
8
 90
       25
 62
   256
340
8
 90
       50
 62
   256
 40
0.24
 40
0.0
 40
0.24
 71
     3
340
12
 62
   256
 40
0.24
 90
        1
 40
0.75
 90
        1
300
%<\AcVar ViewType \f "%tc1">% %<\AcVar ViewSectionStartId>%-%<\AcVar ViewSectionEndId>%\PSCALE %<\AcVar ViewScale \f "%sn">%
 71
     4
 62
   256
 62
   257
300
ANSI31
 40
1.0
 90
        0
290
     0
290
     0
 90
        6
 40
0.0
 40
1.570796326794896
 40
0.2617993877991494
 40
1.308996938995747
 40
-0.2617993877991494
 40
1.832595714594046
  0
TABLESTYLE
  5
BA
102
{ACAD_XDICTIONARY
360
188
102
}
102
{ACAD_REACTORS
330
B9
102
}
330
B9
100
AcDbTableStyle
280
     0
  3
Standard
 70
     0
 71
     0
 40
0.06
 41
0.06
280
     0
281
     0
  7
STANDARD
140
0.18
170
     2
 62
     0
 63
     7
283
     0
 90
      512
 91
        0
  1

274
    -2
284
     1
 64
     0
275
    -2
285
     1
 65
     0
276
    -2
286
     1
 66
     0
277
    -2
287
     1
 67
     0
278
    -2
288
     1
 68
     0
279
    -2
289
     1
 69
     0
  7
STANDARD
140
0.25
170
     5
 62
     0
 63
     7
283
     0
 90
      512
 91
        0
  1

274
    -2
284
     1
 64
     0
275
    -2
285
     1
 65
     0
276
    -2
286
     1
 66
     0
277
    -2
287
     1
 67
     0
278
    -2
288
     1
 68
     0
279
    -2
289
     1
 69
     0
  7
STANDARD
140
0.18
170
     5
 62
     0
 63
     7
283
     0
 90
      512
 91
        0
  1

274
    -2
284
     1
 64
     0
275
    -2
285
     1
 65
     0
276
    -2
286
     1
 66
     0
277
    -2
287
     1
 67
     0
278
    -2
288
     1
 68
     0
279
    -2
289
     1
 69
     0
  0
VISUALSTYLE
  5
A5
102
{ACAD_REACTORS
330
9F
102
}
330
9F
100
AcDbVisualStyle
  2
2dWireframe
 70
     4
177
     3
291
     0
 70
    58
 90
        0
176
     1
 90
        2
176
     1
 90
        0
176
     1
 90
        0
176
     1
 40
0.6
176
     1
 40
30.0
176
     1
 62
     7
420
 16777215
176
     1
 90
        1
176
     1
 90
        4
176
     1
 62
     7
176
     1
 62
   257
176
     1
 90
        1
176
     1
 90
        1
176
     1
 40
1.0
176
     1
 90
        0
176
     1
 62
   257
176
     1
 40
1.0
176
     1
 90
        1
176
     1
 90
        6
176
     1
 90
        2
176
     1
 62
     7
176
     1
 90
        5
176
     1
 90
        0
176
     1
 90
        0
176
     1
290
     0
176
     1
 90
        1
176
     1
 40
0.0
176
     1
 90
        0
176
     1
290
     1
176
     1
290
     1
176
     1
290
     0
176
     1
290
     0
176
     1
290
     0
176
     1
290
     0
176
     1
290
     0
176
     1
290
     0
176
     1
290
     0
176
     1
 90
       50
176
     1
 40
0.0
176
     1
 40
1.0
176
     1
 90
        0
176
     1
 62
    18
420
        0
176
     1
 90
       50
176
     1
 90
        3
176
     1
 62
     5
420
      255
176
     1
290
     0
176
     1
 90
       50
176
     1
 90
       50
176
     1
 90
       50
176
     1
290
     0
176
     1
 90
       50
176
     1
 62
   256
176
     0
 40
1.0
176
     0
 90
        2
176
     1
  1
strokes_ogs.tif
176
     1
290
     0
176
     1
 40
1.0
176
     1
 40
1.0
176
     1
  0
VISUALSTYLE
  5
A4
102
{ACAD_REACTORS
330
9F
102
}
330
9F
100
AcDbVisualStyle
  2
Basic
 70
     7
177
     3
291
     1
 70
    58
 90
        1
176
     1
 90
        0
176
     1
 90
        1
176
     1
 90
        0
176
     1
 40
0.6
176
     1
 40
30.0
176
     1
 62
     7
420
 16777215
176
     1
 90
        0
176
     1
 90
        4
176
     1
 62
     7
176
     1
 62
   257
176
     1
 90
        1
176
     1
 90
        1
176
     1
 40
1.0
176
     1
 90
        8
176
     1
 62
     7
176
     1
 40
1.0
176
     1
 90
        1
176
     1
 90
        6
176
     1
 90
        2
176
     1
 62
     7
176
     1
 90
        5
176
     1
 90
        0
176
     1
 90
        0
176
     1
290
     0
176
     1
 90
        1
176
     1
 40
0.0
176
     1
 90
        0
176
     1
290
     0
176
     1
290
     1
176
     1
290
     1
176
     1
290
     0
176
     1
290
     0
176
     1
290
     0
176
     1
290
     0
176
     1
290
     0
176
     1
290
     0
176
     1
 90
       50
176
     1
 40
0.0
176
     1
 40
1.0
176
     1
 90
        0
176
     1
 62
    18
420
        0
176
     1
 90
       50
176
     1
 90
        3
176
     1
 62
     5
420
      255
176
     1
290
     0
176
     1
 90
       50
176
     1
 90
       50
176
     1
 90
       50
176
     1
290
     0
176
     1
 90
       50
176
     1
 62
   256
176
     0
 40
1.0
176
     0
 90
        2
176
     1
  1
strokes_ogs.tif
176
     1
290
     0
176
     1
 40
1.0
176
     1
 40
1.0
176
     1
  0
VISUALSTYLE
  5
AB
102
{ACAD_REACTORS
330
9F
102
}
330
9F
100
AcDbVisualStyle
  2
Brighten
 70
    12
177
     3
291
     1
 70
    58
 90
        2
176
     1
 90
        2
176
     1
 90
        0
176
     1
 90
        0
176
     1
 40
0.6
176
     1
 40
30.0
176
     1
 62
     7
420
 16777215
176
     1
 90
        1
176
     1
 90
        4
176
     1
 62
     7
176
     1
 62
   257
176
     1
 90
        1
176
     1
 90
        1
176
     1
 40
1.0
176
     1
 90
        8
176
     1
 62
     7
176
     1
 40
1.0
176
     1
 90
        1
176
     1
 90
        6
176
     1
 90
        2
176
     1
 62
     7
176
     1
 90
        5
176
     1
 90
        0
176
     1
 90
        0
176
     1
290
     0
176
     1
 90
        1
176
     1
 40
50.0
176
     1
 90
        0
176
     1
290
     0
176
     1
290
     1
176
     1
290
     1
176
     1
290
     0
176
     1
290
     0
176
     1
290
     0
176
     1
290
     0
176
     1
290
     0
176
     1
290
     0
176
     1
 90
       50
176
     1
 40
0.0
176
     1
 40
1.0
176
     1
 90
        0
176
     1
 62
    18
420
        0
176
     1
 90
       50
176
     1
 90
        3
176
     1
 62
     5
420
      255
176
     1
290
     0
176
     1
 90
       50
176
     1
 90
       50
176
     1
 90
       50
176
     1
290
     0
176
     1
 90
       50
176
     1
 62
   256
176
     0
 40
1.0
176
     0
 90
        2
176
     1
  1
strokes_ogs.tif
176
     1
290
     0
176
     1
 40
1.0
176
     1
 40
1.0
176
     1
  0
VISUALSTYLE
  5
AF
102
{ACAD_REACTORS
330
9F
102
}
330
9F
100
AcDbVisualStyle
  2
ColorChange
 70
    16
177
     3
291
     1
 70
    58
 90
        2
176
     1
 90
        2
176
     1
 90
        3
176
     1
 90
        0
176
     1
 40
0.6
176
     1
 40
30.0
176
     1
 62
     8
420
  8421504
176
     1
 90
        1
176
     1
 90
        4
176
     1
 62
     7
176
     1
 62
   257
176
     1
 90
        1
176
     1
 90
        1
176
     1
 40
1.0
176
     1
 90
        8
176
     1
 62
     8
420
  8421504
176
     1
 40
1.0
176
     1
 90
        1
176
     1
 90
        6
176
     1
 90
        2
176
     1
 62
     7
176
     1
 90
        5
176
     1
 90
        0
176
     1
 90
        0
176
     1
290
     0
176
     1
 90
        1
176
     1
 40
0.0
176
     1
 90
        0
176
     1
290
     0
176
     1
290
     1
176
     1
290
     1
176
     1
290
     0
176
     1
290
     0
176
     1
290
     0
176
     1
290
     0
176
     1
290
     0
176
     1
290
     0
176
     1
 90
       50
176
     1
 40
0.0
176
     1
 40
1.0
176
     1
 90
        0
176
     1
 62
    18
420
        0
176
     1
 90
       50
176
     1
 90
        3
176
     1
 62
     5
420
      255
176
     1
290
     0
176
     1
 90
       50
176
     1
 90
       50
176
     1
 90
       50
176
     1
290
     0
176
     1
 90
       50
176
     1
 62
   256
176
     0
 40
1.0
176
     0
 90
        2
176
     1
  1
strokes_ogs.tif
176
     1
290
     0
176
     1
 40
1.0
176
     1
 40
1.0
176
     1
  0
VISUALSTYLE
  5
A8
102
{ACAD_REACTORS
330
9F
102
}
330
9F
100
AcDbVisualStyle
  2
Conceptual
 70
     9
177
     3
291
     0
 70
    58
 90
        3
176
     1
 90
        2
176
     1
 90
        0
176
     1
 90
        0
176
     1
 40
0.6
176
     1
 40
30.0
176
     1
 62
     7
420
 16777215
176
     1
 90
        2
176
     1
 90
        2
176
     1
 62
     7
176
     1
 62
   257
176
     1
 90
        1
176
     1
 90
        1
176
     1
 40
179.0
176
     1
 90
        8
176
     1
 62
     7
176
     1
 40
1.0
176
     1
 90
        1
176
     1
 90
        6
176
     1
 90
        2
176
     1
 62
     7
176
     1
 90
        3
176
     1
 90
        0
176
     1
 90
        0
176
     1
290
     0
176
     1
 90
        1
176
     1
 40
0.0
176
     1
 90
        0
176
     1
290
     0
176
     1
290
     1
176
     1
290
     1
176
     1
290
     0
176
     1
290
     0
176
     1
290
     0
176
     1
290
     0
176
     1
290
     0
176
     1
290
     0
176
     1
 90
       50
176
     1
 40
0.0
176
     1
 40
1.0
176
     1
 90
        0
176
     1
 62
    18
420
        0
176
     1
 90
       50
176
     1
 90
        3
176
     1
 62
     5
420
      255
176
     1
290
     0
176
     1
 90
       50
176
     1
 90
       50
176
     1
 90
       50
176
     1
290
     0
176
     1
 90
       50
176
     1
 62
   256
176
     0
 40
1.0
176
     0
 90
        2
176
     1
  1
strokes_ogs.tif
176
     1
290
     0
176
     1
 40
1.0
176
     1
 40
1.0
176
     1
  0
VISUALSTYLE
  5
AA
102
{ACAD_REACTORS
330
9F
102
}
330
9F
100
AcDbVisualStyle
  2
Dim
 70
    11
177
     3
291
     1
 70
    58
 90
        2
176
     1
 90
        2
176
     1
 90
        0
176
     1
 90
        0
176
     1
 40
0.6
176
     1
 40
30.0
176
     1
 62
     7
420
 16777215
176
     1
 90
        1
176
     1
 90
        4
176
     1
 62
     7
176
     1
 62
   257
176
     1
 90
        1
176
     1
 90
        1
176
     1
 40
1.0
176
     1
 90
        8
176
     1
 62
     7
176
     1
 40
1.0
176
     1
 90
        1
176
     1
 90
        6
176
     1
 90
        2
176
     1
 62
     7
176
     1
 90
        5
176
     1
 90
        0
176
     1
 90
        0
176
     1
290
     0
176
     1
 90
        1
176
     1
 40
-50.0
176
     1
 90
        0
176
     1
290
     0
176
     1
290
     1
176
     1
290
     1
176
     1
290
     0
176
     1
290
     0
176
     1
290
     0
176
     1
290
     0
176
     1
290
     0
176
     1
290
     0
176
     1
 90
       50
176
     1
 40
0.0
176
     1
 40
1.0
176
     1
 90
        0
176
     1
 62
    18
420
        0
176
     1
 90
       50
176
     1
 90
        3
176
     1
 62
     5
420
      255
176
     1
290
     0
176
     1
 90
       50
176
     1
 90
       50
176
     1
 90
       50
176
     1
290
     0
176
     1
 90
       50
176
     1
 62
   256
176
     0
 40
1.0
176
     0
 90
        2
176
     1
  1
strokes_ogs.tif
176
     1
290
     0
176
     1
 40
1.0
176
     1
 40
1.0
176
     1
  0
VISUALSTYLE
  5
B7
102
{ACAD_REACTORS
330
9F
102
}
330
9F
100
AcDbVisualStyle
  2
EdgeColorOff
 70
    22
177
     3
291
     1
 70
    58
 90
        2
176
     0
 90
        2
176
     0
 90
        0
176
     0
 90
        0
176
     0
 40
0.6
176
     0
 40
30.0
176
     0
 62
     7
420
 16777215
176
     0
 90
        1
176
     0
 90
        4
176
     0
 62
     7
176
     0
 62
   257
176
     0
 90
        1
176
     0
 90
        1
176
     0
 40
1.0
176
     0
 90
        8
176
     2
 62
     7
176
     0
 40
1.0
176
     0
 90
        1
176
     0
 90
        6
176
     0
 90
        2
176
     0
 62
     7
176
     0
 90
        5
176
     0
 90
        0
176
     0
 90
        0
176
     0
290
     0
176
     0
 90
        1
176
     0
 40
0.0
176
     0
 90
        0
176
     0
290
     0
176
     0
290
     1
176
     0
290
     1
176
     0
290
     0
176
     0
290
     0
176
     0
290
     0
176
     0
290
     0
176
     0
290
     0
176
     0
290
     0
176
     0
 90
       50
176
     0
 40
0.0
176
     0
 40
1.0
176
     0
 90
        0
176
     0
 62
    18
420
        0
176
     0
 90
       50
176
     0
 90
        3
176
     0
 62
     5
420
      255
176
     0
290
     0
176
     0
 90
       50
176
     0
 90
       50
176
     0
 90
       50
176
     0
290
     0
176
     0
 90
       50
176
     0
 62
   256
176
     0
 40
1.0
176
     0
 90
        2
176
     0
  1
strokes_ogs.tif
176
     0
290
     0
176
     0
 40
1.0
176
     0
 40
1.0
176
     0
  0
VISUALSTYLE
  5
AE
102
{ACAD_REACTORS
330
9F
102
}
330
9F
100
AcDbVisualStyle
  2
Facepattern
 70
    15
177
     3
291
     1
 70
    58
 90
        2
176
     1
 90
        2
176
     1
 90
        0
176
     1
 90
        0
176
     1
 40
0.6
176
     1
 40
30.0
176
     1
 62
     7
420
 16777215
176
     1
 90
        1
176
     1
 90
        4
176
     1
 62
     7
176
     1
 62
   257
176
     1
 90
        1
176
     1
 90
        1
176
     1
 40
1.0
176
     1
 90
        8
176
     1
 62
     7
176
     1
 40
1.0
176
     1
 90
        1
176
     1
 90
        6
176
     1
 90
        2
176
     1
 62
     7
176
     1
 90
        5
176
     1
 90
        0
176
     1
 90
        0
176
     1
290
     0
176
     1
 90
        1
176
     1
 40
0.0
176
     1
 90
        0
176
     1
290
     0
176
     1
290
     1
176
     1
290
     1
176
     1
290
     0
176
     1
290
     0
176
     1
290
     0
176
     1
290
     0
176
     1
290
     0
176
     1
290
     0
176
     1
 90
       50
176
     1
 40
0.0
176
     1
 40
1.0
176
     1
 90
        0
176
     1
 62
    18
420
        0
176
     1
 90
       50
176
     1
 90
        3
176
     1
 62
     5
420
      255
176
     1
290
     0
176
     1
 90
       50
176
     1
 90
       50
176
     1
 90
       50
176
     1
290
     0
176
     1
 90
       50
176
     1
 62
   256
176
     0
 40
1.0
176
     0
 90
        2
176
     1
  1
strokes_ogs.tif
176
     1
290
     0
176
     1
 40
1.0
176
     1
 40
1.0
176
     1
  0
VISUALSTYLE
  5
A0
102
{ACAD_REACTORS
330
9F
102
}
330
9F
100
AcDbVisualStyle
  2
Flat
 70
     0
177
     3
291
     1
 70
    58
 90
        2
176
     1
 90
        1
176
     1
 90
        1
176
     1
 90
        2
176
     1
 40
0.6
176
     1
 40
30.0
176
     1
 62
     7
420
 16777215
176
     1
 90
        0
176
     1
 90
        0
176
     1
 62
     7
176
     1
 62
   257
176
     1
 90
        1
176
     1
 90
        1
176
     1
 40
1.0
176
     1
 90
        8
176
     1
 62
     7
176
     1
 40
1.0
176
     1
 90
        1
176
     1
 90
        6
176
     1
 90
        2
176
     1
 62
     7
176
     1
 90
        5
176
     1
 90
        0
176
     1
 90
        0
176
     1
290
     0
176
     1
 90
       13
176
     1
 40
0.0
176
     1
 90
        0
176
     1
290
     0
176
     1
290
     1
176
     1
290
     1
176
     1
290
     0
176
     1
290
     0
176
     1
290
     0
176
     1
290
     0
176
     1
290
     0
176
     1
290
     0
176
     1
 90
       50
176
     1
 40
0.0
176
     1
 40
1.0
176
     1
 90
        0
176
     1
 62
    18
420
        0
176
     1
 90
       50
176
     1
 90
        3
176
     1
 62
     5
420
      255
176
     1
290
     0
176
     1
 90
       50
176
     1
 90
       50
176
     1
 90
       50
176
     1
290
     0
176
     1
 90
       50
176
     1
 62
   256
176
     0
 40
1.0
176
     0
 90
        2
176
     1
  1
strokes_ogs.tif
176
     1
290
     0
176
     1
 40
1.0
176
     1
 40
1.0
176
     1
  0
VISUALSTYLE
  5
A1
102
{ACAD_REACTORS
330
9F
102
}
330
9F
100
AcDbVisualStyle
  2
FlatWithEdges
 70
     1
177
     3
291
     1
 70
    58
 90
        2
176
     1
 90
        1
176
     1
 90
        1
176
     1
 90
        2
176
     1
 40
0.6
176
     1
 40
30.0
176
     1
 62
     7
420
 16777215
176
     1
 90
        1
176
     1
 90
        0
176
     1
 62
     7
176
     1
 62
   257
176
     1
 90
        1
176
     1
 90
        1
176
     1
 40
1.0
176
     1
 90
        0
176
     1
 62
   257
176
     1
 40
1.0
176
     1
 90
        1
176
     1
 90
        6
176
     1
 90
        2
176
     1
 62
     7
176
     1
 90
        5
176
     1
 90
        0
176
     1
 90
        0
176
     1
290
     0
176
     1
 90
       13
176
     1
 40
0.0
176
     1
 90
        0
176
     1
290
     0
176
     1
290
     1
176
     1
290
     1
176
     1
290
     0
176
     1
290
     0
176
     1
290
     0
176
     1
290
     0
176
     1
290
     0
176
     1
290
     0
176
     1
 90
       50
176
     1
 40
0.0
176
     1
 40
1.0
176
     1
 90
        0
176
     1
 62
    18
420
        0
176
     1
 90
       50
176
     1
 90
        3
176
     1
 62
     5
420
      255
176
     1
290
     0
176
     1
 90
       50
176
     1
 90
       50
176
     1
 90
       50
176
     1
290
     0
176
     1
 90
       50
176
     1
 62
   256
176
     0
 40
1.0
176
     0
 90
        2
176
     1
  1
strokes_ogs.tif
176
     1
290
     0
176
     1
 40
1.0
176
     1
 40
1.0
176
     1
  0
VISUALSTYLE
  5
A2
102
{ACAD_REACTORS
330
9F
102
}
330
9F
100
AcDbVisualStyle
  2
Gouraud
 70
     2
177
     3
291
     1
 70
    58
 90
        2
176
     1
 90
        2
176
     1
 90
        1
176
     1
 90
        2
176
     1
 40
0.6
176
     1
 40
30.0
176
     1
 62
     7
420
 16777215
176
     1
 90
        0
176
     1
 90
        0
176
     1
 62
     7
176
     1
 62
   257
176
     1
 90
        1
176
     1
 90
        1
176
     1
 40
1.0
176
     1
 90
        0
176
     1
 62
     7
176
     1
 40
1.0
176
     1
 90
        1
176
     1
 90
        6
176
     1
 90
        2
176
     1
 62
     7
176
     1
 90
        5
176
     1
 90
        0
176
     1
 90
        0
176
     1
290
     0
176
     1
 90
       13
176
     1
 40
0.0
176
     1
 90
        0
176
     1
290
     0
176
     1
290
     1
176
     1
290
     1
176
     1
290
     0
176
     1
290
     0
176
     1
290
     0
176
     1
290
     0
176
     1
290
     0
176
     1
290
     0
176
     1
 90
       50
176
     1
 40
0.0
176
     1
 40
1.0
176
     1
 90
        0
176
     1
 62
    18
420
        0
176
     1
 90
       50
176
     1
 90
        3
176
     1
 62
     5
420
      255
176
     1
290
     0
176
     1
 90
       50
176
     1
 90
       50
176
     1
 90
       50
176
     1
290
     0
176
     1
 90
       50
176
     1
 62
   256
176
     0
 40
1.0
176
     0
 90
        2
176
     1
  1
strokes_ogs.tif
176
     1
290
     0
176
     1
 40
1.0
176
     1
 40
1.0
176
     1
  0
VISUALSTYLE
  5
A3
102
{ACAD_REACTORS
330
9F
102
}
330
9F
100
AcDbVisualStyle
  2
GouraudWithEdges
 70
     3
177
     3
291
     1
 70
    58
 90
        2
176
     1
 90
        2
176
     1
 90
        1
176
     1
 90
        2
176
     1
 40
0.6
176
     1
 40
30.0
176
     1
 62
     7
420
 16777215
176
     1
 90
        1
176
     1
 90
        0
176
     1
 62
     7
176
     1
 62
   257
176
     1
 90
        1
176
     1
 90
        1
176
     1
 40
1.0
176
     1
 90
        0
176
     1
 62
   257
176
     1
 40
1.0
176
     1
 90
        1
176
     1
 90
        6
176
     1
 90
        2
176
     1
 62
     7
176
     1
 90
        5
176
     1
 90
        0
176
     1
 90
        0
176
     1
290
     0
176
     1
 90
       13
176
     1
 40
0.0
176
     1
 90
        0
176
     1
290
     0
176
     1
290
     1
176
     1
290
     1
176
     1
290
     0
176
     1
290
     0
176
     1
290
     0
176
     1
290
     0
176
     1
290
     0
176
     1
290
     0
176
     1
 90
       50
176
     1
 40
0.0
176
     1
 40
1.0
176
     1
 90
        0
176
     1
 62
    18
420
        0
176
     1
 90
       50
176
     1
 90
        3
176
     1
 62
     5
420
      255
176
     1
290
     0
176
     1
 90
       50
176
     1
 90
       50
176
     1
 90
       50
176
     1
290
     0
176
     1
 90
       50
176
     1
 62
   256
176
     0
 40
1.0
176
     0
 90
        2
176
     1
  1
strokes_ogs.tif
176
     1
290
     0
176
     1
 40
1.0
176
     1
 40
1.0
176
     1
  0
VISUALSTYLE
  5
A7
102
{ACAD_REACTORS
330
9F
102
}
330
9F
100
AcDbVisualStyle
  2
Hidden
 70
     6
177
     3
291
     0
 70
    58
 90
        1
176
     1
 90
        2
176
     1
 90
        2
176
     1
 90
        0
176
     1
 40
0.6
176
     1
 40
30.0
176
     1
 62
     7
420
 16777215
176
     1
 90
        2
176
     1
 90
        2
176
     1
 62
     7
176
     1
 62
   257
176
     1
 90
        2
176
     1
 90
        1
176
     1
 40
40.0
176
     1
 90
        0
176
     1
 62
   257
176
     1
 40
1.0
176
     1
 90
        1
176
     1
 90
        6
176
     1
 90
        2
176
     1
 62
     7
176
     1
 90
        3
176
     1
 90
        0
176
     1
 90
        0
176
     1
290
     0
176
     1
 90
        1
176
     1
 40
0.0
176
     1
 90
        0
176
     1
290
     0
176
     1
290
     1
176
     1
290
     1
176
     1
290
     0
176
     1
290
     0
176
     1
290
     0
176
     1
290
     0
176
     1
290
     0
176
     1
290
     0
176
     1
 90
       50
176
     1
 40
0.0
176
     1
 40
1.0
176
     1
 90
        0
176
     1
 62
    18
420
        0
176
     1
 90
       50
176
     1
 90
        3
176
     1
 62
     5
420
      255
176
     1
290
     0
176
     1
 90
       50
176
     1
 90
       50
176
     1
 90
       50
176
     1
290
     0
176
     1
 90
       50
176
     1
 62
   256
176
     0
 40
1.0
176
     0
 90
        2
176
     1
  1
strokes_ogs.tif
176
     1
290
     0
176
     1
 40
1.0
176
     1
 40
1.0
176
     1
  0
VISUALSTYLE
  5
B5
102
{ACAD_REACTORS
330
9F
102
}
330
9F
100
AcDbVisualStyle
  2
JitterOff
 70
    20
177
     3
291
     1
 70
    58
 90
        2
176
     0
 90
        2
176
     0
 90
        0
176
     0
 90
        0
176
     0
 40
0.6
176
     0
 40
30.0
176
     0
 62
     7
420
 16777215
176
     0
 90
        1
176
     0
 90
        4
176
     0
 62
     7
176
     0
 62
   257
176
     0
 90
        1
176
     0
 90
        1
176
     0
 40
1.0
176
     0
 90
       10
176
     2
 62
     7
176
     0
 40
1.0
176
     0
 90
        1
176
     0
 90
        6
176
     0
 90
        2
176
     0
 62
     7
176
     0
 90
        5
176
     0
 90
        0
176
     0
 90
        0
176
     0
290
     0
176
     0
 90
        1
176
     0
 40
0.0
176
     0
 90
        0
176
     0
290
     0
176
     0
290
     1
176
     0
290
     1
176
     0
290
     0
176
     0
290
     0
176
     0
290
     0
176
     0
290
     0
176
     0
290
     0
176
     0
290
     0
176
     0
 90
       50
176
     0
 40
0.0
176
     0
 40
1.0
176
     0
 90
        0
176
     0
 62
    18
420
        0
176
     0
 90
       50
176
     0
 90
        3
176
     0
 62
     5
420
      255
176
     0
290
     0
176
     0
 90
       50
176
     0
 90
       50
176
     0
 90
       50
176
     0
290
     0
176
     0
 90
       50
176
     0
 62
   256
176
     0
 40
1.0
176
     0
 90
        2
176
     0
  1
strokes_ogs.tif
176
     0
290
     0
176
     0
 40
1.0
176
     0
 40
1.0
176
     0
  0
VISUALSTYLE
  5
AD
102
{ACAD_REACTORS
330
9F
102
}
330
9F
100
AcDbVisualStyle
  2
Linepattern
 70
    14
177
     3
291
     1
 70
    58
 90
        2
176
     1
 90
        2
176
     1
 90
        0
176
     1
 90
        0
176
     1
 40
0.6
176
     1
 40
30.0
176
     1
 62
     7
420
 16777215
176
     1
 90
        1
176
     1
 90
        4
176
     1
 62
     7
176
     1
 62
   257
176
     1
 90
        7
176
     1
 90
        7
176
     1
 40
1.0
176
     1
 90
        8
176
     1
 62
     7
176
     1
 40
1.0
176
     1
 90
        1
176
     1
 90
        6
176
     1
 90
        2
176
     1
 62
     7
176
     1
 90
        5
176
     1
 90
        0
176
     1
 90
        0
176
     1
290
     0
176
     1
 90
        1
176
     1
 40
0.0
176
     1
 90
        0
176
     1
290
     0
176
     1
290
     1
176
     1
290
     1
176
     1
290
     0
176
     1
290
     0
176
     1
290
     0
176
     1
290
     0
176
     1
290
     0
176
     1
290
     0
176
     1
 90
       50
176
     1
 40
0.0
176
     1
 40
1.0
176
     1
 90
        0
176
     1
 62
    18
420
        0
176
     1
 90
       50
176
     1
 90
        3
176
     1
 62
     5
420
      255
176
     1
290
     0
176
     1
 90
       50
176
     1
 90
       50
176
     1
 90
       50
176
     1
290
     0
176
     1
 90
       50
176
     1
 62
   256
176
     0
 40
1.0
176
     0
 90
        2
176
     1
  1
strokes_ogs.tif
176
     1
290
     0
176
     1
 40
1.0
176
     1
 40
1.0
176
     1
  0
VISUALSTYLE
  5
B6
102
{ACAD_REACTORS
330
9F
102
}
330
9F
100
AcDbVisualStyle
  2
OverhangOff
 70
    21
177
     3
291
     1
 70
    58
 90
        2
176
     0
 90
        2
176
     0
 90
        0
176
     0
 90
        0
176
     0
 40
0.6
176
     0
 40
30.0
176
     0
 62
     7
420
 16777215
176
     0
 90
        1
176
     0
 90
        4
176
     0
 62
     7
176
     0
 62
   257
176
     0
 90
        1
176
     0
 90
        1
176
     0
 40
1.0
176
     0
 90
        9
176
     2
 62
     7
176
     0
 40
1.0
176
     0
 90
        1
176
     0
 90
        6
176
     0
 90
        2
176
     0
 62
     7
176
     0
 90
        5
176
     0
 90
        0
176
     0
 90
        0
176
     0
290
     0
176
     0
 90
        1
176
     0
 40
0.0
176
     0
 90
        0
176
     0
290
     0
176
     0
290
     1
176
     0
290
     1
176
     0
290
     0
176
     0
290
     0
176
     0
290
     0
176
     0
290
     0
176
     0
290
     0
176
     0
290
     0
176
     0
 90
       50
176
     0
 40
0.0
176
     0
 40
1.0
176
     0
 90
        0
176
     0
 62
    18
420
        0
176
     0
 90
       50
176
     0
 90
        3
176
     0
 62
     5
420
      255
176
     0
290
     0
176
     0
 90
       50
176
     0
 90
       50
176
     0
 90
       50
176
     0
290
     0
176
     0
 90
       50
176
     0
 62
   256
176
     0
 40
1.0
176
     0
 90
        2
176
     0
  1
strokes_ogs.tif
176
     0
290
     0
176
     0
 40
1.0
176
     0
 40
1.0
176
     0
  0
VISUALSTYLE
  5
A9
102
{ACAD_REACTORS
330
9F
102
}
330
9F
100
AcDbVisualStyle
  2
Realistic
 70
     8
177
     3
291
     0
 70
    58
 90
        2
176
     1
 90
        3
176
     1
 90
        0
176
     1
 90
        2
176
     1
 40
0.6
176
     1
 40
30.0
176
     1
 62
     7
420
 16777215
176
     1
 90
        0
176
     1
 90
        0
176
     1
 62
     7
176
     1
 62
   257
176
     1
 90
        1
176
     1
 90
        1
176
     1
 40
1.0
176
     1
 90
        8
176
     1
 62
   257
176
     1
 40
1.0
176
     1
 90
        1
176
     1
 90
        6
176
     1
 90
        2
176
     1
 62
     7
176
     1
 90
        3
176
     1
 90
        0
176
     1
 90
        0
176
     1
290
     0
176
     1
 90
       13
176
     1
 40
0.0
176
     1
 90
        0
176
     1
290
     0
176
     1
290
     1
176
     1
290
     1
176
     1
290
     0
176
     1
290
     0
176
     1
290
     0
176
     1
290
     0
176
     1
290
     0
176
     1
290
     0
176
     1
 90
       50
176
     1
 40
0.0
176
     1
 40
1.0
176
     1
 90
        0
176
     1
 62
    18
420
        0
176
     1
 90
       50
176
     1
 90
        3
176
     1
 62
     5
420
      255
176
     1
290
     0
176
     1
 90
       50
176
     1
 90
       50
176
     1
 90
       50
176
     1
290
     0
176
     1
 90
       50
176
     1
 62
   256
176
     0
 40
1.0
176
     0
 90
        2
176
     1
  1
strokes_ogs.tif
176
     1
290
     0
176
     1
 40
1.0
176
     1
 40
1.0
176
     1
  0
VISUALSTYLE
  5
B4
102
{ACAD_REACTORS
330
9F
102
}
330
9F
100
AcDbVisualStyle
  2
Shaded
 70
    27
177
     3
291
     0
 70
    58
 90
        2
176
     1
 90
        2
176
     1
 90
        1
176
     1
 90
        2
176
     1
 40
0.6
176
     1
 40
30.0
176
     1
 62
     7
420
 16777215
176
     1
 90
        0
176
     1
 90
        4
176
     1
 62
     7
176
     1
 62
   257
176
     1
 90
        1
176
     1
 90
        1
176
     1
 40
1.0
176
     1
 90
        8
176
     1
 62
   257
176
     1
 40
1.0
176
     1
 90
        1
176
     1
 90
        6
176
     1
 90
        2
176
     1
 62
     8
420
  7895160
176
     1
 90
        3
176
     1
 90
        0
176
     1
 90
        0
176
     1
290
     0
176
     1
 90
        5
176
     1
 40
0.0
176
     1
 90
        0
176
     1
290
     0
176
     1
290
     1
176
     1
290
     1
176
     1
290
     0
176
     1
290
     0
176
     1
290
     0
176
     1
290
     0
176
     1
290
     0
176
     1
290
     0
176
     1
 90
       50
176
     1
 40
0.0
176
     1
 40
1.0
176
     1
 90
        0
176
     1
 62
    18
420
        0
176
     1
 90
       50
176
     1
 90
        3
176
     1
 62
     5
420
      255
176
     1
290
     0
176
     1
 90
       50
176
     1
 90
       50
176
     1
 90
       50
176
     1
290
     0
176
     1
 90
       50
176
     1
 62
   256
176
     0
 40
1.0
176
     0
 90
        2
176
     1
  1
strokes_ogs.tif
176
     1
290
     0
176
     1
 40
1.0
176
     1
 40
1.0
176
     1
  0
VISUALSTYLE
  5
B3
102
{ACAD_REACTORS
330
9F
102
}
330
9F
100
AcDbVisualStyle
  2
Shaded with edges
 70
    26
177
     3
291
     0
 70
    58
 90
        2
176
     1
 90
        2
176
     1
 90
        1
176
     1
 90
        2
176
     1
 40
0.6
176
     1
 40
30.0
176
     1
 62
     7
420
 16777215
176
     1
 90
        1
176
     1
 90
        2
176
     1
 62
     7
176
     1
 62
   257
176
     1
 90
        2
176
     1
 90
        1
176
     1
 40
1.0
176
     1
 90
        8
176
     1
 62
   257
176
     1
 40
1.0
176
     1
 90
        1
176
     1
 90
        6
176
     1
 90
        2
176
     1
 62
     7
176
     1
 90
        3
176
     1
 90
        0
176
     1
 90
        0
176
     1
290
     0
176
     1
 90
        5
176
     1
 40
0.0
176
     1
 90
        0
176
     1
290
     0
176
     1
290
     1
176
     1
290
     1
176
     1
290
     0
176
     1
290
     0
176
     1
290
     0
176
     1
290
     0
176
     1
290
     0
176
     1
290
     0
176
     1
 90
       50
176
     1
 40
0.0
176
     1
 40
1.0
176
     1
 90
        0
176
     1
 62
    18
420
        0
176
     1
 90
       50
176
     1
 90
        3
176
     1
 62
     5
420
      255
176
     1
290
     0
176
     1
 90
       50
176
     1
 90
       50
176
     1
 90
       50
176
     1
290
     0
176
     1
 90
       50
176
     1
 62
   256
176
     0
 40
1.0
176
     0
 90
        2
176
     1
  1
strokes_ogs.tif
176
     1
290
     0
176
     1
 40
1.0
176
     1
 40
1.0
176
     1
  0
VISUALSTYLE
  5
B0
102
{ACAD_REACTORS
330
9F
102
}
330
9F
100
AcDbVisualStyle
  2
Shades of Gray
 70
    23
177
     3
291
     0
 70
    58
 90
        2
176
     1
 90
        2
176
     1
 90
        3
176
     1
 90
        0
176
     1
 40
0.6
176
     1
 40
30.0
176
     1
 62
     7
420
 16777215
176
     1
 90
        2
176
     1
 90
        2
176
     1
 62
     7
176
     1
 62
     7
176
     1
 90
        1
176
     1
 90
        1
176
     1
 40
40.0
176
     1
 90
        8
176
     1
 62
     7
176
     1
 40
1.0
176
     1
 90
        1
176
     1
 90
        6
176
     1
 90
        2
176
     1
 62
     7
176
     1
 90
        3
176
     1
 90
        0
176
     1
 90
        0
176
     1
290
     0
176
     1
 90
        1
176
     1
 40
0.0
176
     1
 90
        0
176
     1
290
     0
176
     1
290
     1
176
     1
290
     1
176
     1
290
     0
176
     1
290
     0
176
     1
290
     0
176
     1
290
     0
176
     1
290
     0
176
     1
290
     0
176
     1
 90
       50
176
     1
 40
0.0
176
     1
 40
1.0
176
     1
 90
        0
176
     1
 62
    18
420
        0
176
     1
 90
       50
176
     1
 90
        3
176
     1
 62
     5
420
      255
176
     1
290
     0
176
     1
 90
       50
176
     1
 90
       50
176
     1
 90
       50
176
     1
290
     0
176
     1
 90
       50
176
     1
 62
   256
176
     0
 40
1.0
176
     0
 90
        2
176
     1
  1
strokes_ogs.tif
176
     1
290
     0
176
     1
 40
1.0
176
     1
 40
1.0
176
     1
  0
VISUALSTYLE
  5
B1
102
{ACAD_REACTORS
330
9F
102
}
330
9F
100
AcDbVisualStyle
  2
Sketchy
 70
    24
177
     3
291
     0
 70
    58
 90
        1
176
     1
 90
        2
176
     1
 90
        2
176
     1
 90
        0
176
     1
 40
0.6
176
     1
 40
30.0
176
     1
 62
     7
420
 16777215
176
     1
 90
        2
176
     1
 90
        2
176
     1
 62
     7
176
     1
 62
     7
176
     1
 90
        1
176
     1
 90
        1
176
     1
 40
40.0
176
     1
 90
       11
176
     1
 62
     7
176
     1
 40
1.0
176
     1
 90
        1
176
     1
 90
        6
176
     1
 90
        2
176
     1
 62
     7
176
     1
 90
        6
176
     1
 90
        0
176
     1
 90
        0
176
     1
290
     0
176
     1
 90
        1
176
     1
 40
0.0
176
     1
 90
        0
176
     1
290
     0
176
     1
290
     1
176
     1
290
     1
176
     1
290
     0
176
     1
290
     0
176
     1
290
     0
176
     1
290
     0
176
     1
290
     0
176
     1
290
     0
176
     1
 90
       50
176
     1
 40
0.0
176
     1
 40
1.0
176
     1
 90
        0
176
     1
 62
    18
420
        0
176
     1
 90
       50
176
     1
 90
        3
176
     1
 62
     5
420
      255
176
     1
290
     0
176
     1
 90
       50
176
     1
 90
       50
176
     1
 90
       50
176
     1
290
     0
176
     1
 90
       50
176
     1
 62
   256
176
     0
 40
1.0
176
     0
 90
        2
176
     1
  1
strokes_ogs.tif
176
     1
290
     0
176
     1
 40
1.0
176
     1
 40
1.0
176
     1
  0
VISUALSTYLE
  5
AC
102
{ACAD_REACTORS
330
9F
102
}
330
9F
100
AcDbVisualStyle
  2
Thicken
 70
    13
177
     3
291
     1
 70
    58
 90
        2
176
     1
 90
        2
176
     1
 90
        0
176
     1
 90
        0
176
     1
 40
0.6
176
     1
 40
30.0
176
     1
 62
     7
420
 16777215
176
     1
 90
        1
176
     1
 90
        4
176
     1
 62
     7
176
     1
 62
   257
176
     1
 90
        1
176
     1
 90
        1
176
     1
 40
1.0
176
     1
 90
       12
176
     1
 62
     7
176
     1
 40
1.0
176
     1
 90
        1
176
     1
 90
        6
176
     1
 90
        2
176
     1
 62
     7
176
     1
 90
        5
176
     1
 90
        0
176
     1
 90
        0
176
     1
290
     0
176
     1
 90
        1
176
     1
 40
0.0
176
     1
 90
        0
176
     1
290
     0
176
     1
290
     1
176
     1
290
     1
176
     1
290
     0
176
     1
290
     0
176
     1
290
     0
176
     1
290
     0
176
     1
290
     0
176
     1
290
     0
176
     1
 90
       50
176
     1
 40
0.0
176
     1
 40
1.0
176
     1
 90
        0
176
     1
 62
    18
420
        0
176
     1
 90
       50
176
     1
 90
        3
176
     1
 62
     5
420
      255
176
     1
290
     0
176
     1
 90
       50
176
     1
 90
       50
176
     1
 90
       50
176
     1
290
     0
176
     1
 90
       50
176
     1
 62
   256
176
     0
 40
1.0
176
     0
 90
        2
176
     1
  1
strokes_ogs.tif
176
     1
290
     0
176
     1
 40
1.0
176
     1
 40
1.0
176
     1
  0
VISUALSTYLE
  5
A6
102
{ACAD_REACTORS
330
9F
102
}
330
9F
100
AcDbVisualStyle
  2
Wireframe
 70
     5
177
     3
291
     0
 70
    58
 90
        0
176
     1
 90
        2
176
     1
 90
        0
176
     1
 90
        0
176
     1
 40
0.6
176
     1
 40
30.0
176
     1
 62
     7
420
 16777215
176
     1
 90
        1
176
     1
 90
        4
176
     1
 62
     7
176
     1
 62
   257
176
     1
 90
        1
176
     1
 90
        1
176
     1
 40
1.0
176
     1
 90
        0
176
     1
 62
   257
176
     1
 40
1.0
176
     1
 90
        1
176
     1
 90
        6
176
     1
 90
        2
176
     1
 62
     7
176
     1
 90
        3
176
     1
 90
        0
176
     1
 90
        0
176
     1
290
     0
176
     1
 90
        1
176
     1
 40
0.0
176
     1
 90
        0
176
     1
290
     0
176
     1
290
     1
176
     1
290
     1
176
     1
290
     0
176
     1
290
     0
176
     1
290
     0
176
     1
290
     0
176
     1
290
     0
176
     1
290
     0
176
     1
 90
       50
176
     1
 40
0.0
176
     1
 40
1.0
176
     1
 90
        0
176
     1
 62
    18
420
        0
176
     1
 90
       50
176
     1
 90
        3
176
     1
 62
     5
420
      255
176
     1
290
     0
176
     1
 90
       50
176
     1
 90
       50
176
     1
 90
       50
176
     1
290
     0
176
     1
 90
       50
176
     1
 62
   256
176
     0
 40
1.0
176
     0
 90
        2
176
     1
  1
strokes_ogs.tif
176
     1
290
     0
176
     1
 40
1.0
176
     1
 40
1.0
176
     1
  0
VISUALSTYLE
  5
B2
102
{ACAD_REACTORS
330
9F
102
}
330
9F
100
AcDbVisualStyle
  2
X-Ray
 70
    25
177
     3
291
     0
 70
    58
 90
        2
176
     1
 90
        2
176
     1
 90
        1
176
     1
 90
        1
176
     1
 40
0.5
176
     1
 40
30.0
176
     1
 62
     7
420
 16777215
176
     1
 90
        1
176
     1
 90
        0
176
     1
 62
     7
176
     1
 62
   257
176
     1
 90
        1
176
     1
 90
        1
176
     1
 40
1.0
176
     1
 90
        8
176
     1
 62
     7
176
     1
 40
1.0
176
     1
 90
        1
176
     1
 90
        6
176
     1
 90
        2
176
     1
 62
     7
176
     1
 90
        3
176
     1
 90
        0
176
     1
 90
        0
176
     1
290
     0
176
     1
 90
       13
176
     1
 40
0.0
176
     1
 90
        0
176
     1
290
     0
176
     1
290
     1
176
     1
290
     1
176
     1
290
     0
176
     1
290
     0
176
     1
290
     0
176
     1
290
     0
176
     1
290
     0
176
     1
290
     0
176
     1
 90
       50
176
     1
 40
0.0
176
     1
 40
1.0
176
     1
 90
        0
176
     1
 62
    18
420
        0
176
     1
 90
       50
176
     1
 90
        3
176
     1
 62
     5
420
      255
176
     1
290
     0
176
     1
 90
       50
176
     1
 90
       50
176
     1
 90
       50
176
     1
290
     0
176
     1
 90
       50
176
     1
 62
   256
176
     0
 40
1.0
176
     0
 90
        2
176
     1
  1
strokes_ogs.tif
176
     1
290
     0
176
     1
 40
1.0
176
     1
 40
1.0
176
     1
  0
DICTIONARYVAR
  5
184
102
{ACAD_REACTORS
330
17E
102
}
330
17E
100
DictionaryVariables
280
     0
  1
1:1
  0
DICTIONARYVAR
  5
180
102
{ACAD_REACTORS
330
17E
102
}
330
17E
100
DictionaryVariables
280
     0
  1
STANDARD
  0
DICTIONARYVAR
  5
17F
102
{ACAD_REACTORS
330
17E
102
}
330
17E
100
DictionaryVariables
280
     0
  1
STANDARD
  0
DICTIONARYVAR
  5
181
102
{ACAD_REACTORS
330
17E
102
}
330
17E
100
DictionaryVariables
280
     0
  1
Imperial24
  0
DICTIONARYVAR
  5
182
102
{ACAD_REACTORS
330
17E
102
}
330
17E
100
DictionaryVariables
280
     0
  1
Imperial24
  0
DICTIONARYVAR
  5
186
102
{ACAD_REACTORS
330
17E
102
}
330
17E
100
DictionaryVariables
280
     0
  1
1
  0
DICTIONARYVAR
  5
187
102
{ACAD_REACTORS
330
17E
102
}
330
17E
100
DictionaryVariables
280
     0
  1
15
  0
DICTIONARYVAR
  5
185
102
{ACAD_REACTORS
330
17E
102
}
330
17E
100
DictionaryVariables
280
     0
  1
0
  0
DICTIONARYVAR
  5
183
102
{ACAD_REACTORS
330
17E
102
}
330
17E
100
DictionaryVariables
280
     0
  1
0
  0
DICTIONARY
  5
165
102
{ACAD_REACTORS
330
164
102
}
330
164
100
AcDbDictionary
281
     1
  3
*A1
350
166
  0
DICTIONARY
  5
161
102
{ACAD_REACTORS
330
160
102
}
330
160
100
AcDbDictionary
281
     1
  3
*A1
350
162
  0
DICTIONARY
  5
15D
102
{ACAD_REACTORS
330
15C
102
}
330
15C
100
AcDbDictionary
281
     1
  3
*A1
350
15E
  0
DICTIONARY
  5
159
102
{ACAD_REACTORS
330
158
102
}
330
158
100
AcDbDictionary
281
     1
  3
*A1
350
15A
  0
DICTIONARY
  5
155
102
{ACAD_REACTORS
330
154
102
}
330
154
100
AcDbDictionary
281
     1
  3
*A1
350
156
  0
DICTIONARY
  5
151
102
{ACAD_REACTORS
330
150
102
}
330
150
100
AcDbDictionary
281
     1
  3
*A1
350
152
  0
DICTIONARY
  5
14D
102
{ACAD_REACTORS
330
14C
102
}
330
14C
100
AcDbDictionary
281
     1
  3
*A1
350
14E
  0
DICTIONARY
  5
149
102
{ACAD_REACTORS
330
148
102
}
330
148
100
AcDbDictionary
281
     1
  3
*A1
350
14A
  0
DICTIONARY
  5
145
102
{ACAD_REACTORS
330
144
102
}
330
144
100
AcDbDictionary
281
     1
  3
*A1
350
146
  0
DICTIONARY
  5
141
102
{ACAD_REACTORS
330
140
102
}
330
140
100
AcDbDictionary
281
     1
  3
*A1
350
142
  0
DICTIONARY
  5
13D
102
{ACAD_REACTORS
330
13C
102
}
330
13C
100
AcDbDictionary
281
     1
  3
*A1
350
13E
  0
DICTIONARY
  5
139
102
{ACAD_REACTORS
330
138
102
}
330
138
100
AcDbDictionary
281
     1
  3
*A1
350
13A
  0
DICTIONARY
  5
135
102
{ACAD_REACTORS
330
134
102
}
330
134
100
AcDbDictionary
281
     1
  3
*A1
350
136
  0
DICTIONARY
  5
131
102
{ACAD_REACTORS
330
130
102
}
330
130
100
AcDbDictionary
281
     1
  3
*A1
350
132
  0
DICTIONARY
  5
12D
102
{ACAD_REACTORS
330
12C
102
}
330
12C
100
AcDbDictionary
281
     1
  3
*A1
350
12E
  0
DICTIONARY
  5
129
102
{ACAD_REACTORS
330
128
102
}
330
128
100
AcDbDictionary
281
     1
  3
*A1
350
12A
  0
DICTIONARY
  5
90
330
8F
100
AcDbDictionary
280
     1
281
     1
  3
BUMPTILE
360
92
  3
DIFFUSETILE
360
91
  3
OPACITYTILE
360
95
  3
REFLECTIONTILE
360
94
  3
REFRACTIONTILE
360
96
  3
SPECULARTILE
360
93
  0
DICTIONARY
  5
88
330
87
100
AcDbDictionary
280
     1
281
     1
  3
BUMPTILE
360
8A
  3
DIFFUSETILE
360
89
  3
OPACITYTILE
360
8D
  3
REFLECTIONTILE
360
8C
  3
REFRACTIONTILE
360
8E
  3
SPECULARTILE
360
8B
  0
DICTIONARY
  5
98
330
97
100
AcDbDictionary
280
     1
281
     1
  3
BUMPTILE
360
9A
  3
DIFFUSETILE
360
99
  3
OPACITYTILE
360
9D
  3
REFLECTIONTILE
360
9C
  3
REFRACTIONTILE
360
9E
  3
SPECULARTILE
360
9B
  0
DICTIONARY
  5
188
330
BA
100
AcDbDictionary
280
     1
281
     1
  3
ACAD_ROUNDTRIP_2008_TABLESTYLE_CELLSTYLEMAP
360
189
  0
ACDB_TEXTOBJECTCONTEXTDATA_CLASS
  5
166
102
{ACAD_REACTORS
330
165
102
}
330
165
100
AcDbObjectContextData
 70
     4
290
     1
100
AcDbAnnotScaleObjectContextData
340
BC
 70
     4
 50
0.0
 10
353.9571828278976
 20
89.11048942536181
 11
359.78426331903
 21
91.65312244036863
  0
ACDB_TEXTOBJECTCONTEXTDATA_CLASS
  5
162
102
{ACAD_REACTORS
330
161
102
}
330
161
100
AcDbObjectContextData
 70
     4
290
     1
100
AcDbAnnotScaleObjectContextData
340
BC
 70
     4
 50
0.0
 10
340.7682333053874
 20
110.5651588663421
 11
359.78426331903
 21
112.3745040232316
  0
ACDB_TEXTOBJECTCONTEXTDATA_CLASS
  5
15E
102
{ACAD_REACTORS
330
15D
102
}
330
15D
100
AcDbObjectContextData
 70
     4
290
     1
100
AcDbAnnotScaleObjectContextData
340
BC
 70
     4
 50
0.0
 10
331.446950904296
 20
121.1749258189528
 11
359.78426331903
 21
123.6749258189528
  0
ACDB_TEXTOBJECTCONTEXTDATA_CLASS
  5
15A
102
{ACAD_REACTORS
330
159
102
}
330
159
100
AcDbObjectContextData
 70
     4
290
     1
100
AcDbAnnotScaleObjectContextData
340
BC
 70
     4
 50
0.0
 10
224.7679195348552
 20
121.1700953218212
 11
241.0673738322631
 21
123.6700953218212
  0
ACDB_TEXTOBJECTCONTEXTDATA_CLASS
  5
156
102
{ACAD_REACTORS
330
155
102
}
330
155
100
AcDbObjectContextData
 70
     4
290
     1
100
AcDbAnnotScaleObjectContextData
340
BC
 70
     4
 50
0.0
 10
223.8668008360832
 20
89.30319065319265
 11
239.7842633190299
 21
91.65312244036863
  0
ACDB_TEXTOBJECTCONTEXTDATA_CLASS
  5
152
102
{ACAD_REACTORS
330
151
102
}
330
151
100
AcDbObjectContextData
 70
     4
290
     1
100
AcDbAnnotScaleObjectContextData
340
BC
 70
     4
 50
0.0
 10
197.1997916243424
 20
54.12098404492127
 11
223.5947438753655
 21
56.62098404492127
  0
ACDB_TEXTOBJECTCONTEXTDATA_CLASS
  5
14E
102
{ACAD_REACTORS
330
14D
102
}
330
14D
100
AcDbObjectContextData
 70
     4
290
     1
100
AcDbAnnotScaleObjectContextData
340
BC
 70
     4
 50
0.0
 10
200.0983487891675
 20
-15.94076698105109
 11
227.4653337823462
 21
-13.43906166045082
  0
ACDB_TEXTOBJECTCONTEXTDATA_CLASS
  5
14A
102
{ACAD_REACTORS
330
149
102
}
330
149
100
AcDbObjectContextData
 70
     4
290
     1
100
AcDbAnnotScaleObjectContextData
340
BC
 70
     4
 50
0.0
 10
64.81051683212864
 20
54.119278724321
 11
115.456833339632
 21
56.62098404492127
  0
ACDB_TEXTOBJECTCONTEXTDATA_CLASS
  5
146
102
{ACAD_REACTORS
330
145
102
}
330
145
100
AcDbObjectContextData
 70
     4
290
     1
100
AcDbAnnotScaleObjectContextData
340
BC
 70
     4
 50
0.0
 10
64.54503890917521
 20
24.18482425982487
 11
121.7909461397345
 21
26.68652958042514
  0
ACDB_TEXTOBJECTCONTEXTDATA_CLASS
  5
142
102
{ACAD_REACTORS
330
141
102
}
330
141
100
AcDbObjectContextData
 70
     4
290
     1
100
AcDbAnnotScaleObjectContextData
340
BC
 70
     4
 50
0.0
 10
285.6294895948876
 20
110.2724719342023
 11
297.0738961433188
 21
112.7724719342023
  0
ACDB_TEXTOBJECTCONTEXTDATA_CLASS
  5
13E
102
{ACAD_REACTORS
330
13D
102
}
330
13D
100
AcDbObjectContextData
 70
     4
290
     1
100
AcDbAnnotScaleObjectContextData
340
BC
 70
     4
 50
0.0
 10
289.1106616819222
 20
89.11219474596208
 11
299.78426331903
 21
91.65312244036863
  0
ACDB_TEXTOBJECTCONTEXTDATA_CLASS
  5
13A
102
{ACAD_REACTORS
330
139
102
}
330
139
100
AcDbObjectContextData
 70
     4
290
     1
100
AcDbAnnotScaleObjectContextData
340
BC
 70
     4
 50
0.0
 10
272.6247146972069
 20
121.1683900012209
 11
297.0738961433188
 21
123.6700953218212
  0
ACDB_TEXTOBJECTCONTEXTDATA_CLASS
  5
136
102
{ACAD_REACTORS
330
135
102
}
330
135
100
AcDbObjectContextData
 70
     4
290
     1
100
AcDbAnnotScaleObjectContextData
340
BC
 70
     4
 50
0.0
 10
198.6204430086975
 20
4.344575573186382
 11
282.4471824357098
 21
6.846280893786655
  0
ACDB_TEXTOBJECTCONTEXTDATA_CLASS
  5
132
102
{ACAD_REACTORS
330
131
102
}
330
131
100
AcDbObjectContextData
 70
     4
290
     1
100
AcDbAnnotScaleObjectContextData
340
BC
 70
     4
 50
0.0
 10
199.6396842544836
 20
-5.90584181608883
 11
291.0414577879079
 21
-3.404136495488558
  0
ACDB_TEXTOBJECTCONTEXTDATA_CLASS
  5
12E
102
{ACAD_REACTORS
330
12D
102
}
330
12D
100
AcDbObjectContextData
 70
     4
290
     1
100
AcDbAnnotScaleObjectContextData
340
BC
 70
     4
 50
0.0
 10
198.2620359858805
 20
14.04436330751003
 11
281.1235639531383
 21
16.5460686281103
  0
ACDB_TEXTOBJECTCONTEXTDATA_CLASS
  5
12A
102
{ACAD_REACTORS
330
129
102
}
330
129
100
AcDbObjectContextData
 70
     4
290
     1
100
AcDbAnnotScaleObjectContextData
340
BC
 70
     4
 50
0.0
 10
199.3559547517103
 20
24.14907563330062
 11
286.4876055020513
 21
26.65078095390089
  0
XRECORD
  5
92
102
{ACAD_REACTORS
330
90
102
}
330
90
100
AcDbXrecord
280
     1
270
     1
271
     1
  0
XRECORD
  5
91
102
{ACAD_REACTORS
330
90
102
}
330
90
100
AcDbXrecord
280
     1
270
     1
271
     1
  0
XRECORD
  5
95
102
{ACAD_REACTORS
330
90
102
}
330
90
100
AcDbXrecord
280
     1
270
     1
271
     1
  0
XRECORD
  5
94
102
{ACAD_REACTORS
330
90
102
}
330
90
100
AcDbXrecord
280
     1
270
     1
271
     1
  0
XRECORD
  5
96
102
{ACAD_REACTORS
330
90
102
}
330
90
100
AcDbXrecord
280
     1
270
     1
271
     1
  0
XRECORD
  5
93
102
{ACAD_REACTORS
330
90
102
}
330
90
100
AcDbXrecord
280
     1
270
     1
271
     1
  0
XRECORD
  5
8A
102
{ACAD_REACTORS
330
88
102
}
330
88
100
AcDbXrecord
280
     1
270
     1
271
     1
  0
XRECORD
  5
89
102
{ACAD_REACTORS
330
88
102
}
330
88
100
AcDbXrecord
280
     1
270
     1
271
     1
  0
XRECORD
  5
8D
102
{ACAD_REACTORS
330
88
102
}
330
88
100
AcDbXrecord
280
     1
270
     1
271
     1
  0
XRECORD
  5
8C
102
{ACAD_REACTORS
330
88
102
}
330
88
100
AcDbXrecord
280
     1
270
     1
271
     1
  0
XRECORD
  5
8E
102
{ACAD_REACTORS
330
88
102
}
330
88
100
AcDbXrecord
280
     1
270
     1
271
     1
  0
XRECORD
  5
8B
102
{ACAD_REACTORS
330
88
102
}
330
88
100
AcDbXrecord
280
     1
270
     1
271
     1
  0
XRECORD
  5
9A
102
{ACAD_REACTORS
330
98
102
}
330
98
100
AcDbXrecord
280
     1
270
     1
271
     1
  0
XRECORD
  5
99
102
{ACAD_REACTORS
330
98
102
}
330
98
100
AcDbXrecord
280
     1
270
     1
271
     1
  0
XRECORD
  5
9D
102
{ACAD_REACTORS
330
98
102
}
330
98
100
AcDbXrecord
280
     1
270
     1
271
     1
  0
XRECORD
  5
9C
102
{ACAD_REACTORS
330
98
102
}
330
98
100
AcDbXrecord
280
     1
270
     1
271
     1
  0
XRECORD
  5
9E
102
{ACAD_REACTORS
330
98
102
}
330
98
100
AcDbXrecord
280
     1
270
     1
271
     1
  0
XRECORD
  5
9B
102
{ACAD_REACTORS
330
98
102
}
330
98
100
AcDbXrecord
280
     1
270
     1
271
     1
  0
CELLSTYLEMAP
  5
189
102
{ACAD_REACTORS
330
188
102
}
330
188
100
AcDbCellStyleMap
 90
        3
300
CELLSTYLE
  1
TABLEFORMAT_BEGIN
 90
        5
170
     1
 91
        0
 92
    32768
 62
   257
 93
        1
300
CONTENTFORMAT
  1
CONTENTFORMAT_BEGIN
 90
        0
 91
        0
 92
      512
 93
        0
300

 40
0.0
140
1.0
 94
        5
 62
     0
340
12
144
0.25
309
CONTENTFORMAT_END
171
     0
 94
        0
309
TABLEFORMAT_END
  1
CELLSTYLE_BEGIN
 90
        1
 91
        1
300
_TITLE
309
CELLSTYLE_END
300
CELLSTYLE
  1
TABLEFORMAT_BEGIN
 90
        5
170
     1
 91
        0
 92
        0
 62
   257
 93
        1
300
CONTENTFORMAT
  1
CONTENTFORMAT_BEGIN
 90
        0
 91
        0
 92
      512
 93
        0
300

 40
0.0
140
1.0
 94
        5
 62
     0
340
12
144
0.18
309
CONTENTFORMAT_END
171
     0
 94
        0
309
TABLEFORMAT_END
  1
CELLSTYLE_BEGIN
 90
        2
 91
        1
300
_HEADER
309
CELLSTYLE_END
300
CELLSTYLE
  1
TABLEFORMAT_BEGIN
 90
        5
170
     1
 91
        0
 92
        0
 62
   257
 93
        1
300
CONTENTFORMAT
  1
CONTENTFORMAT_BEGIN
 90
        0
 91
        0
 92
      512
 93
        0
300

 40
0.0
140
1.0
 94
        2
 62
     0
340
12
144
0.18
309
CONTENTFORMAT_END
171
     0
 94
        0
309
TABLEFORMAT_END
  1
CELLSTYLE_BEGIN
 90
        3
 91
        2
300
_DATA
309
CELLSTYLE_END
  0
ENDSEC
  0
EOF
