  0
SECTION
  2
HEADER
  9
$ACADVER
  1
AC1032
  9
$ACADMAINTVER
 90
      155
  9
$DWGCODEPAGE
  3
ANSI_1252
  9
$LASTSAVEDBY
  1
falinoori
  9
$REQUIREDVERSIONS
160
                 0
  9
$INSBASE
 10
2808.900109522842
 20
-20.57465467126133
 30
0.0
  9
$EXTMIN
 10
2580.531603411166
 20
-172.8222733674644
 30
0.0
  9
$EXTMAX
 10
3772.270633504581
 20
191.0902574962056
 30
0.0
  9
$LIMMIN
 10
0.0
 20
0.0
  9
$LIMMAX
 10
12.0
 20
9.0
  9
$ORTHOMODE
 70
     0
  9
$REGENMODE
 70
     1
  9
$FILLMODE
 70
     1
  9
$QTEXTMODE
 70
     0
  9
$MIRRTEXT
 70
     1
  9
$LTSCALE
 40
1.0
  9
$ATTMODE
 70
     1
  9
$TEXTSIZE
 40
9.0
  9
$TRACEWID
 40
0.05
  9
$TEXTSTYLE
  7
Standard
  9
$CLAYER
  8
DDIMS
  9
$CELTYPE
  6
ByLayer
  9
$CECOLOR
 62
   256
  9
$CELTSCALE
 40
1.0
  9
$DISPSILH
 70
     0
  9
$DIMSCALE
 40
2.0
  9
$DIMASZ
 40
2.0
  9
$DIMEXO
 40
4.5
  9
$DIMDLI
 40
0.0
  9
$DIMRND
 40
0.5
  9
$DIMDLE
 40
0.0
  9
$DIMEXE
 40
1.5
  9
$DIMTP
 40
0.0
  9
$DIMTM
 40
0.0
  9
$DIMTXT
 40
1.8
  9
$DIMCEN
 40
0.0
  9
$DIMTSZ
 40
0.0
  9
$DIMTOL
 70
     0
  9
$DIMLIM
 70
     0
  9
$DIMTIH
 70
     0
  9
$DIMTOH
 70
     0
  9
$DIMSE1
 70
     0
  9
$DIMSE2
 70
     0
  9
$DIMTAD
 70
     1
  9
$DIMZIN
 70
    12
  9
$DIMBLK
  1

  9
$DIMASO
 70
     1
  9
$DIMSHO
 70
     1
  9
$DIMPOST
  1

  9
$DIMAPOST
  1

  9
$DIMALT
 70
     0
  9
$DIMALTD
 70
     2
  9
$DIMALTF
 40
25.4
  9
$DIMLFAC
 40
1.0
  9
$DIMTOFL
 70
     0
  9
$DIMTVP
 40
0.0
  9
$DIMTIX
 70
     0
  9
$DIMSOXD
 70
     0
  9
$DIMSAH
 70
     0
  9
$DIMBLK1
  1

  9
$DIMBLK2
  1

  9
$DIMSTYLE
  2
1-2
  9
$DIMCLRD
 70
     0
  9
$DIMCLRE
 70
     0
  9
$DIMCLRT
 70
     0
  9
$DIMTFAC
 40
1.25
  9
$DIMGAP
 40
0.8
  9
$DIMJUST
 70
     0
  9
$DIMSD1
 70
     0
  9
$DIMSD2
 70
     0
  9
$DIMTOLJ
 70
     1
  9
$DIMTZIN
 70
    12
  9
$DIMALTZ
 70
    12
  9
$DIMALTTZ
 70
    12
  9
$DIMUPT
 70
     0
  9
$DIMDEC
 70
     4
  9
$DIMTDEC
 70
     4
  9
$DIMALTU
 70
     2
  9
$DIMALTTD
 70
     2
  9
$DIMTXSTY
  7
ROMANS
  9
$DIMAUNIT
 70
     0
  9
$DIMADEC
 70
     0
  9
$DIMALTRND
 40
0.0
  9
$DIMAZIN
 70
     0
  9
$DIMDSEP
 70
    46
  9
$DIMATFIT
 70
     3
  9
$DIMFRAC
 70
     0
  9
$DIMLDRBLK
  1

  9
$DIMLUNIT
 70
     2
  9
$DIMLWD
 70
    -2
  9
$DIMLWE
 70
    -2
  9
$DIMTMOVE
 70
     2
  9
$DIMFXL
 40
1.0
  9
$DIMFXLON
 70
     0
  9
$DIMJOGANG
 40
0.7853981633974483
  9
$DIMTFILL
 70
     0
  9
$DIMTFILLCLR
 70
     0
  9
$DIMARCSYM
 70
     0
  9
$DIMLTYPE
  6

  9
$DIMLTEX1
  6

  9
$DIMLTEX2
  6

  9
$DIMTXTDIRECTION
 70
     0
  9
$LUNITS
 70
     2
  9
$LUPREC
 70
     4
  9
$SKETCHINC
 40
0.1
  9
$FILLETRAD
 40
15.5
  9
$AUNITS
 70
     0
  9
$AUPREC
 70
     0
  9
$MENU
  1
.
  9
$ELEVATION
 40
0.0
  9
$PELEVATION
 40
0.0
  9
$THICKNESS
 40
0.0
  9
$LIMCHECK
 70
     0
  9
$CHAMFERA
 40
0.0
  9
$CHAMFERB
 40
0.0
  9
$CHAMFERC
 40
1.0
  9
$CHAMFERD
 40
0.0
  9
$SKPOLY
 70
     0
  9
$TDCREATE
 40
2452516.942013889
  9
$TDUCREATE
 40
2452516.525357234
  9
$TDUPDATE
 40
2459590.451527778
  9
$TDUUPDATE
 40
2459589.993194445
  9
$TDINDWG
 40
0.2276390278
  9
$TDUSRTIMER
 40
0.2276366782
  9
$USRTIMER
 70
     1
  9
$ANGBASE
 50
0.0
  9
$ANGDIR
 70
     0
  9
$PDMODE
 70
     0
  9
$PDSIZE
 40
0.0
  9
$PLINEWID
 40
0.0
  9
$SPLFRAME
 70
     0
  9
$SPLINETYPE
 70
     6
  9
$SPLINESEGS
 70
     8
  9
$HANDSEED
  5
354
  9
$SURFTAB1
 70
     6
  9
$SURFTAB2
 70
     6
  9
$SURFTYPE
 70
     6
  9
$SURFU
 70
     6
  9
$SURFV
 70
     6
  9
$UCSBASE
  2

  9
$UCSNAME
  2

  9
$UCSORG
 10
0.0
 20
0.0
 30
0.0
  9
$UCSXDIR
 10
1.0
 20
0.0
 30
0.0
  9
$UCSYDIR
 10
0.0
 20
1.0
 30
0.0
  9
$UCSORTHOREF
  2

  9
$UCSORTHOVIEW
 70
     0
  9
$UCSORGTOP
 10
0.0
 20
0.0
 30
0.0
  9
$UCSORGBOTTOM
 10
0.0
 20
0.0
 30
0.0
  9
$UCSORGLEFT
 10
0.0
 20
0.0
 30
0.0
  9
$UCSORGRIGHT
 10
0.0
 20
0.0
 30
0.0
  9
$UCSORGFRONT
 10
0.0
 20
0.0
 30
0.0
  9
$UCSORGBACK
 10
0.0
 20
0.0
 30
0.0
  9
$PUCSBASE
  2

  9
$PUCSNAME
  2

  9
$PUCSORG
 10
0.0
 20
0.0
 30
0.0
  9
$PUCSXDIR
 10
1.0
 20
0.0
 30
0.0
  9
$PUCSYDIR
 10
0.0
 20
1.0
 30
0.0
  9
$PUCSORTHOREF
  2

  9
$PUCSORTHOVIEW
 70
     0
  9
$PUCSORGTOP
 10
0.0
 20
0.0
 30
0.0
  9
$PUCSORGBOTTOM
 10
0.0
 20
0.0
 30
0.0
  9
$PUCSORGLEFT
 10
0.0
 20
0.0
 30
0.0
  9
$PUCSORGRIGHT
 10
0.0
 20
0.0
 30
0.0
  9
$PUCSORGFRONT
 10
0.0
 20
0.0
 30
0.0
  9
$PUCSORGBACK
 10
0.0
 20
0.0
 30
0.0
  9
$USERI1
 70
     0
  9
$USERI2
 70
     0
  9
$USERI3
 70
     0
  9
$USERI4
 70
     0
  9
$USERI5
 70
     0
  9
$USERR1
 40
0.0
  9
$USERR2
 40
0.0
  9
$USERR3
 40
0.0
  9
$USERR4
 40
0.0
  9
$USERR5
 40
0.0
  9
$WORLDVIEW
 70
     1
  9
$SHADEDGE
 70
     3
  9
$SHADEDIF
 70
    70
  9
$TILEMODE
 70
     1
  9
$MAXACTVP
 70
    64
  9
$PINSBASE
 10
0.0
 20
0.0
 30
0.0
  9
$PLIMCHECK
 70
     0
  9
$PEXTMIN
 10
7.777105839157954
 20
0.5792682657111623
 30
0.0
  9
$PEXTMAX
 10
197.6550712950588
 20
283.6213344614825
 30
0.0
  9
$PLIMMIN
 10
-1.784982416891718
 20
-7.730023936247521
  9
$PLIMMAX
 10
208.188345219827
 20
289.2382988176588
  9
$UNITMODE
 70
     0
  9
$VISRETAIN
 70
     1
  9
$PLINEGEN
 70
     0
  9
$PSLTSCALE
 70
     0
  9
$TREEDEPTH
 70
  3020
  9
$CMLSTYLE
  2
Standard
  9
$CMLJUST
 70
     0
  9
$CMLSCALE
 40
1.0
  9
$PROXYGRAPHICS
 70
     1
  9
$MEASUREMENT
 70
     1
  9
$CELWEIGHT
370
    -1
  9
$ENDCAPS
280
     0
  9
$JOINSTYLE
280
     0
  9
$LWDISPLAY
290
     0
  9
$INSUNITS
 70
     1
  9
$HYPERLINKBASE
  1

  9
$STYLESHEET
  1

  9
$XEDIT
290
     1
  9
$CEPSNTYPE
380
     0
  9
$PSTYLEMODE
290
     1
  9
$FINGERPRINTGUID
  2
{0F8F7604-0E20-11D5-8D50-00105A3DEFE9}
  9
$VERSIONGUID
  2
{3C2402D7-4766-0E4A-B3DF-5DAD5B39BFE5}
  9
$EXTNAMES
290
     1
  9
$PSVPSCALE
 40
0.0
  9
$OLESTARTUP
290
     0
  9
$SORTENTS
280
   127
  9
$INDEXCTL
280
     0
  9
$HIDETEXT
280
     0
  9
$XCLIPFRAME
280
     2
  9
$HALOGAP
280
     0
  9
$OBSCOLOR
 70
   257
  9
$OBSLTYPE
280
     0
  9
$INTERSECTIONDISPLAY
280
     0
  9
$INTERSECTIONCOLOR
 70
   257
  9
$DIMASSOC
280
     1
  9
$PROJECTNAME
  1

  9
$CAMERADISPLAY
290
     0
  9
$LENSLENGTH
 40
50.0
  9
$CAMERAHEIGHT
 40
0.0
  9
$STEPSPERSEC
 40
2.0
  9
$STEPSIZE
 40
6.0
  9
$3DDWFPREC
 40
2.0
  9
$PSOLWIDTH
 40
0.25
  9
$PSOLHEIGHT
 40
4.0
  9
$LOFTANG1
 40
1.570796326794896
  9
$LOFTANG2
 40
1.570796326794896
  9
$LOFTMAG1
 40
0.0
  9
$LOFTMAG2
 40
0.0
  9
$LOFTPARAM
 70
     7
  9
$LOFTNORMALS
280
     1
  9
$LATITUDE
 40
37.795
  9
$LONGITUDE
 40
-122.394
  9
$NORTHDIRECTION
 40
0.0
  9
$TIMEZONE
 70
 -8000
  9
$LIGHTGLYPHDISPLAY
280
     1
  9
$TILEMODELIGHTSYNCH
280
     1
  9
$CMATERIAL
347
153
  9
$SOLIDHIST
280
     0
  9
$SHOWHIST
280
     1
  9
$DWFFRAME
280
     2
  9
$DGNFRAME
280
     0
  9
$REALWORLDSCALE
290
     1
  9
$INTERFERECOLOR
 62
     1
  9
$INTERFEREOBJVS
345
175
  9
$INTERFEREVPVS
346
172
  9
$CSHADOW
280
     0
  9
$SHADOWPLANELOCATION
 40
0.0
  0
ENDSEC
  0
SECTION
  2
CLASSES
  0
CLASS
  1
ACDBDICTIONARYWDFLT
  2
AcDbDictionaryWithDefault
  3
ObjectDBX Classes
 90
        0
 91
        1
280
     0
281
     0
  0
CLASS
  1
DICTIONARYVAR
  2
AcDbDictionaryVar
  3
ObjectDBX Classes
 90
        0
 91
       27
280
     0
281
     0
  0
CLASS
  1
PLOTSETTINGS
  2
AcDbPlotSettings
  3
ObjectDBX Classes
 90
        0
 91
        0
280
     0
281
     0
  0
CLASS
  1
MATERIAL
  2
AcDbMaterial
  3
ObjectDBX Classes
 90
     1153
 91
        3
280
     0
281
     0
  0
CLASS
  1
VISUALSTYLE
  2
AcDbVisualStyle
  3
ObjectDBX Classes
 90
     4095
 91
       24
280
     0
281
     0
  0
CLASS
  1
TABLESTYLE
  2
AcDbTableStyle
  3
ObjectDBX Classes
 90
     4095
 91
        1
280
     0
281
     0
  0
CLASS
  1
SCALE
  2
AcDbScale
  3
ObjectDBX Classes
 90
     1153
 91
       17
280
     0
281
     0
  0
CLASS
  1
MLEADERSTYLE
  2
AcDbMLeaderStyle
  3
ACDB_MLEADERSTYLE_CLASS
 90
     4095
 91
        1
280
     0
281
     0
  0
CLASS
  1
ACDBSECTIONVIEWSTYLE
  2
AcDbSectionViewStyle
  3
ObjectDBX Classes
 90
     1025
 91
        2
280
     0
281
     0
  0
CLASS
  1
ACDBDETAILVIEWSTYLE
  2
AcDbDetailViewStyle
  3
ObjectDBX Classes
 90
     1025
 91
        2
280
     0
281
     0
  0
CLASS
  1
ACDB_TEXTOBJECTCONTEXTDATA_CLASS
  2
AcDbTextObjectContextData
  3
ObjectDBX Classes
 90
     1153
 91
       32
280
     0
281
     0
  0
CLASS
  1
CELLSTYLEMAP
  2
AcDbCellStyleMap
  3
ObjectDBX Classes
 90
     1152
 91
        1
280
     0
281
     0
  0
ENDSEC
  0
SECTION
  2
TABLES
  0
TABLE
  2
VPORT
  5
19
330
0
100
AcDbSymbolTable
 70
     1
  0
VPORT
  5
1A
330
19
100
AcDbSymbolTableRecord
100
AcDbViewportTableRecord
  2
*Active
 70
     0
 10
0.0
 20
0.0
 11
1.0
 21
1.0
 12
3524.302495974854
 22
-4.886940766672069
 13
0.0
 23
0.0
 14
0.5
 24
0.5
 15
0.5
 25
0.5
 16
0.0
 26
0.0
 36
1.0
 17
0.0
 27
0.0
 37
0.0
 40
570.0472750110848
 41
1.787234042553191
 42
50.0
 43
0.0
 44
0.0
 50
0.0
 51
0.0
 71
     0
 72
   100
 73
     1
 74
     3
 75
     0
 76
     0
 77
     0
 78
     1
281
     0
 65
     1
110
0.0
120
0.0
130
0.0
111
1.0
121
0.0
131
0.0
112
0.0
122
1.0
132
0.0
 79
     0
146
0.0
348
171
 60
     3
 61
     5
292
     1
282
     1
141
0.0
142
0.0
 63
   250
421
  3355443
1001
ACAD_NAV_VCDISPLAY
1070
     3
  0
ENDTAB
  0
TABLE
  2
LTYPE
  5
14
330
0
100
AcDbSymbolTable
 70
     4
  0
LTYPE
  5
15
330
14
100
AcDbSymbolTableRecord
100
AcDbLinetypeTableRecord
  2
ByBlock
 70
     0
  3

 72
    65
 73
     0
 40
0.0
  0
LTYPE
  5
16
330
14
100
AcDbSymbolTableRecord
100
AcDbLinetypeTableRecord
  2
ByLayer
 70
     0
  3

 72
    65
 73
     0
 40
0.0
  0
LTYPE
  5
8
330
14
100
AcDbSymbolTableRecord
100
AcDbLinetypeTableRecord
  2
Continuous
 70
     0
  3
Solid line
 72
    65
 73
     0
 40
0.0
  0
LTYPE
  5
FF
330
14
100
AcDbSymbolTableRecord
100
AcDbLinetypeTableRecord
  2
CENTER2
 70
     0
  3
___ _ ___ _ ___ _ ___ _ ___ _ ___ _ ___ _ ___ _
 72
    65
 73
     4
 40
28.575
 49
19.05
 74
     0
 49
-3.174999999999999
 74
     0
 49
3.174999999999999
 74
     0
 49
-3.174999999999999
 74
     0
  0
LTYPE
  5
120
330
14
100
AcDbSymbolTableRecord
100
AcDbLinetypeTableRecord
  2
HIDDEN
 70
     0
  3
__ __ __ __ __ __ __ __ __ __ __ __ __ __ __ __
 72
    65
 73
     2
 40
9.524999999999998
 49
6.349999999999999
 74
     0
 49
-3.174999999999999
 74
     0
  0
ENDTAB
  0
TABLE
  2
LAYER
  5
10
102
{ACAD_XDICTIONARY
360
1A7
102
}
330
0
100
AcDbSymbolTable
 70
    11
  0
LAYER
  5
4
102
{ACAD_XDICTIONARY
360
334
102
}
330
10
100
AcDbSymbolTableRecord
100
AcDbLayerTableRecord
  2
0
 70
     0
 62
     7
  6
Continuous
370
    -3
390
5
347
163
348
0
  0
LAYER
  5
3A
330
10
100
AcDbSymbolTableRecord
100
AcDbLayerTableRecord
  2
Defpoints
 70
     0
 62
     7
  6
Continuous
290
     0
370
    -3
390
5
347
163
348
0
  0
LAYER
  5
27
102
{ACAD_XDICTIONARY
360
336
102
}
330
10
100
AcDbSymbolTableRecord
100
AcDbLayerTableRecord
  2
DDIMS
 70
     0
 62
     2
  6
Continuous
370
    -3
390
5
347
163
348
0
  0
LAYER
  5
31
102
{ACAD_XDICTIONARY
360
338
102
}
330
10
100
AcDbSymbolTableRecord
100
AcDbLayerTableRecord
  2
DIMS
 70
     0
 62
     2
  6
Continuous
370
    -3
390
5
347
163
348
0
  0
LAYER
  5
11B
102
{ACAD_XDICTIONARY
360
33A
102
}
330
10
100
AcDbSymbolTableRecord
100
AcDbLayerTableRecord
  2
ANCON-DSD
 70
     0
 62
     3
  6
Continuous
370
    -3
390
5
347
163
348
0
  0
LAYER
  5
AE
102
{ACAD_XDICTIONARY
360
33C
102
}
330
10
100
AcDbSymbolTableRecord
100
AcDbLayerTableRecord
  2
SPECP
 70
     0
 62
     6
  6
Continuous
370
    -3
390
5
347
163
348
0
  0
LAYER
  5
B2
102
{ACAD_XDICTIONARY
360
33E
102
}
330
10
100
AcDbSymbolTableRecord
100
AcDbLayerTableRecord
  2
SPECD
 70
     0
 62
     6
  6
Continuous
370
    -3
390
5
347
163
348
0
  0
LAYER
  5
91
102
{ACAD_XDICTIONARY
360
340
102
}
330
10
100
AcDbSymbolTableRecord
100
AcDbLayerTableRecord
  2
CONCRETE
 70
     0
 62
     2
  6
Continuous
370
    -3
390
5
347
163
348
0
  0
LAYER
  5
2A
102
{ACAD_XDICTIONARY
360
342
102
}
330
10
100
AcDbSymbolTableRecord
100
AcDbLayerTableRecord
  2
20MM-JOINT
 70
     0
 62
     7
  6
Continuous
370
    -3
390
5
347
163
348
0
  0
LAYER
  5
40
102
{ACAD_XDICTIONARY
360
344
102
}
330
10
100
AcDbSymbolTableRecord
100
AcDbLayerTableRecord
  2
20MM-DIMS
 70
     0
 62
     1
  6
Continuous
370
    -3
390
5
347
163
348
0
  0
LAYER
  5
1A2
102
{ACAD_XDICTIONARY
360
1A3
102
}
330
10
100
AcDbSymbolTableRecord
100
AcDbLayerTableRecord
  2
ANCON-TEXT
 70
     0
 62
     6
  6
Continuous
370
    -3
390
5
347
163
348
0
  0
ENDTAB
  0
TABLE
  2
STYLE
  5
11
330
0
100
AcDbSymbolTable
 70
     3
  0
STYLE
  5
12
330
11
100
AcDbSymbolTableRecord
100
AcDbTextStyleTableRecord
  2
Standard
 70
     0
 40
9.0
 41
1.0
 50
0.0
 71
     0
 42
9.0
  3
romans.shx
  4

  0
STYLE
  5
1F
330
11
100
AcDbSymbolTableRecord
100
AcDbTextStyleTableRecord
  2
ROMANS
 70
     0
 40
0.0
 41
1.0
 50
0.0
 71
     0
 42
18.0
  3
ROMANS.SHX
  4

  0
STYLE
  5
1A4
330
11
100
AcDbSymbolTableRecord
100
AcDbTextStyleTableRecord
  2
ARIAL
 70
     0
 40
5.0
 41
1.0
 50
0.0
 71
     0
 42
5.0
  3
arial.ttf
  4

1001
AcadAnnotative
1000
AnnotativeData
1002
{
1070
     1
1070
     1
1002
}
1001
ACAD
1000
Arial
1071
       34
  0
ENDTAB
  0
TABLE
  2
VIEW
  5
17
330
0
100
AcDbSymbolTable
 70
     0
  0
ENDTAB
  0
TABLE
  2
UCS
  5
18
330
0
100
AcDbSymbolTable
 70
     0
  0
ENDTAB
  0
TABLE
  2
APPID
  5
1B
330
0
100
AcDbSymbolTable
 70
     4
  0
APPID
  5
1C
330
1B
100
AcDbSymbolTableRecord
100
AcDbRegAppTableRecord
  2
ACAD
 70
     0
  0
APPID
  5
1A5
330
1B
100
AcDbSymbolTableRecord
100
AcDbRegAppTableRecord
  2
ACAD_NAV_VCDISPLAY
 70
     0
  0
APPID
  5
1A6
330
1B
100
AcDbSymbolTableRecord
100
AcDbRegAppTableRecord
  2
AcadAnnotative
 70
     0
  0
APPID
  5
274
330
1B
100
AcDbSymbolTableRecord
100
AcDbRegAppTableRecord
  2
ACAD_EXEMPT_FROM_CAD_STANDARDS
 70
     0
  0
ENDTAB
  0
TABLE
  2
DIMSTYLE
  5
1D
330
0
100
AcDbSymbolTable
 70
     4
100
AcDbDimStyleTable
 71
     4
340
1E
340
20
340
21
340
22
  0
DIMSTYLE
105
21
330
1D
100
AcDbSymbolTableRecord
100
AcDbDimStyleTableRecord
  2
1-10
 70
     0
 40
10.0
 41
2.0
 42
4.5
 43
0.0
 44
1.5
 45
1.0
 46
1.25
 73
     0
 74
     0
 77
     1
 78
    12
140
1.8
141
0.0
143
0.04
146
1.25
147
1.0
271
     2
272
     2
279
     2
284
    12
285
    12
286
    12
340
1F
  0
DIMSTYLE
105
22
330
1D
100
AcDbSymbolTableRecord
100
AcDbDimStyleTableRecord
  2
1-1
 70
     0
 41
2.0
 42
4.5
 43
0.0
 44
1.5
 45
1.0
 73
     0
 74
     0
 77
     1
 78
    12
140
1.8
141
0.0
146
1.25
147
0.8
279
     2
284
    12
285
    12
286
    12
340
1F
  0
DIMSTYLE
105
1E
102
{ACAD_REACTORS
330
A0
330
93
330
ED
330
83
330
76
330
68
330
5B
330
4E
330
3F
330
30
330
E0
330
D3
330
C6
330
B9
102
}
330
1D
100
AcDbSymbolTableRecord
100
AcDbDimStyleTableRecord
  2
1-2
 70
     0
 40
2.0
 41
2.0
 42
4.5
 43
0.0
 44
1.5
 45
0.5
 73
     0
 74
     0
 77
     1
 78
    12
140
1.8
141
0.0
146
1.25
147
0.8
279
     2
284
    12
285
    12
286
    12
340
1F
  0
DIMSTYLE
105
20
330
1D
100
AcDbSymbolTableRecord
100
AcDbDimStyleTableRecord
  2
1-5
 70
     0
 40
5.0
 41
2.0
 42
4.5
 43
0.0
 44
1.5
 45
1.0
 73
     0
 74
     0
 77
     1
 78
    12
140
1.8
141
0.0
146
1.25
147
1.0
284
    12
285
    12
286
    12
340
1F
  0
ENDTAB
  0
TABLE
  2
BLOCK_RECORD
  5
1
330
0
100
AcDbSymbolTable
 70
    29
  0
BLOCK_RECORD
  5
2
330
1
100
AcDbSymbolTableRecord
100
AcDbBlockTableRecord
  2
*Model_Space
340
A
 70
     0
280
     1
281
     0
  0
BLOCK_RECORD
  5
C
330
1
100
AcDbSymbolTableRecord
100
AcDbBlockTableRecord
  2
*Paper_Space
340
F
 70
     0
280
     1
281
     0
  0
BLOCK_RECORD
  5
A1
330
1
100
AcDbSymbolTableRecord
100
AcDbBlockTableRecord
  2
*D0
340
0
 70
     0
280
     1
281
     0
  0
BLOCK_RECORD
  5
94
330
1
100
AcDbSymbolTableRecord
100
AcDbBlockTableRecord
  2
*D1
340
0
 70
     0
280
     1
281
     0
  0
BLOCK_RECORD
  5
EE
330
1
100
AcDbSymbolTableRecord
100
AcDbBlockTableRecord
  2
*D2
340
0
 70
     0
280
     1
281
     0
  0
BLOCK_RECORD
  5
84
330
1
100
AcDbSymbolTableRecord
100
AcDbBlockTableRecord
  2
*D3
340
0
 70
     0
280
     1
281
     0
  0
BLOCK_RECORD
  5
77
330
1
100
AcDbSymbolTableRecord
100
AcDbBlockTableRecord
  2
*D4
340
0
 70
     0
280
     1
281
     0
  0
BLOCK_RECORD
  5
69
330
1
100
AcDbSymbolTableRecord
100
AcDbBlockTableRecord
  2
*D5
340
0
 70
     0
280
     1
281
     0
  0
BLOCK_RECORD
  5
5C
330
1
100
AcDbSymbolTableRecord
100
AcDbBlockTableRecord
  2
*D6
340
0
 70
     0
280
     1
281
     0
  0
BLOCK_RECORD
  5
4F
330
1
100
AcDbSymbolTableRecord
100
AcDbBlockTableRecord
  2
*D7
340
0
 70
     0
280
     1
281
     0
  0
BLOCK_RECORD
  5
41
330
1
100
AcDbSymbolTableRecord
100
AcDbBlockTableRecord
  2
*D8
340
0
 70
     0
280
     1
281
     0
  0
BLOCK_RECORD
  5
32
330
1
100
AcDbSymbolTableRecord
100
AcDbBlockTableRecord
  2
*D9
340
0
 70
     0
280
     1
281
     0
  0
BLOCK_RECORD
  5
E1
330
1
100
AcDbSymbolTableRecord
100
AcDbBlockTableRecord
  2
*D10
340
0
 70
     0
280
     1
281
     0
  0
BLOCK_RECORD
  5
D4
330
1
100
AcDbSymbolTableRecord
100
AcDbBlockTableRecord
  2
*D11
340
0
 70
     0
280
     1
281
     0
  0
BLOCK_RECORD
  5
C7
330
1
100
AcDbSymbolTableRecord
100
AcDbBlockTableRecord
  2
*D12
340
0
 70
     0
280
     1
281
     0
  0
BLOCK_RECORD
  5
BA
330
1
100
AcDbSymbolTableRecord
100
AcDbBlockTableRecord
  2
*D13
340
0
 70
     0
280
     1
281
     0
  0
BLOCK_RECORD
  5
276
330
1
100
AcDbSymbolTableRecord
100
AcDbBlockTableRecord
  2
*D15
340
0
 70
     0
280
     1
281
     0
  0
BLOCK_RECORD
  5
282
330
1
100
AcDbSymbolTableRecord
100
AcDbBlockTableRecord
  2
*D16
340
0
 70
     0
280
     1
281
     0
  0
BLOCK_RECORD
  5
28F
330
1
100
AcDbSymbolTableRecord
100
AcDbBlockTableRecord
  2
*D17
340
0
 70
     0
280
     1
281
     0
  0
BLOCK_RECORD
  5
29B
330
1
100
AcDbSymbolTableRecord
100
AcDbBlockTableRecord
  2
*D18
340
0
 70
     0
280
     1
281
     0
  0
BLOCK_RECORD
  5
2A7
330
1
100
AcDbSymbolTableRecord
100
AcDbBlockTableRecord
  2
*D19
340
0
 70
     0
280
     1
281
     0
  0
BLOCK_RECORD
  5
2B4
330
1
100
AcDbSymbolTableRecord
100
AcDbBlockTableRecord
  2
*D20
340
0
 70
     0
280
     1
281
     0
  0
BLOCK_RECORD
  5
2C0
330
1
100
AcDbSymbolTableRecord
100
AcDbBlockTableRecord
  2
*D21
340
0
 70
     0
280
     1
281
     0
  0
BLOCK_RECORD
  5
2CC
330
1
100
AcDbSymbolTableRecord
100
AcDbBlockTableRecord
  2
*D22
340
0
 70
     0
280
     1
281
     0
  0
BLOCK_RECORD
  5
2D8
330
1
100
AcDbSymbolTableRecord
100
AcDbBlockTableRecord
  2
*D23
340
0
 70
     0
280
     1
281
     0
  0
BLOCK_RECORD
  5
2E4
330
1
100
AcDbSymbolTableRecord
100
AcDbBlockTableRecord
  2
*D24
340
0
 70
     0
280
     1
281
     0
  0
BLOCK_RECORD
  5
2F0
330
1
100
AcDbSymbolTableRecord
100
AcDbBlockTableRecord
  2
*D25
340
0
 70
     0
280
     1
281
     0
  0
BLOCK_RECORD
  5
2FC
330
1
100
AcDbSymbolTableRecord
100
AcDbBlockTableRecord
  2
*D26
340
0
 70
     0
280
     1
281
     0
  0
BLOCK_RECORD
  5
308
330
1
100
AcDbSymbolTableRecord
100
AcDbBlockTableRecord
  2
*D27
340
0
 70
     0
280
     1
281
     0
  0
BLOCK_RECORD
  5
314
330
1
100
AcDbSymbolTableRecord
100
AcDbBlockTableRecord
  2
*D28
340
0
 70
     0
280
     1
281
     0
  0
ENDTAB
  0
ENDSEC
  0
SECTION
  2
BLOCKS
  0
BLOCK
  5
3
330
2
100
AcDbEntity
  8
0
100
AcDbBlockBegin
  2
*Model_Space
 70
     0
 10
0.0
 20
0.0
 30
0.0
  3
*Model_Space
  1

  0
ENDBLK
  5
9
330
2
100
AcDbEntity
  8
0
100
AcDbBlockEnd
  0
BLOCK
  5
D
330
C
100
AcDbEntity
 67
     1
  8
0
100
AcDbBlockBegin
  2
*Paper_Space
 70
     0
 10
0.0
 20
0.0
 30
0.0
  3
*Paper_Space
  1

  0
ENDBLK
  5
E
330
C
100
AcDbEntity
 67
     1
  8
0
100
AcDbBlockEnd
  0
BLOCK
  5
AB
330
A1
100
AcDbEntity
  8
0
100
AcDbBlockBegin
  2
*D0
 70
     1
 10
0.0
 20
0.0
 30
0.0
  3
*D0
  1

  0
LINE
  5
A2
330
A1
100
AcDbEntity
  8
DIMS
 62
     0
440
 16777216
370
    -2
100
AcDbLine
 10
2808.900109522842
 20
-94.57465467126132
 30
0.0
 11
2808.900109522842
 21
-147.8778214942289
 31
0.0
  0
LINE
  5
A3
330
A1
100
AcDbEntity
  8
DIMS
 62
     0
440
 16777216
370
    -2
100
AcDbLine
 10
2978.900109522842
 20
-77.058317888436
 30
0.0
 11
2978.900109522842
 21
-147.8778214942289
 31
0.0
  0
LINE
  5
A4
330
A1
100
AcDbEntity
  8
DIMS
 62
     0
440
 16777216
370
    -2
100
AcDbLine
 10
2812.900109522841
 20
-144.8778214942289
 30
0.0
 11
2974.900109522842
 21
-144.8778214942289
 31
0.0
  0
SOLID
  5
A5
330
A1
100
AcDbEntity
  8
DIMS
 62
     0
440
 16777216
100
AcDbTrace
 10
2812.900109522841
 20
-144.2111548275622
 30
0.0
 11
2812.900109522841
 21
-145.5444881608955
 31
0.0
 12
2808.900109522842
 22
-144.8778214942289
 32
0.0
 13
2808.900109522842
 23
-144.8778214942289
 33
0.0
  0
SOLID
  5
A6
330
A1
100
AcDbEntity
  8
DIMS
 62
     0
440
 16777216
100
AcDbTrace
 10
2974.900109522842
 20
-144.2111548275622
 30
0.0
 11
2974.900109522842
 21
-145.5444881608955
 31
0.0
 12
2978.900109522842
 22
-144.8778214942289
 32
0.0
 13
2978.900109522842
 23
-144.8778214942289
 33
0.0
  0
MTEXT
  5
A7
330
A1
100
AcDbEntity
  8
DIMS
 62
     0
440
 16777216
100
AcDbMText
 10
2893.900109522841
 20
-141.4778214942289
 30
0.0
 40
3.6
 41
0.0
 46
0.0
 71
     5
 72
     1
  1
\A1;170
  7
ROMANS
 73
     1
 44
1.0
  0
POINT
  5
A8
330
A1
100
AcDbEntity
  8
Defpoints
 62
     0
440
 16777216
100
AcDbPoint
 10
2808.900109522842
 20
-85.57465467126133
 30
0.0
  0
POINT
  5
A9
330
A1
100
AcDbEntity
  8
Defpoints
 62
     0
440
 16777216
100
AcDbPoint
 10
2978.900109522842
 20
-68.05831788843599
 30
0.0
  0
POINT
  5
AA
330
A1
100
AcDbEntity
  8
Defpoints
 62
     0
440
 16777216
100
AcDbPoint
 10
2978.900109522842
 20
-144.8778214942289
 30
0.0
  0
ENDBLK
  5
AC
330
A1
100
AcDbEntity
  8
0
100
AcDbBlockEnd
  0
BLOCK
  5
9E
330
94
100
AcDbEntity
  8
0
100
AcDbBlockBegin
  2
*D1
 70
     1
 10
0.0
 20
0.0
 30
0.0
  3
*D1
  1

  0
LINE
  5
95
330
94
100
AcDbEntity
  8
DIMS
 62
     0
440
 16777216
370
    -2
100
AcDbLine
 10
2808.900109522842
 20
-94.57465467126132
 30
0.0
 11
2808.900109522842
 21
-135.3778214942289
 31
0.0
  0
LINE
  5
96
330
94
100
AcDbEntity
  8
DIMS
 62
     0
440
 16777216
370
    -2
100
AcDbLine
 10
2963.946697130743
 20
-74.75831788843601
 30
0.0
 11
2963.946697130743
 21
-135.3778214942289
 31
0.0
  0
LINE
  5
97
330
94
100
AcDbEntity
  8
DIMS
 62
     0
440
 16777216
370
    -2
100
AcDbLine
 10
2812.900109522841
 20
-132.3778214942289
 30
0.0
 11
2959.946697130743
 21
-132.3778214942289
 31
0.0
  0
SOLID
  5
98
330
94
100
AcDbEntity
  8
DIMS
 62
     0
440
 16777216
100
AcDbTrace
 10
2812.900109522841
 20
-131.7111548275622
 30
0.0
 11
2812.900109522841
 21
-133.0444881608955
 31
0.0
 12
2808.900109522842
 22
-132.3778214942289
 32
0.0
 13
2808.900109522842
 23
-132.3778214942289
 33
0.0
  0
SOLID
  5
99
330
94
100
AcDbEntity
  8
DIMS
 62
     0
440
 16777216
100
AcDbTrace
 10
2959.946697130743
 20
-131.7111548275622
 30
0.0
 11
2959.946697130743
 21
-133.0444881608955
 31
0.0
 12
2963.946697130743
 22
-132.3778214942289
 32
0.0
 13
2963.946697130743
 23
-132.3778214942289
 33
0.0
  0
MTEXT
  5
9A
330
94
100
AcDbEntity
  8
DIMS
 62
     0
440
 16777216
100
AcDbMText
 10
2886.423403326793
 20
-128.9778214942289
 30
0.0
 40
3.6
 41
0.0
 46
0.0
 71
     5
 72
     1
  1
\A1;155
  7
ROMANS
 73
     1
 44
1.0
  0
POINT
  5
9B
330
94
100
AcDbEntity
  8
Defpoints
 62
     0
440
 16777216
100
AcDbPoint
 10
2808.900109522842
 20
-85.57465467126133
 30
0.0
  0
POINT
  5
9C
330
94
100
AcDbEntity
  8
Defpoints
 62
     0
440
 16777216
100
AcDbPoint
 10
2963.946697130743
 20
-65.75831788843601
 30
0.0
  0
POINT
  5
9D
330
94
100
AcDbEntity
  8
Defpoints
 62
     0
440
 16777216
100
AcDbPoint
 10
2963.946697130743
 20
-132.3778214942289
 30
0.0
  0
ENDBLK
  5
9F
330
94
100
AcDbEntity
  8
0
100
AcDbBlockEnd
  0
BLOCK
  5
F8
330
EE
100
AcDbEntity
  8
0
100
AcDbBlockBegin
  2
*D2
 70
     1
 10
0.0
 20
0.0
 30
0.0
  3
*D2
  1

  0
LINE
  5
EF
330
EE
100
AcDbEntity
  8
DIMS
 62
     0
440
 16777216
370
    -2
100
AcDbLine
 10
2820.900109522842
 20
44.42534532873867
 30
0.0
 11
3046.082846410237
 21
44.42534532873861
 31
0.0
  0
LINE
  5
F0
330
EE
100
AcDbEntity
  8
DIMS
 62
     0
440
 16777216
370
    -2
100
AcDbLine
 10
2820.900109522842
 20
-85.57465467126133
 30
0.0
 11
3046.082846410237
 21
-85.5746546712614
 31
0.0
  0
LINE
  5
F1
330
EE
100
AcDbEntity
  8
DIMS
 62
     0
440
 16777216
370
    -2
100
AcDbLine
 10
3043.082846410237
 20
40.42534532873861
 30
0.0
 11
3043.082846410237
 21
-81.5746546712614
 31
0.0
  0
SOLID
  5
F2
330
EE
100
AcDbEntity
  8
DIMS
 62
     0
440
 16777216
100
AcDbTrace
 10
3042.41617974357
 20
40.42534532873861
 30
0.0
 11
3043.749513076903
 21
40.42534532873861
 31
0.0
 12
3043.082846410237
 22
44.42534532873861
 32
0.0
 13
3043.082846410237
 23
44.42534532873861
 33
0.0
  0
SOLID
  5
F3
330
EE
100
AcDbEntity
  8
DIMS
 62
     0
440
 16777216
100
AcDbTrace
 10
3042.41617974357
 20
-81.5746546712614
 30
0.0
 11
3043.749513076903
 21
-81.5746546712614
 31
0.0
 12
3043.082846410237
 22
-85.5746546712614
 32
0.0
 13
3043.082846410237
 23
-85.5746546712614
 33
0.0
  0
MTEXT
  5
F4
330
EE
100
AcDbEntity
  8
DIMS
 62
     0
440
 16777216
100
AcDbMText
 10
3039.682846410237
 20
-20.5746546712609
 30
0.0
 40
3.6
 41
0.0
 46
0.0
 71
     5
 72
     1
  1
\A1;130
  7
ROMANS
 11
0.0000000000000001
 21
1.0
 31
0.0
 73
     1
 44
1.0
  0
POINT
  5
F5
330
EE
100
AcDbEntity
  8
Defpoints
 62
     0
440
 16777216
100
AcDbPoint
 10
2811.900109522841
 20
44.42534532873867
 30
0.0
  0
POINT
  5
F6
330
EE
100
AcDbEntity
  8
Defpoints
 62
     0
440
 16777216
100
AcDbPoint
 10
2811.900109522841
 20
-85.57465467126133
 30
0.0
  0
POINT
  5
F7
330
EE
100
AcDbEntity
  8
Defpoints
 62
     0
440
 16777216
100
AcDbPoint
 10
3043.082846410237
 20
-85.5746546712614
 30
0.0
  0
ENDBLK
  5
F9
330
EE
100
AcDbEntity
  8
0
100
AcDbBlockEnd
  0
BLOCK
  5
8E
330
84
100
AcDbEntity
  8
0
100
AcDbBlockBegin
  2
*D3
 70
     1
 10
0.0
 20
0.0
 30
0.0
  3
*D3
  1

  0
LINE
  5
85
330
84
100
AcDbEntity
  8
20MM-DIMS
 62
     0
440
 16777216
370
    -2
100
AcDbLine
 10
2638.900109522842
 20
-70.94981634320141
 30
0.0
 11
2638.900109522842
 21
-147.8778214942289
 31
0.0
  0
LINE
  5
86
330
84
100
AcDbEntity
  8
20MM-DIMS
 62
     0
440
 16777216
370
    -2
100
AcDbLine
 10
2788.900109522842
 20
-81.94981634320141
 30
0.0
 11
2788.900109522842
 21
-147.8778214942289
 31
0.0
  0
LINE
  5
87
330
84
100
AcDbEntity
  8
20MM-DIMS
 62
     0
440
 16777216
370
    -2
100
AcDbLine
 10
2642.900109522841
 20
-144.8778214942289
 30
0.0
 11
2784.900109522841
 21
-144.8778214942289
 31
0.0
  0
SOLID
  5
88
330
84
100
AcDbEntity
  8
20MM-DIMS
 62
     0
440
 16777216
100
AcDbTrace
 10
2642.900109522841
 20
-144.2111548275622
 30
0.0
 11
2642.900109522841
 21
-145.5444881608955
 31
0.0
 12
2638.900109522842
 22
-144.8778214942289
 32
0.0
 13
2638.900109522842
 23
-144.8778214942289
 33
0.0
  0
SOLID
  5
89
330
84
100
AcDbEntity
  8
20MM-DIMS
 62
     0
440
 16777216
100
AcDbTrace
 10
2784.900109522841
 20
-144.2111548275622
 30
0.0
 11
2784.900109522841
 21
-145.5444881608955
 31
0.0
 12
2788.900109522842
 22
-144.8778214942289
 32
0.0
 13
2788.900109522842
 23
-144.8778214942289
 33
0.0
  0
MTEXT
  5
8A
330
84
100
AcDbEntity
  8
20MM-DIMS
 62
     0
440
 16777216
100
AcDbMText
 10
2713.900109522842
 20
-141.4778214942289
 30
0.0
 40
3.6
 41
0.0
 46
0.0
 71
     5
 72
     1
  1
\A1;150
  7
ROMANS
 73
     1
 44
1.0
  0
POINT
  5
8B
330
84
100
AcDbEntity
  8
Defpoints
 62
     0
440
 16777216
100
AcDbPoint
 10
2638.900109522842
 20
-61.9498163432014
 30
0.0
  0
POINT
  5
8C
330
84
100
AcDbEntity
  8
Defpoints
 62
     0
440
 16777216
100
AcDbPoint
 10
2788.900109522842
 20
-72.94981634320141
 30
0.0
  0
POINT
  5
8D
330
84
100
AcDbEntity
  8
Defpoints
 62
     0
440
 16777216
100
AcDbPoint
 10
2788.900109522842
 20
-144.8778214942289
 30
0.0
  0
ENDBLK
  5
8F
330
84
100
AcDbEntity
  8
0
100
AcDbBlockEnd
  0
BLOCK
  5
81
330
77
100
AcDbEntity
  8
0
100
AcDbBlockBegin
  2
*D4
 70
     1
 10
0.0
 20
0.0
 30
0.0
  3
*D4
  1

  0
LINE
  5
78
330
77
100
AcDbEntity
  8
20MM-DIMS
 62
     0
440
 16777216
370
    -2
100
AcDbLine
 10
2788.900109522842
 20
-81.94981634320141
 30
0.0
 11
2788.900109522842
 21
-147.8778214942289
 31
0.0
  0
LINE
  5
79
330
77
100
AcDbEntity
  8
20MM-DIMS
 62
     0
440
 16777216
370
    -2
100
AcDbLine
 10
2808.900109522842
 20
-94.57465467126132
 30
0.0
 11
2808.900109522842
 21
-147.8778214942289
 31
0.0
  0
LINE
  5
7A
330
77
100
AcDbEntity
  8
20MM-DIMS
 62
     0
440
 16777216
370
    -2
100
AcDbLine
 10
2792.900109522842
 20
-144.8778214942289
 30
0.0
 11
2804.900109522842
 21
-144.8778214942289
 31
0.0
  0
SOLID
  5
7B
330
77
100
AcDbEntity
  8
20MM-DIMS
 62
     0
440
 16777216
100
AcDbTrace
 10
2792.900109522842
 20
-144.2111548275622
 30
0.0
 11
2792.900109522842
 21
-145.5444881608955
 31
0.0
 12
2788.900109522842
 22
-144.8778214942289
 32
0.0
 13
2788.900109522842
 23
-144.8778214942289
 33
0.0
  0
SOLID
  5
7C
330
77
100
AcDbEntity
  8
20MM-DIMS
 62
     0
440
 16777216
100
AcDbTrace
 10
2804.900109522842
 20
-144.2111548275622
 30
0.0
 11
2804.900109522842
 21
-145.5444881608955
 31
0.0
 12
2808.900109522842
 22
-144.8778214942289
 32
0.0
 13
2808.900109522842
 23
-144.8778214942289
 33
0.0
  0
MTEXT
  5
7D
330
77
100
AcDbEntity
  8
20MM-DIMS
 62
     0
440
 16777216
100
AcDbMText
 10
2798.900109522842
 20
-141.4778214942289
 30
0.0
 40
3.6
 41
0.0
 46
0.0
 71
     5
 72
     1
  1
\A1;20
  7
ROMANS
 73
     1
 44
1.0
  0
POINT
  5
7E
330
77
100
AcDbEntity
  8
Defpoints
 62
     0
440
 16777216
100
AcDbPoint
 10
2788.900109522842
 20
-72.94981634320141
 30
0.0
  0
POINT
  5
7F
330
77
100
AcDbEntity
  8
Defpoints
 62
     0
440
 16777216
100
AcDbPoint
 10
2808.900109522842
 20
-85.57465467126133
 30
0.0
  0
POINT
  5
80
330
77
100
AcDbEntity
  8
Defpoints
 62
     0
440
 16777216
100
AcDbPoint
 10
2808.900109522842
 20
-144.8778214942289
 30
0.0
  0
ENDBLK
  5
82
330
77
100
AcDbEntity
  8
0
100
AcDbBlockEnd
  0
BLOCK
  5
74
330
69
100
AcDbEntity
  8
0
100
AcDbBlockBegin
  2
*D5
 70
     1
 10
0.0
 20
0.0
 30
0.0
  3
*D5
  1

  0
LINE
  5
6A
330
69
100
AcDbEntity
  8
DIMS
 62
     0
440
 16777216
370
    -2
100
AcDbLine
 10
2811.900109522841
 20
-94.57465467126132
 30
0.0
 11
2811.900109522841
 21
-122.7597638611295
 31
0.0
  0
LINE
  5
6B
330
69
100
AcDbEntity
  8
DIMS
 62
     0
440
 16777216
370
    -2
100
AcDbLine
 10
2808.900109522842
 20
-94.57465467126132
 30
0.0
 11
2808.900109522842
 21
-122.7597638611295
 31
0.0
  0
LINE
  5
6C
330
69
100
AcDbEntity
  8
DIMS
 62
     0
440
 16777216
370
    -2
100
AcDbLine
 10
2815.900109522841
 20
-119.7597638611294
 30
0.0
 11
2819.900109522841
 21
-119.7597638611294
 31
0.0
  0
LINE
  5
6D
330
69
100
AcDbEntity
  8
DIMS
 62
     0
440
 16777216
370
    -2
100
AcDbLine
 10
2804.900109522842
 20
-119.7597638611294
 30
0.0
 11
2800.900109522841
 21
-119.7597638611294
 31
0.0
  0
MTEXT
  5
6E
330
69
100
AcDbEntity
  8
DIMS
 62
     0
440
 16777216
100
AcDbMText
 10
2802.82578737841
 20
-116.7597638611294
 30
0.0
 40
3.6
 41
0.0
 46
0.0
 71
     5
 72
     1
  1
\A1;3
  7
ROMANS
 73
     1
 44
1.0
  0
SOLID
  5
6F
330
69
100
AcDbEntity
  8
DIMS
 62
     0
440
 16777216
100
AcDbTrace
 10
2815.900109522841
 20
-119.0930971944628
 30
0.0
 11
2815.900109522841
 21
-120.4264305277961
 31
0.0
 12
2811.900109522841
 22
-119.7597638611294
 32
0.0
 13
2811.900109522841
 23
-119.7597638611294
 33
0.0
  0
SOLID
  5
70
330
69
100
AcDbEntity
  8
DIMS
 62
     0
440
 16777216
100
AcDbTrace
 10
2804.900109522842
 20
-119.0930971944628
 30
0.0
 11
2804.900109522842
 21
-120.4264305277961
 31
0.0
 12
2808.900109522842
 22
-119.7597638611294
 32
0.0
 13
2808.900109522842
 23
-119.7597638611294
 33
0.0
  0
POINT
  5
71
330
69
100
AcDbEntity
  8
Defpoints
 62
     0
440
 16777216
100
AcDbPoint
 10
2811.900109522841
 20
-85.57465467126133
 30
0.0
  0
POINT
  5
72
330
69
100
AcDbEntity
  8
Defpoints
 62
     0
440
 16777216
100
AcDbPoint
 10
2808.900109522842
 20
-85.57465467126133
 30
0.0
  0
POINT
  5
73
330
69
100
AcDbEntity
  8
Defpoints
 62
     0
440
 16777216
100
AcDbPoint
 10
2808.900109522842
 20
-119.7597638611294
 30
0.0
  0
ENDBLK
  5
75
330
69
100
AcDbEntity
  8
0
100
AcDbBlockEnd
  0
BLOCK
  5
66
330
5C
100
AcDbEntity
  8
0
100
AcDbBlockBegin
  2
*D6
 70
     1
 10
0.0
 20
0.0
 30
0.0
  3
*D6
  1

  0
LINE
  5
5D
330
5C
100
AcDbEntity
  8
20MM-DIMS
 62
     0
440
 16777216
370
    -2
100
AcDbLine
 10
2783.900109522841
 20
-81.94981634320141
 30
0.0
 11
2783.900109522841
 21
-122.7597638611295
 31
0.0
  0
LINE
  5
5E
330
5C
100
AcDbEntity
  8
20MM-DIMS
 62
     0
440
 16777216
370
    -2
100
AcDbLine
 10
2755.900109522841
 20
-44.45331644247639
 30
0.0
 11
2755.900109522841
 21
-122.7597638611295
 31
0.0
  0
LINE
  5
5F
330
5C
100
AcDbEntity
  8
20MM-DIMS
 62
     0
440
 16777216
370
    -2
100
AcDbLine
 10
2779.900109522842
 20
-119.7597638611294
 30
0.0
 11
2759.900109522841
 21
-119.7597638611294
 31
0.0
  0
SOLID
  5
60
330
5C
100
AcDbEntity
  8
20MM-DIMS
 62
     0
440
 16777216
100
AcDbTrace
 10
2779.900109522842
 20
-119.0930971944628
 30
0.0
 11
2779.900109522842
 21
-120.4264305277961
 31
0.0
 12
2783.900109522841
 22
-119.7597638611294
 32
0.0
 13
2783.900109522841
 23
-119.7597638611294
 33
0.0
  0
SOLID
  5
61
330
5C
100
AcDbEntity
  8
20MM-DIMS
 62
     0
440
 16777216
100
AcDbTrace
 10
2759.900109522841
 20
-119.0930971944628
 30
0.0
 11
2759.900109522841
 21
-120.4264305277961
 31
0.0
 12
2755.900109522841
 22
-119.7597638611294
 32
0.0
 13
2755.900109522841
 23
-119.7597638611294
 33
0.0
  0
MTEXT
  5
62
330
5C
100
AcDbEntity
  8
20MM-DIMS
 62
     0
440
 16777216
100
AcDbMText
 10
2769.900109522842
 20
-116.3597638611294
 30
0.0
 40
3.6
 41
0.0
 46
0.0
 71
     5
 72
     1
  1
\A1;28
  7
ROMANS
 73
     1
 44
1.0
  0
POINT
  5
63
330
5C
100
AcDbEntity
  8
Defpoints
 62
     0
440
 16777216
100
AcDbPoint
 10
2783.900109522841
 20
-72.94981634320141
 30
0.0
  0
POINT
  5
64
330
5C
100
AcDbEntity
  8
Defpoints
 62
     0
440
 16777216
100
AcDbPoint
 10
2755.900109522841
 20
-35.45331644247639
 30
0.0
  0
POINT
  5
65
330
5C
100
AcDbEntity
  8
Defpoints
 62
     0
440
 16777216
100
AcDbPoint
 10
2755.900109522841
 20
-119.7597638611294
 30
0.0
  0
ENDBLK
  5
67
330
5C
100
AcDbEntity
  8
0
100
AcDbBlockEnd
  0
BLOCK
  5
59
330
4F
100
AcDbEntity
  8
0
100
AcDbBlockBegin
  2
*D7
 70
     1
 10
0.0
 20
0.0
 30
0.0
  3
*D7
  1

  0
LINE
  5
50
330
4F
100
AcDbEntity
  8
20MM-DIMS
 62
     0
440
 16777216
370
    -2
100
AcDbLine
 10
2755.900109522841
 20
-44.45331644247639
 30
0.0
 11
2755.900109522841
 21
-122.7597638611295
 31
0.0
  0
LINE
  5
51
330
4F
100
AcDbEntity
  8
20MM-DIMS
 62
     0
440
 16777216
370
    -2
100
AcDbLine
 10
2723.900109522841
 20
-44.45331644247628
 30
0.0
 11
2723.900109522841
 21
-122.7597638611295
 31
0.0
  0
LINE
  5
52
330
4F
100
AcDbEntity
  8
20MM-DIMS
 62
     0
440
 16777216
370
    -2
100
AcDbLine
 10
2751.900109522841
 20
-119.7597638611294
 30
0.0
 11
2727.900109522841
 21
-119.7597638611294
 31
0.0
  0
SOLID
  5
53
330
4F
100
AcDbEntity
  8
20MM-DIMS
 62
     0
440
 16777216
100
AcDbTrace
 10
2751.900109522841
 20
-119.0930971944628
 30
0.0
 11
2751.900109522841
 21
-120.4264305277961
 31
0.0
 12
2755.900109522841
 22
-119.7597638611294
 32
0.0
 13
2755.900109522841
 23
-119.7597638611294
 33
0.0
  0
SOLID
  5
54
330
4F
100
AcDbEntity
  8
20MM-DIMS
 62
     0
440
 16777216
100
AcDbTrace
 10
2727.900109522841
 20
-119.0930971944628
 30
0.0
 11
2727.900109522841
 21
-120.4264305277961
 31
0.0
 12
2723.900109522841
 22
-119.7597638611294
 32
0.0
 13
2723.900109522841
 23
-119.7597638611294
 33
0.0
  0
MTEXT
  5
55
330
4F
100
AcDbEntity
  8
20MM-DIMS
 62
     0
440
 16777216
100
AcDbMText
 10
2739.900109522841
 20
-116.3597638611294
 30
0.0
 40
3.6
 41
0.0
 46
0.0
 71
     5
 72
     1
  1
\A1;32
  7
ROMANS
 73
     1
 44
1.0
  0
POINT
  5
56
330
4F
100
AcDbEntity
  8
Defpoints
 62
     0
440
 16777216
100
AcDbPoint
 10
2755.900109522841
 20
-35.45331644247639
 30
0.0
  0
POINT
  5
57
330
4F
100
AcDbEntity
  8
Defpoints
 62
     0
440
 16777216
100
AcDbPoint
 10
2723.900109522841
 20
-35.45331644247628
 30
0.0
  0
POINT
  5
58
330
4F
100
AcDbEntity
  8
Defpoints
 62
     0
440
 16777216
100
AcDbPoint
 10
2723.900109522841
 20
-119.7597638611294
 30
0.0
  0
ENDBLK
  5
5A
330
4F
100
AcDbEntity
  8
0
100
AcDbBlockEnd
  0
BLOCK
  5
4C
330
41
100
AcDbEntity
  8
0
100
AcDbBlockBegin
  2
*D8
 70
     1
 10
0.0
 20
0.0
 30
0.0
  3
*D8
  1

  0
LINE
  5
42
330
41
100
AcDbEntity
  8
20MM-DIMS
 62
     0
440
 16777216
370
    -2
100
AcDbLine
 10
2783.900109522841
 20
-81.94981634320141
 30
0.0
 11
2783.900109522841
 21
-122.7597638611295
 31
0.0
  0
LINE
  5
43
330
41
100
AcDbEntity
  8
20MM-DIMS
 62
     0
440
 16777216
370
    -2
100
AcDbLine
 10
2788.900109522842
 20
-81.94981634320141
 30
0.0
 11
2788.900109522842
 21
-122.7597638611295
 31
0.0
  0
LINE
  5
44
330
41
100
AcDbEntity
  8
20MM-DIMS
 62
     0
440
 16777216
370
    -2
100
AcDbLine
 10
2779.900109522842
 20
-119.7597638611294
 30
0.0
 11
2775.900109522841
 21
-119.7597638611294
 31
0.0
  0
LINE
  5
45
330
41
100
AcDbEntity
  8
20MM-DIMS
 62
     0
440
 16777216
370
    -2
100
AcDbLine
 10
2792.900109522842
 20
-119.7597638611294
 30
0.0
 11
2796.900109522841
 21
-119.7597638611294
 31
0.0
  0
MTEXT
  5
46
330
41
100
AcDbEntity
  8
20MM-DIMS
 62
     0
440
 16777216
100
AcDbMText
 10
2794.824968369522
 20
-116.7597638611294
 30
0.0
 40
3.6
 41
0.0
 46
0.0
 71
     5
 72
     1
  1
\A1;5
  7
ROMANS
 73
     1
 44
1.0
  0
SOLID
  5
47
330
41
100
AcDbEntity
  8
20MM-DIMS
 62
     0
440
 16777216
100
AcDbTrace
 10
2779.900109522842
 20
-119.0930971944628
 30
0.0
 11
2779.900109522842
 21
-120.4264305277961
 31
0.0
 12
2783.900109522841
 22
-119.7597638611294
 32
0.0
 13
2783.900109522841
 23
-119.7597638611294
 33
0.0
  0
SOLID
  5
48
330
41
100
AcDbEntity
  8
20MM-DIMS
 62
     0
440
 16777216
100
AcDbTrace
 10
2792.900109522842
 20
-119.0930971944628
 30
0.0
 11
2792.900109522842
 21
-120.4264305277961
 31
0.0
 12
2788.900109522842
 22
-119.7597638611294
 32
0.0
 13
2788.900109522842
 23
-119.7597638611294
 33
0.0
  0
POINT
  5
49
330
41
100
AcDbEntity
  8
Defpoints
 62
     0
440
 16777216
100
AcDbPoint
 10
2783.900109522841
 20
-72.94981634320141
 30
0.0
  0
POINT
  5
4A
330
41
100
AcDbEntity
  8
Defpoints
 62
     0
440
 16777216
100
AcDbPoint
 10
2788.900109522842
 20
-72.94981634320141
 30
0.0
  0
POINT
  5
4B
330
41
100
AcDbEntity
  8
Defpoints
 62
     0
440
 16777216
100
AcDbPoint
 10
2788.900109522842
 20
-119.7597638611294
 30
0.0
  0
ENDBLK
  5
4D
330
41
100
AcDbEntity
  8
0
100
AcDbBlockEnd
  0
BLOCK
  5
3D
330
32
100
AcDbEntity
  8
0
100
AcDbBlockBegin
  2
*D9
 70
     1
 10
0.0
 20
0.0
 30
0.0
  3
*D9
  1

  0
LINE
  5
33
330
32
100
AcDbEntity
  8
DIMS
 62
     0
440
 16777216
370
    -2
100
AcDbLine
 10
2811.900109522841
 20
-94.57465467126132
 30
0.0
 11
2811.900109522841
 21
-122.7597638611295
 31
0.0
  0
LINE
  5
34
330
32
100
AcDbEntity
  8
DIMS
 62
     0
440
 16777216
370
    -2
100
AcDbLine
 10
2841.896697130743
 20
-40.57465467126131
 30
0.0
 11
2841.896697130743
 21
-122.7597638611295
 31
0.0
  0
LINE
  5
35
330
32
100
AcDbEntity
  8
DIMS
 62
     0
440
 16777216
370
    -2
100
AcDbLine
 10
2815.900109522841
 20
-119.7597638611294
 30
0.0
 11
2837.896697130743
 21
-119.7597638611294
 31
0.0
  0
SOLID
  5
36
330
32
100
AcDbEntity
  8
DIMS
 62
     0
440
 16777216
100
AcDbTrace
 10
2815.900109522841
 20
-119.0930971944628
 30
0.0
 11
2815.900109522841
 21
-120.4264305277961
 31
0.0
 12
2811.900109522841
 22
-119.7597638611294
 32
0.0
 13
2811.900109522841
 23
-119.7597638611294
 33
0.0
  0
SOLID
  5
37
330
32
100
AcDbEntity
  8
DIMS
 62
     0
440
 16777216
100
AcDbTrace
 10
2837.896697130743
 20
-119.0930971944628
 30
0.0
 11
2837.896697130743
 21
-120.4264305277961
 31
0.0
 12
2841.896697130743
 22
-119.7597638611294
 32
0.0
 13
2841.896697130743
 23
-119.7597638611294
 33
0.0
  0
MTEXT
  5
38
330
32
100
AcDbEntity
  8
DIMS
 62
     0
440
 16777216
100
AcDbMText
 10
2826.898403326792
 20
-116.3597638611294
 30
0.0
 40
3.6
 41
0.0
 46
0.0
 71
     5
 72
     1
  1
\A1;30
  7
ROMANS
 73
     1
 44
1.0
  0
POINT
  5
39
330
32
100
AcDbEntity
  8
Defpoints
 62
     0
440
 16777216
100
AcDbPoint
 10
2811.900109522841
 20
-85.57465467126133
 30
0.0
  0
POINT
  5
3B
330
32
100
AcDbEntity
  8
Defpoints
 62
     0
440
 16777216
100
AcDbPoint
 10
2841.896697130743
 20
-31.57465467126132
 30
0.0
  0
POINT
  5
3C
330
32
100
AcDbEntity
  8
Defpoints
 62
     0
440
 16777216
100
AcDbPoint
 10
2841.896697130743
 20
-119.7597638611294
 30
0.0
  0
ENDBLK
  5
3E
330
32
100
AcDbEntity
  8
0
100
AcDbBlockEnd
  0
BLOCK
  5
EB
330
E1
100
AcDbEntity
  8
0
100
AcDbBlockBegin
  2
*D10
 70
     1
 10
0.0
 20
0.0
 30
0.0
  3
*D10
  1

  0
LINE
  5
E2
330
E1
100
AcDbEntity
  8
DIMS
 62
     0
440
 16777216
370
    -2
100
AcDbLine
 10
2992.900109522842
 20
-3.081709101525226
 30
0.0
 11
3005.831840983055
 21
-3.08170910152523
 31
0.0
  0
LINE
  5
E3
330
E1
100
AcDbEntity
  8
DIMS
 62
     0
440
 16777216
370
    -2
100
AcDbLine
 10
2992.900109522842
 20
11.91829089847477
 30
0.0
 11
3005.831840983055
 21
11.91829089847476
 31
0.0
  0
LINE
  5
E4
330
E1
100
AcDbEntity
  8
DIMS
 62
     0
440
 16777216
370
    -2
100
AcDbLine
 10
3002.831840983055
 20
0.9182908984747706
 30
0.0
 11
3002.831840983055
 21
7.918290898474766
 31
0.0
  0
SOLID
  5
E5
330
E1
100
AcDbEntity
  8
DIMS
 62
     0
440
 16777216
100
AcDbTrace
 10
3002.165174316389
 20
0.9182908984747708
 30
0.0
 11
3003.498507649722
 21
0.9182908984747705
 31
0.0
 12
3002.831840983055
 22
-3.081709101525229
 32
0.0
 13
3002.831840983055
 23
-3.081709101525229
 33
0.0
  0
SOLID
  5
E6
330
E1
100
AcDbEntity
  8
DIMS
 62
     0
440
 16777216
100
AcDbTrace
 10
3002.165174316389
 20
7.918290898474766
 30
0.0
 11
3003.498507649722
 21
7.918290898474766
 31
0.0
 12
3002.831840983055
 22
11.91829089847477
 32
0.0
 13
3002.831840983055
 23
11.91829089847477
 33
0.0
  0
MTEXT
  5
E7
330
E1
100
AcDbEntity
  8
DIMS
 62
     0
440
 16777216
100
AcDbMText
 10
2999.431840983055
 20
4.418290898475251
 30
0.0
 40
3.6
 41
0.0
 46
0.0
 71
     5
 72
     1
  1
\A1;15
  7
ROMANS
 11
0.0000000000000001
 21
1.0
 31
0.0
 73
     1
 44
1.0
  0
POINT
  5
E8
330
E1
100
AcDbEntity
  8
Defpoints
 62
     0
440
 16777216
100
AcDbPoint
 10
2983.900109522842
 20
-3.081709101525223
 30
0.0
  0
POINT
  5
E9
330
E1
100
AcDbEntity
  8
Defpoints
 62
     0
440
 16777216
100
AcDbPoint
 10
2983.900109522842
 20
11.91829089847477
 30
0.0
  0
POINT
  5
EA
330
E1
100
AcDbEntity
  8
Defpoints
 62
     0
440
 16777216
100
AcDbPoint
 10
3002.831840983055
 20
11.91829089847477
 30
0.0
  0
ENDBLK
  5
EC
330
E1
100
AcDbEntity
  8
0
100
AcDbBlockEnd
  0
BLOCK
  5
DE
330
D4
100
AcDbEntity
  8
0
100
AcDbBlockBegin
  2
*D11
 70
     1
 10
0.0
 20
0.0
 30
0.0
  3
*D11
  1

  0
LINE
  5
D5
330
D4
100
AcDbEntity
  8
DIMS
 62
     0
440
 16777216
370
    -2
100
AcDbLine
 10
2992.946697130743
 20
-53.05831788843602
 30
0.0
 11
3025.112764788685
 21
-53.05831788843603
 31
0.0
  0
LINE
  5
D6
330
D4
100
AcDbEntity
  8
DIMS
 62
     0
440
 16777216
370
    -2
100
AcDbLine
 10
2992.946697130743
 20
11.91829089847477
 30
0.0
 11
3025.112764788685
 21
11.91829089847476
 31
0.0
  0
LINE
  5
D7
330
D4
100
AcDbEntity
  8
DIMS
 62
     0
440
 16777216
370
    -2
100
AcDbLine
 10
3022.112764788686
 20
-49.05831788843602
 30
0.0
 11
3022.112764788686
 21
7.918290898474761
 31
0.0
  0
SOLID
  5
D8
330
D4
100
AcDbEntity
  8
DIMS
 62
     0
440
 16777216
100
AcDbTrace
 10
3021.446098122019
 20
-49.05831788843602
 30
0.0
 11
3022.779431455352
 21
-49.05831788843602
 31
0.0
 12
3022.112764788686
 22
-53.05831788843602
 32
0.0
 13
3022.112764788686
 23
-53.05831788843602
 33
0.0
  0
SOLID
  5
D9
330
D4
100
AcDbEntity
  8
DIMS
 62
     0
440
 16777216
100
AcDbTrace
 10
3021.446098122019
 20
7.918290898474762
 30
0.0
 11
3022.779431455352
 21
7.918290898474761
 31
0.0
 12
3022.112764788686
 22
11.91829089847476
 32
0.0
 13
3022.112764788686
 23
11.91829089847476
 33
0.0
  0
MTEXT
  5
DA
330
D4
100
AcDbEntity
  8
DIMS
 62
     0
440
 16777216
100
AcDbMText
 10
3018.712764788685
 20
-20.57001349498015
 30
0.0
 40
3.6
 41
0.0
 46
0.0
 71
     5
 72
     1
  1
\A1;65
  7
ROMANS
 11
0.0000000000000001
 21
1.0
 31
0.0
 73
     1
 44
1.0
  0
POINT
  5
DB
330
D4
100
AcDbEntity
  8
Defpoints
 62
     0
440
 16777216
100
AcDbPoint
 10
2983.946697130743
 20
-53.05831788843601
 30
0.0
  0
POINT
  5
DC
330
D4
100
AcDbEntity
  8
Defpoints
 62
     0
440
 16777216
100
AcDbPoint
 10
2983.946697130743
 20
11.91829089847477
 30
0.0
  0
POINT
  5
DD
330
D4
100
AcDbEntity
  8
Defpoints
 62
     0
440
 16777216
100
AcDbPoint
 10
3022.112764788686
 20
11.91829089847476
 30
0.0
  0
ENDBLK
  5
DF
330
D4
100
AcDbEntity
  8
0
100
AcDbBlockEnd
  0
BLOCK
  5
D1
330
C7
100
AcDbEntity
  8
0
100
AcDbBlockBegin
  2
*D12
 70
     1
 10
0.0
 20
0.0
 30
0.0
  3
*D12
  1

  0
LINE
  5
C8
330
C7
100
AcDbEntity
  8
DIMS
 62
     0
440
 16777216
370
    -2
100
AcDbLine
 10
2992.900109522842
 20
-38.05831788843603
 30
0.0
 11
3005.831840983055
 21
-38.05831788843603
 31
0.0
  0
LINE
  5
C9
330
C7
100
AcDbEntity
  8
DIMS
 62
     0
440
 16777216
370
    -2
100
AcDbLine
 10
2992.900109522842
 20
-53.05831788843602
 30
0.0
 11
3005.831840983055
 21
-53.05831788843602
 31
0.0
  0
LINE
  5
CA
330
C7
100
AcDbEntity
  8
DIMS
 62
     0
440
 16777216
370
    -2
100
AcDbLine
 10
3002.831840983055
 20
-42.05831788843602
 30
0.0
 11
3002.831840983055
 21
-49.05831788843602
 31
0.0
  0
SOLID
  5
CB
330
C7
100
AcDbEntity
  8
DIMS
 62
     0
440
 16777216
100
AcDbTrace
 10
3002.165174316389
 20
-42.05831788843602
 30
0.0
 11
3003.498507649722
 21
-42.05831788843602
 31
0.0
 12
3002.831840983055
 22
-38.05831788843603
 32
0.0
 13
3002.831840983055
 23
-38.05831788843603
 33
0.0
  0
SOLID
  5
CC
330
C7
100
AcDbEntity
  8
DIMS
 62
     0
440
 16777216
100
AcDbTrace
 10
3002.165174316389
 20
-49.05831788843602
 30
0.0
 11
3003.498507649722
 21
-49.05831788843602
 31
0.0
 12
3002.831840983055
 22
-53.05831788843602
 32
0.0
 13
3002.831840983055
 23
-53.05831788843602
 33
0.0
  0
MTEXT
  5
CD
330
C7
100
AcDbEntity
  8
DIMS
 62
     0
440
 16777216
100
AcDbMText
 10
2999.431840983055
 20
-45.55831788843554
 30
0.0
 40
3.6
 41
0.0
 46
0.0
 71
     5
 72
     1
  1
\A1;15
  7
ROMANS
 11
0.0000000000000001
 21
1.0
 31
0.0
 73
     1
 44
1.0
  0
POINT
  5
CE
330
C7
100
AcDbEntity
  8
Defpoints
 62
     0
440
 16777216
100
AcDbPoint
 10
2983.900109522842
 20
-38.05831788843602
 30
0.0
  0
POINT
  5
CF
330
C7
100
AcDbEntity
  8
Defpoints
 62
     0
440
 16777216
100
AcDbPoint
 10
2983.900109522842
 20
-53.05831788843601
 30
0.0
  0
POINT
  5
D0
330
C7
100
AcDbEntity
  8
Defpoints
 62
     0
440
 16777216
100
AcDbPoint
 10
3002.831840983055
 20
-53.05831788843602
 30
0.0
  0
ENDBLK
  5
D2
330
C7
100
AcDbEntity
  8
0
100
AcDbBlockEnd
  0
BLOCK
  5
C4
330
BA
100
AcDbEntity
  8
0
100
AcDbBlockBegin
  2
*D13
 70
     1
 10
0.0
 20
0.0
 30
0.0
  3
*D13
  1

  0
LINE
  5
BB
330
BA
100
AcDbEntity
  8
DIMS
 62
     0
440
 16777216
370
    -2
100
AcDbLine
 10
2992.900109522842
 20
-38.05831788843603
 30
0.0
 11
3005.911500575097
 21
-38.05831788843603
 31
0.0
  0
LINE
  5
BC
330
BA
100
AcDbEntity
  8
DIMS
 62
     0
440
 16777216
370
    -2
100
AcDbLine
 10
2992.900109522842
 20
-3.081709101525226
 30
0.0
 11
3005.911500575097
 21
-3.08170910152523
 31
0.0
  0
LINE
  5
BD
330
BA
100
AcDbEntity
  8
DIMS
 62
     0
440
 16777216
370
    -2
100
AcDbLine
 10
3002.911500575097
 20
-34.05831788843603
 30
0.0
 11
3002.911500575097
 21
-7.08170910152523
 31
0.0
  0
SOLID
  5
BE
330
BA
100
AcDbEntity
  8
DIMS
 62
     0
440
 16777216
100
AcDbTrace
 10
3002.24483390843
 20
-34.05831788843603
 30
0.0
 11
3003.578167241763
 21
-34.05831788843603
 31
0.0
 12
3002.911500575097
 22
-38.05831788843603
 32
0.0
 13
3002.911500575097
 23
-38.05831788843603
 33
0.0
  0
SOLID
  5
BF
330
BA
100
AcDbEntity
  8
DIMS
 62
     0
440
 16777216
100
AcDbTrace
 10
3002.24483390843
 20
-7.08170910152523
 30
0.0
 11
3003.578167241763
 21
-7.08170910152523
 31
0.0
 12
3002.911500575097
 22
-3.081709101525229
 32
0.0
 13
3002.911500575097
 23
-3.081709101525229
 33
0.0
  0
MTEXT
  5
C0
330
BA
100
AcDbEntity
  8
DIMS
 62
     0
440
 16777216
100
AcDbMText
 10
2999.511500575096
 20
-20.57001349498015
 30
0.0
 40
3.6
 41
0.0
 46
0.0
 71
     5
 72
     1
  1
\A1;35
  7
ROMANS
 11
0.0000000000000001
 21
1.0
 31
0.0
 73
     1
 44
1.0
  0
POINT
  5
C1
330
BA
100
AcDbEntity
  8
Defpoints
 62
     0
440
 16777216
100
AcDbPoint
 10
2983.900109522842
 20
-38.05831788843602
 30
0.0
  0
POINT
  5
C2
330
BA
100
AcDbEntity
  8
Defpoints
 62
     0
440
 16777216
100
AcDbPoint
 10
2983.900109522842
 20
-3.081709101525223
 30
0.0
  0
POINT
  5
C3
330
BA
100
AcDbEntity
  8
Defpoints
 62
     0
440
 16777216
100
AcDbPoint
 10
3002.911500575097
 20
-3.081709101525229
 30
0.0
  0
ENDBLK
  5
C5
330
BA
100
AcDbEntity
  8
0
100
AcDbBlockEnd
  0
BLOCK
  5
277
330
276
100
AcDbEntity
  8
0
100
AcDbBlockBegin
  2
*D15
 70
     1
 10
0.0
 20
0.0
 30
0.0
  3
*D15
  1

  0
LINE
  5
279
330
276
100
AcDbEntity
  8
DIMS
 62
     0
440
 16777216
370
    -2
100
AcDbLine
 10
3417.069417695579
 20
-75.77409157037613
 30
0.0
 11
3417.069417695579
 21
-103.9592007602442
 31
0.0
  0
LINE
  5
27A
330
276
100
AcDbEntity
  8
DIMS
 62
     0
440
 16777216
370
    -2
100
AcDbLine
 10
3447.06600530348
 20
-21.77409157037612
 30
0.0
 11
3447.06600530348
 21
-103.9592007602442
 31
0.0
  0
LINE
  5
27B
330
276
100
AcDbEntity
  8
DIMS
 62
     0
440
 16777216
370
    -2
100
AcDbLine
 10
3421.069417695579
 20
-100.9592007602442
 30
0.0
 11
3443.06600530348
 21
-100.9592007602442
 31
0.0
  0
SOLID
  5
27C
330
276
100
AcDbEntity
  8
DIMS
 62
     0
440
 16777216
100
AcDbTrace
 10
3421.069417695579
 20
-100.2925340935776
 30
0.0
 11
3421.069417695579
 21
-101.6258674269109
 31
0.0
 12
3417.069417695579
 22
-100.9592007602442
 32
0.0
 13
3417.069417695579
 23
-100.9592007602442
 33
0.0
  0
SOLID
  5
27D
330
276
100
AcDbEntity
  8
DIMS
 62
     0
440
 16777216
100
AcDbTrace
 10
3443.06600530348
 20
-100.2925340935776
 30
0.0
 11
3443.06600530348
 21
-101.6258674269109
 31
0.0
 12
3447.06600530348
 22
-100.9592007602442
 32
0.0
 13
3447.06600530348
 23
-100.9592007602442
 33
0.0
  0
MTEXT
  5
27E
330
276
100
AcDbEntity
  8
DIMS
 62
     0
440
 16777216
100
AcDbMText
 10
3432.067711499529
 20
-97.55920076024427
 30
0.0
 40
3.6
 41
0.0
 46
0.0
 71
     5
 72
     1
  1
\A1;30
  7
ROMANS
 73
     1
 44
1.0
  0
POINT
  5
27F
330
276
100
AcDbEntity
  8
Defpoints
 62
     0
440
 16777216
100
AcDbPoint
 10
3417.069417695579
 20
-66.77409157037613
 30
0.0
  0
POINT
  5
280
330
276
100
AcDbEntity
  8
Defpoints
 62
     0
440
 16777216
100
AcDbPoint
 10
3447.06600530348
 20
-12.77409157037612
 30
0.0
  0
POINT
  5
281
330
276
100
AcDbEntity
  8
Defpoints
 62
     0
440
 16777216
100
AcDbPoint
 10
3447.06600530348
 20
-100.9592007602442
 30
0.0
  0
ENDBLK
  5
278
330
276
100
AcDbEntity
  8
0
100
AcDbBlockEnd
  0
BLOCK
  5
283
330
282
100
AcDbEntity
  8
0
100
AcDbBlockBegin
  2
*D16
 70
     1
 10
0.0
 20
0.0
 30
0.0
  3
*D16
  1

  0
LINE
  5
285
330
282
100
AcDbEntity
  8
20MM-DIMS
 62
     0
440
 16777216
370
    -2
100
AcDbLine
 10
3389.069417695579
 20
-63.1492532423162
 30
0.0
 11
3389.069417695579
 21
-103.9592007602442
 31
0.0
  0
LINE
  5
286
330
282
100
AcDbEntity
  8
20MM-DIMS
 62
     0
440
 16777216
370
    -2
100
AcDbLine
 10
3394.069417695579
 20
-63.1492532423162
 30
0.0
 11
3394.069417695579
 21
-103.9592007602442
 31
0.0
  0
LINE
  5
287
330
282
100
AcDbEntity
  8
20MM-DIMS
 62
     0
440
 16777216
370
    -2
100
AcDbLine
 10
3385.069417695579
 20
-100.9592007602442
 30
0.0
 11
3381.069417695579
 21
-100.9592007602442
 31
0.0
  0
LINE
  5
288
330
282
100
AcDbEntity
  8
20MM-DIMS
 62
     0
440
 16777216
370
    -2
100
AcDbLine
 10
3398.069417695579
 20
-100.9592007602442
 30
0.0
 11
3402.069417695579
 21
-100.9592007602442
 31
0.0
  0
MTEXT
  5
289
330
282
100
AcDbEntity
  8
20MM-DIMS
 62
     0
440
 16777216
100
AcDbMText
 10
3399.994276542259
 20
-97.95920076024428
 30
0.0
 40
3.6
 41
0.0
 46
0.0
 71
     5
 72
     1
  1
\A1;5
  7
ROMANS
 73
     1
 44
1.0
  0
SOLID
  5
28A
330
282
100
AcDbEntity
  8
20MM-DIMS
 62
     0
440
 16777216
100
AcDbTrace
 10
3385.069417695579
 20
-100.2925340935776
 30
0.0
 11
3385.069417695579
 21
-101.6258674269109
 31
0.0
 12
3389.069417695579
 22
-100.9592007602442
 32
0.0
 13
3389.069417695579
 23
-100.9592007602442
 33
0.0
  0
SOLID
  5
28B
330
282
100
AcDbEntity
  8
20MM-DIMS
 62
     0
440
 16777216
100
AcDbTrace
 10
3398.069417695579
 20
-100.2925340935776
 30
0.0
 11
3398.069417695579
 21
-101.6258674269109
 31
0.0
 12
3394.069417695579
 22
-100.9592007602442
 32
0.0
 13
3394.069417695579
 23
-100.9592007602442
 33
0.0
  0
POINT
  5
28C
330
282
100
AcDbEntity
  8
Defpoints
 62
     0
440
 16777216
100
AcDbPoint
 10
3389.069417695579
 20
-54.14925324231621
 30
0.0
  0
POINT
  5
28D
330
282
100
AcDbEntity
  8
Defpoints
 62
     0
440
 16777216
100
AcDbPoint
 10
3394.069417695579
 20
-54.14925324231621
 30
0.0
  0
POINT
  5
28E
330
282
100
AcDbEntity
  8
Defpoints
 62
     0
440
 16777216
100
AcDbPoint
 10
3394.069417695579
 20
-100.9592007602442
 30
0.0
  0
ENDBLK
  5
284
330
282
100
AcDbEntity
  8
0
100
AcDbBlockEnd
  0
BLOCK
  5
290
330
28F
100
AcDbEntity
  8
0
100
AcDbBlockBegin
  2
*D17
 70
     1
 10
0.0
 20
0.0
 30
0.0
  3
*D17
  1

  0
LINE
  5
292
330
28F
100
AcDbEntity
  8
20MM-DIMS
 62
     0
440
 16777216
370
    -2
100
AcDbLine
 10
3361.069417695579
 20
-25.6527533415912
 30
0.0
 11
3361.069417695579
 21
-103.9592007602442
 31
0.0
  0
LINE
  5
293
330
28F
100
AcDbEntity
  8
20MM-DIMS
 62
     0
440
 16777216
370
    -2
100
AcDbLine
 10
3329.069417695579
 20
-25.65275334159108
 30
0.0
 11
3329.069417695579
 21
-103.9592007602442
 31
0.0
  0
LINE
  5
294
330
28F
100
AcDbEntity
  8
20MM-DIMS
 62
     0
440
 16777216
370
    -2
100
AcDbLine
 10
3357.069417695579
 20
-100.9592007602442
 30
0.0
 11
3333.069417695579
 21
-100.9592007602442
 31
0.0
  0
SOLID
  5
295
330
28F
100
AcDbEntity
  8
20MM-DIMS
 62
     0
440
 16777216
100
AcDbTrace
 10
3357.069417695579
 20
-100.2925340935776
 30
0.0
 11
3357.069417695579
 21
-101.6258674269109
 31
0.0
 12
3361.069417695579
 22
-100.9592007602442
 32
0.0
 13
3361.069417695579
 23
-100.9592007602442
 33
0.0
  0
SOLID
  5
296
330
28F
100
AcDbEntity
  8
20MM-DIMS
 62
     0
440
 16777216
100
AcDbTrace
 10
3333.069417695579
 20
-100.2925340935776
 30
0.0
 11
3333.069417695579
 21
-101.6258674269109
 31
0.0
 12
3329.069417695579
 22
-100.9592007602442
 32
0.0
 13
3329.069417695579
 23
-100.9592007602442
 33
0.0
  0
MTEXT
  5
297
330
28F
100
AcDbEntity
  8
20MM-DIMS
 62
     0
440
 16777216
100
AcDbMText
 10
3345.069417695579
 20
-97.55920076024427
 30
0.0
 40
3.6
 41
0.0
 46
0.0
 71
     5
 72
     1
  1
\A1;32
  7
ROMANS
 73
     1
 44
1.0
  0
POINT
  5
298
330
28F
100
AcDbEntity
  8
Defpoints
 62
     0
440
 16777216
100
AcDbPoint
 10
3361.069417695579
 20
-16.65275334159119
 30
0.0
  0
POINT
  5
299
330
28F
100
AcDbEntity
  8
Defpoints
 62
     0
440
 16777216
100
AcDbPoint
 10
3329.069417695579
 20
-16.65275334159108
 30
0.0
  0
POINT
  5
29A
330
28F
100
AcDbEntity
  8
Defpoints
 62
     0
440
 16777216
100
AcDbPoint
 10
3329.069417695579
 20
-100.9592007602442
 30
0.0
  0
ENDBLK
  5
291
330
28F
100
AcDbEntity
  8
0
100
AcDbBlockEnd
  0
BLOCK
  5
29C
330
29B
100
AcDbEntity
  8
0
100
AcDbBlockBegin
  2
*D18
 70
     1
 10
0.0
 20
0.0
 30
0.0
  3
*D18
  1

  0
LINE
  5
29E
330
29B
100
AcDbEntity
  8
20MM-DIMS
 62
     0
440
 16777216
370
    -2
100
AcDbLine
 10
3389.069417695579
 20
-63.1492532423162
 30
0.0
 11
3389.069417695579
 21
-103.9592007602442
 31
0.0
  0
LINE
  5
29F
330
29B
100
AcDbEntity
  8
20MM-DIMS
 62
     0
440
 16777216
370
    -2
100
AcDbLine
 10
3361.069417695579
 20
-25.6527533415912
 30
0.0
 11
3361.069417695579
 21
-103.9592007602442
 31
0.0
  0
LINE
  5
2A0
330
29B
100
AcDbEntity
  8
20MM-DIMS
 62
     0
440
 16777216
370
    -2
100
AcDbLine
 10
3385.069417695579
 20
-100.9592007602442
 30
0.0
 11
3365.069417695579
 21
-100.9592007602442
 31
0.0
  0
SOLID
  5
2A1
330
29B
100
AcDbEntity
  8
20MM-DIMS
 62
     0
440
 16777216
100
AcDbTrace
 10
3385.069417695579
 20
-100.2925340935776
 30
0.0
 11
3385.069417695579
 21
-101.6258674269109
 31
0.0
 12
3389.069417695579
 22
-100.9592007602442
 32
0.0
 13
3389.069417695579
 23
-100.9592007602442
 33
0.0
  0
SOLID
  5
2A2
330
29B
100
AcDbEntity
  8
20MM-DIMS
 62
     0
440
 16777216
100
AcDbTrace
 10
3365.069417695579
 20
-100.2925340935776
 30
0.0
 11
3365.069417695579
 21
-101.6258674269109
 31
0.0
 12
3361.069417695579
 22
-100.9592007602442
 32
0.0
 13
3361.069417695579
 23
-100.9592007602442
 33
0.0
  0
MTEXT
  5
2A3
330
29B
100
AcDbEntity
  8
20MM-DIMS
 62
     0
440
 16777216
100
AcDbMText
 10
3375.069417695578
 20
-97.55920076024427
 30
0.0
 40
3.6
 41
0.0
 46
0.0
 71
     5
 72
     1
  1
\A1;28
  7
ROMANS
 73
     1
 44
1.0
  0
POINT
  5
2A4
330
29B
100
AcDbEntity
  8
Defpoints
 62
     0
440
 16777216
100
AcDbPoint
 10
3389.069417695579
 20
-54.14925324231621
 30
0.0
  0
POINT
  5
2A5
330
29B
100
AcDbEntity
  8
Defpoints
 62
     0
440
 16777216
100
AcDbPoint
 10
3361.069417695579
 20
-16.65275334159119
 30
0.0
  0
POINT
  5
2A6
330
29B
100
AcDbEntity
  8
Defpoints
 62
     0
440
 16777216
100
AcDbPoint
 10
3361.069417695579
 20
-100.9592007602442
 30
0.0
  0
ENDBLK
  5
29D
330
29B
100
AcDbEntity
  8
0
100
AcDbBlockEnd
  0
BLOCK
  5
2A8
330
2A7
100
AcDbEntity
  8
0
100
AcDbBlockBegin
  2
*D19
 70
     1
 10
0.0
 20
0.0
 30
0.0
  3
*D19
  1

  0
LINE
  5
2AA
330
2A7
100
AcDbEntity
  8
DIMS
 62
     0
440
 16777216
370
    -2
100
AcDbLine
 10
3417.069417695579
 20
-75.77409157037613
 30
0.0
 11
3417.069417695579
 21
-103.9592007602442
 31
0.0
  0
LINE
  5
2AB
330
2A7
100
AcDbEntity
  8
DIMS
 62
     0
440
 16777216
370
    -2
100
AcDbLine
 10
3414.069417695579
 20
-75.77409157037613
 30
0.0
 11
3414.069417695579
 21
-103.9592007602442
 31
0.0
  0
LINE
  5
2AC
330
2A7
100
AcDbEntity
  8
DIMS
 62
     0
440
 16777216
370
    -2
100
AcDbLine
 10
3421.069417695579
 20
-100.9592007602442
 30
0.0
 11
3425.069417695578
 21
-100.9592007602442
 31
0.0
  0
LINE
  5
2AD
330
2A7
100
AcDbEntity
  8
DIMS
 62
     0
440
 16777216
370
    -2
100
AcDbLine
 10
3410.069417695579
 20
-100.9592007602442
 30
0.0
 11
3406.069417695579
 21
-100.9592007602442
 31
0.0
  0
MTEXT
  5
2AE
330
2A7
100
AcDbEntity
  8
DIMS
 62
     0
440
 16777216
100
AcDbMText
 10
3407.995095551147
 20
-97.95920076024428
 30
0.0
 40
3.6
 41
0.0
 46
0.0
 71
     5
 72
     1
  1
\A1;3
  7
ROMANS
 73
     1
 44
1.0
  0
SOLID
  5
2AF
330
2A7
100
AcDbEntity
  8
DIMS
 62
     0
440
 16777216
100
AcDbTrace
 10
3421.069417695579
 20
-100.2925340935776
 30
0.0
 11
3421.069417695579
 21
-101.6258674269109
 31
0.0
 12
3417.069417695579
 22
-100.9592007602442
 32
0.0
 13
3417.069417695579
 23
-100.9592007602442
 33
0.0
  0
SOLID
  5
2B0
330
2A7
100
AcDbEntity
  8
DIMS
 62
     0
440
 16777216
100
AcDbTrace
 10
3410.069417695579
 20
-100.2925340935776
 30
0.0
 11
3410.069417695579
 21
-101.6258674269109
 31
0.0
 12
3414.069417695579
 22
-100.9592007602442
 32
0.0
 13
3414.069417695579
 23
-100.9592007602442
 33
0.0
  0
POINT
  5
2B1
330
2A7
100
AcDbEntity
  8
Defpoints
 62
     0
440
 16777216
100
AcDbPoint
 10
3417.069417695579
 20
-66.77409157037613
 30
0.0
  0
POINT
  5
2B2
330
2A7
100
AcDbEntity
  8
Defpoints
 62
     0
440
 16777216
100
AcDbPoint
 10
3414.069417695579
 20
-66.77409157037613
 30
0.0
  0
POINT
  5
2B3
330
2A7
100
AcDbEntity
  8
Defpoints
 62
     0
440
 16777216
100
AcDbPoint
 10
3414.069417695579
 20
-100.9592007602442
 30
0.0
  0
ENDBLK
  5
2A9
330
2A7
100
AcDbEntity
  8
0
100
AcDbBlockEnd
  0
BLOCK
  5
2B5
330
2B4
100
AcDbEntity
  8
0
100
AcDbBlockBegin
  2
*D20
 70
     1
 10
0.0
 20
0.0
 30
0.0
  3
*D20
  1

  0
LINE
  5
2B7
330
2B4
100
AcDbEntity
  8
20MM-DIMS
 62
     0
440
 16777216
370
    -2
100
AcDbLine
 10
3394.069417695579
 20
-63.1492532423162
 30
0.0
 11
3394.069417695579
 21
-129.0772583933437
 31
0.0
  0
LINE
  5
2B8
330
2B4
100
AcDbEntity
  8
20MM-DIMS
 62
     0
440
 16777216
370
    -2
100
AcDbLine
 10
3414.069417695579
 20
-75.77409157037613
 30
0.0
 11
3414.069417695579
 21
-129.0772583933437
 31
0.0
  0
LINE
  5
2B9
330
2B4
100
AcDbEntity
  8
20MM-DIMS
 62
     0
440
 16777216
370
    -2
100
AcDbLine
 10
3398.069417695579
 20
-126.0772583933437
 30
0.0
 11
3410.069417695579
 21
-126.0772583933437
 31
0.0
  0
SOLID
  5
2BA
330
2B4
100
AcDbEntity
  8
20MM-DIMS
 62
     0
440
 16777216
100
AcDbTrace
 10
3398.069417695579
 20
-125.410591726677
 30
0.0
 11
3398.069417695579
 21
-126.7439250600103
 31
0.0
 12
3394.069417695579
 22
-126.0772583933437
 32
0.0
 13
3394.069417695579
 23
-126.0772583933437
 33
0.0
  0
SOLID
  5
2BB
330
2B4
100
AcDbEntity
  8
20MM-DIMS
 62
     0
440
 16777216
100
AcDbTrace
 10
3410.069417695579
 20
-125.410591726677
 30
0.0
 11
3410.069417695579
 21
-126.7439250600103
 31
0.0
 12
3414.069417695579
 22
-126.0772583933437
 32
0.0
 13
3414.069417695579
 23
-126.0772583933437
 33
0.0
  0
MTEXT
  5
2BC
330
2B4
100
AcDbEntity
  8
20MM-DIMS
 62
     0
440
 16777216
100
AcDbMText
 10
3404.069417695579
 20
-122.6772583933437
 30
0.0
 40
3.6
 41
0.0
 46
0.0
 71
     5
 72
     1
  1
\A1;20
  7
ROMANS
 73
     1
 44
1.0
  0
POINT
  5
2BD
330
2B4
100
AcDbEntity
  8
Defpoints
 62
     0
440
 16777216
100
AcDbPoint
 10
3394.069417695579
 20
-54.14925324231621
 30
0.0
  0
POINT
  5
2BE
330
2B4
100
AcDbEntity
  8
Defpoints
 62
     0
440
 16777216
100
AcDbPoint
 10
3414.069417695579
 20
-66.77409157037613
 30
0.0
  0
POINT
  5
2BF
330
2B4
100
AcDbEntity
  8
Defpoints
 62
     0
440
 16777216
100
AcDbPoint
 10
3414.069417695579
 20
-126.0772583933437
 30
0.0
  0
ENDBLK
  5
2B6
330
2B4
100
AcDbEntity
  8
0
100
AcDbBlockEnd
  0
BLOCK
  5
2C1
330
2C0
100
AcDbEntity
  8
0
100
AcDbBlockBegin
  2
*D21
 70
     1
 10
0.0
 20
0.0
 30
0.0
  3
*D21
  1

  0
LINE
  5
2C3
330
2C0
100
AcDbEntity
  8
20MM-DIMS
 62
     0
440
 16777216
370
    -2
100
AcDbLine
 10
3244.069417695579
 20
-52.14925324231621
 30
0.0
 11
3244.069417695579
 21
-129.0772583933437
 31
0.0
  0
LINE
  5
2C4
330
2C0
100
AcDbEntity
  8
20MM-DIMS
 62
     0
440
 16777216
370
    -2
100
AcDbLine
 10
3394.069417695579
 20
-63.1492532423162
 30
0.0
 11
3394.069417695579
 21
-129.0772583933437
 31
0.0
  0
LINE
  5
2C5
330
2C0
100
AcDbEntity
  8
20MM-DIMS
 62
     0
440
 16777216
370
    -2
100
AcDbLine
 10
3248.069417695579
 20
-126.0772583933437
 30
0.0
 11
3390.069417695579
 21
-126.0772583933437
 31
0.0
  0
SOLID
  5
2C6
330
2C0
100
AcDbEntity
  8
20MM-DIMS
 62
     0
440
 16777216
100
AcDbTrace
 10
3248.069417695579
 20
-125.410591726677
 30
0.0
 11
3248.069417695579
 21
-126.7439250600103
 31
0.0
 12
3244.069417695579
 22
-126.0772583933437
 32
0.0
 13
3244.069417695579
 23
-126.0772583933437
 33
0.0
  0
SOLID
  5
2C7
330
2C0
100
AcDbEntity
  8
20MM-DIMS
 62
     0
440
 16777216
100
AcDbTrace
 10
3390.069417695579
 20
-125.410591726677
 30
0.0
 11
3390.069417695579
 21
-126.7439250600103
 31
0.0
 12
3394.069417695579
 22
-126.0772583933437
 32
0.0
 13
3394.069417695579
 23
-126.0772583933437
 33
0.0
  0
MTEXT
  5
2C8
330
2C0
100
AcDbEntity
  8
20MM-DIMS
 62
     0
440
 16777216
100
AcDbMText
 10
3319.069417695579
 20
-122.6772583933437
 30
0.0
 40
3.6
 41
0.0
 46
0.0
 71
     5
 72
     1
  1
\A1;150
  7
ROMANS
 73
     1
 44
1.0
  0
POINT
  5
2C9
330
2C0
100
AcDbEntity
  8
Defpoints
 62
     0
440
 16777216
100
AcDbPoint
 10
3244.069417695579
 20
-43.1492532423162
 30
0.0
  0
POINT
  5
2CA
330
2C0
100
AcDbEntity
  8
Defpoints
 62
     0
440
 16777216
100
AcDbPoint
 10
3394.069417695579
 20
-54.14925324231621
 30
0.0
  0
POINT
  5
2CB
330
2C0
100
AcDbEntity
  8
Defpoints
 62
     0
440
 16777216
100
AcDbPoint
 10
3394.069417695579
 20
-126.0772583933437
 30
0.0
  0
ENDBLK
  5
2C2
330
2C0
100
AcDbEntity
  8
0
100
AcDbBlockEnd
  0
BLOCK
  5
2CD
330
2CC
100
AcDbEntity
  8
0
100
AcDbBlockBegin
  2
*D22
 70
     1
 10
0.0
 20
0.0
 30
0.0
  3
*D22
  1

  0
LINE
  5
2CF
330
2CC
100
AcDbEntity
  8
DIMS
 62
     0
440
 16777216
370
    -2
100
AcDbLine
 10
3414.069417695579
 20
-75.77409157037613
 30
0.0
 11
3414.069417695579
 21
-116.5772583933437
 31
0.0
  0
LINE
  5
2D0
330
2CC
100
AcDbEntity
  8
DIMS
 62
     0
440
 16777216
370
    -2
100
AcDbLine
 10
3569.11600530348
 20
-55.95775478755081
 30
0.0
 11
3569.11600530348
 21
-116.5772583933437
 31
0.0
  0
LINE
  5
2D1
330
2CC
100
AcDbEntity
  8
DIMS
 62
     0
440
 16777216
370
    -2
100
AcDbLine
 10
3418.069417695579
 20
-113.5772583933437
 30
0.0
 11
3565.11600530348
 21
-113.5772583933437
 31
0.0
  0
SOLID
  5
2D2
330
2CC
100
AcDbEntity
  8
DIMS
 62
     0
440
 16777216
100
AcDbTrace
 10
3418.069417695579
 20
-112.910591726677
 30
0.0
 11
3418.069417695579
 21
-114.2439250600103
 31
0.0
 12
3414.069417695579
 22
-113.5772583933437
 32
0.0
 13
3414.069417695579
 23
-113.5772583933437
 33
0.0
  0
SOLID
  5
2D3
330
2CC
100
AcDbEntity
  8
DIMS
 62
     0
440
 16777216
100
AcDbTrace
 10
3565.11600530348
 20
-112.910591726677
 30
0.0
 11
3565.11600530348
 21
-114.2439250600103
 31
0.0
 12
3569.11600530348
 22
-113.5772583933437
 32
0.0
 13
3569.11600530348
 23
-113.5772583933437
 33
0.0
  0
MTEXT
  5
2D4
330
2CC
100
AcDbEntity
  8
DIMS
 62
     0
440
 16777216
100
AcDbMText
 10
3491.592711499529
 20
-110.1772583933437
 30
0.0
 40
3.6
 41
0.0
 46
0.0
 71
     5
 72
     1
  1
\A1;155
  7
ROMANS
 73
     1
 44
1.0
  0
POINT
  5
2D5
330
2CC
100
AcDbEntity
  8
Defpoints
 62
     0
440
 16777216
100
AcDbPoint
 10
3414.069417695579
 20
-66.77409157037613
 30
0.0
  0
POINT
  5
2D6
330
2CC
100
AcDbEntity
  8
Defpoints
 62
     0
440
 16777216
100
AcDbPoint
 10
3569.11600530348
 20
-46.95775478755081
 30
0.0
  0
POINT
  5
2D7
330
2CC
100
AcDbEntity
  8
Defpoints
 62
     0
440
 16777216
100
AcDbPoint
 10
3569.11600530348
 20
-113.5772583933437
 30
0.0
  0
ENDBLK
  5
2CE
330
2CC
100
AcDbEntity
  8
0
100
AcDbBlockEnd
  0
BLOCK
  5
2D9
330
2D8
100
AcDbEntity
  8
0
100
AcDbBlockBegin
  2
*D23
 70
     1
 10
0.0
 20
0.0
 30
0.0
  3
*D23
  1

  0
LINE
  5
2DB
330
2D8
100
AcDbEntity
  8
DIMS
 62
     0
440
 16777216
370
    -2
100
AcDbLine
 10
3414.069417695579
 20
-75.77409157037613
 30
0.0
 11
3414.069417695579
 21
-129.0772583933437
 31
0.0
  0
LINE
  5
2DC
330
2D8
100
AcDbEntity
  8
DIMS
 62
     0
440
 16777216
370
    -2
100
AcDbLine
 10
3584.069417695579
 20
-58.2577547875508
 30
0.0
 11
3584.069417695579
 21
-129.0772583933437
 31
0.0
  0
LINE
  5
2DD
330
2D8
100
AcDbEntity
  8
DIMS
 62
     0
440
 16777216
370
    -2
100
AcDbLine
 10
3418.069417695579
 20
-126.0772583933437
 30
0.0
 11
3580.069417695579
 21
-126.0772583933437
 31
0.0
  0
SOLID
  5
2DE
330
2D8
100
AcDbEntity
  8
DIMS
 62
     0
440
 16777216
100
AcDbTrace
 10
3418.069417695579
 20
-125.410591726677
 30
0.0
 11
3418.069417695579
 21
-126.7439250600103
 31
0.0
 12
3414.069417695579
 22
-126.0772583933437
 32
0.0
 13
3414.069417695579
 23
-126.0772583933437
 33
0.0
  0
SOLID
  5
2DF
330
2D8
100
AcDbEntity
  8
DIMS
 62
     0
440
 16777216
100
AcDbTrace
 10
3580.069417695579
 20
-125.410591726677
 30
0.0
 11
3580.069417695579
 21
-126.7439250600103
 31
0.0
 12
3584.069417695579
 22
-126.0772583933437
 32
0.0
 13
3584.069417695579
 23
-126.0772583933437
 33
0.0
  0
MTEXT
  5
2E0
330
2D8
100
AcDbEntity
  8
DIMS
 62
     0
440
 16777216
100
AcDbMText
 10
3499.069417695578
 20
-122.6772583933437
 30
0.0
 40
3.6
 41
0.0
 46
0.0
 71
     5
 72
     1
  1
\A1;170
  7
ROMANS
 73
     1
 44
1.0
  0
POINT
  5
2E1
330
2D8
100
AcDbEntity
  8
Defpoints
 62
     0
440
 16777216
100
AcDbPoint
 10
3414.069417695579
 20
-66.77409157037613
 30
0.0
  0
POINT
  5
2E2
330
2D8
100
AcDbEntity
  8
Defpoints
 62
     0
440
 16777216
100
AcDbPoint
 10
3584.069417695579
 20
-49.25775478755079
 30
0.0
  0
POINT
  5
2E3
330
2D8
100
AcDbEntity
  8
Defpoints
 62
     0
440
 16777216
100
AcDbPoint
 10
3584.069417695579
 20
-126.0772583933437
 30
0.0
  0
ENDBLK
  5
2DA
330
2D8
100
AcDbEntity
  8
0
100
AcDbBlockEnd
  0
BLOCK
  5
2E5
330
2E4
100
AcDbEntity
  8
0
100
AcDbBlockBegin
  2
*D24
 70
     1
 10
0.0
 20
0.0
 30
0.0
  3
*D24
  1

  0
LINE
  5
2E7
330
2E4
100
AcDbEntity
  8
DIMS
 62
     0
440
 16777216
370
    -2
100
AcDbLine
 10
3598.06941769558
 20
-19.25775478755083
 30
0.0
 11
3611.080808747836
 21
-19.25775478755082
 31
0.0
  0
LINE
  5
2E8
330
2E4
100
AcDbEntity
  8
DIMS
 62
     0
440
 16777216
370
    -2
100
AcDbLine
 10
3598.06941769558
 20
15.71885399935998
 30
0.0
 11
3611.080808747836
 21
15.71885399935998
 31
0.0
  0
LINE
  5
2E9
330
2E4
100
AcDbEntity
  8
DIMS
 62
     0
440
 16777216
370
    -2
100
AcDbLine
 10
3608.080808747835
 20
-15.25775478755082
 30
0.0
 11
3608.080808747835
 21
11.71885399935998
 31
0.0
  0
SOLID
  5
2EA
330
2E4
100
AcDbEntity
  8
DIMS
 62
     0
440
 16777216
100
AcDbTrace
 10
3607.414142081169
 20
-15.25775478755082
 30
0.0
 11
3608.747475414502
 21
-15.25775478755082
 31
0.0
 12
3608.080808747835
 22
-19.25775478755082
 32
0.0
 13
3608.080808747835
 23
-19.25775478755082
 33
0.0
  0
SOLID
  5
2EB
330
2E4
100
AcDbEntity
  8
DIMS
 62
     0
440
 16777216
100
AcDbTrace
 10
3607.414142081169
 20
11.71885399935998
 30
0.0
 11
3608.747475414502
 21
11.71885399935998
 31
0.0
 12
3608.080808747835
 22
15.71885399935998
 32
0.0
 13
3608.080808747835
 23
15.71885399935998
 33
0.0
  0
MTEXT
  5
2EC
330
2E4
100
AcDbEntity
  8
DIMS
 62
     0
440
 16777216
100
AcDbMText
 10
3604.680808747835
 20
-1.769450394096441
 30
0.0
 40
3.6
 41
0.0
 46
0.0
 71
     5
 72
     1
  1
\A1;35
  7
ROMANS
 11
0.0000000000000001
 21
1.0
 31
0.0
 73
     1
 44
1.0
  0
POINT
  5
2ED
330
2E4
100
AcDbEntity
  8
Defpoints
 62
     0
440
 16777216
100
AcDbPoint
 10
3589.069417695581
 20
-19.25775478755083
 30
0.0
  0
POINT
  5
2EE
330
2E4
100
AcDbEntity
  8
Defpoints
 62
     0
440
 16777216
100
AcDbPoint
 10
3589.069417695581
 20
15.71885399935998
 30
0.0
  0
POINT
  5
2EF
330
2E4
100
AcDbEntity
  8
Defpoints
 62
     0
440
 16777216
100
AcDbPoint
 10
3608.080808747835
 20
15.71885399935998
 30
0.0
  0
ENDBLK
  5
2E6
330
2E4
100
AcDbEntity
  8
0
100
AcDbBlockEnd
  0
BLOCK
  5
2F1
330
2F0
100
AcDbEntity
  8
0
100
AcDbBlockBegin
  2
*D25
 70
     1
 10
0.0
 20
0.0
 30
0.0
  3
*D25
  1

  0
LINE
  5
2F3
330
2F0
100
AcDbEntity
  8
DIMS
 62
     0
440
 16777216
370
    -2
100
AcDbLine
 10
3598.06941769558
 20
-19.25775478755083
 30
0.0
 11
3611.001149155794
 21
-19.25775478755082
 31
0.0
  0
LINE
  5
2F4
330
2F0
100
AcDbEntity
  8
DIMS
 62
     0
440
 16777216
370
    -2
100
AcDbLine
 10
3598.06941769558
 20
-34.25775478755083
 30
0.0
 11
3611.001149155794
 21
-34.25775478755082
 31
0.0
  0
LINE
  5
2F5
330
2F0
100
AcDbEntity
  8
DIMS
 62
     0
440
 16777216
370
    -2
100
AcDbLine
 10
3608.001149155794
 20
-23.25775478755082
 30
0.0
 11
3608.001149155794
 21
-30.25775478755083
 31
0.0
  0
SOLID
  5
2F6
330
2F0
100
AcDbEntity
  8
DIMS
 62
     0
440
 16777216
100
AcDbTrace
 10
3607.334482489128
 20
-23.25775478755083
 30
0.0
 11
3608.667815822461
 21
-23.25775478755082
 31
0.0
 12
3608.001149155794
 22
-19.25775478755082
 32
0.0
 13
3608.001149155794
 23
-19.25775478755082
 33
0.0
  0
SOLID
  5
2F7
330
2F0
100
AcDbEntity
  8
DIMS
 62
     0
440
 16777216
100
AcDbTrace
 10
3607.334482489128
 20
-30.25775478755083
 30
0.0
 11
3608.667815822461
 21
-30.25775478755083
 31
0.0
 12
3608.001149155794
 22
-34.25775478755082
 32
0.0
 13
3608.001149155794
 23
-34.25775478755082
 33
0.0
  0
MTEXT
  5
2F8
330
2F0
100
AcDbEntity
  8
DIMS
 62
     0
440
 16777216
100
AcDbMText
 10
3604.601149155793
 20
-26.75775478755184
 30
0.0
 40
3.6
 41
0.0
 46
0.0
 71
     5
 72
     1
  1
\A1;15
  7
ROMANS
 11
0.0000000000000001
 21
1.0
 31
0.0
 73
     1
 44
1.0
  0
POINT
  5
2F9
330
2F0
100
AcDbEntity
  8
Defpoints
 62
     0
440
 16777216
100
AcDbPoint
 10
3589.069417695581
 20
-19.25775478755083
 30
0.0
  0
POINT
  5
2FA
330
2F0
100
AcDbEntity
  8
Defpoints
 62
     0
440
 16777216
100
AcDbPoint
 10
3589.069417695581
 20
-34.25775478755083
 30
0.0
  0
POINT
  5
2FB
330
2F0
100
AcDbEntity
  8
Defpoints
 62
     0
440
 16777216
100
AcDbPoint
 10
3608.001149155794
 20
-34.25775478755082
 30
0.0
  0
ENDBLK
  5
2F2
330
2F0
100
AcDbEntity
  8
0
100
AcDbBlockEnd
  0
BLOCK
  5
2FD
330
2FC
100
AcDbEntity
  8
0
100
AcDbBlockBegin
  2
*D26
 70
     1
 10
0.0
 20
0.0
 30
0.0
  3
*D26
  1

  0
LINE
  5
2FF
330
2FC
100
AcDbEntity
  8
DIMS
 62
     0
440
 16777216
370
    -2
100
AcDbLine
 10
3598.116005303482
 20
-34.25775478755083
 30
0.0
 11
3630.282072961424
 21
-34.25775478755082
 31
0.0
  0
LINE
  5
300
330
2FC
100
AcDbEntity
  8
DIMS
 62
     0
440
 16777216
370
    -2
100
AcDbLine
 10
3598.116005303482
 20
30.71885399935999
 30
0.0
 11
3630.282072961424
 21
30.71885399935999
 31
0.0
  0
LINE
  5
301
330
2FC
100
AcDbEntity
  8
DIMS
 62
     0
440
 16777216
370
    -2
100
AcDbLine
 10
3627.282072961424
 20
-30.25775478755082
 30
0.0
 11
3627.282072961424
 21
26.71885399935999
 31
0.0
  0
SOLID
  5
302
330
2FC
100
AcDbEntity
  8
DIMS
 62
     0
440
 16777216
100
AcDbTrace
 10
3626.615406294758
 20
-30.25775478755082
 30
0.0
 11
3627.948739628091
 21
-30.25775478755082
 31
0.0
 12
3627.282072961424
 22
-34.25775478755082
 32
0.0
 13
3627.282072961424
 23
-34.25775478755082
 33
0.0
  0
SOLID
  5
303
330
2FC
100
AcDbEntity
  8
DIMS
 62
     0
440
 16777216
100
AcDbTrace
 10
3626.615406294758
 20
26.71885399935999
 30
0.0
 11
3627.948739628091
 21
26.71885399935999
 31
0.0
 12
3627.282072961424
 22
30.71885399935999
 32
0.0
 13
3627.282072961424
 23
30.71885399935999
 33
0.0
  0
MTEXT
  5
304
330
2FC
100
AcDbEntity
  8
DIMS
 62
     0
440
 16777216
100
AcDbMText
 10
3623.882072961424
 20
-1.769450394096441
 30
0.0
 40
3.6
 41
0.0
 46
0.0
 71
     5
 72
     1
  1
\A1;65
  7
ROMANS
 11
0.0000000000000001
 21
1.0
 31
0.0
 73
     1
 44
1.0
  0
POINT
  5
305
330
2FC
100
AcDbEntity
  8
Defpoints
 62
     0
440
 16777216
100
AcDbPoint
 10
3589.116005303482
 20
-34.25775478755083
 30
0.0
  0
POINT
  5
306
330
2FC
100
AcDbEntity
  8
Defpoints
 62
     0
440
 16777216
100
AcDbPoint
 10
3589.116005303482
 20
30.71885399935999
 30
0.0
  0
POINT
  5
307
330
2FC
100
AcDbEntity
  8
Defpoints
 62
     0
440
 16777216
100
AcDbPoint
 10
3627.282072961424
 20
30.71885399935999
 30
0.0
  0
ENDBLK
  5
2FE
330
2FC
100
AcDbEntity
  8
0
100
AcDbBlockEnd
  0
BLOCK
  5
309
330
308
100
AcDbEntity
  8
0
100
AcDbBlockBegin
  2
*D27
 70
     1
 10
0.0
 20
0.0
 30
0.0
  3
*D27
  1

  0
LINE
  5
30B
330
308
100
AcDbEntity
  8
DIMS
 62
     0
440
 16777216
370
    -2
100
AcDbLine
 10
3598.06941769558
 20
15.71885399935998
 30
0.0
 11
3611.001149155794
 21
15.71885399935998
 31
0.0
  0
LINE
  5
30C
330
308
100
AcDbEntity
  8
DIMS
 62
     0
440
 16777216
370
    -2
100
AcDbLine
 10
3598.06941769558
 20
30.71885399935999
 30
0.0
 11
3611.001149155794
 21
30.71885399935999
 31
0.0
  0
LINE
  5
30D
330
308
100
AcDbEntity
  8
DIMS
 62
     0
440
 16777216
370
    -2
100
AcDbLine
 10
3608.001149155794
 20
19.71885399935998
 30
0.0
 11
3608.001149155794
 21
26.71885399935999
 31
0.0
  0
SOLID
  5
30E
330
308
100
AcDbEntity
  8
DIMS
 62
     0
440
 16777216
100
AcDbTrace
 10
3607.334482489128
 20
19.71885399935998
 30
0.0
 11
3608.667815822461
 21
19.71885399935998
 31
0.0
 12
3608.001149155794
 22
15.71885399935998
 32
0.0
 13
3608.001149155794
 23
15.71885399935998
 33
0.0
  0
SOLID
  5
30F
330
308
100
AcDbEntity
  8
DIMS
 62
     0
440
 16777216
100
AcDbTrace
 10
3607.334482489128
 20
26.71885399935999
 30
0.0
 11
3608.667815822461
 21
26.71885399935999
 31
0.0
 12
3608.001149155794
 22
30.71885399935999
 32
0.0
 13
3608.001149155794
 23
30.71885399935999
 33
0.0
  0
MTEXT
  5
310
330
308
100
AcDbEntity
  8
DIMS
 62
     0
440
 16777216
100
AcDbMText
 10
3604.601149155793
 20
23.21885399935896
 30
0.0
 40
3.6
 41
0.0
 46
0.0
 71
     5
 72
     1
  1
\A1;15
  7
ROMANS
 11
0.0000000000000001
 21
1.0
 31
0.0
 73
     1
 44
1.0
  0
POINT
  5
311
330
308
100
AcDbEntity
  8
Defpoints
 62
     0
440
 16777216
100
AcDbPoint
 10
3589.069417695581
 20
15.71885399935998
 30
0.0
  0
POINT
  5
312
330
308
100
AcDbEntity
  8
Defpoints
 62
     0
440
 16777216
100
AcDbPoint
 10
3589.069417695581
 20
30.71885399935999
 30
0.0
  0
POINT
  5
313
330
308
100
AcDbEntity
  8
Defpoints
 62
     0
440
 16777216
100
AcDbPoint
 10
3608.001149155794
 20
30.71885399935999
 30
0.0
  0
ENDBLK
  5
30A
330
308
100
AcDbEntity
  8
0
100
AcDbBlockEnd
  0
BLOCK
  5
315
330
314
100
AcDbEntity
  8
0
100
AcDbBlockBegin
  2
*D28
 70
     1
 10
0.0
 20
0.0
 30
0.0
  3
*D28
  1

  0
LINE
  5
317
330
314
100
AcDbEntity
  8
DIMS
 62
     0
440
 16777216
370
    -2
100
AcDbLine
 10
3426.06941769558
 20
63.22590842962391
 30
0.0
 11
3651.252154582976
 21
63.22590842962394
 31
0.0
  0
LINE
  5
318
330
314
100
AcDbEntity
  8
DIMS
 62
     0
440
 16777216
370
    -2
100
AcDbLine
 10
3426.06941769558
 20
-66.77409157037614
 30
0.0
 11
3651.252154582976
 21
-66.77409157037612
 31
0.0
  0
LINE
  5
319
330
314
100
AcDbEntity
  8
DIMS
 62
     0
440
 16777216
370
    -2
100
AcDbLine
 10
3648.252154582976
 20
59.22590842962394
 30
0.0
 11
3648.252154582976
 21
-62.77409157037611
 31
0.0
  0
SOLID
  5
31A
330
314
100
AcDbEntity
  8
DIMS
 62
     0
440
 16777216
100
AcDbTrace
 10
3647.585487916309
 20
59.22590842962394
 30
0.0
 11
3648.918821249643
 21
59.22590842962394
 31
0.0
 12
3648.252154582976
 22
63.22590842962394
 32
0.0
 13
3648.252154582976
 23
63.22590842962394
 33
0.0
  0
SOLID
  5
31B
330
314
100
AcDbEntity
  8
DIMS
 62
     0
440
 16777216
100
AcDbTrace
 10
3647.585487916309
 20
-62.77409157037611
 30
0.0
 11
3648.918821249643
 21
-62.77409157037611
 31
0.0
 12
3648.252154582976
 22
-66.77409157037612
 32
0.0
 13
3648.252154582976
 23
-66.77409157037612
 33
0.0
  0
MTEXT
  5
31C
330
314
100
AcDbEntity
  8
DIMS
 62
     0
440
 16777216
100
AcDbMText
 10
3644.852154582974
 20
-1.774091570377119
 30
0.0
 40
3.6
 41
0.0
 46
0.0
 71
     5
 72
     1
  1
\A1;130
  7
ROMANS
 11
0.0000000000000001
 21
1.0
 31
0.0
 73
     1
 44
1.0
  0
POINT
  5
31D
330
314
100
AcDbEntity
  8
Defpoints
 62
     0
440
 16777216
100
AcDbPoint
 10
3417.069417695581
 20
63.22590842962391
 30
0.0
  0
POINT
  5
31E
330
314
100
AcDbEntity
  8
Defpoints
 62
     0
440
 16777216
100
AcDbPoint
 10
3417.069417695581
 20
-66.77409157037615
 30
0.0
  0
POINT
  5
31F
330
314
100
AcDbEntity
  8
Defpoints
 62
     0
440
 16777216
100
AcDbPoint
 10
3648.252154582976
 20
-66.77409157037612
 30
0.0
  0
ENDBLK
  5
316
330
314
100
AcDbEntity
  8
0
100
AcDbBlockEnd
  0
ENDSEC
  0
SECTION
  2
ENTITIES
  0
DIMENSION
  5
30
330
2
100
AcDbEntity
  8
DIMS
100
AcDbDimension
280
     0
  2
*D15
 10
3447.06600530348
 20
-100.9592007602442
 30
0.0
 11
3432.067711499529
 21
-97.55920076024427
 31
0.0
 70
    32
 71
     5
 42
29.99658760790135
 73
     0
 74
     0
 75
     0
  3
1-2
100
AcDbAlignedDimension
 13
3417.069417695579
 23
-66.77409157037613
 33
0.0
 14
3447.06600530348
 24
-12.77409157037612
 34
0.0
100
AcDbRotatedDimension
  0
DIMENSION
  5
3F
330
2
100
AcDbEntity
  8
20MM-DIMS
 62
     1
100
AcDbDimension
280
     0
  2
*D16
 10
3394.069417695579
 20
-100.9592007602442
 30
0.0
 11
3399.994276542259
 21
-97.95920076024428
 31
0.0
 70
   160
 71
     5
 42
5.0
 73
     0
 74
     0
 75
     0
  3
1-2
100
AcDbAlignedDimension
 13
3389.069417695579
 23
-54.14925324231621
 33
0.0
 14
3394.069417695579
 24
-54.14925324231621
 34
0.0
100
AcDbRotatedDimension
  0
DIMENSION
  5
4E
330
2
100
AcDbEntity
  8
20MM-DIMS
 62
     1
100
AcDbDimension
280
     0
  2
*D17
 10
3329.069417695579
 20
-100.9592007602442
 30
0.0
 11
3345.069417695579
 21
-97.55920076024427
 31
0.0
 70
    32
 71
     5
 42
32.0
 73
     0
 74
     0
 75
     0
  3
1-2
100
AcDbAlignedDimension
 13
3361.069417695579
 23
-16.65275334159119
 33
0.0
 14
3329.069417695579
 24
-16.65275334159108
 34
0.0
100
AcDbRotatedDimension
  0
DIMENSION
  5
5B
330
2
100
AcDbEntity
  8
20MM-DIMS
 62
     1
100
AcDbDimension
280
     0
  2
*D18
 10
3361.069417695579
 20
-100.9592007602442
 30
0.0
 11
3375.069417695578
 21
-97.55920076024427
 31
0.0
 70
    32
 71
     5
 42
28.0
 73
     0
 74
     0
 75
     0
  3
1-2
100
AcDbAlignedDimension
 13
3389.069417695579
 23
-54.14925324231621
 33
0.0
 14
3361.069417695579
 24
-16.65275334159119
 34
0.0
100
AcDbRotatedDimension
  0
DIMENSION
  5
68
330
2
100
AcDbEntity
  8
DIMS
100
AcDbDimension
280
     0
  2
*D19
 10
3414.069417695579
 20
-100.9592007602442
 30
0.0
 11
3407.995095551147
 21
-97.95920076024428
 31
0.0
 70
   160
 71
     5
 42
3.0
 73
     0
 74
     0
 75
     0
  3
1-2
100
AcDbAlignedDimension
 13
3417.069417695579
 23
-66.77409157037613
 33
0.0
 14
3414.069417695579
 24
-66.77409157037613
 34
0.0
100
AcDbRotatedDimension
  0
DIMENSION
  5
76
330
2
100
AcDbEntity
  8
20MM-DIMS
 62
     1
100
AcDbDimension
280
     0
  2
*D20
 10
3414.069417695579
 20
-126.0772583933437
 30
0.0
 11
3404.069417695579
 21
-122.6772583933437
 31
0.0
 70
    32
 71
     5
 42
20.0
 73
     0
 74
     0
 75
     0
  3
1-2
100
AcDbAlignedDimension
 13
3394.069417695579
 23
-54.14925324231621
 33
0.0
 14
3414.069417695579
 24
-66.77409157037613
 34
0.0
100
AcDbRotatedDimension
  0
DIMENSION
  5
83
330
2
100
AcDbEntity
  8
20MM-DIMS
 62
     1
100
AcDbDimension
280
     0
  2
*D21
 10
3394.069417695579
 20
-126.0772583933437
 30
0.0
 11
3319.069417695579
 21
-122.6772583933437
 31
0.0
 70
    32
 71
     5
 42
150.0
 73
     0
 74
     0
 75
     0
  3
1-2
100
AcDbAlignedDimension
 13
3244.069417695579
 23
-43.1492532423162
 33
0.0
 14
3394.069417695579
 24
-54.14925324231621
 34
0.0
100
AcDbRotatedDimension
  0
LINE
  5
90
330
2
100
AcDbEntity
  8
CONCRETE
100
AcDbLine
 10
3414.069417695579
 20
-154.0126499859262
 30
0.0
 11
3414.069417695579
 21
125.4613590787909
 31
0.0
  0
LINE
  5
92
330
2
100
AcDbEntity
  8
20MM-JOINT
 62
     2
100
AcDbLine
 10
3394.069417695579
 20
-154.0217102665792
 30
0.0
 11
3394.069417695579
 21
125.4522987981381
 31
0.0
  0
DIMENSION
  5
93
330
2
100
AcDbEntity
  8
DIMS
100
AcDbDimension
280
     0
  2
*D22
 10
3569.11600530348
 20
-113.5772583933437
 30
0.0
 11
3491.592711499529
 21
-110.1772583933437
 31
0.0
 70
    32
 71
     5
 42
155.0465876079015
 73
     0
 74
     0
 75
     0
  3
1-2
100
AcDbAlignedDimension
 13
3414.069417695579
 23
-66.77409157037613
 33
0.0
 14
3569.11600530348
 24
-46.95775478755081
 34
0.0
100
AcDbRotatedDimension
  0
DIMENSION
  5
A0
330
2
100
AcDbEntity
  8
DIMS
100
AcDbDimension
280
     0
  2
*D23
 10
3584.069417695579
 20
-126.0772583933437
 30
0.0
 11
3499.069417695578
 21
-122.6772583933437
 31
0.0
 70
    32
 71
     5
 42
170.0
 73
     0
 74
     0
 75
     0
  3
1-2
100
AcDbAlignedDimension
 13
3414.069417695579
 23
-66.77409157037613
 33
0.0
 14
3584.069417695579
 24
-49.25775478755079
 34
0.0
100
AcDbRotatedDimension
  0
DIMENSION
  5
B9
330
2
100
AcDbEntity
  8
DIMS
100
AcDbDimension
280
     0
  2
*D24
 10
3608.080808747835
 20
15.71885399935998
 30
0.0
 11
3604.680808747835
 21
-1.769450394096441
 31
0.0
 70
    32
 71
     5
 42
34.9766087869108
 73
     0
 74
     0
 75
     0
  3
1-2
100
AcDbAlignedDimension
 13
3589.069417695578
 23
-19.25775478755082
 33
0.0
 14
3589.069417695578
 24
15.71885399935997
 34
0.0
 50
90.0
100
AcDbRotatedDimension
  0
DIMENSION
  5
C6
330
2
100
AcDbEntity
  8
DIMS
100
AcDbDimension
280
     0
  2
*D25
 10
3608.001149155794
 20
-34.25775478755082
 30
0.0
 11
3604.601149155793
 21
-26.75775478755184
 31
0.0
 70
    32
 71
     5
 42
15.0
 73
     0
 74
     0
 75
     0
  3
1-2
100
AcDbAlignedDimension
 13
3589.069417695578
 23
-19.25775478755082
 33
0.0
 14
3589.069417695578
 24
-34.25775478755082
 34
0.0
 50
90.0
100
AcDbRotatedDimension
  0
DIMENSION
  5
D3
330
2
100
AcDbEntity
  8
DIMS
100
AcDbDimension
280
     0
  2
*D26
 10
3627.282072961424
 20
30.71885399935999
 30
0.0
 11
3623.882072961424
 21
-1.769450394096441
 31
0.0
 70
    32
 71
     5
 42
64.9766087869108
 73
     0
 74
     0
 75
     0
  3
1-2
100
AcDbAlignedDimension
 13
3589.11600530348
 23
-34.25775478755082
 33
0.0
 14
3589.11600530348
 24
30.71885399935997
 34
0.0
 50
90.0
100
AcDbRotatedDimension
  0
DIMENSION
  5
E0
330
2
100
AcDbEntity
  8
DIMS
100
AcDbDimension
280
     0
  2
*D27
 10
3608.001149155794
 20
30.71885399935999
 30
0.0
 11
3604.601149155793
 21
23.21885399935896
 31
0.0
 70
    32
 71
     5
 42
15.0
 73
     0
 74
     0
 75
     0
  3
1-2
100
AcDbAlignedDimension
 13
3589.069417695578
 23
15.71885399935997
 33
0.0
 14
3589.069417695578
 24
30.71885399935997
 34
0.0
 50
90.0
100
AcDbRotatedDimension
  0
DIMENSION
  5
ED
330
2
100
AcDbEntity
  8
DIMS
100
AcDbDimension
280
     0
  2
*D28
 10
3648.252154582976
 20
-66.77409157037612
 30
0.0
 11
3644.852154582974
 21
-1.774091570377119
 31
0.0
 70
    32
 71
     5
 42
130.0
 73
     0
 74
     0
 75
     0
  3
1-2
100
AcDbAlignedDimension
 13
3417.069417695579
 23
63.22590842962387
 33
0.0
 14
3417.069417695579
 24
-66.77409157037613
 34
0.0
 50
90.0
100
AcDbRotatedDimension
  0
LINE
  5
FA
330
2
100
AcDbEntity
  8
20MM-JOINT
  6
Continuous
 62
     3
100
AcDbLine
 10
3394.069417695579
 20
41.85074675768379
 30
0.0
 11
3414.069417695579
 21
41.85074675768368
 31
0.0
  0
LINE
  5
FB
330
2
100
AcDbEntity
  8
20MM-JOINT
  6
Continuous
 62
     3
100
AcDbLine
 10
3394.069417695579
 20
-23.14925324231621
 30
0.0
 11
3414.069417695579
 21
-23.14925324231621
 31
0.0
  0
LINE
  5
FC
330
2
100
AcDbEntity
  8
20MM-JOINT
  6
Continuous
 62
     3
100
AcDbLine
 10
3394.069417695579
 20
-45.1492532423162
 30
0.0
 11
3414.069417695579
 21
-45.1492532423162
 31
0.0
  0
LINE
  5
FD
330
2
100
AcDbEntity
  8
20MM-JOINT
  6
Continuous
 62
     3
100
AcDbLine
 10
3394.069417695579
 20
19.85074675768379
 30
0.0
 11
3414.069417695579
 21
19.85074675768368
 31
0.0
  0
LINE
  5
FE
330
2
100
AcDbEntity
  8
20MM-JOINT
  6
CENTER2
 62
     1
100
AcDbLine
 10
3234.069417695579
 20
30.71885399935985
 30
0.0
 11
3414.069417695579
 21
30.71885399935985
 31
0.0
  0
LINE
  5
100
330
2
100
AcDbEntity
  8
20MM-JOINT
  6
CENTER2
 62
     1
100
AcDbLine
 10
3234.069417695579
 20
-34.25775478755082
 30
0.0
 11
3414.069417695579
 21
-34.25775478755082
 31
0.0
  0
LINE
  5
101
330
2
100
AcDbEntity
  8
20MM-JOINT
  6
CENTER2
 62
     1
100
AcDbLine
 10
3361.069417695579
 20
9.225908429623871
 30
0.0
 11
3361.069417695579
 21
-12.77409157037613
 31
0.0
  0
LINE
  5
102
330
2
100
AcDbEntity
  8
20MM-JOINT
  6
CENTER2
 62
     1
100
AcDbLine
 10
3329.069417695579
 20
9.225908429623984
 30
0.0
 11
3329.069417695579
 21
-12.77409157037601
 31
0.0
  0
LINE
  5
103
330
2
100
AcDbEntity
  8
20MM-JOINT
 62
     3
100
AcDbLine
 10
3306.069417695578
 20
17.85074675768413
 30
0.0
 11
3306.069417695578
 21
-21.14925324231621
 31
0.0
  0
LINE
  5
104
330
2
100
AcDbEntity
  8
20MM-JOINT
 62
     3
100
AcDbLine
 10
3394.069417695579
 20
50.85074675768379
 30
0.0
 11
3394.069417695579
 21
-54.14925324231621
 31
0.0
  0
LINE
  5
105
330
2
100
AcDbEntity
  8
20MM-JOINT
 62
     3
100
AcDbLine
 10
3389.069417695579
 20
50.85074675768379
 30
0.0
 11
3389.069417695579
 21
-54.14925324231621
 31
0.0
  0
LINE
  5
106
330
2
100
AcDbEntity
  8
20MM-JOINT
  6
Continuous
 62
     3
100
AcDbLine
 10
3246.069417695578
 20
-23.14925324231621
 30
0.0
 11
3389.069417695579
 21
-23.14925324231621
 31
0.0
  0
LINE
  5
107
330
2
100
AcDbEntity
  8
20MM-JOINT
  6
Continuous
 62
     3
100
AcDbLine
 10
3246.069417695578
 20
-45.1492532423162
 30
0.0
 11
3389.069417695579
 21
-45.1492532423162
 31
0.0
  0
LINE
  5
108
330
2
100
AcDbEntity
  8
20MM-JOINT
 62
     3
100
AcDbLine
 10
3246.069417695578
 20
-23.14925324231621
 30
0.0
 11
3246.069417695578
 21
-45.1492532423162
 31
0.0
  0
LINE
  5
109
330
2
100
AcDbEntity
  8
20MM-JOINT
 62
     3
100
AcDbLine
 10
3244.069417695579
 20
-25.14925324231621
 30
0.0
 11
3244.069417695579
 21
-43.14925324231632
 31
0.0
  0
LINE
  5
10A
330
2
100
AcDbEntity
  8
20MM-JOINT
 62
     3
100
AcDbLine
 10
3246.069417695578
 20
-45.1492532423162
 30
0.0
 11
3244.069417695579
 21
-43.1492532423162
 31
0.0
  0
LINE
  5
10B
330
2
100
AcDbEntity
  8
20MM-JOINT
 62
     3
100
AcDbLine
 10
3246.069417695578
 20
-23.14925324231621
 30
0.0
 11
3244.069417695579
 21
-25.14925324231621
 31
0.0
  0
ARC
  5
10C
330
2
100
AcDbEntity
  8
20MM-JOINT
 62
     3
100
AcDbCircle
 10
3308.069417695579
 20
-21.14925324231621
 30
0.0
 40
2.0
100
AcDbArc
 50
180.0
 51
270.0
  0
LINE
  5
10D
330
2
100
AcDbEntity
  8
20MM-JOINT
 62
     3
100
AcDbLine
 10
3389.069417695579
 20
-54.14925324231621
 30
0.0
 11
3394.069417695579
 21
-54.14925324231621
 31
0.0
  0
LINE
  5
10E
330
2
100
AcDbEntity
  8
20MM-JOINT
  6
Continuous
 62
     3
100
AcDbLine
 10
3246.069417695578
 20
41.85074675768447
 30
0.0
 11
3389.069417695579
 21
41.85074675768379
 31
0.0
  0
LINE
  5
10F
330
2
100
AcDbEntity
  8
20MM-JOINT
  6
CENTER2
 62
     1
100
AcDbLine
 10
3340.069417695579
 20
-1.774091570376015
 30
0.0
 11
3318.069417695578
 21
-1.774091570375901
 31
0.0
  0
LINE
  5
110
330
2
100
AcDbEntity
  8
20MM-JOINT
  6
Continuous
 62
     3
100
AcDbLine
 10
3246.069417695578
 20
19.85074675768447
 30
0.0
 11
3389.069417695579
 21
19.85074675768379
 31
0.0
  0
LINE
  5
111
330
2
100
AcDbEntity
  8
20MM-JOINT
 62
     3
100
AcDbLine
 10
3244.069417695579
 20
39.85074675768448
 30
0.0
 11
3244.069417695579
 21
21.85074675768459
 31
0.0
  0
LINE
  5
112
330
2
100
AcDbEntity
  8
20MM-JOINT
 62
     3
100
AcDbLine
 10
3246.069417695578
 20
41.85074675768447
 30
0.0
 11
3246.069417695578
 21
19.85074675768447
 31
0.0
  0
LINE
  5
113
330
2
100
AcDbEntity
  8
20MM-JOINT
 62
     3
100
AcDbLine
 10
3246.069417695578
 20
19.85074675768447
 30
0.0
 11
3244.069417695579
 21
21.85074675768448
 31
0.0
  0
ARC
  5
114
330
2
100
AcDbEntity
  8
20MM-JOINT
 62
     3
100
AcDbCircle
 10
3308.069417695579
 20
17.85074675768413
 30
0.0
 40
2.0
100
AcDbArc
 50
90.0
 51
180.0
  0
LINE
  5
115
330
2
100
AcDbEntity
  8
20MM-JOINT
 62
     3
100
AcDbLine
 10
3246.069417695578
 20
41.85074675768447
 30
0.0
 11
3244.069417695579
 21
39.85074675768448
 31
0.0
  0
LINE
  5
116
330
2
100
AcDbEntity
  8
20MM-JOINT
  6
CENTER2
 62
     1
100
AcDbLine
 10
3372.069417695579
 20
-1.774091570376128
 30
0.0
 11
3350.069417695578
 21
-1.774091570376015
 31
0.0
  0
CIRCLE
  5
117
330
2
100
AcDbEntity
  8
20MM-JOINT
 62
     3
100
AcDbCircle
 10
3361.069417695579
 20
-1.774091570376128
 30
0.0
 40
7.0
  0
CIRCLE
  5
118
330
2
100
AcDbEntity
  8
20MM-JOINT
 62
     3
100
AcDbCircle
 10
3329.069417695579
 20
-1.774091570376015
 30
0.0
 40
7.0
  0
LINE
  5
119
330
2
100
AcDbEntity
  8
20MM-JOINT
 62
     3
100
AcDbLine
 10
3389.069417695579
 20
50.85074675768379
 30
0.0
 11
3394.069417695579
 21
50.85074675768379
 31
0.0
  0
LINE
  5
11A
330
2
100
AcDbEntity
  8
ANCON-DSD
100
AcDbLine
 10
3477.069417695579
 20
15.71885399935996
 30
0.0
 11
3477.069417695579
 21
-19.25775478755082
 31
0.0
  0
LINE
  5
11C
330
2
100
AcDbEntity
  8
DIMS
  6
CENTER2
100
AcDbLine
 10
3447.066005303481
 20
9.225908429623871
 30
0.0
 11
3447.06600530348
 21
-12.77409157037613
 31
0.0
  0
LINE
  5
11D
330
2
100
AcDbEntity
  8
ANCON-DSD
100
AcDbLine
 10
3414.069417695579
 20
63.22590842962387
 30
0.0
 11
3414.069417695579
 21
-66.77409157037613
 31
0.0
  0
LINE
  5
11E
330
2
100
AcDbEntity
  8
ANCON-DSD
100
AcDbLine
 10
3417.069417695579
 20
63.22590842962387
 30
0.0
 11
3417.069417695579
 21
-66.77409157037613
 31
0.0
  0
LINE
  5
11F
330
2
100
AcDbEntity
  8
ANCON-DSD
  6
HIDDEN
100
AcDbLine
 10
3417.069417695579
 20
-46.95775478755087
 30
0.0
 11
3569.11600530348
 21
-46.95775478755087
 31
0.0
  0
LINE
  5
121
330
2
100
AcDbEntity
  8
ANCON-DSD
  6
HIDDEN
100
AcDbLine
 10
3417.069417695579
 20
-21.55775478755078
 30
0.0
 11
3569.11600530348
 21
-21.55775478755078
 31
0.0
  0
LINE
  5
122
330
2
100
AcDbEntity
  8
20MM-JOINT
  6
HIDDEN
 62
     3
100
AcDbLine
 10
3414.069417695579
 20
-23.14925324231621
 30
0.0
 11
3542.069417695579
 21
-23.14925324231621
 31
0.0
  0
LINE
  5
123
330
2
100
AcDbEntity
  8
20MM-JOINT
  6
HIDDEN
 62
     3
100
AcDbLine
 10
3414.069417695579
 20
-45.1492532423162
 30
0.0
 11
3542.069417695579
 21
-45.1492532423162
 31
0.0
  0
LINE
  5
124
330
2
100
AcDbEntity
  8
DIMS
  6
CENTER2
100
AcDbLine
 10
3417.069417695579
 20
-34.25775478755082
 30
0.0
 11
3589.11600530348
 21
-34.25775478755082
 31
0.0
  0
LINE
  5
125
330
2
100
AcDbEntity
  8
ANCON-DSD
  6
Continuous
100
AcDbLine
 10
3417.069417695579
 20
-19.25775478755082
 30
0.0
 11
3589.069417695578
 21
-19.25775478755082
 31
0.0
  0
LINE
  5
126
330
2
100
AcDbEntity
  8
ANCON-DSD
  6
Continuous
100
AcDbLine
 10
3414.069417695579
 20
-49.25775478755082
 30
0.0
 11
3589.069417695578
 21
-49.25775478755082
 31
0.0
  0
LINE
  5
127
330
2
100
AcDbEntity
  8
ANCON-DSD
100
AcDbLine
 10
3414.069417695579
 20
-66.77409157037613
 30
0.0
 11
3417.069417695579
 21
-66.77409157037613
 31
0.0
  0
LINE
  5
128
330
2
100
AcDbEntity
  8
20MM-JOINT
  6
HIDDEN
 62
     3
100
AcDbLine
 10
3542.069417695579
 20
-23.14925324231621
 30
0.0
 11
3542.069417695579
 21
-45.1492532423162
 31
0.0
  0
LINE
  5
129
330
2
100
AcDbEntity
  8
20MM-JOINT
  6
HIDDEN
 62
     3
100
AcDbLine
 10
3544.069417695579
 20
-25.14925324231632
 30
0.0
 11
3544.069417695579
 21
-43.1492532423162
 31
0.0
  0
LINE
  5
12A
330
2
100
AcDbEntity
  8
20MM-JOINT
  6
HIDDEN
 62
     3
100
AcDbLine
 10
3542.069417695579
 20
-45.1492532423162
 30
0.0
 11
3544.069417695579
 21
-43.1492532423162
 31
0.0
  0
LINE
  5
12B
330
2
100
AcDbEntity
  8
20MM-JOINT
  6
HIDDEN
 62
     3
100
AcDbLine
 10
3542.069417695579
 20
-23.14925324231621
 30
0.0
 11
3544.069417695579
 21
-25.14925324231621
 31
0.0
  0
LINE
  5
12C
330
2
100
AcDbEntity
  8
ANCON-DSD
  6
HIDDEN
100
AcDbLine
 10
3569.11600530348
 20
-21.55775478755078
 30
0.0
 11
3569.11600530348
 21
-46.95775478755087
 31
0.0
  0
LINE
  5
12D
330
2
100
AcDbEntity
  8
ANCON-DSD
  6
Continuous
100
AcDbLine
 10
3584.069417695579
 20
-19.25775478755082
 30
0.0
 11
3584.069417695579
 21
-49.25775478755082
 31
0.0
  0
LINE
  5
12E
330
2
100
AcDbEntity
  8
ANCON-DSD
  6
Continuous
100
AcDbLine
 10
3589.069417695578
 20
-19.25775478755082
 30
0.0
 11
3589.069417695578
 21
-49.25775478755082
 31
0.0
  0
LINE
  5
12F
330
2
100
AcDbEntity
  8
ANCON-DSD
  6
HIDDEN
100
AcDbLine
 10
3417.069417695579
 20
43.41885399935989
 30
0.0
 11
3569.11600530348
 21
43.41885399935989
 31
0.0
  0
LINE
  5
130
330
2
100
AcDbEntity
  8
ANCON-DSD
  6
HIDDEN
100
AcDbLine
 10
3417.069417695579
 20
18.01885399936003
 30
0.0
 11
3569.11600530348
 21
18.01885399936003
 31
0.0
  0
LINE
  5
131
330
2
100
AcDbEntity
  8
20MM-JOINT
  6
HIDDEN
 62
     3
100
AcDbLine
 10
3414.069417695579
 20
41.85074675768368
 30
0.0
 11
3542.069417695579
 21
41.85074675768322
 31
0.0
  0
LINE
  5
132
330
2
100
AcDbEntity
  8
20MM-JOINT
  6
HIDDEN
 62
     3
100
AcDbLine
 10
3542.069417695579
 20
19.85074675768322
 30
0.0
 11
3414.069417695579
 21
19.85074675768368
 31
0.0
  0
LINE
  5
133
330
2
100
AcDbEntity
  8
DIMS
  6
CENTER2
100
AcDbLine
 10
3414.069417695579
 20
30.71885399935985
 30
0.0
 11
3589.11600530348
 21
30.71885399935997
 31
0.0
  0
LINE
  5
134
330
2
100
AcDbEntity
  8
ANCON-DSD
  6
Continuous
100
AcDbLine
 10
3417.069417695579
 20
45.71885399935985
 30
0.0
 11
3589.069417695578
 21
45.71885399935996
 31
0.0
  0
LINE
  5
135
330
2
100
AcDbEntity
  8
ANCON-DSD
  6
Continuous
100
AcDbLine
 10
3417.069417695579
 20
15.71885399935996
 30
0.0
 11
3589.069417695578
 21
15.71885399935996
 31
0.0
  0
LINE
  5
136
330
2
100
AcDbEntity
  8
DIMS
  6
CENTER2
100
AcDbLine
 10
3436.066005303481
 20
-1.774091570376128
 30
0.0
 11
3458.066005303481
 21
-1.774091570376128
 31
0.0
  0
CIRCLE
  5
137
330
2
100
AcDbEntity
  8
ANCON-DSD
100
AcDbCircle
 10
3447.066005303481
 20
-1.774091570376128
 30
0.0
 40
7.0
  0
LINE
  5
138
330
2
100
AcDbEntity
  8
ANCON-DSD
100
AcDbLine
 10
3414.069417695579
 20
63.20778786831801
 30
0.0
 11
3414.069417695579
 21
63.22590842962387
 31
0.0
  0
LINE
  5
139
330
2
100
AcDbEntity
  8
ANCON-DSD
100
AcDbLine
 10
3414.069417695579
 20
63.20778786831801
 30
0.0
 11
3417.069417695579
 21
63.20778786831801
 31
0.0
  0
LINE
  5
13A
330
2
100
AcDbEntity
  8
20MM-JOINT
  6
HIDDEN
 62
     3
100
AcDbLine
 10
3544.069417695579
 20
39.85074675768334
 30
0.0
 11
3544.069417695579
 21
21.85074675768323
 31
0.0
  0
LINE
  5
13B
330
2
100
AcDbEntity
  8
20MM-JOINT
  6
HIDDEN
 62
     3
100
AcDbLine
 10
3542.069417695579
 20
41.85074675768322
 30
0.0
 11
3542.069417695579
 21
19.85074675768322
 31
0.0
  0
LINE
  5
13C
330
2
100
AcDbEntity
  8
ANCON-DSD
  6
HIDDEN
100
AcDbLine
 10
3569.11600530348
 20
43.41885399935989
 30
0.0
 11
3569.11600530348
 21
18.01885399936003
 31
0.0
  0
LINE
  5
13D
330
2
100
AcDbEntity
  8
ANCON-DSD
  6
Continuous
100
AcDbLine
 10
3584.069417695579
 20
45.71885399935996
 30
0.0
 11
3584.069417695579
 21
15.71885399935996
 31
0.0
  0
LINE
  5
13E
330
2
100
AcDbEntity
  8
ANCON-DSD
  6
Continuous
100
AcDbLine
 10
3589.069417695578
 20
45.71885399935996
 30
0.0
 11
3589.069417695578
 21
15.71885399935996
 31
0.0
  0
LINE
  5
13F
330
2
100
AcDbEntity
  8
20MM-JOINT
  6
HIDDEN
 62
     3
100
AcDbLine
 10
3542.069417695579
 20
19.85074675768322
 30
0.0
 11
3544.069417695579
 21
21.85074675768323
 31
0.0
  0
LINE
  5
140
330
2
100
AcDbEntity
  8
20MM-JOINT
  6
HIDDEN
 62
     3
100
AcDbLine
 10
3542.069417695579
 20
41.85074675768322
 30
0.0
 11
3544.069417695579
 21
39.85074675768323
 31
0.0
  0
LINE
  5
213
330
2
100
AcDbEntity
  8
SPECD
  6
Continuous
 62
     6
100
AcDbLine
 10
3762.187682725699
 20
140.840828927242
 30
0.0
 11
3762.187682725699
 21
87.80713634169165
 31
0.0
  0
LINE
  5
214
330
2
100
AcDbEntity
  8
SPECP
  6
Continuous
 62
     6
100
AcDbLine
 10
3559.700732619059
 20
170.2073425943358
 30
0.0
 11
3627.29058354182
 21
170.2073425943358
 31
0.0
  0
LINE
  5
215
330
2
100
AcDbEntity
  8
SPECD
  6
Continuous
 62
     6
100
AcDbLine
 10
3559.700732619059
 20
140.840828927242
 30
0.0
 11
3559.700732619059
 21
87.80713634169165
 31
0.0
  0
TEXT
  5
216
102
{ACAD_XDICTIONARY
360
217
102
}
330
2
100
AcDbEntity
  8
SPECP
  6
Continuous
 62
     6
100
AcDbText
 10
3567.323699565237
 20
161.5702324784923
 30
0.0
 40
5.0
  1
STAIFIX DSD ??
  7
ARIAL
 72
     4
 11
3593.71865181626
 21
164.0702324784923
 31
0.0
100
AcDbText
1001
AcadAnnotative
1000
AnnotativeData
1002
{
1070
     1
1070
     1
1002
}
  0
LINE
  5
21B
330
2
100
AcDbEntity
  8
SPECP
  6
Continuous
 62
     6
100
AcDbLine
 10
3559.700732619059
 20
158.2893673023345
 30
0.0
 11
3627.29058354182
 21
158.2893673023345
 31
0.0
  0
TEXT
  5
21C
102
{ACAD_XDICTIONARY
360
21D
102
}
330
2
100
AcDbEntity
  8
SPECD
  6
Continuous
 62
     6
100
AcDbText
 10
3570.222256730062
 20
91.50848145251993
 30
0.0
 40
5.0
  1
LOAD OF ??? kN
  7
ARIAL
 72
     4
 11
3597.58924172324
 21
94.01018677312022
 31
0.0
100
AcDbText
1001
AcadAnnotative
1000
AnnotativeData
1002
{
1070
     1
1070
     1
1002
}
  0
LINE
  5
221
330
2
100
AcDbEntity
  8
SPECP
  6
Continuous
 62
     6
100
AcDbLine
 10
3559.700732619059
 20
170.2073425943358
 30
0.0
 11
3559.700732619059
 21
158.2893673023345
 31
0.0
  0
LINE
  5
222
330
2
100
AcDbEntity
  8
SPECP
  6
Continuous
 62
     6
100
AcDbLine
 10
3627.29058354182
 20
170.2073425943358
 30
0.0
 11
3627.29058354182
 21
158.2893673023345
 31
0.0
  0
TEXT
  5
223
102
{ACAD_XDICTIONARY
360
224
102
}
330
2
100
AcDbEntity
  8
SPECD
  6
Continuous
 62
     6
100
AcDbText
 10
3568.242678564205
 20
111.5924640314113
 30
0.0
 40
5.0
  1
SUITABLE FOR A DESIGN JOINT WIDTH OF ?? MM
  7
ARIAL
 72
     4
 11
3652.069417991218
 21
114.0941693520116
 31
0.0
100
AcDbText
1001
AcadAnnotative
1000
AnnotativeData
1002
{
1070
     1
1070
     1
1002
}
  0
LINE
  5
228
330
2
100
AcDbEntity
  8
SPECD
  6
Continuous
 62
     6
100
AcDbLine
 10
3559.700732619059
 20
140.840828927242
 30
0.0
 11
3762.187682725699
 21
140.840828927242
 31
0.0
  0
LINE
  5
229
330
2
100
AcDbEntity
  8
SPECD
  6
Continuous
 62
     6
100
AcDbLine
 10
3559.700732619059
 20
87.80713634169165
 30
0.0
 11
3762.187682725699
 21
87.80713634169165
 31
0.0
  0
TEXT
  5
22A
102
{ACAD_XDICTIONARY
360
22B
102
}
330
2
100
AcDbEntity
  8
SPECD
  6
Continuous
 62
     6
100
AcDbText
 10
3569.763592195378
 20
101.5434066174822
 30
0.0
 40
5.0
  1
AND CAPABLE OF TRANSFERRING A SERVICEABILITY
  7
ARIAL
 72
     4
 11
3661.165365728802
 21
104.0451119380825
 31
0.0
100
AcDbText
1001
AcadAnnotative
1000
AnnotativeData
1002
{
1070
     1
1070
     1
1002
}
  0
TEXT
  5
22F
102
{ACAD_XDICTIONARY
360
230
102
}
330
2
100
AcDbEntity
  8
SPECD
  6
Continuous
 62
     6
100
AcDbText
 10
3568.385943926775
 20
121.4936117410811
 30
0.0
 40
5.0
  1
COMPRISING SLEEVE AND DOWEL COMPONENT
  7
ARIAL
 72
     4
 11
3651.247471894033
 21
123.9953170616813
 31
0.0
100
AcDbText
1001
AcadAnnotative
1000
AnnotativeData
1002
{
1070
     1
1070
     1
1002
}
  0
TEXT
  5
234
102
{ACAD_XDICTIONARY
360
235
102
}
330
2
100
AcDbEntity
  8
SPECD
  6
Continuous
 62
     6
100
AcDbText
 10
3569.479862692605
 20
131.5983240668717
 30
0.0
 40
5.0
  1
TWO PART STAINLESS STEEL SHEAR CONNECTOR
  7
ARIAL
 72
     4
 11
3656.611513442946
 21
134.100029387472
 31
0.0
100
AcDbText
1001
AcadAnnotative
1000
AnnotativeData
1002
{
1070
     1
1070
     1
1002
}
  0
TEXT
  5
239
102
{ACAD_XDICTIONARY
360
23A
102
}
330
2
100
AcDbEntity
  8
20MM-JOINT
  6
Continuous
 62
     6
100
AcDbText
 10
3335.040655072535
 20
128.0804419520754
 30
0.0
 40
5.0
  1
54.3
  7
ARIAL
 72
     4
 11
3341.838062985222
 21
130.54633554007
 31
0.0
100
AcDbText
1001
AcadAnnotative
1000
AnnotativeData
1002
{
1070
     1
1070
     1
1002
}
  0
LINE
  5
23E
330
2
100
AcDbEntity
  8
20MM-JOINT
  6
Continuous
 62
     6
100
AcDbLine
 10
3373.331276565056
 20
170.3290245810642
 30
0.0
 11
3373.331276565056
 21
117.2307784469714
 31
0.0
  0
TEXT
  5
23F
102
{ACAD_XDICTIONARY
360
240
102
}
330
2
100
AcDbEntity
  8
20MM-JOINT
  6
Continuous
 62
     6
100
AcDbText
 10
3267.683289261079
 20
149.1656850339036
 30
0.0
 40
5.0
  1
WIDTH
  7
ARIAL
 72
     4
 11
3279.12769580951
 21
151.6656850339036
 31
0.0
100
AcDbText
1001
AcadAnnotative
1000
AnnotativeData
1002
{
1070
     1
1070
     1
1002
}
  0
TEXT
  5
244
102
{ACAD_XDICTIONARY
360
245
102
}
330
2
100
AcDbEntity
  8
20MM-JOINT
  6
Continuous
 62
     6
100
AcDbText
 10
3271.164461348114
 20
128.0787366314751
 30
0.0
 40
5.0
  1
20 MM
  7
ARIAL
 72
     4
 11
3281.838062985222
 21
130.54633554007
 31
0.0
100
AcDbText
1001
AcadAnnotative
1000
AnnotativeData
1002
{
1070
     1
1070
     1
1002
}
  0
TEXT
  5
249
102
{ACAD_XDICTIONARY
360
24A
102
}
330
2
100
AcDbEntity
  8
20MM-JOINT
  6
Continuous
 62
     6
100
AcDbText
 10
3254.678514363399
 20
160.0616031009223
 30
0.0
 40
5.0
  1
DESIGN JOINT
  7
ARIAL
 72
     4
 11
3279.12769580951
 21
162.5633084215226
 31
0.0
100
AcDbText
1001
AcadAnnotative
1000
AnnotativeData
1002
{
1070
     1
1070
     1
1002
}
  0
TEXT
  5
24E
102
{ACAD_XDICTIONARY
360
24F
102
}
330
2
100
AcDbEntity
  8
20MM-JOINT
  6
Continuous
 62
     6
100
AcDbText
 10
3206.821719201047
 20
160.0633084215226
 30
0.0
 40
5.0
  1
DSD REF:
  7
ARIAL
 72
     4
 11
3223.121173498455
 21
162.5633084215226
 31
0.0
100
AcDbText
1001
AcadAnnotative
1000
AnnotativeData
1002
{
1070
     1
1070
     1
1002
}
  0
TEXT
  5
253
102
{ACAD_XDICTIONARY
360
254
102
}
330
2
100
AcDbEntity
  8
20MM-JOINT
  6
Continuous
 62
     6
100
AcDbText
 10
3207.862960665986
 20
128.196403752894
 30
0.0
 40
5.0
  1
DSDQ65
  7
ARIAL
 72
     4
 11
3221.838062985222
 21
130.54633554007
 31
0.0
100
AcDbText
1001
AcadAnnotative
1000
AnnotativeData
1002
{
1070
     1
1070
     1
1002
}
  0
LINE
  5
258
330
2
100
AcDbEntity
  8
20MM-JOINT
  6
Continuous
 62
     6
100
AcDbLine
 10
3197.952598873193
 20
170.3290245810642
 30
0.0
 11
3197.952598873193
 21
117.2307784469714
 31
0.0
  0
LINE
  5
259
330
2
100
AcDbEntity
  8
20MM-JOINT
  6
Continuous
 62
     6
100
AcDbLine
 10
3247.952598873193
 20
170.3290245810642
 30
0.0
 11
3247.952598873193
 21
117.2307784469714
 31
0.0
  0
LINE
  5
25A
330
2
100
AcDbEntity
  8
20MM-JOINT
  6
Continuous
 62
     6
100
AcDbLine
 10
3308.460692430256
 20
170.3290245810642
 30
0.0
 11
3308.460692430256
 21
117.2307784469714
 31
0.0
  0
TEXT
  5
25B
102
{ACAD_XDICTIONARY
360
25C
102
}
330
2
100
AcDbEntity
  8
20MM-JOINT
  6
Continuous
 62
     6
100
AcDbText
 10
3322.822032971579
 20
149.4583719660434
 30
0.0
 40
5.0
  1
LOAD ( kN )
  7
ARIAL
 72
     4
 11
3341.838062985222
 21
151.2677171229329
 31
0.0
100
AcDbText
1001
AcadAnnotative
1000
AnnotativeData
1002
{
1070
     1
1070
     1
1002
}
  0
TEXT
  5
260
102
{ACAD_XDICTIONARY
360
261
102
}
330
2
100
AcDbEntity
  8
20MM-JOINT
  6
Continuous
 62
     6
100
AcDbText
 10
3313.500750570488
 20
160.0681389186542
 30
0.0
 40
5.0
  1
SERVICEABILITY
  7
ARIAL
 72
     4
 11
3341.838062985222
 21
162.5681389186542
 31
0.0
100
AcDbText
1001
AcadAnnotative
1000
AnnotativeData
1002
{
1070
     1
1070
     1
1002
}
  0
LINE
  5
265
330
2
100
AcDbEntity
  8
20MM-JOINT
  6
Continuous
 62
     6
100
AcDbLine
 10
3197.952598873193
 20
170.3290245810642
 30
0.0
 11
3373.331276565056
 21
170.3290245810642
 31
0.0
  0
LINE
  5
266
330
2
100
AcDbEntity
  8
20MM-JOINT
  6
Continuous
 62
     6
100
AcDbLine
 10
3197.952598873193
 20
144.2582635220185
 30
0.0
 11
3373.331276565056
 21
144.2582635220185
 31
0.0
  0
LINE
  5
267
330
2
100
AcDbEntity
  8
20MM-JOINT
  6
Continuous
 62
     6
100
AcDbLine
 10
3197.952598873193
 20
117.2307784469715
 30
0.0
 11
3373.331276565056
 21
117.2307784469714
 31
0.0
  0
TEXT
  5
268
102
{ACAD_XDICTIONARY
360
269
102
}
330
2
100
AcDbEntity
  8
SPECP
  6
Continuous
 62
     1
100
AcDbText
 10
3434.934424773023
 20
161.568527157892
 30
0.0
 40
5.0
  1
SPECIFICATION BY PRODUCT
  7
ARIAL
 72
     4
 11
3485.580741280526
 21
164.0702324784923
 31
0.0
100
AcDbText
1001
AcadAnnotative
1000
AnnotativeData
1002
{
1070
     1
1070
     1
1002
}
  0
TEXT
  5
26D
102
{ACAD_XDICTIONARY
360
26E
102
}
330
2
100
AcDbEntity
  8
SPECD
  6
Continuous
 62
     1
100
AcDbText
 10
3434.668946850069
 20
131.6340726933959
 30
0.0
 40
5.0
  1
SPECIFICATION BY DESCRIPTION
  7
ARIAL
 72
     4
 11
3491.914854080629
 21
134.1357780139961
 31
0.0
100
AcDbText
1001
AcadAnnotative
1000
AnnotativeData
1002
{
1070
     1
1070
     1
1002
}
  0
MTEXT
  5
272
330
2
100
AcDbEntity
  8
ANCON-TEXT
100
AcDbMText
 10
3621.461453154243
 20
-104.040085350431
 30
0.0
 40
6.695252439800889
 41
160.2376420553701
 46
0.0
 71
     1
 72
     5
  1
{\fArial|b0|i0|c0|p34;Leviat \PTel:  1300 304 320\PEmail: technical.au@leviat.com\PWeb: ancon.com.au / Leviat.com}
 73
     1
 44
1.0
101
Embedded Object
 70
     1
 10
1.0
 20
0.0
 30
0.0
 11
3621.461453154243
 21
-104.040085350431
 31
0.0
 40
160.2376420553701
 41
0.0
 42
135.4898050010729
 43
40.5505773622047
 71
     2
 72
     1
 44
160.2376420553701
 45
0.8369065549751111
 73
     0
 74
     0
 46
0.0
  0
LWPOLYLINE
  5
273
330
2
100
AcDbEntity
  8
DIMS
 62
     0
100
AcDbPolyline
 90
        4
 70
     1
 43
0.0
 10
3176.134488603479
 20
191.0902574962056
 10
3772.270633504581
 20
191.0902574962056
 10
3772.270633504581
 20
-168.8798316789889
 10
3176.134488603479
 20
-168.8798316789889
  0
ENDSEC
  0
SECTION
  2
OBJECTS
  0
DICTIONARY
  5
7
330
0
100
AcDbDictionary
281
     1
  3
ACAD_CIP_PREVIOUS_PRODUCT_INFO
350
1A1
  3
ACAD_COLOR
350
184
  3
ACAD_DETAILVIEWSTYLE
350
19D
  3
ACAD_GROUP
350
24
  3
ACAD_LAYOUT
350
B
  3
ACAD_MATERIAL
350
152
  3
ACAD_MLEADERSTYLE
350
199
  3
ACAD_MLINESTYLE
350
25
  3
ACAD_PLOTSETTINGS
350
26
  3
ACAD_PLOTSTYLENAME
350
6
  3
ACAD_SCALELIST
350
187
  3
ACAD_SECTIONVIEWSTYLE
350
19B
  3
ACAD_TABLESTYLE
350
185
  3
ACAD_VISUALSTYLE
350
16B
  3
ACDB_RECOMPOSE_DATA
350
353
  3
AcDbVariableDictionary
350
347
  0
DICTIONARY
  5
1A7
330
10
100
AcDbDictionary
280
     1
281
     1
  3
ACAD_LAYERSTATES
360
1A8
  0
DICTIONARY
  5
334
330
4
100
AcDbDictionary
280
     1
281
     1
  3
ADSK_XREC_LAYER_RECONCILED
360
335
  0
DICTIONARY
  5
336
330
27
100
AcDbDictionary
280
     1
281
     1
  3
ADSK_XREC_LAYER_RECONCILED
360
337
  0
DICTIONARY
  5
338
330
31
100
AcDbDictionary
280
     1
281
     1
  3
ADSK_XREC_LAYER_RECONCILED
360
339
  0
DICTIONARY
  5
33A
330
11B
100
AcDbDictionary
280
     1
281
     1
  3
ADSK_XREC_LAYER_RECONCILED
360
33B
  0
DICTIONARY
  5
33C
330
AE
100
AcDbDictionary
280
     1
281
     1
  3
ADSK_XREC_LAYER_RECONCILED
360
33D
  0
DICTIONARY
  5
33E
330
B2
100
AcDbDictionary
280
     1
281
     1
  3
ADSK_XREC_LAYER_RECONCILED
360
33F
  0
DICTIONARY
  5
340
330
91
100
AcDbDictionary
280
     1
281
     1
  3
ADSK_XREC_LAYER_RECONCILED
360
341
  0
DICTIONARY
  5
342
330
2A
100
AcDbDictionary
280
     1
281
     1
  3
ADSK_XREC_LAYER_RECONCILED
360
343
  0
DICTIONARY
  5
344
330
40
100
AcDbDictionary
280
     1
281
     1
  3
ADSK_XREC_LAYER_RECONCILED
360
345
  0
DICTIONARY
  5
1A3
330
1A2
100
AcDbDictionary
280
     1
281
     1
  3
ADSK_XREC_LAYER_RECONCILED
360
346
  0
DICTIONARY
  5
217
330
216
100
AcDbDictionary
280
     1
281
     1
  3
AcDbContextDataManager
360
218
  0
DICTIONARY
  5
21D
330
21C
100
AcDbDictionary
280
     1
281
     1
  3
AcDbContextDataManager
360
21E
  0
DICTIONARY
  5
224
330
223
100
AcDbDictionary
280
     1
281
     1
  3
AcDbContextDataManager
360
225
  0
DICTIONARY
  5
22B
330
22A
100
AcDbDictionary
280
     1
281
     1
  3
AcDbContextDataManager
360
22C
  0
DICTIONARY
  5
230
330
22F
100
AcDbDictionary
280
     1
281
     1
  3
AcDbContextDataManager
360
231
  0
DICTIONARY
  5
235
330
234
100
AcDbDictionary
280
     1
281
     1
  3
AcDbContextDataManager
360
236
  0
DICTIONARY
  5
23A
330
239
100
AcDbDictionary
280
     1
281
     1
  3
AcDbContextDataManager
360
23B
  0
DICTIONARY
  5
240
330
23F
100
AcDbDictionary
280
     1
281
     1
  3
AcDbContextDataManager
360
241
  0
DICTIONARY
  5
245
330
244
100
AcDbDictionary
280
     1
281
     1
  3
AcDbContextDataManager
360
246
  0
DICTIONARY
  5
24A
330
249
100
AcDbDictionary
280
     1
281
     1
  3
AcDbContextDataManager
360
24B
  0
DICTIONARY
  5
24F
330
24E
100
AcDbDictionary
280
     1
281
     1
  3
AcDbContextDataManager
360
250
  0
DICTIONARY
  5
254
330
253
100
AcDbDictionary
280
     1
281
     1
  3
AcDbContextDataManager
360
255
  0
DICTIONARY
  5
25C
330
25B
100
AcDbDictionary
280
     1
281
     1
  3
AcDbContextDataManager
360
25D
  0
DICTIONARY
  5
261
330
260
100
AcDbDictionary
280
     1
281
     1
  3
AcDbContextDataManager
360
262
  0
DICTIONARY
  5
269
330
268
100
AcDbDictionary
280
     1
281
     1
  3
AcDbContextDataManager
360
26A
  0
DICTIONARY
  5
26E
330
26D
100
AcDbDictionary
280
     1
281
     1
  3
AcDbContextDataManager
360
26F
  0
XRECORD
  5
1A1
102
{ACAD_REACTORS
330
7
102
}
330
7
100
AcDbXrecord
280
     1
300
ACDLT
300
2020
300

  0
DICTIONARY
  5
184
102
{ACAD_REACTORS
330
7
102
}
330
7
100
AcDbDictionary
281
     1
  0
DICTIONARY
  5
19D
102
{ACAD_REACTORS
330
7
102
}
330
7
100
AcDbDictionary
281
     1
  3
Imperial24
350
1AA
  3
Metric50
350
19E
  0
DICTIONARY
  5
24
102
{ACAD_REACTORS
330
7
102
}
330
7
100
AcDbDictionary
281
     1
  0
DICTIONARY
  5
B
102
{ACAD_REACTORS
330
7
102
}
330
7
100
AcDbDictionary
281
     1
  3
Layout1
350
F
  3
Model
350
A
  0
DICTIONARY
  5
152
102
{ACAD_REACTORS
330
7
102
}
330
7
100
AcDbDictionary
281
     1
  3
ByBlock
350
15B
  3
ByLayer
350
153
  3
Global
350
163
  0
DICTIONARY
  5
199
102
{ACAD_REACTORS
330
7
102
}
330
7
100
AcDbDictionary
281
     1
  3
Standard
350
19A
  0
DICTIONARY
  5
25
102
{ACAD_REACTORS
330
7
102
}
330
7
100
AcDbDictionary
281
     1
  3
Standard
350
28
  0
DICTIONARY
  5
26
102
{ACAD_REACTORS
330
7
102
}
330
7
100
AcDbDictionary
281
     1
  0
ACDBDICTIONARYWDFLT
  5
6
102
{ACAD_REACTORS
330
7
102
}
330
7
100
AcDbDictionary
281
     1
  3
Normal
350
5
100
AcDbDictionaryWithDefault
340
5
  0
DICTIONARY
  5
187
102
{ACAD_REACTORS
330
7
102
}
330
7
100
AcDbDictionary
281
     1
  3
A0
350
188
  3
A1
350
189
  3
A2
350
18A
  3
A3
350
18B
  3
A4
350
18C
  3
A5
350
18D
  3
A6
350
18E
  3
A7
350
18F
  3
A8
350
190
  3
A9
350
191
  3
B0
350
192
  3
B1
350
193
  3
B2
350
194
  3
B3
350
195
  3
B4
350
196
  3
B5
350
197
  3
B6
350
198
  0
DICTIONARY
  5
19B
102
{ACAD_REACTORS
330
7
102
}
330
7
100
AcDbDictionary
281
     1
  3
Imperial24
350
1A9
  3
Metric50
350
19C
  0
DICTIONARY
  5
185
102
{ACAD_REACTORS
330
7
102
}
330
7
100
AcDbDictionary
281
     1
  3
Standard
350
186
  0
DICTIONARY
  5
16B
102
{ACAD_REACTORS
330
7
102
}
330
7
100
AcDbDictionary
281
     1
  3
2dWireframe
350
171
  3
Basic
350
170
  3
Brighten
350
177
  3
ColorChange
350
17B
  3
Conceptual
350
174
  3
Dim
350
176
  3
EdgeColorOff
350
183
  3
Facepattern
350
17A
  3
Flat
350
16C
  3
FlatWithEdges
350
16D
  3
Gouraud
350
16E
  3
GouraudWithEdges
350
16F
  3
Hidden
350
173
  3
JitterOff
350
181
  3
Linepattern
350
179
  3
OverhangOff
350
182
  3
Realistic
350
175
  3
Shaded
350
180
  3
Shaded with edges
350
17F
  3
Shades of Gray
350
17C
  3
Sketchy
350
17D
  3
Thicken
350
178
  3
Wireframe
350
172
  3
X-Ray
350
17E
  0
XRECORD
  5
353
102
{ACAD_REACTORS
330
7
102
}
330
7
100
AcDbXrecord
280
     1
 90
        1
330
186
  0
DICTIONARY
  5
347
102
{ACAD_REACTORS
330
7
102
}
330
7
100
AcDbDictionary
281
     1
  3
CANNOSCALE
350
34D
  3
CMLEADERSTYLE
350
349
  3
CTABLESTYLE
350
348
  3
CVIEWDETAILSTYLE
350
34A
  3
CVIEWSECTIONSTYLE
350
34B
  3
LAYEREVAL
350
34F
  3
LAYERNOTIFY
350
350
  3
LIGHTINGUNITS
350
34E
  3
MSLTSCALE
350
34C
  0
DICTIONARY
  5
1A8
102
{ACAD_REACTORS
330
1A7
102
}
330
1A7
100
AcDbDictionary
281
     1
  0
XRECORD
  5
335
102
{ACAD_REACTORS
330
334
102
}
330
334
100
AcDbXrecord
280
     1
290
     1
  0
XRECORD
  5
337
102
{ACAD_REACTORS
330
336
102
}
330
336
100
AcDbXrecord
280
     1
290
     1
  0
XRECORD
  5
339
102
{ACAD_REACTORS
330
338
102
}
330
338
100
AcDbXrecord
280
     1
290
     1
  0
XRECORD
  5
33B
102
{ACAD_REACTORS
330
33A
102
}
330
33A
100
AcDbXrecord
280
     1
290
     1
  0
XRECORD
  5
33D
102
{ACAD_REACTORS
330
33C
102
}
330
33C
100
AcDbXrecord
280
     1
290
     1
  0
XRECORD
  5
33F
102
{ACAD_REACTORS
330
33E
102
}
330
33E
100
AcDbXrecord
280
     1
290
     1
  0
XRECORD
  5
341
102
{ACAD_REACTORS
330
340
102
}
330
340
100
AcDbXrecord
280
     1
290
     1
  0
XRECORD
  5
343
102
{ACAD_REACTORS
330
342
102
}
330
342
100
AcDbXrecord
280
     1
290
     1
  0
XRECORD
  5
345
102
{ACAD_REACTORS
330
344
102
}
330
344
100
AcDbXrecord
280
     1
290
     1
  0
XRECORD
  5
346
102
{ACAD_REACTORS
330
1A3
102
}
330
1A3
100
AcDbXrecord
280
     1
290
     1
  0
DICTIONARY
  5
218
102
{ACAD_REACTORS
330
217
102
}
330
217
100
AcDbDictionary
281
     1
  3
ACDB_ANNOTATIONSCALES
350
219
  0
DICTIONARY
  5
21E
102
{ACAD_REACTORS
330
21D
102
}
330
21D
100
AcDbDictionary
281
     1
  3
ACDB_ANNOTATIONSCALES
350
21F
  0
DICTIONARY
  5
225
102
{ACAD_REACTORS
330
224
102
}
330
224
100
AcDbDictionary
281
     1
  3
ACDB_ANNOTATIONSCALES
350
226
  0
DICTIONARY
  5
22C
102
{ACAD_REACTORS
330
22B
102
}
330
22B
100
AcDbDictionary
281
     1
  3
ACDB_ANNOTATIONSCALES
350
22D
  0
DICTIONARY
  5
231
102
{ACAD_REACTORS
330
230
102
}
330
230
100
AcDbDictionary
281
     1
  3
ACDB_ANNOTATIONSCALES
350
232
  0
DICTIONARY
  5
236
102
{ACAD_REACTORS
330
235
102
}
330
235
100
AcDbDictionary
281
     1
  3
ACDB_ANNOTATIONSCALES
350
237
  0
DICTIONARY
  5
23B
102
{ACAD_REACTORS
330
23A
102
}
330
23A
100
AcDbDictionary
281
     1
  3
ACDB_ANNOTATIONSCALES
350
23C
  0
DICTIONARY
  5
241
102
{ACAD_REACTORS
330
240
102
}
330
240
100
AcDbDictionary
281
     1
  3
ACDB_ANNOTATIONSCALES
350
242
  0
DICTIONARY
  5
246
102
{ACAD_REACTORS
330
245
102
}
330
245
100
AcDbDictionary
281
     1
  3
ACDB_ANNOTATIONSCALES
350
247
  0
DICTIONARY
  5
24B
102
{ACAD_REACTORS
330
24A
102
}
330
24A
100
AcDbDictionary
281
     1
  3
ACDB_ANNOTATIONSCALES
350
24C
  0
DICTIONARY
  5
250
102
{ACAD_REACTORS
330
24F
102
}
330
24F
100
AcDbDictionary
281
     1
  3
ACDB_ANNOTATIONSCALES
350
251
  0
DICTIONARY
  5
255
102
{ACAD_REACTORS
330
254
102
}
330
254
100
AcDbDictionary
281
     1
  3
ACDB_ANNOTATIONSCALES
350
256
  0
DICTIONARY
  5
25D
102
{ACAD_REACTORS
330
25C
102
}
330
25C
100
AcDbDictionary
281
     1
  3
ACDB_ANNOTATIONSCALES
350
25E
  0
DICTIONARY
  5
262
102
{ACAD_REACTORS
330
261
102
}
330
261
100
AcDbDictionary
281
     1
  3
ACDB_ANNOTATIONSCALES
350
263
  0
DICTIONARY
  5
26A
102
{ACAD_REACTORS
330
269
102
}
330
269
100
AcDbDictionary
281
     1
  3
ACDB_ANNOTATIONSCALES
350
26B
  0
DICTIONARY
  5
26F
102
{ACAD_REACTORS
330
26E
102
}
330
26E
100
AcDbDictionary
281
     1
  3
ACDB_ANNOTATIONSCALES
350
270
  0
ACDBDETAILVIEWSTYLE
  5
1AA
102
{ACAD_REACTORS
330
19D
102
}
330
19D
100
AcDbModelDocViewStyle
 70
     0
  3
Imperial24
290
     0
300
Imperial24
 90
        0
100
AcDbDetailViewStyle
 70
     0
 71
     0
 90
        3
 71
     1
340
12
 62
   256
 40
0.24
340
0
 62
   256
 40
0.24
300

 40
0.36
280
     3
 71
     2
340
8
 90
       25
 62
   256
 71
     3
340
12
 62
   256
 40
0.24
 90
        1
 40
0.75
 90
        1
300
%<\AcVar ViewType \f "%tc1">% %<\AcVar ViewDetailId>%\PSCALE %<\AcVar ViewScale \f "%sn">%
 71
     4
340
8
 90
       25
 62
   256
340
8
 90
       25
 62
   256
280
     0
  0
ACDBDETAILVIEWSTYLE
  5
19E
102
{ACAD_REACTORS
330
19D
102
}
330
19D
100
AcDbModelDocViewStyle
 70
     0
  3
Metric50
290
     1
300
Metric50
 90
        0
100
AcDbDetailViewStyle
 70
     0
 71
     0
 90
        3
 71
     1
340
12
 62
   256
 40
5.0
340
0
 62
   256
 40
5.0
300

 40
0.0
280
     1
 71
     2
340
8
 90
       25
 62
   256
 71
     3
340
12
 62
   256
 40
5.0
 90
        0
 40
15.0
 90
        1
300
%<\AcVar ViewDetailId>% (%<\AcVar ViewScale \f "%sn">%)
 71
     4
340
8
 90
       25
 62
   256
340
8
 90
       25
 62
   256
280
     0
  0
LAYOUT
  5
F
102
{ACAD_REACTORS
330
B
102
}
330
B
100
AcDbPlotSettings
  1

  2
A4.pc3
  4
A4
  6

 40
6.720416545867919
 41
6.720423221588134
 42
7.694076538085937
 43
4.011077880859375
 44
209.9733276367187
 45
296.9683227539062
 46
2.839999999999999
 47
1.58
 48
0.0
 49
0.0
140
0.0
141
0.0
142
1.0
143
1.0
 70
   692
 72
     1
 73
     0
 74
     1
  7
Std pen settings.ctb
 75
    16
147
1.0
 76
     0
 77
     2
 78
   300
148
-7.775434128976201
149
-0.5703992853406135
100
AcDbLayout
  1
Layout1
 70
     0
 71
     1
 10
-1.784982416891718
 20
-7.730023936247521
 11
208.188345219827
 21
289.2382988176588
 12
0.0
 22
0.0
 32
0.0
 14
7.777105839157954
 24
0.5792682657111623
 34
0.0
 15
197.6550712950588
 25
283.6213344614825
 35
0.0
146
0.0
 13
0.0
 23
0.0
 33
0.0
 16
1.0
 26
0.0
 36
0.0
 17
0.0
 27
1.0
 37
0.0
 76
     0
330
C
  0
LAYOUT
  5
A
102
{ACAD_REACTORS
330
B
102
}
330
B
100
AcDbPlotSettings
  1

  2
Xerox 2 plain A3
  4

  6

 40
0.0
 41
0.0
 42
0.0
 43
0.0
 44
0.0
 45
0.0
 46
0.0
 47
0.0
 48
0.0
 49
0.0
140
0.0
141
0.0
142
1.0
143
1.0
 70
  1712
 72
     0
 73
     0
 74
     0
  7
Std pen settings.ctb
 75
     0
147
1.0
 76
     0
 77
     2
 78
   300
148
0.0
149
0.0
100
AcDbLayout
  1
Model
 70
     1
 71
     0
 10
0.0
 20
0.0
 11
12.0
 21
9.0
 12
0.0
 22
0.0
 32
0.0
 14
0.0
 24
0.0
 34
0.0
 15
0.0
 25
0.0
 35
0.0
146
0.0
 13
0.0
 23
0.0
 33
0.0
 16
1.0
 26
0.0
 36
0.0
 17
0.0
 27
1.0
 37
0.0
 76
     0
330
2
331
1A
  0
MATERIAL
  5
15B
102
{ACAD_XDICTIONARY
360
15C
102
}
102
{ACAD_REACTORS
330
152
102
}
330
152
100
AcDbMaterial
  1
ByBlock
 72
     0
 43
0.0208333333333333
 43
0.0
 43
0.0
 43
0.0
 43
0.0
 43
0.0208333333333333
 43
0.0
 43
0.0
 43
0.0
 43
0.0
 43
1.0
 43
0.0
 43
0.0
 43
0.0
 43
0.0
 43
1.0
 77
     0
 47
0.0208333333333333
 47
0.0
 47
0.0
 47
0.0
 47
0.0
 47
0.0208333333333333
 47
0.0
 47
0.0
 47
0.0
 47
0.0
 47
1.0
 47
0.0
 47
0.0
 47
0.0
 47
0.0
 47
1.0
171
     0
 49
0.0208333333333333
 49
0.0
 49
0.0
 49
0.0
 49
0.0
 49
0.0208333333333333
 49
0.0
 49
0.0
 49
0.0
 49
0.0
 49
1.0
 49
0.0
 49
0.0
 49
0.0
 49
0.0
 49
1.0
175
     0
142
0.0208333333333333
142
0.0
142
0.0
142
0.0
142
0.0
142
0.0208333333333333
142
0.0
142
0.0
142
0.0
142
0.0
142
1.0
142
0.0
142
0.0
142
0.0
142
0.0
142
1.0
179
     0
144
0.0208333333333333
144
0.0
144
0.0
144
0.0
144
0.0
144
0.0208333333333333
144
0.0
144
0.0
144
0.0
144
0.0
144
1.0
144
0.0
144
0.0
144
0.0
144
0.0
144
1.0
147
0.0208333333333333
147
0.0
147
0.0
147
0.0
147
0.0
147
0.0208333333333333
147
0.0
147
0.0
147
0.0
147
0.0
147
1.0
147
0.0
147
0.0
147
0.0
147
0.0
147
1.0
  0
MATERIAL
  5
153
102
{ACAD_XDICTIONARY
360
154
102
}
102
{ACAD_REACTORS
330
152
102
}
330
152
100
AcDbMaterial
  1
ByLayer
 72
     0
 43
0.0208333333333333
 43
0.0
 43
0.0
 43
0.0
 43
0.0
 43
0.0208333333333333
 43
0.0
 43
0.0
 43
0.0
 43
0.0
 43
1.0
 43
0.0
 43
0.0
 43
0.0
 43
0.0
 43
1.0
 77
     0
 47
0.0208333333333333
 47
0.0
 47
0.0
 47
0.0
 47
0.0
 47
0.0208333333333333
 47
0.0
 47
0.0
 47
0.0
 47
0.0
 47
1.0
 47
0.0
 47
0.0
 47
0.0
 47
0.0
 47
1.0
171
     0
 49
0.0208333333333333
 49
0.0
 49
0.0
 49
0.0
 49
0.0
 49
0.0208333333333333
 49
0.0
 49
0.0
 49
0.0
 49
0.0
 49
1.0
 49
0.0
 49
0.0
 49
0.0
 49
0.0
 49
1.0
175
     0
142
0.0208333333333333
142
0.0
142
0.0
142
0.0
142
0.0
142
0.0208333333333333
142
0.0
142
0.0
142
0.0
142
0.0
142
1.0
142
0.0
142
0.0
142
0.0
142
0.0
142
1.0
179
     0
144
0.0208333333333333
144
0.0
144
0.0
144
0.0
144
0.0
144
0.0208333333333333
144
0.0
144
0.0
144
0.0
144
0.0
144
1.0
144
0.0
144
0.0
144
0.0
144
0.0
144
1.0
147
0.0208333333333333
147
0.0
147
0.0
147
0.0
147
0.0
147
0.0208333333333333
147
0.0
147
0.0
147
0.0
147
0.0
147
1.0
147
0.0
147
0.0
147
0.0
147
0.0
147
1.0
  0
MATERIAL
  5
163
102
{ACAD_XDICTIONARY
360
164
102
}
102
{ACAD_REACTORS
330
152
102
}
330
152
100
AcDbMaterial
  1
Global
 72
     0
 43
0.0208333333333333
 43
0.0
 43
0.0
 43
0.0
 43
0.0
 43
0.0208333333333333
 43
0.0
 43
0.0
 43
0.0
 43
0.0
 43
1.0
 43
0.0
 43
0.0
 43
0.0
 43
0.0
 43
1.0
 77
     0
 47
0.0208333333333333
 47
0.0
 47
0.0
 47
0.0
 47
0.0
 47
0.0208333333333333
 47
0.0
 47
0.0
 47
0.0
 47
0.0
 47
1.0
 47
0.0
 47
0.0
 47
0.0
 47
0.0
 47
1.0
171
     0
 49
0.0208333333333333
 49
0.0
 49
0.0
 49
0.0
 49
0.0
 49
0.0208333333333333
 49
0.0
 49
0.0
 49
0.0
 49
0.0
 49
1.0
 49
0.0
 49
0.0
 49
0.0
 49
0.0
 49
1.0
175
     0
142
0.0208333333333333
142
0.0
142
0.0
142
0.0
142
0.0
142
0.0208333333333333
142
0.0
142
0.0
142
0.0
142
0.0
142
1.0
142
0.0
142
0.0
142
0.0
142
0.0
142
1.0
179
     0
144
0.0208333333333333
144
0.0
144
0.0
144
0.0
144
0.0
144
0.0208333333333333
144
0.0
144
0.0
144
0.0
144
0.0
144
1.0
144
0.0
144
0.0
144
0.0
144
0.0
144
1.0
147
0.0208333333333333
147
0.0
147
0.0
147
0.0
147
0.0
147
0.0208333333333333
147
0.0
147
0.0
147
0.0
147
0.0
147
1.0
147
0.0
147
0.0
147
0.0
147
0.0
147
1.0
  0
MLEADERSTYLE
  5
19A
102
{ACAD_REACTORS
330
199
102
}
330
199
100
AcDbMLeaderStyle
179
     2
170
     2
171
     1
172
     0
 90
        2
 40
0.0
 41
0.0
173
     1
 91
-1056964608
340
15
 92
       -2
290
     1
 42
2.0
291
     1
 43
0.36
  3
Standard
 44
4.0
300

342
12
174
     1
178
     6
175
     1
176
     0
 93
-1056964608
 45
4.0
292
     0
297
     0
 46
4.0
 94
-1056964608
 47
1.0
 49
1.0
140
1.0
293
     1
141
0.0
294
     1
177
     0
142
1.0
295
     1
296
     0
143
0.125
271
     0
272
     9
273
     9
298
     1
  0
MLINESTYLE
  5
28
102
{ACAD_REACTORS
330
25
102
}
330
25
100
AcDbMlineStyle
  2
STANDARD
 70
     0
  3

 62
   256
 51
90.0
 52
90.0
 71
     2
 49
0.5
 62
   256
  6
BYLAYER
 49
-0.5
 62
   256
  6
BYLAYER
  0
ACDBPLACEHOLDER
  5
5
102
{ACAD_REACTORS
330
6
102
}
330
6
  0
SCALE
  5
188
102
{ACAD_REACTORS
330
187
102
}
330
187
100
AcDbScale
 70
     0
300
1:1
140
1.0
141
1.0
290
     1
  0
SCALE
  5
189
102
{ACAD_REACTORS
330
187
102
}
330
187
100
AcDbScale
 70
     0
300
1:2
140
1.0
141
2.0
290
     0
  0
SCALE
  5
18A
102
{ACAD_REACTORS
330
187
102
}
330
187
100
AcDbScale
 70
     0
300
1:4
140
1.0
141
4.0
290
     0
  0
SCALE
  5
18B
102
{ACAD_REACTORS
330
187
102
}
330
187
100
AcDbScale
 70
     0
300
1:5
140
1.0
141
5.0
290
     0
  0
SCALE
  5
18C
102
{ACAD_REACTORS
330
187
102
}
330
187
100
AcDbScale
 70
     0
300
1:8
140
1.0
141
8.0
290
     0
  0
SCALE
  5
18D
102
{ACAD_REACTORS
330
187
102
}
330
187
100
AcDbScale
 70
     0
300
1:10
140
1.0
141
10.0
290
     0
  0
SCALE
  5
18E
102
{ACAD_REACTORS
330
187
102
}
330
187
100
AcDbScale
 70
     0
300
1:16
140
1.0
141
16.0
290
     0
  0
SCALE
  5
18F
102
{ACAD_REACTORS
330
187
102
}
330
187
100
AcDbScale
 70
     0
300
1:20
140
1.0
141
20.0
290
     0
  0
SCALE
  5
190
102
{ACAD_REACTORS
330
187
102
}
330
187
100
AcDbScale
 70
     0
300
1:30
140
1.0
141
30.0
290
     0
  0
SCALE
  5
191
102
{ACAD_REACTORS
330
187
102
}
330
187
100
AcDbScale
 70
     0
300
1:40
140
1.0
141
40.0
290
     0
  0
SCALE
  5
192
102
{ACAD_REACTORS
330
187
102
}
330
187
100
AcDbScale
 70
     0
300
1:50
140
1.0
141
50.0
290
     0
  0
SCALE
  5
193
102
{ACAD_REACTORS
330
187
102
}
330
187
100
AcDbScale
 70
     0
300
1:100
140
1.0
141
100.0
290
     0
  0
SCALE
  5
194
102
{ACAD_REACTORS
330
187
102
}
330
187
100
AcDbScale
 70
     0
300
2:1
140
2.0
141
1.0
290
     0
  0
SCALE
  5
195
102
{ACAD_REACTORS
330
187
102
}
330
187
100
AcDbScale
 70
     0
300
4:1
140
4.0
141
1.0
290
     0
  0
SCALE
  5
196
102
{ACAD_REACTORS
330
187
102
}
330
187
100
AcDbScale
 70
     0
300
8:1
140
8.0
141
1.0
290
     0
  0
SCALE
  5
197
102
{ACAD_REACTORS
330
187
102
}
330
187
100
AcDbScale
 70
     0
300
10:1
140
10.0
141
1.0
290
     0
  0
SCALE
  5
198
102
{ACAD_REACTORS
330
187
102
}
330
187
100
AcDbScale
 70
     0
300
100:1
140
100.0
141
1.0
290
     0
  0
ACDBSECTIONVIEWSTYLE
  5
1A9
102
{ACAD_REACTORS
330
19B
102
}
330
19B
100
AcDbModelDocViewStyle
 70
     0
  3
Imperial24
290
     0
300
Imperial24
 90
        0
100
AcDbSectionViewStyle
 70
     0
 71
     0
 90
       78
 71
     1
340
12
 62
   256
 40
0.24
340
0
340
0
 62
   256
 40
0.24
300
I, O, Q, S, X, Z
 40
0.48
 90
        3
 40
0.18
 90
        1
 71
     2
340
8
 90
       25
 62
   256
340
8
 90
       50
 62
   256
 40
0.24
 40
0.0
 40
0.24
 71
     3
340
12
 62
   256
 40
0.24
 90
        1
 40
0.75
 90
        1
300
%<\AcVar ViewType \f "%tc1">% %<\AcVar ViewSectionStartId>%-%<\AcVar ViewSectionEndId>%\PSCALE %<\AcVar ViewScale \f "%sn">%
 71
     4
 62
   256
 62
   257
300
ANSI31
 40
1.0
 90
        0
290
     0
290
     0
 90
        6
 40
0.0
 40
1.570796326794896
 40
0.2617993877991494
 40
1.308996938995747
 40
-0.2617993877991494
 40
1.832595714594046
  0
ACDBSECTIONVIEWSTYLE
  5
19C
102
{ACAD_REACTORS
330
19B
102
}
330
19B
100
AcDbModelDocViewStyle
 70
     0
  3
Metric50
290
     1
300
Metric50
 90
        0
100
AcDbSectionViewStyle
 70
     0
 71
     0
 90
      102
 71
     1
340
12
 62
   256
 40
5.0
340
0
340
0
 62
   256
 40
5.0
300
I, O, Q, S, X, Z
 40
10.0
 90
        0
 40
2.5
 90
        0
 71
     2
340
8
 90
       25
 62
   256
340
8
 90
       50
 62
   256
 40
5.0
 40
2.5
 40
5.0
 71
     3
340
12
 62
   256
 40
5.0
 90
        0
 40
15.0
 90
        1
300
%<\AcVar ViewSectionStartId>%-%<\AcVar ViewSectionEndId>% (%<\AcVar ViewScale \f "%sn">%)
 71
     4
 62
   256
 62
   257
300
ANSI31
 40
1.0
 90
        0
290
     0
290
     0
 90
        6
 40
0.0
 40
1.570796326794896
 40
0.2617993877991494
 40
1.308996938995747
 40
-0.2617993877991494
 40
1.832595714594046
  0
TABLESTYLE
  5
186
102
{ACAD_XDICTIONARY
360
351
102
}
102
{ACAD_REACTORS
330
185
102
}
330
185
100
AcDbTableStyle
280
     0
  3
Standard
 70
     0
 71
     0
 40
1.5
 41
1.5
280
     0
281
     0
  7
Standard
140
4.5
170
     2
 62
     0
 63
     7
283
     0
 90
      512
 91
        0
  1

274
    -2
284
     1
 64
     0
275
    -2
285
     1
 65
     0
276
    -2
286
     1
 66
     0
277
    -2
287
     1
 67
     0
278
    -2
288
     1
 68
     0
279
    -2
289
     1
 69
     0
  7
Standard
140
6.0
170
     5
 62
     0
 63
     7
283
     0
 90
      512
 91
        0
  1

274
    -2
284
     1
 64
     0
275
    -2
285
     1
 65
     0
276
    -2
286
     1
 66
     0
277
    -2
287
     1
 67
     0
278
    -2
288
     1
 68
     0
279
    -2
289
     1
 69
     0
  7
Standard
140
4.5
170
     5
 62
     0
 63
     7
283
     0
 90
      512
 91
        0
  1

274
    -2
284
     1
 64
     0
275
    -2
285
     1
 65
     0
276
    -2
286
     1
 66
     0
277
    -2
287
     1
 67
     0
278
    -2
288
     1
 68
     0
279
    -2
289
     1
 69
     0
  0
VISUALSTYLE
  5
171
102
{ACAD_REACTORS
330
16B
102
}
330
16B
100
AcDbVisualStyle
  2
2dWireframe
 70
     4
177
     3
291
     0
 70
    58
 90
        0
176
     1
 90
        2
176
     1
 90
        0
176
     1
 90
        0
176
     1
 40
0.6
176
     1
 40
30.0
176
     1
 62
     7
420
 16777215
176
     1
 90
        1
176
     1
 90
        4
176
     1
 62
     7
176
     1
 62
   257
176
     1
 90
        1
176
     1
 90
        1
176
     1
 40
1.0
176
     1
 90
        0
176
     1
 62
   257
176
     1
 40
1.0
176
     1
 90
        1
176
     1
 90
        6
176
     1
 90
        2
176
     1
 62
     7
176
     1
 90
        5
176
     1
 90
        0
176
     1
 90
        0
176
     1
290
     0
176
     1
 90
        1
176
     1
 40
0.0
176
     1
 90
        0
176
     1
290
     1
176
     1
290
     1
176
     1
290
     0
176
     1
290
     0
176
     1
290
     0
176
     1
290
     0
176
     1
290
     0
176
     1
290
     0
176
     1
290
     0
176
     1
 90
       50
176
     1
 40
0.0
176
     1
 40
1.0
176
     1
 90
        0
176
     1
 62
    18
420
        0
176
     1
 90
       50
176
     1
 90
        3
176
     1
 62
     5
420
      255
176
     1
290
     0
176
     1
 90
       50
176
     1
 90
       50
176
     1
 90
       50
176
     1
290
     0
176
     1
 90
       50
176
     1
 62
   256
176
     0
 40
1.0
176
     0
 90
        2
176
     1
  1
strokes_ogs.tif
176
     1
290
     0
176
     1
 40
1.0
176
     1
 40
1.0
176
     1
  0
VISUALSTYLE
  5
170
102
{ACAD_REACTORS
330
16B
102
}
330
16B
100
AcDbVisualStyle
  2
Basic
 70
     7
177
     3
291
     1
 70
    58
 90
        1
176
     1
 90
        0
176
     1
 90
        1
176
     1
 90
        0
176
     1
 40
0.6
176
     1
 40
30.0
176
     1
 62
     7
420
 16777215
176
     1
 90
        0
176
     1
 90
        4
176
     1
 62
     7
176
     1
 62
   257
176
     1
 90
        1
176
     1
 90
        1
176
     1
 40
1.0
176
     1
 90
        8
176
     1
 62
     7
176
     1
 40
1.0
176
     1
 90
        1
176
     1
 90
        6
176
     1
 90
        2
176
     1
 62
     7
176
     1
 90
        5
176
     1
 90
        0
176
     1
 90
        0
176
     1
290
     0
176
     1
 90
        1
176
     1
 40
0.0
176
     1
 90
        0
176
     1
290
     0
176
     1
290
     1
176
     1
290
     1
176
     1
290
     0
176
     1
290
     0
176
     1
290
     0
176
     1
290
     0
176
     1
290
     0
176
     1
290
     0
176
     1
 90
       50
176
     1
 40
0.0
176
     1
 40
1.0
176
     1
 90
        0
176
     1
 62
    18
420
        0
176
     1
 90
       50
176
     1
 90
        3
176
     1
 62
     5
420
      255
176
     1
290
     0
176
     1
 90
       50
176
     1
 90
       50
176
     1
 90
       50
176
     1
290
     0
176
     1
 90
       50
176
     1
 62
   256
176
     0
 40
1.0
176
     0
 90
        2
176
     1
  1
strokes_ogs.tif
176
     1
290
     0
176
     1
 40
1.0
176
     1
 40
1.0
176
     1
  0
VISUALSTYLE
  5
177
102
{ACAD_REACTORS
330
16B
102
}
330
16B
100
AcDbVisualStyle
  2
Brighten
 70
    12
177
     3
291
     1
 70
    58
 90
        2
176
     1
 90
        2
176
     1
 90
        0
176
     1
 90
        0
176
     1
 40
0.6
176
     1
 40
30.0
176
     1
 62
     7
420
 16777215
176
     1
 90
        1
176
     1
 90
        4
176
     1
 62
     7
176
     1
 62
   257
176
     1
 90
        1
176
     1
 90
        1
176
     1
 40
1.0
176
     1
 90
        8
176
     1
 62
     7
176
     1
 40
1.0
176
     1
 90
        1
176
     1
 90
        6
176
     1
 90
        2
176
     1
 62
     7
176
     1
 90
        5
176
     1
 90
        0
176
     1
 90
        0
176
     1
290
     0
176
     1
 90
        1
176
     1
 40
50.0
176
     1
 90
        0
176
     1
290
     0
176
     1
290
     1
176
     1
290
     1
176
     1
290
     0
176
     1
290
     0
176
     1
290
     0
176
     1
290
     0
176
     1
290
     0
176
     1
290
     0
176
     1
 90
       50
176
     1
 40
0.0
176
     1
 40
1.0
176
     1
 90
        0
176
     1
 62
    18
420
        0
176
     1
 90
       50
176
     1
 90
        3
176
     1
 62
     5
420
      255
176
     1
290
     0
176
     1
 90
       50
176
     1
 90
       50
176
     1
 90
       50
176
     1
290
     0
176
     1
 90
       50
176
     1
 62
   256
176
     0
 40
1.0
176
     0
 90
        2
176
     1
  1
strokes_ogs.tif
176
     1
290
     0
176
     1
 40
1.0
176
     1
 40
1.0
176
     1
  0
VISUALSTYLE
  5
17B
102
{ACAD_REACTORS
330
16B
102
}
330
16B
100
AcDbVisualStyle
  2
ColorChange
 70
    16
177
     3
291
     1
 70
    58
 90
        2
176
     1
 90
        2
176
     1
 90
        3
176
     1
 90
        0
176
     1
 40
0.6
176
     1
 40
30.0
176
     1
 62
     8
420
  8421504
176
     1
 90
        1
176
     1
 90
        4
176
     1
 62
     7
176
     1
 62
   257
176
     1
 90
        1
176
     1
 90
        1
176
     1
 40
1.0
176
     1
 90
        8
176
     1
 62
     8
420
  8421504
176
     1
 40
1.0
176
     1
 90
        1
176
     1
 90
        6
176
     1
 90
        2
176
     1
 62
     7
176
     1
 90
        5
176
     1
 90
        0
176
     1
 90
        0
176
     1
290
     0
176
     1
 90
        1
176
     1
 40
0.0
176
     1
 90
        0
176
     1
290
     0
176
     1
290
     1
176
     1
290
     1
176
     1
290
     0
176
     1
290
     0
176
     1
290
     0
176
     1
290
     0
176
     1
290
     0
176
     1
290
     0
176
     1
 90
       50
176
     1
 40
0.0
176
     1
 40
1.0
176
     1
 90
        0
176
     1
 62
    18
420
        0
176
     1
 90
       50
176
     1
 90
        3
176
     1
 62
     5
420
      255
176
     1
290
     0
176
     1
 90
       50
176
     1
 90
       50
176
     1
 90
       50
176
     1
290
     0
176
     1
 90
       50
176
     1
 62
   256
176
     0
 40
1.0
176
     0
 90
        2
176
     1
  1
strokes_ogs.tif
176
     1
290
     0
176
     1
 40
1.0
176
     1
 40
1.0
176
     1
  0
VISUALSTYLE
  5
174
102
{ACAD_REACTORS
330
16B
102
}
330
16B
100
AcDbVisualStyle
  2
Conceptual
 70
     9
177
     3
291
     0
 70
    58
 90
        3
176
     1
 90
        2
176
     1
 90
        0
176
     1
 90
        0
176
     1
 40
0.6
176
     1
 40
30.0
176
     1
 62
     7
420
 16777215
176
     1
 90
        2
176
     1
 90
        2
176
     1
 62
     7
176
     1
 62
   257
176
     1
 90
        1
176
     1
 90
        1
176
     1
 40
179.0
176
     1
 90
        8
176
     1
 62
     7
176
     1
 40
1.0
176
     1
 90
        1
176
     1
 90
        6
176
     1
 90
        2
176
     1
 62
     7
176
     1
 90
        3
176
     1
 90
        0
176
     1
 90
        0
176
     1
290
     0
176
     1
 90
        1
176
     1
 40
0.0
176
     1
 90
        0
176
     1
290
     0
176
     1
290
     1
176
     1
290
     1
176
     1
290
     0
176
     1
290
     0
176
     1
290
     0
176
     1
290
     0
176
     1
290
     0
176
     1
290
     0
176
     1
 90
       50
176
     1
 40
0.0
176
     1
 40
1.0
176
     1
 90
        0
176
     1
 62
    18
420
        0
176
     1
 90
       50
176
     1
 90
        3
176
     1
 62
     5
420
      255
176
     1
290
     0
176
     1
 90
       50
176
     1
 90
       50
176
     1
 90
       50
176
     1
290
     0
176
     1
 90
       50
176
     1
 62
   256
176
     0
 40
1.0
176
     0
 90
        2
176
     1
  1
strokes_ogs.tif
176
     1
290
     0
176
     1
 40
1.0
176
     1
 40
1.0
176
     1
  0
VISUALSTYLE
  5
176
102
{ACAD_REACTORS
330
16B
102
}
330
16B
100
AcDbVisualStyle
  2
Dim
 70
    11
177
     3
291
     1
 70
    58
 90
        2
176
     1
 90
        2
176
     1
 90
        0
176
     1
 90
        0
176
     1
 40
0.6
176
     1
 40
30.0
176
     1
 62
     7
420
 16777215
176
     1
 90
        1
176
     1
 90
        4
176
     1
 62
     7
176
     1
 62
   257
176
     1
 90
        1
176
     1
 90
        1
176
     1
 40
1.0
176
     1
 90
        8
176
     1
 62
     7
176
     1
 40
1.0
176
     1
 90
        1
176
     1
 90
        6
176
     1
 90
        2
176
     1
 62
     7
176
     1
 90
        5
176
     1
 90
        0
176
     1
 90
        0
176
     1
290
     0
176
     1
 90
        1
176
     1
 40
-50.0
176
     1
 90
        0
176
     1
290
     0
176
     1
290
     1
176
     1
290
     1
176
     1
290
     0
176
     1
290
     0
176
     1
290
     0
176
     1
290
     0
176
     1
290
     0
176
     1
290
     0
176
     1
 90
       50
176
     1
 40
0.0
176
     1
 40
1.0
176
     1
 90
        0
176
     1
 62
    18
420
        0
176
     1
 90
       50
176
     1
 90
        3
176
     1
 62
     5
420
      255
176
     1
290
     0
176
     1
 90
       50
176
     1
 90
       50
176
     1
 90
       50
176
     1
290
     0
176
     1
 90
       50
176
     1
 62
   256
176
     0
 40
1.0
176
     0
 90
        2
176
     1
  1
strokes_ogs.tif
176
     1
290
     0
176
     1
 40
1.0
176
     1
 40
1.0
176
     1
  0
VISUALSTYLE
  5
183
102
{ACAD_REACTORS
330
16B
102
}
330
16B
100
AcDbVisualStyle
  2
EdgeColorOff
 70
    22
177
     3
291
     1
 70
    58
 90
        2
176
     0
 90
        2
176
     0
 90
        0
176
     0
 90
        0
176
     0
 40
0.6
176
     0
 40
30.0
176
     0
 62
     7
420
 16777215
176
     0
 90
        1
176
     0
 90
        4
176
     0
 62
     7
176
     0
 62
   257
176
     0
 90
        1
176
     0
 90
        1
176
     0
 40
1.0
176
     0
 90
        8
176
     2
 62
     7
176
     0
 40
1.0
176
     0
 90
        1
176
     0
 90
        6
176
     0
 90
        2
176
     0
 62
     7
176
     0
 90
        5
176
     0
 90
        0
176
     0
 90
        0
176
     0
290
     0
176
     0
 90
        1
176
     0
 40
0.0
176
     0
 90
        0
176
     0
290
     0
176
     0
290
     1
176
     0
290
     1
176
     0
290
     0
176
     0
290
     0
176
     0
290
     0
176
     0
290
     0
176
     0
290
     0
176
     0
290
     0
176
     0
 90
       50
176
     0
 40
0.0
176
     0
 40
1.0
176
     0
 90
        0
176
     0
 62
    18
420
        0
176
     0
 90
       50
176
     0
 90
        3
176
     0
 62
     5
420
      255
176
     0
290
     0
176
     0
 90
       50
176
     0
 90
       50
176
     0
 90
       50
176
     0
290
     0
176
     0
 90
       50
176
     0
 62
   256
176
     0
 40
1.0
176
     0
 90
        2
176
     0
  1
strokes_ogs.tif
176
     0
290
     0
176
     0
 40
1.0
176
     0
 40
1.0
176
     0
  0
VISUALSTYLE
  5
17A
102
{ACAD_REACTORS
330
16B
102
}
330
16B
100
AcDbVisualStyle
  2
Facepattern
 70
    15
177
     3
291
     1
 70
    58
 90
        2
176
     1
 90
        2
176
     1
 90
        0
176
     1
 90
        0
176
     1
 40
0.6
176
     1
 40
30.0
176
     1
 62
     7
420
 16777215
176
     1
 90
        1
176
     1
 90
        4
176
     1
 62
     7
176
     1
 62
   257
176
     1
 90
        1
176
     1
 90
        1
176
     1
 40
1.0
176
     1
 90
        8
176
     1
 62
     7
176
     1
 40
1.0
176
     1
 90
        1
176
     1
 90
        6
176
     1
 90
        2
176
     1
 62
     7
176
     1
 90
        5
176
     1
 90
        0
176
     1
 90
        0
176
     1
290
     0
176
     1
 90
        1
176
     1
 40
0.0
176
     1
 90
        0
176
     1
290
     0
176
     1
290
     1
176
     1
290
     1
176
     1
290
     0
176
     1
290
     0
176
     1
290
     0
176
     1
290
     0
176
     1
290
     0
176
     1
290
     0
176
     1
 90
       50
176
     1
 40
0.0
176
     1
 40
1.0
176
     1
 90
        0
176
     1
 62
    18
420
        0
176
     1
 90
       50
176
     1
 90
        3
176
     1
 62
     5
420
      255
176
     1
290
     0
176
     1
 90
       50
176
     1
 90
       50
176
     1
 90
       50
176
     1
290
     0
176
     1
 90
       50
176
     1
 62
   256
176
     0
 40
1.0
176
     0
 90
        2
176
     1
  1
strokes_ogs.tif
176
     1
290
     0
176
     1
 40
1.0
176
     1
 40
1.0
176
     1
  0
VISUALSTYLE
  5
16C
102
{ACAD_REACTORS
330
16B
102
}
330
16B
100
AcDbVisualStyle
  2
Flat
 70
     0
177
     3
291
     1
 70
    58
 90
        2
176
     1
 90
        1
176
     1
 90
        1
176
     1
 90
        2
176
     1
 40
0.6
176
     1
 40
30.0
176
     1
 62
     7
420
 16777215
176
     1
 90
        0
176
     1
 90
        0
176
     1
 62
     7
176
     1
 62
   257
176
     1
 90
        1
176
     1
 90
        1
176
     1
 40
1.0
176
     1
 90
        8
176
     1
 62
     7
176
     1
 40
1.0
176
     1
 90
        1
176
     1
 90
        6
176
     1
 90
        2
176
     1
 62
     7
176
     1
 90
        5
176
     1
 90
        0
176
     1
 90
        0
176
     1
290
     0
176
     1
 90
       13
176
     1
 40
0.0
176
     1
 90
        0
176
     1
290
     0
176
     1
290
     1
176
     1
290
     1
176
     1
290
     0
176
     1
290
     0
176
     1
290
     0
176
     1
290
     0
176
     1
290
     0
176
     1
290
     0
176
     1
 90
       50
176
     1
 40
0.0
176
     1
 40
1.0
176
     1
 90
        0
176
     1
 62
    18
420
        0
176
     1
 90
       50
176
     1
 90
        3
176
     1
 62
     5
420
      255
176
     1
290
     0
176
     1
 90
       50
176
     1
 90
       50
176
     1
 90
       50
176
     1
290
     0
176
     1
 90
       50
176
     1
 62
   256
176
     0
 40
1.0
176
     0
 90
        2
176
     1
  1
strokes_ogs.tif
176
     1
290
     0
176
     1
 40
1.0
176
     1
 40
1.0
176
     1
  0
VISUALSTYLE
  5
16D
102
{ACAD_REACTORS
330
16B
102
}
330
16B
100
AcDbVisualStyle
  2
FlatWithEdges
 70
     1
177
     3
291
     1
 70
    58
 90
        2
176
     1
 90
        1
176
     1
 90
        1
176
     1
 90
        2
176
     1
 40
0.6
176
     1
 40
30.0
176
     1
 62
     7
420
 16777215
176
     1
 90
        1
176
     1
 90
        0
176
     1
 62
     7
176
     1
 62
   257
176
     1
 90
        1
176
     1
 90
        1
176
     1
 40
1.0
176
     1
 90
        0
176
     1
 62
   257
176
     1
 40
1.0
176
     1
 90
        1
176
     1
 90
        6
176
     1
 90
        2
176
     1
 62
     7
176
     1
 90
        5
176
     1
 90
        0
176
     1
 90
        0
176
     1
290
     0
176
     1
 90
       13
176
     1
 40
0.0
176
     1
 90
        0
176
     1
290
     0
176
     1
290
     1
176
     1
290
     1
176
     1
290
     0
176
     1
290
     0
176
     1
290
     0
176
     1
290
     0
176
     1
290
     0
176
     1
290
     0
176
     1
 90
       50
176
     1
 40
0.0
176
     1
 40
1.0
176
     1
 90
        0
176
     1
 62
    18
420
        0
176
     1
 90
       50
176
     1
 90
        3
176
     1
 62
     5
420
      255
176
     1
290
     0
176
     1
 90
       50
176
     1
 90
       50
176
     1
 90
       50
176
     1
290
     0
176
     1
 90
       50
176
     1
 62
   256
176
     0
 40
1.0
176
     0
 90
        2
176
     1
  1
strokes_ogs.tif
176
     1
290
     0
176
     1
 40
1.0
176
     1
 40
1.0
176
     1
  0
VISUALSTYLE
  5
16E
102
{ACAD_REACTORS
330
16B
102
}
330
16B
100
AcDbVisualStyle
  2
Gouraud
 70
     2
177
     3
291
     1
 70
    58
 90
        2
176
     1
 90
        2
176
     1
 90
        1
176
     1
 90
        2
176
     1
 40
0.6
176
     1
 40
30.0
176
     1
 62
     7
420
 16777215
176
     1
 90
        0
176
     1
 90
        0
176
     1
 62
     7
176
     1
 62
   257
176
     1
 90
        1
176
     1
 90
        1
176
     1
 40
1.0
176
     1
 90
        0
176
     1
 62
     7
176
     1
 40
1.0
176
     1
 90
        1
176
     1
 90
        6
176
     1
 90
        2
176
     1
 62
     7
176
     1
 90
        5
176
     1
 90
        0
176
     1
 90
        0
176
     1
290
     0
176
     1
 90
       13
176
     1
 40
0.0
176
     1
 90
        0
176
     1
290
     0
176
     1
290
     1
176
     1
290
     1
176
     1
290
     0
176
     1
290
     0
176
     1
290
     0
176
     1
290
     0
176
     1
290
     0
176
     1
290
     0
176
     1
 90
       50
176
     1
 40
0.0
176
     1
 40
1.0
176
     1
 90
        0
176
     1
 62
    18
420
        0
176
     1
 90
       50
176
     1
 90
        3
176
     1
 62
     5
420
      255
176
     1
290
     0
176
     1
 90
       50
176
     1
 90
       50
176
     1
 90
       50
176
     1
290
     0
176
     1
 90
       50
176
     1
 62
   256
176
     0
 40
1.0
176
     0
 90
        2
176
     1
  1
strokes_ogs.tif
176
     1
290
     0
176
     1
 40
1.0
176
     1
 40
1.0
176
     1
  0
VISUALSTYLE
  5
16F
102
{ACAD_REACTORS
330
16B
102
}
330
16B
100
AcDbVisualStyle
  2
GouraudWithEdges
 70
     3
177
     3
291
     1
 70
    58
 90
        2
176
     1
 90
        2
176
     1
 90
        1
176
     1
 90
        2
176
     1
 40
0.6
176
     1
 40
30.0
176
     1
 62
     7
420
 16777215
176
     1
 90
        1
176
     1
 90
        0
176
     1
 62
     7
176
     1
 62
   257
176
     1
 90
        1
176
     1
 90
        1
176
     1
 40
1.0
176
     1
 90
        0
176
     1
 62
   257
176
     1
 40
1.0
176
     1
 90
        1
176
     1
 90
        6
176
     1
 90
        2
176
     1
 62
     7
176
     1
 90
        5
176
     1
 90
        0
176
     1
 90
        0
176
     1
290
     0
176
     1
 90
       13
176
     1
 40
0.0
176
     1
 90
        0
176
     1
290
     0
176
     1
290
     1
176
     1
290
     1
176
     1
290
     0
176
     1
290
     0
176
     1
290
     0
176
     1
290
     0
176
     1
290
     0
176
     1
290
     0
176
     1
 90
       50
176
     1
 40
0.0
176
     1
 40
1.0
176
     1
 90
        0
176
     1
 62
    18
420
        0
176
     1
 90
       50
176
     1
 90
        3
176
     1
 62
     5
420
      255
176
     1
290
     0
176
     1
 90
       50
176
     1
 90
       50
176
     1
 90
       50
176
     1
290
     0
176
     1
 90
       50
176
     1
 62
   256
176
     0
 40
1.0
176
     0
 90
        2
176
     1
  1
strokes_ogs.tif
176
     1
290
     0
176
     1
 40
1.0
176
     1
 40
1.0
176
     1
  0
VISUALSTYLE
  5
173
102
{ACAD_REACTORS
330
16B
102
}
330
16B
100
AcDbVisualStyle
  2
Hidden
 70
     6
177
     3
291
     0
 70
    58
 90
        1
176
     1
 90
        2
176
     1
 90
        2
176
     1
 90
        0
176
     1
 40
0.6
176
     1
 40
30.0
176
     1
 62
     7
420
 16777215
176
     1
 90
        2
176
     1
 90
        2
176
     1
 62
     7
176
     1
 62
   257
176
     1
 90
        2
176
     1
 90
        1
176
     1
 40
40.0
176
     1
 90
        0
176
     1
 62
   257
176
     1
 40
1.0
176
     1
 90
        1
176
     1
 90
        6
176
     1
 90
        2
176
     1
 62
     7
176
     1
 90
        3
176
     1
 90
        0
176
     1
 90
        0
176
     1
290
     0
176
     1
 90
        1
176
     1
 40
0.0
176
     1
 90
        0
176
     1
290
     0
176
     1
290
     1
176
     1
290
     1
176
     1
290
     0
176
     1
290
     0
176
     1
290
     0
176
     1
290
     0
176
     1
290
     0
176
     1
290
     0
176
     1
 90
       50
176
     1
 40
0.0
176
     1
 40
1.0
176
     1
 90
        0
176
     1
 62
    18
420
        0
176
     1
 90
       50
176
     1
 90
        3
176
     1
 62
     5
420
      255
176
     1
290
     0
176
     1
 90
       50
176
     1
 90
       50
176
     1
 90
       50
176
     1
290
     0
176
     1
 90
       50
176
     1
 62
   256
176
     0
 40
1.0
176
     0
 90
        2
176
     1
  1
strokes_ogs.tif
176
     1
290
     0
176
     1
 40
1.0
176
     1
 40
1.0
176
     1
  0
VISUALSTYLE
  5
181
102
{ACAD_REACTORS
330
16B
102
}
330
16B
100
AcDbVisualStyle
  2
JitterOff
 70
    20
177
     3
291
     1
 70
    58
 90
        2
176
     0
 90
        2
176
     0
 90
        0
176
     0
 90
        0
176
     0
 40
0.6
176
     0
 40
30.0
176
     0
 62
     7
420
 16777215
176
     0
 90
        1
176
     0
 90
        4
176
     0
 62
     7
176
     0
 62
   257
176
     0
 90
        1
176
     0
 90
        1
176
     0
 40
1.0
176
     0
 90
       10
176
     2
 62
     7
176
     0
 40
1.0
176
     0
 90
        1
176
     0
 90
        6
176
     0
 90
        2
176
     0
 62
     7
176
     0
 90
        5
176
     0
 90
        0
176
     0
 90
        0
176
     0
290
     0
176
     0
 90
        1
176
     0
 40
0.0
176
     0
 90
        0
176
     0
290
     0
176
     0
290
     1
176
     0
290
     1
176
     0
290
     0
176
     0
290
     0
176
     0
290
     0
176
     0
290
     0
176
     0
290
     0
176
     0
290
     0
176
     0
 90
       50
176
     0
 40
0.0
176
     0
 40
1.0
176
     0
 90
        0
176
     0
 62
    18
420
        0
176
     0
 90
       50
176
     0
 90
        3
176
     0
 62
     5
420
      255
176
     0
290
     0
176
     0
 90
       50
176
     0
 90
       50
176
     0
 90
       50
176
     0
290
     0
176
     0
 90
       50
176
     0
 62
   256
176
     0
 40
1.0
176
     0
 90
        2
176
     0
  1
strokes_ogs.tif
176
     0
290
     0
176
     0
 40
1.0
176
     0
 40
1.0
176
     0
  0
VISUALSTYLE
  5
179
102
{ACAD_REACTORS
330
16B
102
}
330
16B
100
AcDbVisualStyle
  2
Linepattern
 70
    14
177
     3
291
     1
 70
    58
 90
        2
176
     1
 90
        2
176
     1
 90
        0
176
     1
 90
        0
176
     1
 40
0.6
176
     1
 40
30.0
176
     1
 62
     7
420
 16777215
176
     1
 90
        1
176
     1
 90
        4
176
     1
 62
     7
176
     1
 62
   257
176
     1
 90
        7
176
     1
 90
        7
176
     1
 40
1.0
176
     1
 90
        8
176
     1
 62
     7
176
     1
 40
1.0
176
     1
 90
        1
176
     1
 90
        6
176
     1
 90
        2
176
     1
 62
     7
176
     1
 90
        5
176
     1
 90
        0
176
     1
 90
        0
176
     1
290
     0
176
     1
 90
        1
176
     1
 40
0.0
176
     1
 90
        0
176
     1
290
     0
176
     1
290
     1
176
     1
290
     1
176
     1
290
     0
176
     1
290
     0
176
     1
290
     0
176
     1
290
     0
176
     1
290
     0
176
     1
290
     0
176
     1
 90
       50
176
     1
 40
0.0
176
     1
 40
1.0
176
     1
 90
        0
176
     1
 62
    18
420
        0
176
     1
 90
       50
176
     1
 90
        3
176
     1
 62
     5
420
      255
176
     1
290
     0
176
     1
 90
       50
176
     1
 90
       50
176
     1
 90
       50
176
     1
290
     0
176
     1
 90
       50
176
     1
 62
   256
176
     0
 40
1.0
176
     0
 90
        2
176
     1
  1
strokes_ogs.tif
176
     1
290
     0
176
     1
 40
1.0
176
     1
 40
1.0
176
     1
  0
VISUALSTYLE
  5
182
102
{ACAD_REACTORS
330
16B
102
}
330
16B
100
AcDbVisualStyle
  2
OverhangOff
 70
    21
177
     3
291
     1
 70
    58
 90
        2
176
     0
 90
        2
176
     0
 90
        0
176
     0
 90
        0
176
     0
 40
0.6
176
     0
 40
30.0
176
     0
 62
     7
420
 16777215
176
     0
 90
        1
176
     0
 90
        4
176
     0
 62
     7
176
     0
 62
   257
176
     0
 90
        1
176
     0
 90
        1
176
     0
 40
1.0
176
     0
 90
        9
176
     2
 62
     7
176
     0
 40
1.0
176
     0
 90
        1
176
     0
 90
        6
176
     0
 90
        2
176
     0
 62
     7
176
     0
 90
        5
176
     0
 90
        0
176
     0
 90
        0
176
     0
290
     0
176
     0
 90
        1
176
     0
 40
0.0
176
     0
 90
        0
176
     0
290
     0
176
     0
290
     1
176
     0
290
     1
176
     0
290
     0
176
     0
290
     0
176
     0
290
     0
176
     0
290
     0
176
     0
290
     0
176
     0
290
     0
176
     0
 90
       50
176
     0
 40
0.0
176
     0
 40
1.0
176
     0
 90
        0
176
     0
 62
    18
420
        0
176
     0
 90
       50
176
     0
 90
        3
176
     0
 62
     5
420
      255
176
     0
290
     0
176
     0
 90
       50
176
     0
 90
       50
176
     0
 90
       50
176
     0
290
     0
176
     0
 90
       50
176
     0
 62
   256
176
     0
 40
1.0
176
     0
 90
        2
176
     0
  1
strokes_ogs.tif
176
     0
290
     0
176
     0
 40
1.0
176
     0
 40
1.0
176
     0
  0
VISUALSTYLE
  5
175
102
{ACAD_REACTORS
330
16B
102
}
330
16B
100
AcDbVisualStyle
  2
Realistic
 70
     8
177
     3
291
     0
 70
    58
 90
        2
176
     1
 90
        3
176
     1
 90
        0
176
     1
 90
        2
176
     1
 40
0.6
176
     1
 40
30.0
176
     1
 62
     7
420
 16777215
176
     1
 90
        0
176
     1
 90
        0
176
     1
 62
     7
176
     1
 62
   257
176
     1
 90
        1
176
     1
 90
        1
176
     1
 40
1.0
176
     1
 90
        8
176
     1
 62
   257
176
     1
 40
1.0
176
     1
 90
        1
176
     1
 90
        6
176
     1
 90
        2
176
     1
 62
     7
176
     1
 90
        3
176
     1
 90
        0
176
     1
 90
        0
176
     1
290
     0
176
     1
 90
       13
176
     1
 40
0.0
176
     1
 90
        0
176
     1
290
     0
176
     1
290
     1
176
     1
290
     1
176
     1
290
     0
176
     1
290
     0
176
     1
290
     0
176
     1
290
     0
176
     1
290
     0
176
     1
290
     0
176
     1
 90
       50
176
     1
 40
0.0
176
     1
 40
1.0
176
     1
 90
        0
176
     1
 62
    18
420
        0
176
     1
 90
       50
176
     1
 90
        3
176
     1
 62
     5
420
      255
176
     1
290
     0
176
     1
 90
       50
176
     1
 90
       50
176
     1
 90
       50
176
     1
290
     0
176
     1
 90
       50
176
     1
 62
   256
176
     0
 40
1.0
176
     0
 90
        2
176
     1
  1
strokes_ogs.tif
176
     1
290
     0
176
     1
 40
1.0
176
     1
 40
1.0
176
     1
  0
VISUALSTYLE
  5
180
102
{ACAD_REACTORS
330
16B
102
}
330
16B
100
AcDbVisualStyle
  2
Shaded
 70
    27
177
     3
291
     0
 70
    58
 90
        2
176
     1
 90
        2
176
     1
 90
        1
176
     1
 90
        2
176
     1
 40
0.6
176
     1
 40
30.0
176
     1
 62
     7
420
 16777215
176
     1
 90
        0
176
     1
 90
        4
176
     1
 62
     7
176
     1
 62
   257
176
     1
 90
        1
176
     1
 90
        1
176
     1
 40
1.0
176
     1
 90
        8
176
     1
 62
   257
176
     1
 40
1.0
176
     1
 90
        1
176
     1
 90
        6
176
     1
 90
        2
176
     1
 62
     8
420
  7895160
176
     1
 90
        3
176
     1
 90
        0
176
     1
 90
        0
176
     1
290
     0
176
     1
 90
        5
176
     1
 40
0.0
176
     1
 90
        0
176
     1
290
     0
176
     1
290
     1
176
     1
290
     1
176
     1
290
     0
176
     1
290
     0
176
     1
290
     0
176
     1
290
     0
176
     1
290
     0
176
     1
290
     0
176
     1
 90
       50
176
     1
 40
0.0
176
     1
 40
1.0
176
     1
 90
        0
176
     1
 62
    18
420
        0
176
     1
 90
       50
176
     1
 90
        3
176
     1
 62
     5
420
      255
176
     1
290
     0
176
     1
 90
       50
176
     1
 90
       50
176
     1
 90
       50
176
     1
290
     0
176
     1
 90
       50
176
     1
 62
   256
176
     0
 40
1.0
176
     0
 90
        2
176
     1
  1
strokes_ogs.tif
176
     1
290
     0
176
     1
 40
1.0
176
     1
 40
1.0
176
     1
  0
VISUALSTYLE
  5
17F
102
{ACAD_REACTORS
330
16B
102
}
330
16B
100
AcDbVisualStyle
  2
Shaded with edges
 70
    26
177
     3
291
     0
 70
    58
 90
        2
176
     1
 90
        2
176
     1
 90
        1
176
     1
 90
        2
176
     1
 40
0.6
176
     1
 40
30.0
176
     1
 62
     7
420
 16777215
176
     1
 90
        1
176
     1
 90
        2
176
     1
 62
     7
176
     1
 62
   257
176
     1
 90
        2
176
     1
 90
        1
176
     1
 40
1.0
176
     1
 90
        8
176
     1
 62
   257
176
     1
 40
1.0
176
     1
 90
        1
176
     1
 90
        6
176
     1
 90
        2
176
     1
 62
     7
176
     1
 90
        3
176
     1
 90
        0
176
     1
 90
        0
176
     1
290
     0
176
     1
 90
        5
176
     1
 40
0.0
176
     1
 90
        0
176
     1
290
     0
176
     1
290
     1
176
     1
290
     1
176
     1
290
     0
176
     1
290
     0
176
     1
290
     0
176
     1
290
     0
176
     1
290
     0
176
     1
290
     0
176
     1
 90
       50
176
     1
 40
0.0
176
     1
 40
1.0
176
     1
 90
        0
176
     1
 62
    18
420
        0
176
     1
 90
       50
176
     1
 90
        3
176
     1
 62
     5
420
      255
176
     1
290
     0
176
     1
 90
       50
176
     1
 90
       50
176
     1
 90
       50
176
     1
290
     0
176
     1
 90
       50
176
     1
 62
   256
176
     0
 40
1.0
176
     0
 90
        2
176
     1
  1
strokes_ogs.tif
176
     1
290
     0
176
     1
 40
1.0
176
     1
 40
1.0
176
     1
  0
VISUALSTYLE
  5
17C
102
{ACAD_REACTORS
330
16B
102
}
330
16B
100
AcDbVisualStyle
  2
Shades of Gray
 70
    23
177
     3
291
     0
 70
    58
 90
        2
176
     1
 90
        2
176
     1
 90
        3
176
     1
 90
        0
176
     1
 40
0.6
176
     1
 40
30.0
176
     1
 62
     7
420
 16777215
176
     1
 90
        2
176
     1
 90
        2
176
     1
 62
     7
176
     1
 62
     7
176
     1
 90
        1
176
     1
 90
        1
176
     1
 40
40.0
176
     1
 90
        8
176
     1
 62
     7
176
     1
 40
1.0
176
     1
 90
        1
176
     1
 90
        6
176
     1
 90
        2
176
     1
 62
     7
176
     1
 90
        3
176
     1
 90
        0
176
     1
 90
        0
176
     1
290
     0
176
     1
 90
        1
176
     1
 40
0.0
176
     1
 90
        0
176
     1
290
     0
176
     1
290
     1
176
     1
290
     1
176
     1
290
     0
176
     1
290
     0
176
     1
290
     0
176
     1
290
     0
176
     1
290
     0
176
     1
290
     0
176
     1
 90
       50
176
     1
 40
0.0
176
     1
 40
1.0
176
     1
 90
        0
176
     1
 62
    18
420
        0
176
     1
 90
       50
176
     1
 90
        3
176
     1
 62
     5
420
      255
176
     1
290
     0
176
     1
 90
       50
176
     1
 90
       50
176
     1
 90
       50
176
     1
290
     0
176
     1
 90
       50
176
     1
 62
   256
176
     0
 40
1.0
176
     0
 90
        2
176
     1
  1
strokes_ogs.tif
176
     1
290
     0
176
     1
 40
1.0
176
     1
 40
1.0
176
     1
  0
VISUALSTYLE
  5
17D
102
{ACAD_REACTORS
330
16B
102
}
330
16B
100
AcDbVisualStyle
  2
Sketchy
 70
    24
177
     3
291
     0
 70
    58
 90
        1
176
     1
 90
        2
176
     1
 90
        2
176
     1
 90
        0
176
     1
 40
0.6
176
     1
 40
30.0
176
     1
 62
     7
420
 16777215
176
     1
 90
        2
176
     1
 90
        2
176
     1
 62
     7
176
     1
 62
     7
176
     1
 90
        1
176
     1
 90
        1
176
     1
 40
40.0
176
     1
 90
       11
176
     1
 62
     7
176
     1
 40
1.0
176
     1
 90
        1
176
     1
 90
        6
176
     1
 90
        2
176
     1
 62
     7
176
     1
 90
        6
176
     1
 90
        0
176
     1
 90
        0
176
     1
290
     0
176
     1
 90
        1
176
     1
 40
0.0
176
     1
 90
        0
176
     1
290
     0
176
     1
290
     1
176
     1
290
     1
176
     1
290
     0
176
     1
290
     0
176
     1
290
     0
176
     1
290
     0
176
     1
290
     0
176
     1
290
     0
176
     1
 90
       50
176
     1
 40
0.0
176
     1
 40
1.0
176
     1
 90
        0
176
     1
 62
    18
420
        0
176
     1
 90
       50
176
     1
 90
        3
176
     1
 62
     5
420
      255
176
     1
290
     0
176
     1
 90
       50
176
     1
 90
       50
176
     1
 90
       50
176
     1
290
     0
176
     1
 90
       50
176
     1
 62
   256
176
     0
 40
1.0
176
     0
 90
        2
176
     1
  1
strokes_ogs.tif
176
     1
290
     0
176
     1
 40
1.0
176
     1
 40
1.0
176
     1
  0
VISUALSTYLE
  5
178
102
{ACAD_REACTORS
330
16B
102
}
330
16B
100
AcDbVisualStyle
  2
Thicken
 70
    13
177
     3
291
     1
 70
    58
 90
        2
176
     1
 90
        2
176
     1
 90
        0
176
     1
 90
        0
176
     1
 40
0.6
176
     1
 40
30.0
176
     1
 62
     7
420
 16777215
176
     1
 90
        1
176
     1
 90
        4
176
     1
 62
     7
176
     1
 62
   257
176
     1
 90
        1
176
     1
 90
        1
176
     1
 40
1.0
176
     1
 90
       12
176
     1
 62
     7
176
     1
 40
1.0
176
     1
 90
        1
176
     1
 90
        6
176
     1
 90
        2
176
     1
 62
     7
176
     1
 90
        5
176
     1
 90
        0
176
     1
 90
        0
176
     1
290
     0
176
     1
 90
        1
176
     1
 40
0.0
176
     1
 90
        0
176
     1
290
     0
176
     1
290
     1
176
     1
290
     1
176
     1
290
     0
176
     1
290
     0
176
     1
290
     0
176
     1
290
     0
176
     1
290
     0
176
     1
290
     0
176
     1
 90
       50
176
     1
 40
0.0
176
     1
 40
1.0
176
     1
 90
        0
176
     1
 62
    18
420
        0
176
     1
 90
       50
176
     1
 90
        3
176
     1
 62
     5
420
      255
176
     1
290
     0
176
     1
 90
       50
176
     1
 90
       50
176
     1
 90
       50
176
     1
290
     0
176
     1
 90
       50
176
     1
 62
   256
176
     0
 40
1.0
176
     0
 90
        2
176
     1
  1
strokes_ogs.tif
176
     1
290
     0
176
     1
 40
1.0
176
     1
 40
1.0
176
     1
  0
VISUALSTYLE
  5
172
102
{ACAD_REACTORS
330
16B
102
}
330
16B
100
AcDbVisualStyle
  2
Wireframe
 70
     5
177
     3
291
     0
 70
    58
 90
        0
176
     1
 90
        2
176
     1
 90
        0
176
     1
 90
        0
176
     1
 40
0.6
176
     1
 40
30.0
176
     1
 62
     7
420
 16777215
176
     1
 90
        1
176
     1
 90
        4
176
     1
 62
     7
176
     1
 62
   257
176
     1
 90
        1
176
     1
 90
        1
176
     1
 40
1.0
176
     1
 90
        0
176
     1
 62
   257
176
     1
 40
1.0
176
     1
 90
        1
176
     1
 90
        6
176
     1
 90
        2
176
     1
 62
     7
176
     1
 90
        3
176
     1
 90
        0
176
     1
 90
        0
176
     1
290
     0
176
     1
 90
        1
176
     1
 40
0.0
176
     1
 90
        0
176
     1
290
     0
176
     1
290
     1
176
     1
290
     1
176
     1
290
     0
176
     1
290
     0
176
     1
290
     0
176
     1
290
     0
176
     1
290
     0
176
     1
290
     0
176
     1
 90
       50
176
     1
 40
0.0
176
     1
 40
1.0
176
     1
 90
        0
176
     1
 62
    18
420
        0
176
     1
 90
       50
176
     1
 90
        3
176
     1
 62
     5
420
      255
176
     1
290
     0
176
     1
 90
       50
176
     1
 90
       50
176
     1
 90
       50
176
     1
290
     0
176
     1
 90
       50
176
     1
 62
   256
176
     0
 40
1.0
176
     0
 90
        2
176
     1
  1
strokes_ogs.tif
176
     1
290
     0
176
     1
 40
1.0
176
     1
 40
1.0
176
     1
  0
VISUALSTYLE
  5
17E
102
{ACAD_REACTORS
330
16B
102
}
330
16B
100
AcDbVisualStyle
  2
X-Ray
 70
    25
177
     3
291
     0
 70
    58
 90
        2
176
     1
 90
        2
176
     1
 90
        1
176
     1
 90
        1
176
     1
 40
0.5
176
     1
 40
30.0
176
     1
 62
     7
420
 16777215
176
     1
 90
        1
176
     1
 90
        0
176
     1
 62
     7
176
     1
 62
   257
176
     1
 90
        1
176
     1
 90
        1
176
     1
 40
1.0
176
     1
 90
        8
176
     1
 62
     7
176
     1
 40
1.0
176
     1
 90
        1
176
     1
 90
        6
176
     1
 90
        2
176
     1
 62
     7
176
     1
 90
        3
176
     1
 90
        0
176
     1
 90
        0
176
     1
290
     0
176
     1
 90
       13
176
     1
 40
0.0
176
     1
 90
        0
176
     1
290
     0
176
     1
290
     1
176
     1
290
     1
176
     1
290
     0
176
     1
290
     0
176
     1
290
     0
176
     1
290
     0
176
     1
290
     0
176
     1
290
     0
176
     1
 90
       50
176
     1
 40
0.0
176
     1
 40
1.0
176
     1
 90
        0
176
     1
 62
    18
420
        0
176
     1
 90
       50
176
     1
 90
        3
176
     1
 62
     5
420
      255
176
     1
290
     0
176
     1
 90
       50
176
     1
 90
       50
176
     1
 90
       50
176
     1
290
     0
176
     1
 90
       50
176
     1
 62
   256
176
     0
 40
1.0
176
     0
 90
        2
176
     1
  1
strokes_ogs.tif
176
     1
290
     0
176
     1
 40
1.0
176
     1
 40
1.0
176
     1
  0
DICTIONARYVAR
  5
34D
102
{ACAD_REACTORS
330
347
102
}
330
347
100
DictionaryVariables
280
     0
  1
1:1
  0
DICTIONARYVAR
  5
349
102
{ACAD_REACTORS
330
347
102
}
330
347
100
DictionaryVariables
280
     0
  1
STANDARD
  0
DICTIONARYVAR
  5
348
102
{ACAD_REACTORS
330
347
102
}
330
347
100
DictionaryVariables
280
     0
  1
STANDARD
  0
DICTIONARYVAR
  5
34A
102
{ACAD_REACTORS
330
347
102
}
330
347
100
DictionaryVariables
280
     0
  1
Metric50
  0
DICTIONARYVAR
  5
34B
102
{ACAD_REACTORS
330
347
102
}
330
347
100
DictionaryVariables
280
     0
  1
Metric50
  0
DICTIONARYVAR
  5
34F
102
{ACAD_REACTORS
330
347
102
}
330
347
100
DictionaryVariables
280
     0
  1
1
  0
DICTIONARYVAR
  5
350
102
{ACAD_REACTORS
330
347
102
}
330
347
100
DictionaryVariables
280
     0
  1
15
  0
DICTIONARYVAR
  5
34E
102
{ACAD_REACTORS
330
347
102
}
330
347
100
DictionaryVariables
280
     0
  1
0
  0
DICTIONARYVAR
  5
34C
102
{ACAD_REACTORS
330
347
102
}
330
347
100
DictionaryVariables
280
     0
  1
0
  0
DICTIONARY
  5
219
102
{ACAD_REACTORS
330
218
102
}
330
218
100
AcDbDictionary
281
     1
  3
*A1
350
21A
  0
DICTIONARY
  5
21F
102
{ACAD_REACTORS
330
21E
102
}
330
21E
100
AcDbDictionary
281
     1
  3
*A1
350
220
  0
DICTIONARY
  5
226
102
{ACAD_REACTORS
330
225
102
}
330
225
100
AcDbDictionary
281
     1
  3
*A1
350
227
  0
DICTIONARY
  5
22D
102
{ACAD_REACTORS
330
22C
102
}
330
22C
100
AcDbDictionary
281
     1
  3
*A1
350
22E
  0
DICTIONARY
  5
232
102
{ACAD_REACTORS
330
231
102
}
330
231
100
AcDbDictionary
281
     1
  3
*A1
350
233
  0
DICTIONARY
  5
237
102
{ACAD_REACTORS
330
236
102
}
330
236
100
AcDbDictionary
281
     1
  3
*A1
350
238
  0
DICTIONARY
  5
23C
102
{ACAD_REACTORS
330
23B
102
}
330
23B
100
AcDbDictionary
281
     1
  3
*A1
350
23D
  0
DICTIONARY
  5
242
102
{ACAD_REACTORS
330
241
102
}
330
241
100
AcDbDictionary
281
     1
  3
*A1
350
243
  0
DICTIONARY
  5
247
102
{ACAD_REACTORS
330
246
102
}
330
246
100
AcDbDictionary
281
     1
  3
*A1
350
248
  0
DICTIONARY
  5
24C
102
{ACAD_REACTORS
330
24B
102
}
330
24B
100
AcDbDictionary
281
     1
  3
*A1
350
24D
  0
DICTIONARY
  5
251
102
{ACAD_REACTORS
330
250
102
}
330
250
100
AcDbDictionary
281
     1
  3
*A1
350
252
  0
DICTIONARY
  5
256
102
{ACAD_REACTORS
330
255
102
}
330
255
100
AcDbDictionary
281
     1
  3
*A1
350
257
  0
DICTIONARY
  5
25E
102
{ACAD_REACTORS
330
25D
102
}
330
25D
100
AcDbDictionary
281
     1
  3
*A1
350
25F
  0
DICTIONARY
  5
263
102
{ACAD_REACTORS
330
262
102
}
330
262
100
AcDbDictionary
281
     1
  3
*A1
350
264
  0
DICTIONARY
  5
26B
102
{ACAD_REACTORS
330
26A
102
}
330
26A
100
AcDbDictionary
281
     1
  3
*A1
350
26C
  0
DICTIONARY
  5
270
102
{ACAD_REACTORS
330
26F
102
}
330
26F
100
AcDbDictionary
281
     1
  3
*A1
350
271
  0
DICTIONARY
  5
15C
330
15B
100
AcDbDictionary
280
     1
281
     1
  3
BUMPTILE
360
15E
  3
DIFFUSETILE
360
15D
  3
OPACITYTILE
360
161
  3
REFLECTIONTILE
360
160
  3
REFRACTIONTILE
360
162
  3
SPECULARTILE
360
15F
  0
DICTIONARY
  5
154
330
153
100
AcDbDictionary
280
     1
281
     1
  3
BUMPTILE
360
156
  3
DIFFUSETILE
360
155
  3
OPACITYTILE
360
159
  3
REFLECTIONTILE
360
158
  3
REFRACTIONTILE
360
15A
  3
SPECULARTILE
360
157
  0
DICTIONARY
  5
164
330
163
100
AcDbDictionary
280
     1
281
     1
  3
BUMPTILE
360
166
  3
DIFFUSETILE
360
165
  3
OPACITYTILE
360
169
  3
REFLECTIONTILE
360
168
  3
REFRACTIONTILE
360
16A
  3
SPECULARTILE
360
167
  0
DICTIONARY
  5
351
330
186
100
AcDbDictionary
280
     1
281
     1
  3
ACAD_ROUNDTRIP_2008_TABLESTYLE_CELLSTYLEMAP
360
352
  0
ACDB_TEXTOBJECTCONTEXTDATA_CLASS
  5
21A
102
{ACAD_REACTORS
330
219
102
}
330
219
100
AcDbObjectContextData
 70
     4
290
     1
100
AcDbAnnotScaleObjectContextData
340
188
 70
     4
 50
0.0
 10
3567.323699565237
 20
161.5702324784923
 11
3593.71865181626
 21
164.0702324784923
  0
ACDB_TEXTOBJECTCONTEXTDATA_CLASS
  5
220
102
{ACAD_REACTORS
330
21F
102
}
330
21F
100
AcDbObjectContextData
 70
     4
290
     1
100
AcDbAnnotScaleObjectContextData
340
188
 70
     4
 50
0.0
 10
3570.222256730062
 20
91.50848145251993
 11
3597.58924172324
 21
94.01018677312022
  0
ACDB_TEXTOBJECTCONTEXTDATA_CLASS
  5
227
102
{ACAD_REACTORS
330
226
102
}
330
226
100
AcDbObjectContextData
 70
     4
290
     1
100
AcDbAnnotScaleObjectContextData
340
188
 70
     4
 50
0.0
 10
3568.242678564205
 20
111.5924640314113
 11
3652.069417991218
 21
114.0941693520116
  0
ACDB_TEXTOBJECTCONTEXTDATA_CLASS
  5
22E
102
{ACAD_REACTORS
330
22D
102
}
330
22D
100
AcDbObjectContextData
 70
     4
290
     1
100
AcDbAnnotScaleObjectContextData
340
188
 70
     4
 50
0.0
 10
3569.763592195378
 20
101.5434066174822
 11
3661.165365728802
 21
104.0451119380825
  0
ACDB_TEXTOBJECTCONTEXTDATA_CLASS
  5
233
102
{ACAD_REACTORS
330
232
102
}
330
232
100
AcDbObjectContextData
 70
     4
290
     1
100
AcDbAnnotScaleObjectContextData
340
188
 70
     4
 50
0.0
 10
3568.385943926775
 20
121.4936117410811
 11
3651.247471894033
 21
123.9953170616813
  0
ACDB_TEXTOBJECTCONTEXTDATA_CLASS
  5
238
102
{ACAD_REACTORS
330
237
102
}
330
237
100
AcDbObjectContextData
 70
     4
290
     1
100
AcDbAnnotScaleObjectContextData
340
188
 70
     4
 50
0.0
 10
3569.479862692605
 20
131.5983240668717
 11
3656.611513442946
 21
134.100029387472
  0
ACDB_TEXTOBJECTCONTEXTDATA_CLASS
  5
23D
102
{ACAD_REACTORS
330
23C
102
}
330
23C
100
AcDbObjectContextData
 70
     4
290
     1
100
AcDbAnnotScaleObjectContextData
340
188
 70
     4
 50
0.0
 10
3335.040655072535
 20
128.0804419520754
 11
3341.838062985222
 21
130.54633554007
  0
ACDB_TEXTOBJECTCONTEXTDATA_CLASS
  5
243
102
{ACAD_REACTORS
330
242
102
}
330
242
100
AcDbObjectContextData
 70
     4
290
     1
100
AcDbAnnotScaleObjectContextData
340
188
 70
     4
 50
0.0
 10
3267.683289261079
 20
149.1656850339036
 11
3279.12769580951
 21
151.6656850339036
  0
ACDB_TEXTOBJECTCONTEXTDATA_CLASS
  5
248
102
{ACAD_REACTORS
330
247
102
}
330
247
100
AcDbObjectContextData
 70
     4
290
     1
100
AcDbAnnotScaleObjectContextData
340
188
 70
     4
 50
0.0
 10
3271.164461348114
 20
128.0787366314751
 11
3281.838062985222
 21
130.54633554007
  0
ACDB_TEXTOBJECTCONTEXTDATA_CLASS
  5
24D
102
{ACAD_REACTORS
330
24C
102
}
330
24C
100
AcDbObjectContextData
 70
     4
290
     1
100
AcDbAnnotScaleObjectContextData
340
188
 70
     4
 50
0.0
 10
3254.678514363399
 20
160.0616031009223
 11
3279.12769580951
 21
162.5633084215226
  0
ACDB_TEXTOBJECTCONTEXTDATA_CLASS
  5
252
102
{ACAD_REACTORS
330
251
102
}
330
251
100
AcDbObjectContextData
 70
     4
290
     1
100
AcDbAnnotScaleObjectContextData
340
188
 70
     4
 50
0.0
 10
3206.821719201047
 20
160.0633084215226
 11
3223.121173498455
 21
162.5633084215226
  0
ACDB_TEXTOBJECTCONTEXTDATA_CLASS
  5
257
102
{ACAD_REACTORS
330
256
102
}
330
256
100
AcDbObjectContextData
 70
     4
290
     1
100
AcDbAnnotScaleObjectContextData
340
188
 70
     4
 50
0.0
 10
3207.862960665986
 20
128.196403752894
 11
3221.838062985222
 21
130.54633554007
  0
ACDB_TEXTOBJECTCONTEXTDATA_CLASS
  5
25F
102
{ACAD_REACTORS
330
25E
102
}
330
25E
100
AcDbObjectContextData
 70
     4
290
     1
100
AcDbAnnotScaleObjectContextData
340
188
 70
     4
 50
0.0
 10
3322.822032971579
 20
149.4583719660434
 11
3341.838062985222
 21
151.2677171229329
  0
ACDB_TEXTOBJECTCONTEXTDATA_CLASS
  5
264
102
{ACAD_REACTORS
330
263
102
}
330
263
100
AcDbObjectContextData
 70
     4
290
     1
100
AcDbAnnotScaleObjectContextData
340
188
 70
     4
 50
0.0
 10
3313.500750570488
 20
160.0681389186542
 11
3341.838062985222
 21
162.5681389186542
  0
ACDB_TEXTOBJECTCONTEXTDATA_CLASS
  5
26C
102
{ACAD_REACTORS
330
26B
102
}
330
26B
100
AcDbObjectContextData
 70
     4
290
     1
100
AcDbAnnotScaleObjectContextData
340
188
 70
     4
 50
0.0
 10
3434.934424773023
 20
161.568527157892
 11
3485.580741280526
 21
164.0702324784923
  0
ACDB_TEXTOBJECTCONTEXTDATA_CLASS
  5
271
102
{ACAD_REACTORS
330
270
102
}
330
270
100
AcDbObjectContextData
 70
     4
290
     1
100
AcDbAnnotScaleObjectContextData
340
188
 70
     4
 50
0.0
 10
3434.668946850069
 20
131.6340726933959
 11
3491.914854080629
 21
134.1357780139961
  0
XRECORD
  5
15E
102
{ACAD_REACTORS
330
15C
102
}
330
15C
100
AcDbXrecord
280
     1
270
     1
271
     1
  0
XRECORD
  5
15D
102
{ACAD_REACTORS
330
15C
102
}
330
15C
100
AcDbXrecord
280
     1
270
     1
271
     1
  0
XRECORD
  5
161
102
{ACAD_REACTORS
330
15C
102
}
330
15C
100
AcDbXrecord
280
     1
270
     1
271
     1
  0
XRECORD
  5
160
102
{ACAD_REACTORS
330
15C
102
}
330
15C
100
AcDbXrecord
280
     1
270
     1
271
     1
  0
XRECORD
  5
162
102
{ACAD_REACTORS
330
15C
102
}
330
15C
100
AcDbXrecord
280
     1
270
     1
271
     1
  0
XRECORD
  5
15F
102
{ACAD_REACTORS
330
15C
102
}
330
15C
100
AcDbXrecord
280
     1
270
     1
271
     1
  0
XRECORD
  5
156
102
{ACAD_REACTORS
330
154
102
}
330
154
100
AcDbXrecord
280
     1
270
     1
271
     1
  0
XRECORD
  5
155
102
{ACAD_REACTORS
330
154
102
}
330
154
100
AcDbXrecord
280
     1
270
     1
271
     1
  0
XRECORD
  5
159
102
{ACAD_REACTORS
330
154
102
}
330
154
100
AcDbXrecord
280
     1
270
     1
271
     1
  0
XRECORD
  5
158
102
{ACAD_REACTORS
330
154
102
}
330
154
100
AcDbXrecord
280
     1
270
     1
271
     1
  0
XRECORD
  5
15A
102
{ACAD_REACTORS
330
154
102
}
330
154
100
AcDbXrecord
280
     1
270
     1
271
     1
  0
XRECORD
  5
157
102
{ACAD_REACTORS
330
154
102
}
330
154
100
AcDbXrecord
280
     1
270
     1
271
     1
  0
XRECORD
  5
166
102
{ACAD_REACTORS
330
164
102
}
330
164
100
AcDbXrecord
280
     1
270
     1
271
     1
  0
XRECORD
  5
165
102
{ACAD_REACTORS
330
164
102
}
330
164
100
AcDbXrecord
280
     1
270
     1
271
     1
  0
XRECORD
  5
169
102
{ACAD_REACTORS
330
164
102
}
330
164
100
AcDbXrecord
280
     1
270
     1
271
     1
  0
XRECORD
  5
168
102
{ACAD_REACTORS
330
164
102
}
330
164
100
AcDbXrecord
280
     1
270
     1
271
     1
  0
XRECORD
  5
16A
102
{ACAD_REACTORS
330
164
102
}
330
164
100
AcDbXrecord
280
     1
270
     1
271
     1
  0
XRECORD
  5
167
102
{ACAD_REACTORS
330
164
102
}
330
164
100
AcDbXrecord
280
     1
270
     1
271
     1
  0
CELLSTYLEMAP
  5
352
102
{ACAD_REACTORS
330
351
102
}
330
351
100
AcDbCellStyleMap
 90
        3
300
CELLSTYLE
  1
TABLEFORMAT_BEGIN
 90
        5
170
     1
 91
        0
 92
    32768
 62
   257
 93
        1
300
CONTENTFORMAT
  1
CONTENTFORMAT_BEGIN
 90
        0
 91
        0
 92
      512
 93
        0
300

 40
0.0
140
1.0
 94
        5
 62
     0
340
12
144
6.0
309
CONTENTFORMAT_END
171
     1
301
MARGIN
  1
CELLMARGIN_BEGIN
 40
1.5
 40
1.5
 40
1.5
 40
1.5
 40
4.5
 40
4.5
309
CELLMARGIN_END
 94
        6
 95
        1
302
GRIDFORMAT
  1
GRIDFORMAT_BEGIN
 90
        0
 91
        1
 62
     0
 92
       -2
340
0
 93
        0
 40
1.125
309
GRIDFORMAT_END
 95
        2
302
GRIDFORMAT
  1
GRIDFORMAT_BEGIN
 90
        0
 91
        1
 62
     0
 92
       -2
340
0
 93
        0
 40
1.125
309
GRIDFORMAT_END
 95
        4
302
GRIDFORMAT
  1
GRIDFORMAT_BEGIN
 90
        0
 91
        1
 62
     0
 92
       -2
340
0
 93
        0
 40
1.125
309
GRIDFORMAT_END
 95
        8
302
GRIDFORMAT
  1
GRIDFORMAT_BEGIN
 90
        0
 91
        1
 62
     0
 92
       -2
340
0
 93
        0
 40
1.125
309
GRIDFORMAT_END
 95
       16
302
GRIDFORMAT
  1
GRIDFORMAT_BEGIN
 90
        0
 91
        1
 62
     0
 92
       -2
340
0
 93
        0
 40
1.125
309
GRIDFORMAT_END
 95
       32
302
GRIDFORMAT
  1
GRIDFORMAT_BEGIN
 90
        0
 91
        1
 62
     0
 92
       -2
340
0
 93
        0
 40
1.125
309
GRIDFORMAT_END
309
TABLEFORMAT_END
  1
CELLSTYLE_BEGIN
 90
        1
 91
        1
300
_TITLE
309
CELLSTYLE_END
300
CELLSTYLE
  1
TABLEFORMAT_BEGIN
 90
        5
170
     1
 91
        0
 92
        0
 62
   257
 93
        1
300
CONTENTFORMAT
  1
CONTENTFORMAT_BEGIN
 90
        0
 91
        0
 92
      512
 93
        0
300

 40
0.0
140
1.0
 94
        5
 62
     0
340
12
144
4.5
309
CONTENTFORMAT_END
171
     1
301
MARGIN
  1
CELLMARGIN_BEGIN
 40
1.5
 40
1.5
 40
1.5
 40
1.5
 40
4.5
 40
4.5
309
CELLMARGIN_END
 94
        6
 95
        1
302
GRIDFORMAT
  1
GRIDFORMAT_BEGIN
 90
        0
 91
        1
 62
     0
 92
       -2
340
0
 93
        0
 40
1.125
309
GRIDFORMAT_END
 95
        2
302
GRIDFORMAT
  1
GRIDFORMAT_BEGIN
 90
        0
 91
        1
 62
     0
 92
       -2
340
0
 93
        0
 40
1.125
309
GRIDFORMAT_END
 95
        4
302
GRIDFORMAT
  1
GRIDFORMAT_BEGIN
 90
        0
 91
        1
 62
     0
 92
       -2
340
0
 93
        0
 40
1.125
309
GRIDFORMAT_END
 95
        8
302
GRIDFORMAT
  1
GRIDFORMAT_BEGIN
 90
        0
 91
        1
 62
     0
 92
       -2
340
0
 93
        0
 40
1.125
309
GRIDFORMAT_END
 95
       16
302
GRIDFORMAT
  1
GRIDFORMAT_BEGIN
 90
        0
 91
        1
 62
     0
 92
       -2
340
0
 93
        0
 40
1.125
309
GRIDFORMAT_END
 95
       32
302
GRIDFORMAT
  1
GRIDFORMAT_BEGIN
 90
        0
 91
        1
 62
     0
 92
       -2
340
0
 93
        0
 40
1.125
309
GRIDFORMAT_END
309
TABLEFORMAT_END
  1
CELLSTYLE_BEGIN
 90
        2
 91
        1
300
_HEADER
309
CELLSTYLE_END
300
CELLSTYLE
  1
TABLEFORMAT_BEGIN
 90
        5
170
     1
 91
        0
 92
        0
 62
   257
 93
        1
300
CONTENTFORMAT
  1
CONTENTFORMAT_BEGIN
 90
        0
 91
        0
 92
      512
 93
        0
300

 40
0.0
140
1.0
 94
        2
 62
     0
340
12
144
4.5
309
CONTENTFORMAT_END
171
     1
301
MARGIN
  1
CELLMARGIN_BEGIN
 40
1.5
 40
1.5
 40
1.5
 40
1.5
 40
4.5
 40
4.5
309
CELLMARGIN_END
 94
        6
 95
        1
302
GRIDFORMAT
  1
GRIDFORMAT_BEGIN
 90
        0
 91
        1
 62
     0
 92
       -2
340
0
 93
        0
 40
1.125
309
GRIDFORMAT_END
 95
        2
302
GRIDFORMAT
  1
GRIDFORMAT_BEGIN
 90
        0
 91
        1
 62
     0
 92
       -2
340
0
 93
        0
 40
1.125
309
GRIDFORMAT_END
 95
        4
302
GRIDFORMAT
  1
GRIDFORMAT_BEGIN
 90
        0
 91
        1
 62
     0
 92
       -2
340
0
 93
        0
 40
1.125
309
GRIDFORMAT_END
 95
        8
302
GRIDFORMAT
  1
GRIDFORMAT_BEGIN
 90
        0
 91
        1
 62
     0
 92
       -2
340
0
 93
        0
 40
1.125
309
GRIDFORMAT_END
 95
       16
302
GRIDFORMAT
  1
GRIDFORMAT_BEGIN
 90
        0
 91
        1
 62
     0
 92
       -2
340
0
 93
        0
 40
1.125
309
GRIDFORMAT_END
 95
       32
302
GRIDFORMAT
  1
GRIDFORMAT_BEGIN
 90
        0
 91
        1
 62
     0
 92
       -2
340
0
 93
        0
 40
1.125
309
GRIDFORMAT_END
309
TABLEFORMAT_END
  1
CELLSTYLE_BEGIN
 90
        3
 91
        2
300
_DATA
309
CELLSTYLE_END
  0
ENDSEC
  0
EOF
