  0
SECTION
  2
HEADER
  9
$ACADVER
  1
AC1032
  9
$ACADMAINTVER
 90
      155
  9
$DWGCODEPAGE
  3
ANSI_1252
  9
$LASTSAVEDBY
  1
falinoori
  9
$REQUIREDVERSIONS
160
                 0
  9
$INSBASE
 10
0.0000000000000568
 20
0.0000000000000568
 30
0.0
  9
$EXTMIN
 10
-62.57834035367094
 20
-295.26375725696
 30
0.0
  9
$EXTMAX
 10
910.7205298394161
 20
64.70633191823447
 30
0.0
  9
$LIMMIN
 10
0.0
 20
0.0
  9
$LIMMAX
 10
420.0
 20
297.0
  9
$ORTHOMODE
 70
     1
  9
$REGENMODE
 70
     1
  9
$FILLMODE
 70
     1
  9
$QTEXTMODE
 70
     0
  9
$MIRRTEXT
 70
     1
  9
$LTSCALE
 40
0.25
  9
$ATTMODE
 70
     1
  9
$TEXTSIZE
 40
5.0
  9
$TRACEWID
 40
10.0
  9
$TEXTSTYLE
  7
ROMANS
  9
$CLAYER
  8
ANCON-DSD
  9
$CELTYPE
  6
BYLAYER
  9
$CECOLOR
 62
   256
  9
$CELTSCALE
 40
1.0
  9
$DISPSILH
 70
     0
  9
$DIMSCALE
 40
0.0
  9
$DIMASZ
 40
2.0
  9
$DIMEXO
 40
4.5
  9
$DIMDLI
 40
10.0
  9
$DIMRND
 40
0.0
  9
$DIMDLE
 40
1.25
  9
$DIMEXE
 40
1.5
  9
$DIMTP
 40
0.0
  9
$DIMTM
 40
0.0
  9
$DIMTXT
 40
1.5
  9
$DIMCEN
 40
-3.0
  9
$DIMTSZ
 40
0.0
  9
$DIMTOL
 70
     0
  9
$DIMLIM
 70
     0
  9
$DIMTIH
 70
     0
  9
$DIMTOH
 70
     0
  9
$DIMSE1
 70
     0
  9
$DIMSE2
 70
     0
  9
$DIMTAD
 70
     1
  9
$DIMZIN
 70
    12
  9
$DIMBLK
  1

  9
$DIMASO
 70
     1
  9
$DIMSHO
 70
     0
  9
$DIMPOST
  1

  9
$DIMAPOST
  1

  9
$DIMALT
 70
     0
  9
$DIMALTD
 70
     2
  9
$DIMALTF
 40
0.039
  9
$DIMLFAC
 40
1.0
  9
$DIMTOFL
 70
     0
  9
$DIMTVP
 40
3.0
  9
$DIMTIX
 70
     0
  9
$DIMSOXD
 70
     0
  9
$DIMSAH
 70
     0
  9
$DIMBLK1
  1

  9
$DIMBLK2
  1

  9
$DIMSTYLE
  2
1-1
  9
$DIMCLRD
 70
     0
  9
$DIMCLRE
 70
     0
  9
$DIMCLRT
 70
     0
  9
$DIMTFAC
 40
1.5
  9
$DIMGAP
 40
1.5
  9
$DIMJUST
 70
     0
  9
$DIMSD1
 70
     0
  9
$DIMSD2
 70
     0
  9
$DIMTOLJ
 70
     1
  9
$DIMTZIN
 70
    12
  9
$DIMALTZ
 70
    12
  9
$DIMALTTZ
 70
    12
  9
$DIMUPT
 70
     0
  9
$DIMDEC
 70
     2
  9
$DIMTDEC
 70
     2
  9
$DIMALTU
 70
     2
  9
$DIMALTTD
 70
     2
  9
$DIMTXSTY
  7
ROMANS
  9
$DIMAUNIT
 70
     0
  9
$DIMADEC
 70
     0
  9
$DIMALTRND
 40
0.0
  9
$DIMAZIN
 70
     0
  9
$DIMDSEP
 70
    46
  9
$DIMATFIT
 70
     3
  9
$DIMFRAC
 70
     0
  9
$DIMLDRBLK
  1

  9
$DIMLUNIT
 70
     2
  9
$DIMLWD
 70
    -2
  9
$DIMLWE
 70
    -2
  9
$DIMTMOVE
 70
     2
  9
$DIMFXL
 40
1.0
  9
$DIMFXLON
 70
     0
  9
$DIMJOGANG
 40
0.7853981633974483
  9
$DIMTFILL
 70
     0
  9
$DIMTFILLCLR
 70
     0
  9
$DIMARCSYM
 70
     0
  9
$DIMLTYPE
  6

  9
$DIMLTEX1
  6

  9
$DIMLTEX2
  6

  9
$DIMTXTDIRECTION
 70
     0
  9
$LUNITS
 70
     2
  9
$LUPREC
 70
     2
  9
$SKETCHINC
 40
1.0
  9
$FILLETRAD
 40
0.0
  9
$AUNITS
 70
     0
  9
$AUPREC
 70
     4
  9
$MENU
  1
acad
  9
$ELEVATION
 40
0.0
  9
$PELEVATION
 40
0.0
  9
$THICKNESS
 40
0.0
  9
$LIMCHECK
 70
     0
  9
$CHAMFERA
 40
0.0
  9
$CHAMFERB
 40
0.0
  9
$CHAMFERC
 40
0.0
  9
$CHAMFERD
 40
0.0
  9
$SKPOLY
 70
     0
  9
$TDCREATE
 40
2449527.946145833
  9
$TDUCREATE
 40
2449527.529488426
  9
$TDUPDATE
 40
2459590.556666667
  9
$TDUUPDATE
 40
2459590.098333333
  9
$TDINDWG
 40
0.4047276620
  9
$TDUSRTIMER
 40
0.4047276620
  9
$USRTIMER
 70
     1
  9
$ANGBASE
 50
0.0
  9
$ANGDIR
 70
     0
  9
$PDMODE
 70
     0
  9
$PDSIZE
 40
0.0
  9
$PLINEWID
 40
0.0
  9
$SPLFRAME
 70
     0
  9
$SPLINETYPE
 70
     6
  9
$SPLINESEGS
 70
     8
  9
$HANDSEED
  5
1E9
  9
$SURFTAB1
 70
    18
  9
$SURFTAB2
 70
    18
  9
$SURFTYPE
 70
     6
  9
$SURFU
 70
    18
  9
$SURFV
 70
    18
  9
$UCSBASE
  2

  9
$UCSNAME
  2

  9
$UCSORG
 10
0.0
 20
0.0
 30
0.0
  9
$UCSXDIR
 10
1.0
 20
0.0
 30
0.0
  9
$UCSYDIR
 10
0.0
 20
1.0
 30
0.0
  9
$UCSORTHOREF
  2

  9
$UCSORTHOVIEW
 70
     0
  9
$UCSORGTOP
 10
0.0
 20
0.0
 30
0.0
  9
$UCSORGBOTTOM
 10
0.0
 20
0.0
 30
0.0
  9
$UCSORGLEFT
 10
0.0
 20
0.0
 30
0.0
  9
$UCSORGRIGHT
 10
0.0
 20
0.0
 30
0.0
  9
$UCSORGFRONT
 10
0.0
 20
0.0
 30
0.0
  9
$UCSORGBACK
 10
0.0
 20
0.0
 30
0.0
  9
$PUCSBASE
  2

  9
$PUCSNAME
  2

  9
$PUCSORG
 10
0.0
 20
0.0
 30
0.0
  9
$PUCSXDIR
 10
1.0
 20
0.0
 30
0.0
  9
$PUCSYDIR
 10
0.0
 20
1.0
 30
0.0
  9
$PUCSORTHOREF
  2

  9
$PUCSORTHOVIEW
 70
     0
  9
$PUCSORGTOP
 10
0.0
 20
0.0
 30
0.0
  9
$PUCSORGBOTTOM
 10
0.0
 20
0.0
 30
0.0
  9
$PUCSORGLEFT
 10
0.0
 20
0.0
 30
0.0
  9
$PUCSORGRIGHT
 10
0.0
 20
0.0
 30
0.0
  9
$PUCSORGFRONT
 10
0.0
 20
0.0
 30
0.0
  9
$PUCSORGBACK
 10
0.0
 20
0.0
 30
0.0
  9
$USERI1
 70
     0
  9
$USERI2
 70
     0
  9
$USERI3
 70
     0
  9
$USERI4
 70
     0
  9
$USERI5
 70
     0
  9
$USERR1
 40
0.0
  9
$USERR2
 40
0.0
  9
$USERR3
 40
0.0
  9
$USERR4
 40
0.0
  9
$USERR5
 40
0.0
  9
$WORLDVIEW
 70
     1
  9
$SHADEDGE
 70
     3
  9
$SHADEDIF
 70
    70
  9
$TILEMODE
 70
     1
  9
$MAXACTVP
 70
    16
  9
$PINSBASE
 10
0.0
 20
0.0
 30
0.0
  9
$PLIMCHECK
 70
     0
  9
$PEXTMIN
 10
1.000000000000000E+20
 20
1.000000000000000E+20
 30
1.000000000000000E+20
  9
$PEXTMAX
 10
-1.000000000000000E+20
 20
-1.000000000000000E+20
 30
-1.000000000000000E+20
  9
$PLIMMIN
 10
0.0
 20
0.0
  9
$PLIMMAX
 10
420.0
 20
297.0
  9
$UNITMODE
 70
     0
  9
$VISRETAIN
 70
     0
  9
$PLINEGEN
 70
     0
  9
$PSLTSCALE
 70
     1
  9
$TREEDEPTH
 70
  3020
  9
$CMLSTYLE
  2
STANDARD
  9
$CMLJUST
 70
     0
  9
$CMLSCALE
 40
1.0
  9
$PROXYGRAPHICS
 70
     1
  9
$MEASUREMENT
 70
     0
  9
$CELWEIGHT
370
    -1
  9
$ENDCAPS
280
     0
  9
$JOINSTYLE
280
     0
  9
$LWDISPLAY
290
     0
  9
$INSUNITS
 70
     0
  9
$HYPERLINKBASE
  1

  9
$STYLESHEET
  1

  9
$XEDIT
290
     1
  9
$CEPSNTYPE
380
     0
  9
$PSTYLEMODE
290
     1
  9
$FINGERPRINTGUID
  2
{1F884289-AD2F-11D6-AAC6-0010A4A25215}
  9
$VERSIONGUID
  2
{D882D7D9-8061-3D41-B8E9-3D24DB39AAC6}
  9
$EXTNAMES
290
     1
  9
$PSVPSCALE
 40
0.0
  9
$OLESTARTUP
290
     0
  9
$SORTENTS
280
   127
  9
$INDEXCTL
280
     0
  9
$HIDETEXT
280
     0
  9
$XCLIPFRAME
280
     2
  9
$HALOGAP
280
     0
  9
$OBSCOLOR
 70
   257
  9
$OBSLTYPE
280
     0
  9
$INTERSECTIONDISPLAY
280
     0
  9
$INTERSECTIONCOLOR
 70
   257
  9
$DIMASSOC
280
     1
  9
$PROJECTNAME
  1

  9
$CAMERADISPLAY
290
     0
  9
$LENSLENGTH
 40
50.0
  9
$CAMERAHEIGHT
 40
0.0
  9
$STEPSPERSEC
 40
2.0
  9
$STEPSIZE
 40
6.0
  9
$3DDWFPREC
 40
2.0
  9
$PSOLWIDTH
 40
0.25
  9
$PSOLHEIGHT
 40
4.0
  9
$LOFTANG1
 40
1.570796326794896
  9
$LOFTANG2
 40
1.570796326794896
  9
$LOFTMAG1
 40
0.0
  9
$LOFTMAG2
 40
0.0
  9
$LOFTPARAM
 70
     7
  9
$LOFTNORMALS
280
     1
  9
$LATITUDE
 40
37.795
  9
$LONGITUDE
 40
-122.394
  9
$NORTHDIRECTION
 40
0.0
  9
$TIMEZONE
 70
 -8000
  9
$LIGHTGLYPHDISPLAY
280
     1
  9
$TILEMODELIGHTSYNCH
280
     1
  9
$CMATERIAL
347
84
  9
$SOLIDHIST
280
     0
  9
$SHOWHIST
280
     1
  9
$DWFFRAME
280
     2
  9
$DGNFRAME
280
     0
  9
$REALWORLDSCALE
290
     1
  9
$INTERFERECOLOR
 62
     1
  9
$INTERFEREOBJVS
345
A6
  9
$INTERFEREVPVS
346
A3
  9
$CSHADOW
280
     0
  9
$SHADOWPLANELOCATION
 40
0.0
  0
ENDSEC
  0
SECTION
  2
CLASSES
  0
CLASS
  1
DICTIONARYVAR
  2
AcDbDictionaryVar
  3
ObjectDBX Classes
 90
        0
 91
       18
280
     0
281
     0
  0
CLASS
  1
ACDBDICTIONARYWDFLT
  2
AcDbDictionaryWithDefault
  3
ObjectDBX Classes
 90
        0
 91
        1
280
     0
281
     0
  0
CLASS
  1
MATERIAL
  2
AcDbMaterial
  3
ObjectDBX Classes
 90
     1153
 91
        3
280
     0
281
     0
  0
CLASS
  1
VISUALSTYLE
  2
AcDbVisualStyle
  3
ObjectDBX Classes
 90
     4095
 91
       24
280
     0
281
     0
  0
CLASS
  1
TABLESTYLE
  2
AcDbTableStyle
  3
ObjectDBX Classes
 90
     4095
 91
        1
280
     0
281
     0
  0
CLASS
  1
SCALE
  2
AcDbScale
  3
ObjectDBX Classes
 90
     1153
 91
       17
280
     0
281
     0
  0
CLASS
  1
MLEADERSTYLE
  2
AcDbMLeaderStyle
  3
ACDB_MLEADERSTYLE_CLASS
 90
     4095
 91
        1
280
     0
281
     0
  0
CLASS
  1
ACDBSECTIONVIEWSTYLE
  2
AcDbSectionViewStyle
  3
ObjectDBX Classes
 90
     1025
 91
        1
280
     0
281
     0
  0
CLASS
  1
ACDBDETAILVIEWSTYLE
  2
AcDbDetailViewStyle
  3
ObjectDBX Classes
 90
     1025
 91
        1
280
     0
281
     0
  0
CLASS
  1
ACDB_TEXTOBJECTCONTEXTDATA_CLASS
  2
AcDbTextObjectContextData
  3
ObjectDBX Classes
 90
     1153
 91
       32
280
     0
281
     0
  0
CLASS
  1
CELLSTYLEMAP
  2
AcDbCellStyleMap
  3
ObjectDBX Classes
 90
     1152
 91
        1
280
     0
281
     0
  0
ENDSEC
  0
SECTION
  2
TABLES
  0
TABLE
  2
VPORT
  5
19
330
0
100
AcDbSymbolTable
 70
     1
  0
VPORT
  5
1A
330
19
100
AcDbSymbolTableRecord
100
AcDbViewportTableRecord
  2
*Active
 70
     0
 10
0.0
 20
0.0
 11
1.0
 21
1.0
 12
770.4846034443778
 22
-89.31507253780882
 13
0.0
 23
0.0
 14
5.0
 24
5.0
 15
10.0
 25
10.0
 16
0.0
 26
0.0
 36
1.0
 17
0.0
 27
0.0
 37
0.0
 40
396.6833413312282
 41
1.787234042553191
 42
50.0
 43
0.0
 44
0.0
 50
0.0
 51
0.0
 71
     0
 72
   100
 73
     1
 74
     1
 75
     0
 76
     0
 77
     0
 78
     0
281
     0
 65
     1
110
0.0
120
0.0
130
0.0
111
1.0
121
0.0
131
0.0
112
0.0
122
1.0
132
0.0
 79
     0
146
0.0
348
A2
 60
     3
 61
     5
292
     1
282
     1
141
0.0
142
0.0
 63
   250
421
  3355443
1001
ACAD_NAV_VCDISPLAY
1070
     3
  0
ENDTAB
  0
TABLE
  2
LTYPE
  5
14
330
0
100
AcDbSymbolTable
 70
     4
  0
LTYPE
  5
15
330
14
100
AcDbSymbolTableRecord
100
AcDbLinetypeTableRecord
  2
BYBLOCK
 70
     0
  3

 72
    65
 73
     0
 40
0.0
  0
LTYPE
  5
16
330
14
100
AcDbSymbolTableRecord
100
AcDbLinetypeTableRecord
  2
BYLAYER
 70
     0
  3

 72
    65
 73
     0
 40
0.0
  0
LTYPE
  5
8
330
14
100
AcDbSymbolTableRecord
100
AcDbLinetypeTableRecord
  2
CONTINUOUS
 70
     0
  3
Solid line
 72
    65
 73
     0
 40
0.0
  0
LTYPE
  5
31
330
14
100
AcDbSymbolTableRecord
100
AcDbLinetypeTableRecord
  2
CENTER2
 70
     0
  3
___ _ ___ _ ___ _ ___ _ ___ _ ___ _ ___ _ ___ _
 72
    65
 73
     4
 40
28.575
 49
19.05
 74
     0
 49
-3.174999999999999
 74
     0
 49
3.174999999999999
 74
     0
 49
-3.174999999999999
 74
     0
  0
ENDTAB
  0
TABLE
  2
LAYER
  5
10
102
{ACAD_XDICTIONARY
360
D9
102
}
330
0
100
AcDbSymbolTable
 70
     8
  0
LAYER
  5
4
102
{ACAD_XDICTIONARY
360
1D8
102
}
330
10
100
AcDbSymbolTableRecord
100
AcDbLayerTableRecord
  2
0
 70
     0
 62
     7
  6
CONTINUOUS
370
    -3
390
5
347
94
348
0
  0
LAYER
  5
36
102
{ACAD_XDICTIONARY
360
1DA
102
}
330
10
100
AcDbSymbolTableRecord
100
AcDbLayerTableRecord
  2
DIMS
 70
     0
 62
     1
  6
CONTINUOUS
370
    -3
390
5
347
94
348
0
  0
LAYER
  5
22
102
{ACAD_XDICTIONARY
360
1DC
102
}
330
10
100
AcDbSymbolTableRecord
100
AcDbLayerTableRecord
  2
ANCON-DSD
 70
     0
 62
     3
  6
CONTINUOUS
370
    -3
390
5
347
94
348
0
  0
LAYER
  5
40
330
10
100
AcDbSymbolTableRecord
100
AcDbLayerTableRecord
  2
DEFPOINTS
 70
     0
 62
     7
  6
CONTINUOUS
290
     0
370
    -3
390
5
347
94
348
0
  0
LAYER
  5
27
102
{ACAD_XDICTIONARY
360
1DE
102
}
330
10
100
AcDbSymbolTableRecord
100
AcDbLayerTableRecord
  2
ANCON-TEXT
 70
     0
 62
     6
  6
CONTINUOUS
370
    -3
390
5
347
94
348
0
  0
LAYER
  5
48
102
{ACAD_XDICTIONARY
360
1E0
102
}
330
10
100
AcDbSymbolTableRecord
100
AcDbLayerTableRecord
  2
SPECP
 70
     0
 62
     6
  6
CONTINUOUS
370
    -3
390
5
347
94
348
0
  0
LAYER
  5
2D
102
{ACAD_XDICTIONARY
360
1E2
102
}
330
10
100
AcDbSymbolTableRecord
100
AcDbLayerTableRecord
  2
SPECD
 70
     0
 62
     6
  6
CONTINUOUS
370
    -3
390
5
347
94
348
0
  0
LAYER
  5
D4
102
{ACAD_XDICTIONARY
360
1E4
102
}
330
10
100
AcDbSymbolTableRecord
100
AcDbLayerTableRecord
  2
20MM-JOINT
 70
     0
 62
     7
  6
CONTINUOUS
370
    -3
390
5
347
94
348
0
  0
ENDTAB
  0
TABLE
  2
STYLE
  5
11
330
0
100
AcDbSymbolTable
 70
     3
  0
STYLE
  5
12
330
11
100
AcDbSymbolTableRecord
100
AcDbTextStyleTableRecord
  2
STANDARD
 70
     0
 40
0.0
 41
1.0
 50
0.0
 71
     0
 42
6.0
  3
txt.shx
  4

  0
STYLE
  5
23
330
11
100
AcDbSymbolTableRecord
100
AcDbTextStyleTableRecord
  2
ROMANS
 70
     0
 40
0.0
 41
1.0
 50
0.0
 71
     0
 42
5.0
  3
romans
  4

  0
STYLE
  5
D5
330
11
100
AcDbSymbolTableRecord
100
AcDbTextStyleTableRecord
  2
ARIAL
 70
     0
 40
5.0
 41
1.0
 50
0.0
 71
     0
 42
5.0
  3
arial.ttf
  4

1001
AcadAnnotative
1000
AnnotativeData
1002
{
1070
     1
1070
     1
1002
}
1001
ACAD
1000
Arial
1071
       34
  0
ENDTAB
  0
TABLE
  2
VIEW
  5
17
330
0
100
AcDbSymbolTable
 70
     0
  0
ENDTAB
  0
TABLE
  2
UCS
  5
18
330
0
100
AcDbSymbolTable
 70
     0
  0
ENDTAB
  0
TABLE
  2
APPID
  5
1B
330
0
100
AcDbSymbolTable
 70
     4
  0
APPID
  5
1C
330
1B
100
AcDbSymbolTableRecord
100
AcDbRegAppTableRecord
  2
ACAD
 70
     0
  0
APPID
  5
D7
330
1B
100
AcDbSymbolTableRecord
100
AcDbRegAppTableRecord
  2
ACAD_NAV_VCDISPLAY
 70
     0
  0
APPID
  5
D8
330
1B
100
AcDbSymbolTableRecord
100
AcDbRegAppTableRecord
  2
AcadAnnotative
 70
     0
  0
APPID
  5
1A4
330
1B
100
AcDbSymbolTableRecord
100
AcDbRegAppTableRecord
  2
ACAD_EXEMPT_FROM_CAD_STANDARDS
 70
     0
  0
ENDTAB
  0
TABLE
  2
DIMSTYLE
  5
1D
330
0
100
AcDbSymbolTable
 70
     3
100
AcDbDimStyleTable
 71
     0
  0
DIMSTYLE
105
25
102
{ACAD_REACTORS
330
68
330
37
102
}
330
1D
100
AcDbSymbolTableRecord
100
AcDbDimStyleTableRecord
  2
1-1
 70
     0
 40
0.0
 41
2.0
 42
4.5
 43
10.0
 44
1.5
 46
1.25
 73
     0
 74
     0
 77
     1
 78
    12
140
1.5
141
-3.0
143
0.039
145
3.0
146
1.5
147
1.5
271
     2
272
     2
279
     2
284
    12
285
    12
286
    12
340
23
  0
DIMSTYLE
105
D6
330
1D
100
AcDbSymbolTableRecord
100
AcDbDimStyleTableRecord
  2
1-2
 70
     0
 40
0.0
 41
4.0
 42
3.0
 43
10.0
 44
3.0
 46
1.25
 73
     0
 74
     0
 77
     1
 78
    12
140
3.0
141
-3.0
143
0.039
145
1.5
146
0.75
147
1.5
271
     2
272
     2
279
     2
284
    12
285
    12
286
    12
340
12
  0
ENDTAB
  0
TABLE
  2
BLOCK_RECORD
  5
1
330
0
100
AcDbSymbolTable
 70
     6
  0
BLOCK_RECORD
  5
2
330
1
100
AcDbSymbolTableRecord
100
AcDbBlockTableRecord
  2
*MODEL_SPACE
340
A
 70
     0
280
     1
281
     0
  0
BLOCK_RECORD
  5
C
330
1
100
AcDbSymbolTableRecord
100
AcDbBlockTableRecord
  2
*PAPER_SPACE
340
F
 70
     0
280
     1
281
     0
  0
BLOCK_RECORD
  5
69
330
1
100
AcDbSymbolTableRecord
100
AcDbBlockTableRecord
  2
*D0
340
0
 70
     0
280
     1
281
     0
  0
BLOCK_RECORD
  5
38
330
1
100
AcDbSymbolTableRecord
100
AcDbBlockTableRecord
  2
*D1
340
0
 70
     0
280
     1
281
     0
  0
BLOCK_RECORD
  5
1A6
330
1
100
AcDbSymbolTableRecord
100
AcDbBlockTableRecord
  2
*D3
340
0
 70
     0
280
     1
281
     0
  0
BLOCK_RECORD
  5
1B2
330
1
100
AcDbSymbolTableRecord
100
AcDbBlockTableRecord
  2
*D4
340
0
 70
     0
280
     1
281
     0
  0
ENDTAB
  0
ENDSEC
  0
SECTION
  2
BLOCKS
  0
BLOCK
  5
3
330
2
100
AcDbEntity
  8
0
100
AcDbBlockBegin
  2
*MODEL_SPACE
 70
     0
 10
0.0
 20
0.0
 30
0.0
  3
*MODEL_SPACE
  1

  0
ENDBLK
  5
9
330
2
100
AcDbEntity
  8
0
100
AcDbBlockEnd
  0
BLOCK
  5
D
330
C
100
AcDbEntity
 67
     1
  8
0
100
AcDbBlockBegin
  2
*PAPER_SPACE
 70
     0
 10
0.0
 20
0.0
 30
0.0
  3
*PAPER_SPACE
  1

  0
ENDBLK
  5
E
330
C
100
AcDbEntity
 67
     1
  8
0
100
AcDbBlockEnd
  0
BLOCK
  5
73
330
69
100
AcDbEntity
  8
0
100
AcDbBlockBegin
  2
*D0
 70
     1
 10
0.0
 20
0.0
 30
0.0
  3
*D0
  1

  0
LINE
  5
6A
330
69
100
AcDbEntity
  8
0
  6
ByBlock
 62
     0
440
 16777216
100
AcDbLine
 10
-37.99999999999994
 20
-42.49999999999994
 30
0.0
 11
-37.99999999999994
 21
-64.34151315597654
 31
0.0
  0
LINE
  5
6B
330
69
100
AcDbEntity
  8
0
  6
ByBlock
 62
     0
440
 16777216
100
AcDbLine
 10
38.00000000000006
 20
-42.49999999999994
 30
0.0
 11
38.00000000000006
 21
-64.34151315597654
 31
0.0
  0
LINE
  5
6C
330
69
100
AcDbEntity
  8
0
  6
ByBlock
 62
     0
440
 16777216
100
AcDbLine
 10
-35.99999999999994
 20
-62.84151315597654
 30
0.0
 11
36.00000000000006
 21
-62.84151315597654
 31
0.0
  0
SOLID
  5
6D
330
69
100
AcDbEntity
  8
0
  6
ByBlock
 62
     0
440
 16777216
100
AcDbTrace
 10
-35.99999999999994
 20
-62.50817982264321
 30
0.0
 11
-35.99999999999994
 21
-63.17484648930988
 31
0.0
 12
-37.99999999999994
 22
-62.84151315597654
 32
0.0
 13
-37.99999999999994
 23
-62.84151315597654
 33
0.0
  0
SOLID
  5
6E
330
69
100
AcDbEntity
  8
0
  6
ByBlock
 62
     0
440
 16777216
100
AcDbTrace
 10
36.00000000000006
 20
-62.50817982264321
 30
0.0
 11
36.00000000000006
 21
-63.17484648930988
 31
0.0
 12
38.00000000000006
 22
-62.84151315597654
 32
0.0
 13
38.00000000000006
 23
-62.84151315597654
 33
0.0
  0
TEXT
  5
6F
330
69
100
AcDbEntity
  8
0
  6
ByBlock
 62
     0
440
 16777216
100
AcDbText
 10
-1.428571428571371
 20
-62.09151315597654
 30
0.0
 40
1.5
  1
76
  7
ROMANS
 72
     1
 11
0.0000000000000568
 21
-61.34151315597654
 31
0.0
100
AcDbText
 73
     2
  0
POINT
  5
70
330
69
100
AcDbEntity
  8
DEFPOINTS
  6
ByBlock
 62
     0
440
 16777216
100
AcDbPoint
 10
-37.99999999999994
 20
-37.99999999999994
 30
0.0
  0
POINT
  5
71
330
69
100
AcDbEntity
  8
DEFPOINTS
  6
ByBlock
 62
     0
440
 16777216
100
AcDbPoint
 10
38.00000000000006
 20
-37.99999999999994
 30
0.0
  0
POINT
  5
72
330
69
100
AcDbEntity
  8
DEFPOINTS
  6
ByBlock
 62
     0
440
 16777216
100
AcDbPoint
 10
38.00000000000006
 20
-62.84151315597654
 30
0.0
  0
ENDBLK
  5
74
330
69
100
AcDbEntity
  8
0
100
AcDbBlockEnd
  0
BLOCK
  5
43
330
38
100
AcDbEntity
  8
0
100
AcDbBlockBegin
  2
*D1
 70
     1
 10
0.0
 20
0.0
 30
0.0
  3
*D1
  1

  0
LINE
  5
39
330
38
100
AcDbEntity
  8
0
  6
ByBlock
 62
     0
440
 16777216
100
AcDbLine
 10
42.50000000000006
 20
-37.99999999999994
 30
0.0
 11
58.70180296426823
 21
-37.99999999999994
 31
0.0
  0
LINE
  5
3A
330
38
100
AcDbEntity
  8
0
  6
ByBlock
 62
     0
440
 16777216
100
AcDbLine
 10
42.50000000000006
 20
38.00000000000006
 30
0.0
 11
58.70180296426823
 21
38.00000000000006
 31
0.0
  0
LINE
  5
3B
330
38
100
AcDbEntity
  8
0
  6
ByBlock
 62
     0
440
 16777216
100
AcDbLine
 10
57.20180296426823
 20
-35.99999999999994
 30
0.0
 11
57.20180296426823
 21
36.00000000000006
 31
0.0
  0
SOLID
  5
3C
330
38
100
AcDbEntity
  8
0
  6
ByBlock
 62
     0
440
 16777216
100
AcDbTrace
 10
56.8684696309349
 20
-35.99999999999994
 30
0.0
 11
57.53513629760156
 21
-35.99999999999994
 31
0.0
 12
57.20180296426823
 22
-37.99999999999994
 32
0.0
 13
57.20180296426823
 23
-37.99999999999994
 33
0.0
  0
SOLID
  5
3D
330
38
100
AcDbEntity
  8
0
  6
ByBlock
 62
     0
440
 16777216
100
AcDbTrace
 10
56.8684696309349
 20
36.00000000000006
 30
0.0
 11
57.53513629760156
 21
36.00000000000006
 31
0.0
 12
57.20180296426823
 22
38.00000000000006
 32
0.0
 13
57.20180296426823
 23
38.00000000000006
 33
0.0
  0
TEXT
  5
3E
330
38
100
AcDbEntity
  8
0
  6
ByBlock
 62
     0
440
 16777216
100
AcDbText
 10
56.45180296426823
 20
-1.428571428571371
 30
0.0
 40
1.5
  1
76
 50
90.0
  7
ROMANS
 72
     1
 11
55.70180296426823
 21
0.0000000000000568
 31
0.0
100
AcDbText
 73
     2
  0
POINT
  5
3F
330
38
100
AcDbEntity
  8
DEFPOINTS
  6
ByBlock
 62
     0
440
 16777216
100
AcDbPoint
 10
38.00000000000006
 20
-37.99999999999994
 30
0.0
  0
POINT
  5
41
330
38
100
AcDbEntity
  8
DEFPOINTS
  6
ByBlock
 62
     0
440
 16777216
100
AcDbPoint
 10
38.00000000000006
 20
38.00000000000006
 30
0.0
  0
POINT
  5
42
330
38
100
AcDbEntity
  8
DEFPOINTS
  6
ByBlock
 62
     0
440
 16777216
100
AcDbPoint
 10
57.20180296426823
 20
38.00000000000006
 30
0.0
  0
ENDBLK
  5
44
330
38
100
AcDbEntity
  8
0
100
AcDbBlockEnd
  0
BLOCK
  5
1A7
330
1A6
100
AcDbEntity
  8
0
100
AcDbBlockBegin
  2
*D3
 70
     1
 10
0.0
 20
0.0
 30
0.0
  3
*D3
  1

  0
LINE
  5
1A9
330
1A6
100
AcDbEntity
  8
DIMS
 62
     0
440
 16777216
370
    -2
100
AcDbLine
 10
666.8426961700049
 20
-127.3844809490959
 30
0.0
 11
683.0444991342732
 21
-127.3844809490959
 31
0.0
  0
LINE
  5
1AA
330
1A6
100
AcDbEntity
  8
DIMS
 62
     0
440
 16777216
370
    -2
100
AcDbLine
 10
666.8426961700049
 20
-51.38448094909588
 30
0.0
 11
683.0444991342732
 21
-51.38448094909588
 31
0.0
  0
LINE
  5
1AB
330
1A6
100
AcDbEntity
  8
DIMS
 62
     0
440
 16777216
370
    -2
100
AcDbLine
 10
681.5444991342732
 20
-125.3844809490959
 30
0.0
 11
681.5444991342732
 21
-53.38448094909589
 31
0.0
  0
SOLID
  5
1AC
330
1A6
100
AcDbEntity
  8
DIMS
 62
     0
440
 16777216
100
AcDbTrace
 10
681.2111658009398
 20
-125.3844809490959
 30
0.0
 11
681.8778324676066
 21
-125.3844809490959
 31
0.0
 12
681.5444991342732
 22
-127.3844809490959
 32
0.0
 13
681.5444991342732
 23
-127.3844809490959
 33
0.0
  0
SOLID
  5
1AD
330
1A6
100
AcDbEntity
  8
DIMS
 62
     0
440
 16777216
100
AcDbTrace
 10
681.2111658009398
 20
-53.38448094909589
 30
0.0
 11
681.8778324676066
 21
-53.38448094909589
 31
0.0
 12
681.5444991342732
 22
-51.38448094909588
 32
0.0
 13
681.5444991342732
 23
-51.38448094909588
 33
0.0
  0
MTEXT
  5
1AE
330
1A6
100
AcDbEntity
  8
DIMS
 62
     0
440
 16777216
100
AcDbMText
 10
679.294499134273
 20
-89.38448094909608
 30
0.0
 40
1.5
 41
0.0
 46
0.0
 71
     5
 72
     1
  1
\A1;76
  7
ROMANS
 11
0.0000000000000001
 21
1.0
 31
0.0
 73
     1
 44
1.0
  0
POINT
  5
1AF
330
1A6
100
AcDbEntity
  8
DEFPOINTS
 62
     0
440
 16777216
100
AcDbPoint
 10
662.3426961700049
 20
-127.3844809490959
 30
0.0
  0
POINT
  5
1B0
330
1A6
100
AcDbEntity
  8
DEFPOINTS
 62
     0
440
 16777216
100
AcDbPoint
 10
662.3426961700049
 20
-51.38448094909588
 30
0.0
  0
POINT
  5
1B1
330
1A6
100
AcDbEntity
  8
DEFPOINTS
 62
     0
440
 16777216
100
AcDbPoint
 10
681.5444991342732
 20
-51.38448094909588
 30
0.0
  0
ENDBLK
  5
1A8
330
1A6
100
AcDbEntity
  8
0
100
AcDbBlockEnd
  0
BLOCK
  5
1B3
330
1B2
100
AcDbEntity
  8
0
100
AcDbBlockBegin
  2
*D4
 70
     1
 10
0.0
 20
0.0
 30
0.0
  3
*D4
  1

  0
LINE
  5
1B5
330
1B2
100
AcDbEntity
  8
DIMS
 62
     0
440
 16777216
370
    -2
100
AcDbLine
 10
586.3426961700047
 20
-131.8844809490958
 30
0.0
 11
586.3426961700047
 21
-153.7259941050724
 31
0.0
  0
LINE
  5
1B6
330
1B2
100
AcDbEntity
  8
DIMS
 62
     0
440
 16777216
370
    -2
100
AcDbLine
 10
662.3426961700047
 20
-131.8844809490958
 30
0.0
 11
662.3426961700047
 21
-153.7259941050724
 31
0.0
  0
LINE
  5
1B7
330
1B2
100
AcDbEntity
  8
DIMS
 62
     0
440
 16777216
370
    -2
100
AcDbLine
 10
588.3426961700047
 20
-152.2259941050724
 30
0.0
 11
660.3426961700047
 21
-152.2259941050724
 31
0.0
  0
SOLID
  5
1B8
330
1B2
100
AcDbEntity
  8
DIMS
 62
     0
440
 16777216
100
AcDbTrace
 10
588.3426961700047
 20
-151.8926607717391
 30
0.0
 11
588.3426961700047
 21
-152.5593274384058
 31
0.0
 12
586.3426961700047
 22
-152.2259941050724
 32
0.0
 13
586.3426961700047
 23
-152.2259941050724
 33
0.0
  0
SOLID
  5
1B9
330
1B2
100
AcDbEntity
  8
DIMS
 62
     0
440
 16777216
100
AcDbTrace
 10
660.3426961700047
 20
-151.8926607717391
 30
0.0
 11
660.3426961700047
 21
-152.5593274384058
 31
0.0
 12
662.3426961700047
 22
-152.2259941050724
 32
0.0
 13
662.3426961700047
 23
-152.2259941050724
 33
0.0
  0
MTEXT
  5
1BA
330
1B2
100
AcDbEntity
  8
DIMS
 62
     0
440
 16777216
100
AcDbMText
 10
624.3426961700047
 20
-149.9759941050724
 30
0.0
 40
1.5
 41
0.0
 46
0.0
 71
     5
 72
     1
  1
\A1;76
  7
ROMANS
 73
     1
 44
1.0
  0
POINT
  5
1BB
330
1B2
100
AcDbEntity
  8
DEFPOINTS
 62
     0
440
 16777216
100
AcDbPoint
 10
586.3426961700047
 20
-127.3844809490958
 30
0.0
  0
POINT
  5
1BC
330
1B2
100
AcDbEntity
  8
DEFPOINTS
 62
     0
440
 16777216
100
AcDbPoint
 10
662.3426961700047
 20
-127.3844809490958
 30
0.0
  0
POINT
  5
1BD
330
1B2
100
AcDbEntity
  8
DEFPOINTS
 62
     0
440
 16777216
100
AcDbPoint
 10
662.3426961700047
 20
-152.2259941050724
 30
0.0
  0
ENDBLK
  5
1B4
330
1B2
100
AcDbEntity
  8
0
100
AcDbBlockEnd
  0
ENDSEC
  0
SECTION
  2
ENTITIES
  0
LINE
  5
30
330
2
100
AcDbEntity
  8
ANCON-DSD
  6
CENTER2
 62
     1
100
AcDbLine
 10
655.3426961700047
 20
-54.38448094909586
 30
0.0
 11
655.3426961700047
 21
-62.38448094909585
 31
0.0
  0
CIRCLE
  5
32
330
2
100
AcDbEntity
  8
ANCON-DSD
100
AcDbCircle
 10
655.3426961700048
 20
-58.38448094909586
 30
0.0
 40
2.5
  0
CIRCLE
  5
33
330
2
100
AcDbEntity
  8
ANCON-DSD
100
AcDbCircle
 10
655.3426961700048
 20
-120.3844809490958
 30
0.0
 40
2.5
  0
LINE
  5
34
330
2
100
AcDbEntity
  8
ANCON-DSD
  6
CENTER2
 62
     1
100
AcDbLine
 10
655.3426961700047
 20
-116.3844809490958
 30
0.0
 11
655.3426961700048
 21
-124.3844809490958
 31
0.0
  0
LINE
  5
35
330
2
100
AcDbEntity
  8
DIMS
  6
Continuous
 62
     3
100
AcDbLine
 10
662.3426961700047
 20
-51.38448094909586
 30
0.0
 11
662.3426961700047
 21
-127.3844809490958
 31
0.0
  0
DIMENSION
  5
37
330
2
100
AcDbEntity
  8
DIMS
100
AcDbDimension
280
     0
  2
*D3
 10
681.5444991342732
 20
-51.38448094909588
 30
0.0
 11
679.294499134273
 21
-89.38448094909608
 31
0.0
 70
    32
 71
     5
 42
76.0
 73
     0
 74
     0
 75
     0
  3
1-1
100
AcDbAlignedDimension
 13
662.3426961700047
 23
-127.3844809490958
 33
0.0
 14
662.3426961700047
 24
-51.38448094909586
 34
0.0
 50
90.0
100
AcDbRotatedDimension
1001
ACAD
1000
DSTYLE
1002
{
1070
    40
1040
1.0
1002
}
  0
LINE
  5
4F
330
2
100
AcDbEntity
  8
ANCON-DSD
  6
Continuous
100
AcDbLine
 10
647.3426961700047
 20
-76.38448094909586
 30
0.0
 11
647.3426961700047
 21
-102.3844809490958
 31
0.0
  0
LINE
  5
50
330
2
100
AcDbEntity
  8
ANCON-DSD
  6
Continuous
100
AcDbLine
 10
649.3426961700047
 20
-74.38448094909586
 30
0.0
 11
649.3426961700047
 21
-104.3844809490958
 31
0.0
  0
LINE
  5
51
330
2
100
AcDbEntity
  8
ANCON-DSD
  6
CENTER2
 62
     1
100
AcDbLine
 10
593.3426961700047
 20
-54.38448094909586
 30
0.0
 11
593.3426961700047
 21
-62.38448094909585
 31
0.0
  0
LINE
  5
52
330
2
100
AcDbEntity
  8
ANCON-DSD
  6
CENTER2
 62
     1
100
AcDbLine
 10
589.3426961700047
 20
-58.38448094909586
 30
0.0
 11
597.3426961700047
 21
-58.38448094909586
 31
0.0
  0
CIRCLE
  5
53
330
2
100
AcDbEntity
  8
ANCON-DSD
100
AcDbCircle
 10
593.3426961700047
 20
-58.38448094909586
 30
0.0
 40
2.5
  0
LINE
  5
54
330
2
100
AcDbEntity
  8
ANCON-DSD
  6
Continuous
100
AcDbLine
 10
601.3426961700047
 20
-76.38448094909586
 30
0.0
 11
601.3426961700047
 21
-102.3844809490958
 31
0.0
  0
LINE
  5
55
330
2
100
AcDbEntity
  8
ANCON-DSD
  6
Continuous
100
AcDbLine
 10
599.3426961700047
 20
-74.38448094909586
 30
0.0
 11
599.3426961700047
 21
-104.3844809490958
 31
0.0
  0
CIRCLE
  5
56
330
2
100
AcDbEntity
  8
ANCON-DSD
100
AcDbCircle
 10
624.3426961700047
 20
-89.38448094909587
 30
0.0
 40
12.5
  0
LINE
  5
57
330
2
100
AcDbEntity
  8
ANCON-DSD
  6
Continuous
100
AcDbLine
 10
599.3426961700047
 20
-74.38448094909586
 30
0.0
 11
649.3426961700047
 21
-74.38448094909586
 31
0.0
  0
LINE
  5
58
330
2
100
AcDbEntity
  8
ANCON-DSD
  6
Continuous
100
AcDbLine
 10
599.3426961700047
 20
-104.3844809490958
 30
0.0
 11
649.3426961700047
 21
-104.3844809490958
 31
0.0
  0
LINE
  5
59
330
2
100
AcDbEntity
  8
ANCON-DSD
  6
Continuous
100
AcDbLine
 10
601.3426961700047
 20
-76.38448094909586
 30
0.0
 11
647.3426961700047
 21
-76.38448094909586
 31
0.0
  0
LINE
  5
5A
330
2
100
AcDbEntity
  8
ANCON-DSD
  6
Continuous
100
AcDbLine
 10
601.3426961700047
 20
-102.3844809490958
 30
0.0
 11
647.3426961700047
 21
-102.3844809490958
 31
0.0
  0
CIRCLE
  5
5B
330
2
100
AcDbEntity
  8
ANCON-DSD
100
AcDbCircle
 10
624.3426961700047
 20
-89.38448094909587
 30
0.0
 40
10.5
  0
LINE
  5
5C
330
2
100
AcDbEntity
  8
ANCON-DSD
  6
CENTER2
 62
     1
100
AcDbLine
 10
593.3426961700047
 20
-116.3844809490958
 30
0.0
 11
593.3426961700048
 21
-124.3844809490958
 31
0.0
  0
LINE
  5
5D
330
2
100
AcDbEntity
  8
ANCON-DSD
  6
CENTER2
 62
     1
100
AcDbLine
 10
589.3426961700047
 20
-120.3844809490958
 30
0.0
 11
597.3426961700047
 21
-120.3844809490958
 31
0.0
  0
CIRCLE
  5
5E
330
2
100
AcDbEntity
  8
ANCON-DSD
100
AcDbCircle
 10
593.3426961700047
 20
-120.3844809490958
 30
0.0
 40
2.5
  0
LINE
  5
5F
330
2
100
AcDbEntity
  8
DIMS
  6
CENTER2
100
AcDbLine
 10
624.3426961700047
 20
-41.38448094909586
 30
0.0
 11
624.3426961700047
 21
-137.3844809490958
 31
0.0
  0
LINE
  5
60
330
2
100
AcDbEntity
  8
DIMS
  6
Continuous
 62
     3
100
AcDbLine
 10
586.3426961700047
 20
-51.38448094909586
 30
0.0
 11
586.3426961700047
 21
-127.3844809490958
 31
0.0
  0
LINE
  5
61
330
2
100
AcDbEntity
  8
DIMS
  6
CENTER2
100
AcDbLine
 10
576.3426961700047
 20
-89.38448094909587
 30
0.0
 11
672.3426961700047
 21
-89.38448094909587
 31
0.0
  0
LINE
  5
64
330
2
100
AcDbEntity
  8
DIMS
  6
Continuous
 62
     3
100
AcDbLine
 10
586.3426961700047
 20
-51.38448094909586
 30
0.0
 11
662.3426961700047
 21
-51.38448094909586
 31
0.0
  0
LINE
  5
65
330
2
100
AcDbEntity
  8
DIMS
  6
Continuous
 62
     3
100
AcDbLine
 10
586.3426961700047
 20
-127.3844809490958
 30
0.0
 11
662.3426961700047
 21
-127.3844809490958
 31
0.0
  0
LINE
  5
66
330
2
100
AcDbEntity
  8
ANCON-DSD
  6
CENTER2
 62
     1
100
AcDbLine
 10
651.3426961700048
 20
-120.3844809490958
 30
0.0
 11
659.3426961700047
 21
-120.3844809490958
 31
0.0
  0
LINE
  5
67
330
2
100
AcDbEntity
  8
ANCON-DSD
  6
CENTER2
 62
     1
100
AcDbLine
 10
651.3426961700048
 20
-58.38448094909586
 30
0.0
 11
659.3426961700047
 21
-58.38448094909586
 31
0.0
  0
DIMENSION
  5
68
330
2
100
AcDbEntity
  8
DIMS
100
AcDbDimension
280
     0
  2
*D4
 10
662.3426961700047
 20
-152.2259941050724
 30
0.0
 11
624.3426961700047
 21
-149.9759941050724
 31
0.0
 70
    32
 71
     5
 42
76.0
 73
     0
 74
     0
 75
     0
  3
1-1
100
AcDbAlignedDimension
 13
586.3426961700047
 23
-127.3844809490958
 33
0.0
 14
662.3426961700047
 24
-127.3844809490958
 34
0.0
100
AcDbRotatedDimension
1001
ACAD
1000
DSTYLE
1002
{
1070
    40
1040
1.0
1002
}
  0
LINE
  5
143
330
2
100
AcDbEntity
  8
SPECD
  6
Continuous
 62
     6
100
AcDbLine
 10
900.6375790605341
 20
14.45690334927087
 30
0.0
 11
900.6375790605341
 21
-38.57678923627947
 31
0.0
  0
LINE
  5
144
330
2
100
AcDbEntity
  8
SPECP
  6
Continuous
 62
     6
100
AcDbLine
 10
698.1506289538937
 20
43.82341701636471
 30
0.0
 11
765.7404798766556
 21
43.82341701636471
 31
0.0
  0
LINE
  5
145
330
2
100
AcDbEntity
  8
SPECD
  6
Continuous
 62
     6
100
AcDbLine
 10
698.1506289538937
 20
14.45690334927087
 30
0.0
 11
698.1506289538937
 21
-38.57678923627947
 31
0.0
  0
TEXT
  5
146
102
{ACAD_XDICTIONARY
360
147
102
}
330
2
100
AcDbEntity
  8
SPECP
  6
Continuous
 62
     6
100
AcDbText
 10
705.9662971279029
 20
35.18630690052118
 30
0.0
 40
5.0
  1
STAIFIX ESD ??
  7
ARIAL
 72
     4
 11
732.1685481510952
 21
37.68630690052118
 31
0.0
100
AcDbText
1001
AcadAnnotative
1000
AnnotativeData
1002
{
1070
     1
1070
     1
1002
}
  0
LINE
  5
14B
330
2
100
AcDbEntity
  8
SPECP
  6
Continuous
 62
     6
100
AcDbLine
 10
698.1506289538937
 20
31.90544172436342
 30
0.0
 11
765.7404798766556
 21
31.90544172436342
 31
0.0
  0
TEXT
  5
14C
102
{ACAD_XDICTIONARY
360
14D
102
}
330
2
100
AcDbEntity
  8
SPECD
  6
Continuous
 62
     6
100
AcDbText
 10
708.6721530648972
 20
-34.87544412545119
 30
0.0
 40
5.0
  1
LOAD OF ??? kN
  7
ARIAL
 72
     4
 11
736.0391380580758
 21
-32.37373880485092
 31
0.0
100
AcDbText
1001
AcadAnnotative
1000
AnnotativeData
1002
{
1070
     1
1070
     1
1002
}
  0
LINE
  5
151
330
2
100
AcDbEntity
  8
SPECP
  6
Continuous
 62
     6
100
AcDbLine
 10
698.1506289538937
 20
43.82341701636471
 30
0.0
 11
698.1506289538937
 21
31.90544172436342
 31
0.0
  0
LINE
  5
152
330
2
100
AcDbEntity
  8
SPECP
  6
Continuous
 62
     6
100
AcDbLine
 10
765.7404798766556
 20
43.82341701636471
 30
0.0
 11
765.7404798766556
 21
31.90544172436342
 31
0.0
  0
TEXT
  5
153
102
{ACAD_XDICTIONARY
360
154
102
}
330
2
100
AcDbEntity
  8
SPECD
  6
Continuous
 62
     6
100
AcDbText
 10
706.6925748990407
 20
-14.79146154655981
 30
0.0
 40
5.0
  1
SUITABLE FOR A DESIGN JOINT WIDTH OF ?? MM
  7
ARIAL
 72
     4
 11
790.5193143260531
 21
-12.28975622595953
 31
0.0
100
AcDbText
1001
AcadAnnotative
1000
AnnotativeData
1002
{
1070
     1
1070
     1
1002
}
  0
LINE
  5
158
330
2
100
AcDbEntity
  8
SPECD
  6
Continuous
 62
     6
100
AcDbLine
 10
698.1506289538937
 20
14.45690334927087
 30
0.0
 11
900.6375790605341
 21
14.45690334927087
 31
0.0
  0
LINE
  5
159
330
2
100
AcDbEntity
  8
SPECD
  6
Continuous
 62
     6
100
AcDbLine
 10
698.1506289538937
 20
-38.57678923627947
 30
0.0
 11
900.6375790605341
 21
-38.57678923627947
 31
0.0
  0
TEXT
  5
15A
102
{ACAD_XDICTIONARY
360
15B
102
}
330
2
100
AcDbEntity
  8
SPECD
  6
Continuous
 62
     6
100
AcDbText
 10
708.2134885302133
 20
-24.84051896048887
 30
0.0
 40
5.0
  1
AND CAPABLE OF TRANSFERRING A SERVICEABILITY
  7
ARIAL
 72
     4
 11
799.6152620636376
 21
-22.3388136398886
 31
0.0
100
AcDbText
1001
AcadAnnotative
1000
AnnotativeData
1002
{
1070
     1
1070
     1
1002
}
  0
TEXT
  5
15F
102
{ACAD_XDICTIONARY
360
160
102
}
330
2
100
AcDbEntity
  8
SPECD
  6
Continuous
 62
     6
100
AcDbText
 10
706.8358402616102
 20
-4.890313836890037
 30
0.0
 40
5.0
  1
COMPRISING SLEEVE AND DOWEL COMPONENT
  7
ARIAL
 72
     4
 11
789.697368228868
 21
-2.388608516289764
 31
0.0
100
AcDbText
1001
AcadAnnotative
1000
AnnotativeData
1002
{
1070
     1
1070
     1
1002
}
  0
TEXT
  5
164
102
{ACAD_XDICTIONARY
360
165
102
}
330
2
100
AcDbEntity
  8
SPECD
  6
Continuous
 62
     6
100
AcDbText
 10
707.92975902744
 20
5.214398488900577
 30
0.0
 40
5.0
  1
TWO PART STAINLESS STEEL SHEAR CONNECTOR
  7
ARIAL
 72
     4
 11
795.061409777781
 21
7.71610380950085
 31
0.0
100
AcDbText
1001
AcadAnnotative
1000
AnnotativeData
1002
{
1070
     1
1070
     1
1002
}
  0
TEXT
  5
169
102
{ACAD_XDICTIONARY
360
16A
102
}
330
2
100
AcDbEntity
  8
20MM-JOINT
  6
Continuous
 62
     6
100
AcDbText
 10
863.3172849895681
 20
-101.2824921324971
 30
0.0
 40
5.0
  1
???
  7
ARIAL
 72
     4
 11
869.1443654807002
 21
-98.73985911749031
 31
0.0
100
AcDbText
1001
AcadAnnotative
1000
AnnotativeData
1002
{
1070
     1
1070
     1
1002
}
  0
LINE
  5
16E
330
2
100
AcDbEntity
  8
20MM-JOINT
  6
Continuous
 62
     6
100
AcDbLine
 10
900.6375790605341
 20
-58.95717007649608
 30
0.0
 11
900.6375790605341
 21
-112.0554162105888
 31
0.0
  0
TEXT
  5
16F
102
{ACAD_XDICTIONARY
360
170
102
}
330
2
100
AcDbEntity
  8
20MM-JOINT
  6
Continuous
 62
     6
100
AcDbText
 10
794.989591756558
 20
-80.12050962365668
 30
0.0
 40
5.0
  1
WIDTH
  7
ARIAL
 72
     4
 11
806.433998304989
 21
-77.62050962365669
 31
0.0
100
AcDbText
1001
AcadAnnotative
1000
AnnotativeData
1002
{
1070
     1
1070
     1
1002
}
  0
TEXT
  5
174
102
{ACAD_XDICTIONARY
360
175
102
}
330
2
100
AcDbEntity
  8
20MM-JOINT
  6
Continuous
 62
     6
100
AcDbText
 10
798.4707638435925
 20
-101.2807868118968
 30
0.0
 40
5.0
  1
?? MM
  7
ARIAL
 72
     4
 11
809.1443654807003
 21
-98.73985911749031
 31
0.0
100
AcDbText
1001
AcadAnnotative
1000
AnnotativeData
1002
{
1070
     1
1070
     1
1002
}
  0
TEXT
  5
179
102
{ACAD_XDICTIONARY
360
17A
102
}
330
2
100
AcDbEntity
  8
20MM-JOINT
  6
Continuous
 62
     6
100
AcDbText
 10
781.9848168588772
 20
-69.22459155663799
 30
0.0
 40
5.0
  1
DESIGN JOINT
  7
ARIAL
 72
     4
 11
806.433998304989
 21
-66.72288623603771
 31
0.0
100
AcDbText
1001
AcadAnnotative
1000
AnnotativeData
1002
{
1070
     1
1070
     1
1002
}
  0
TEXT
  5
17E
102
{ACAD_XDICTIONARY
360
17F
102
}
330
2
100
AcDbEntity
  8
20MM-JOINT
  6
Continuous
 62
     6
100
AcDbText
 10
734.1280216965255
 20
-69.22288623603771
 30
0.0
 40
5.0
  1
DSD REF:
  7
ARIAL
 72
     4
 11
750.4274759939335
 21
-66.72288623603771
 31
0.0
100
AcDbText
1001
AcadAnnotative
1000
AnnotativeData
1002
{
1070
     1
1070
     1
1002
}
  0
TEXT
  5
183
102
{ACAD_XDICTIONARY
360
184
102
}
330
2
100
AcDbEntity
  8
20MM-JOINT
  6
Continuous
 62
     6
100
AcDbText
 10
735.3619643892951
 20
-101.0897909046663
 30
0.0
 40
5.0
  1
ESDQ10
  7
ARIAL
 72
     4
 11
749.1443654807003
 21
-98.73985911749031
 31
0.0
100
AcDbText
1001
AcadAnnotative
1000
AnnotativeData
1002
{
1070
     1
1070
     1
1002
}
  0
LINE
  5
188
330
2
100
AcDbEntity
  8
20MM-JOINT
  6
Continuous
 62
     6
100
AcDbLine
 10
725.2589013686717
 20
-58.95717007649608
 30
0.0
 11
725.2589013686717
 21
-112.0554162105888
 31
0.0
  0
LINE
  5
189
330
2
100
AcDbEntity
  8
20MM-JOINT
  6
Continuous
 62
     6
100
AcDbLine
 10
775.2589013686717
 20
-58.95717007649608
 30
0.0
 11
775.2589013686717
 21
-112.0554162105888
 31
0.0
  0
LINE
  5
18A
330
2
100
AcDbEntity
  8
20MM-JOINT
  6
Continuous
 62
     6
100
AcDbLine
 10
835.7669949257344
 20
-58.95717007649608
 30
0.0
 11
835.7669949257344
 21
-112.0554162105888
 31
0.0
  0
TEXT
  5
18B
102
{ACAD_XDICTIONARY
360
18C
102
}
330
2
100
AcDbEntity
  8
20MM-JOINT
  6
Continuous
 62
     6
100
AcDbText
 10
850.1283354670578
 20
-79.82782269151687
 30
0.0
 40
5.0
  1
LOAD ( kN )
  7
ARIAL
 72
     4
 11
869.1443654807002
 21
-78.01847753462737
 31
0.0
100
AcDbText
1001
AcadAnnotative
1000
AnnotativeData
1002
{
1070
     1
1070
     1
1002
}
  0
TEXT
  5
190
102
{ACAD_XDICTIONARY
360
191
102
}
330
2
100
AcDbEntity
  8
20MM-JOINT
  6
Continuous
 62
     6
100
AcDbText
 10
840.8070530659664
 20
-69.21805573890612
 30
0.0
 40
5.0
  1
SERVICEABILITY
  7
ARIAL
 72
     4
 11
869.1443654807002
 21
-66.71805573890612
 31
0.0
100
AcDbText
1001
AcadAnnotative
1000
AnnotativeData
1002
{
1070
     1
1070
     1
1002
}
  0
LINE
  5
195
330
2
100
AcDbEntity
  8
20MM-JOINT
  6
Continuous
 62
     6
100
AcDbLine
 10
725.2589013686717
 20
-58.95717007649608
 30
0.0
 11
900.6375790605341
 21
-58.95717007649608
 31
0.0
  0
LINE
  5
196
330
2
100
AcDbEntity
  8
20MM-JOINT
  6
Continuous
 62
     6
100
AcDbLine
 10
725.2589013686717
 20
-85.02793113554179
 30
0.0
 11
900.6375790605341
 21
-85.02793113554179
 31
0.0
  0
LINE
  5
197
330
2
100
AcDbEntity
  8
20MM-JOINT
  6
Continuous
 62
     6
100
AcDbLine
 10
725.2589013686717
 20
-112.0554162105888
 30
0.0
 11
900.6375790605341
 21
-112.0554162105888
 31
0.0
  0
TEXT
  5
198
102
{ACAD_XDICTIONARY
360
199
102
}
330
2
100
AcDbEntity
  8
SPECP
  6
Continuous
 62
     1
100
AcDbText
 10
573.3843211078583
 20
35.1846015799209
 30
0.0
 40
5.0
  1
SPECIFICATION BY PRODUCT
  7
ARIAL
 72
     4
 11
624.0306376153617
 21
37.68630690052118
 31
0.0
100
AcDbText
1001
AcadAnnotative
1000
AnnotativeData
1002
{
1070
     1
1070
     1
1002
}
  0
TEXT
  5
19D
102
{ACAD_XDICTIONARY
360
19E
102
}
330
2
100
AcDbEntity
  8
SPECD
  6
Continuous
 62
     1
100
AcDbText
 10
573.1188431849047
 20
5.250147115424773
 30
0.0
 40
5.0
  1
SPECIFICATION BY DESCRIPTION
  7
ARIAL
 72
     4
 11
630.3647504154642
 21
7.751852436025046
 31
0.0
100
AcDbText
1001
AcadAnnotative
1000
AnnotativeData
1002
{
1070
     1
1070
     1
1002
}
  0
MTEXT
  5
1A2
330
2
100
AcDbEntity
  8
ANCON-TEXT
100
AcDbMText
 10
762.1527185723719
 20
-160.0669736344363
 30
0.0
 40
6.695252439800889
 41
160.2376420553701
 46
0.0
 71
     1
 72
     5
  1
{\fArial|b0|i0|c0|p34;Leviat \PTel:  1300 304 320\PEmail: technical.au@leviat.com\PWeb: ancon.com.au / Leviat.com}
 73
     1
 44
1.0
101
Embedded Object
 70
     1
 10
1.0
 20
0.0
 30
0.0
 11
762.1527185723719
 21
-160.0669736344363
 31
0.0
 40
160.2376420553701
 41
0.0
 42
135.4898050010729
 43
40.5505773622047
 71
     2
 72
     1
 44
160.2376420553701
 45
0.8369065549751111
 73
     0
 74
     0
 46
0.0
  0
LWPOLYLINE
  5
1A3
330
2
100
AcDbEntity
  8
DIMS
 62
     0
100
AcDbPolyline
 90
        4
 70
     1
 43
0.0
 10
550.3774980362414
 20
64.70633191823447
 10
910.7205298394161
 20
64.70633191823447
 10
910.7205298394161
 20
-223.8246788865298
 10
550.3774980362414
 20
-223.8246788865298
  0
ENDSEC
  0
SECTION
  2
OBJECTS
  0
DICTIONARY
  5
7
330
0
100
AcDbDictionary
281
     1
  3
ACAD_CIP_PREVIOUS_PRODUCT_INFO
350
D3
  3
ACAD_COLOR
350
B5
  3
ACAD_DETAILVIEWSTYLE
350
CE
  3
ACAD_GROUP
350
1F
  3
ACAD_LAYOUT
350
B
  3
ACAD_MATERIAL
350
83
  3
ACAD_MLEADERSTYLE
350
CA
  3
ACAD_MLINESTYLE
350
20
  3
ACAD_PLOTSETTINGS
350
21
  3
ACAD_PLOTSTYLENAME
350
6
  3
ACAD_SCALELIST
350
B8
  3
ACAD_SECTIONVIEWSTYLE
350
CC
  3
ACAD_TABLESTYLE
350
B6
  3
ACAD_VISUALSTYLE
350
9C
  3
ACDB_RECOMPOSE_DATA
350
1E8
  3
AcDbVariableDictionary
350
1CE
  0
DICTIONARY
  5
D9
330
10
100
AcDbDictionary
280
     1
281
     1
  3
ACAD_LAYERSTATES
360
DA
  0
DICTIONARY
  5
1D8
330
4
100
AcDbDictionary
280
     1
281
     1
  3
ADSK_XREC_LAYER_RECONCILED
360
1D9
  0
DICTIONARY
  5
1DA
330
36
100
AcDbDictionary
280
     1
281
     1
  3
ADSK_XREC_LAYER_RECONCILED
360
1DB
  0
DICTIONARY
  5
1DC
330
22
100
AcDbDictionary
280
     1
281
     1
  3
ADSK_XREC_LAYER_RECONCILED
360
1DD
  0
DICTIONARY
  5
1DE
330
27
100
AcDbDictionary
280
     1
281
     1
  3
ADSK_XREC_LAYER_RECONCILED
360
1DF
  0
DICTIONARY
  5
1E0
330
48
100
AcDbDictionary
280
     1
281
     1
  3
ADSK_XREC_LAYER_RECONCILED
360
1E1
  0
DICTIONARY
  5
1E2
330
2D
100
AcDbDictionary
280
     1
281
     1
  3
ADSK_XREC_LAYER_RECONCILED
360
1E3
  0
DICTIONARY
  5
1E4
330
D4
100
AcDbDictionary
280
     1
281
     1
  3
ADSK_XREC_LAYER_RECONCILED
360
1E5
  0
DICTIONARY
  5
147
330
146
100
AcDbDictionary
280
     1
281
     1
  3
AcDbContextDataManager
360
148
  0
DICTIONARY
  5
14D
330
14C
100
AcDbDictionary
280
     1
281
     1
  3
AcDbContextDataManager
360
14E
  0
DICTIONARY
  5
154
330
153
100
AcDbDictionary
280
     1
281
     1
  3
AcDbContextDataManager
360
155
  0
DICTIONARY
  5
15B
330
15A
100
AcDbDictionary
280
     1
281
     1
  3
AcDbContextDataManager
360
15C
  0
DICTIONARY
  5
160
330
15F
100
AcDbDictionary
280
     1
281
     1
  3
AcDbContextDataManager
360
161
  0
DICTIONARY
  5
165
330
164
100
AcDbDictionary
280
     1
281
     1
  3
AcDbContextDataManager
360
166
  0
DICTIONARY
  5
16A
330
169
100
AcDbDictionary
280
     1
281
     1
  3
AcDbContextDataManager
360
16B
  0
DICTIONARY
  5
170
330
16F
100
AcDbDictionary
280
     1
281
     1
  3
AcDbContextDataManager
360
171
  0
DICTIONARY
  5
175
330
174
100
AcDbDictionary
280
     1
281
     1
  3
AcDbContextDataManager
360
176
  0
DICTIONARY
  5
17A
330
179
100
AcDbDictionary
280
     1
281
     1
  3
AcDbContextDataManager
360
17B
  0
DICTIONARY
  5
17F
330
17E
100
AcDbDictionary
280
     1
281
     1
  3
AcDbContextDataManager
360
180
  0
DICTIONARY
  5
184
330
183
100
AcDbDictionary
280
     1
281
     1
  3
AcDbContextDataManager
360
185
  0
DICTIONARY
  5
18C
330
18B
100
AcDbDictionary
280
     1
281
     1
  3
AcDbContextDataManager
360
18D
  0
DICTIONARY
  5
191
330
190
100
AcDbDictionary
280
     1
281
     1
  3
AcDbContextDataManager
360
192
  0
DICTIONARY
  5
199
330
198
100
AcDbDictionary
280
     1
281
     1
  3
AcDbContextDataManager
360
19A
  0
DICTIONARY
  5
19E
330
19D
100
AcDbDictionary
280
     1
281
     1
  3
AcDbContextDataManager
360
19F
  0
XRECORD
  5
D3
102
{ACAD_REACTORS
330
7
102
}
330
7
100
AcDbXrecord
280
     1
300
ACDLT
300
2020
300

  0
DICTIONARY
  5
B5
102
{ACAD_REACTORS
330
7
102
}
330
7
100
AcDbDictionary
281
     1
  0
DICTIONARY
  5
CE
102
{ACAD_REACTORS
330
7
102
}
330
7
100
AcDbDictionary
281
     1
  3
Imperial24
350
CF
  0
DICTIONARY
  5
1F
102
{ACAD_REACTORS
330
7
102
}
330
7
100
AcDbDictionary
281
     1
  0
DICTIONARY
  5
B
102
{ACAD_REACTORS
330
7
102
}
330
7
100
AcDbDictionary
281
     1
  3
Layout1
350
F
  3
Model
350
A
  0
DICTIONARY
  5
83
102
{ACAD_REACTORS
330
7
102
}
330
7
100
AcDbDictionary
281
     1
  3
ByBlock
350
8C
  3
ByLayer
350
84
  3
Global
350
94
  0
DICTIONARY
  5
CA
102
{ACAD_REACTORS
330
7
102
}
330
7
100
AcDbDictionary
281
     1
  3
Standard
350
CB
  0
DICTIONARY
  5
20
102
{ACAD_REACTORS
330
7
102
}
330
7
100
AcDbDictionary
281
     1
  3
STANDARD
350
24
  0
DICTIONARY
  5
21
102
{ACAD_REACTORS
330
7
102
}
330
7
100
AcDbDictionary
281
     1
  0
ACDBDICTIONARYWDFLT
  5
6
102
{ACAD_REACTORS
330
7
102
}
330
7
100
AcDbDictionary
281
     1
  3
Normal
350
5
100
AcDbDictionaryWithDefault
340
5
  0
DICTIONARY
  5
B8
102
{ACAD_REACTORS
330
7
102
}
330
7
100
AcDbDictionary
281
     1
  3
A0
350
B9
  3
A1
350
BA
  3
A2
350
BB
  3
A3
350
BC
  3
A4
350
BD
  3
A5
350
BE
  3
A6
350
BF
  3
A7
350
C0
  3
A8
350
C1
  3
A9
350
C2
  3
B0
350
C3
  3
B1
350
C4
  3
B2
350
C5
  3
B3
350
C6
  3
B4
350
C7
  3
B5
350
C8
  3
B6
350
C9
  0
DICTIONARY
  5
CC
102
{ACAD_REACTORS
330
7
102
}
330
7
100
AcDbDictionary
281
     1
  3
Imperial24
350
CD
  0
DICTIONARY
  5
B6
102
{ACAD_REACTORS
330
7
102
}
330
7
100
AcDbDictionary
281
     1
  3
Standard
350
B7
  0
DICTIONARY
  5
9C
102
{ACAD_REACTORS
330
7
102
}
330
7
100
AcDbDictionary
281
     1
  3
2dWireframe
350
A2
  3
Basic
350
A1
  3
Brighten
350
A8
  3
ColorChange
350
AC
  3
Conceptual
350
A5
  3
Dim
350
A7
  3
EdgeColorOff
350
B4
  3
Facepattern
350
AB
  3
Flat
350
9D
  3
FlatWithEdges
350
9E
  3
Gouraud
350
9F
  3
GouraudWithEdges
350
A0
  3
Hidden
350
A4
  3
JitterOff
350
B2
  3
Linepattern
350
AA
  3
OverhangOff
350
B3
  3
Realistic
350
A6
  3
Shaded
350
B1
  3
Shaded with edges
350
B0
  3
Shades of Gray
350
AD
  3
Sketchy
350
AE
  3
Thicken
350
A9
  3
Wireframe
350
A3
  3
X-Ray
350
AF
  0
XRECORD
  5
1E8
102
{ACAD_REACTORS
330
7
102
}
330
7
100
AcDbXrecord
280
     1
 90
        1
330
B7
  0
DICTIONARY
  5
1CE
102
{ACAD_REACTORS
330
7
102
}
330
7
100
AcDbDictionary
281
     1
  3
CANNOSCALE
350
1D4
  3
CMLEADERSTYLE
350
1D0
  3
CTABLESTYLE
350
1CF
  3
CVIEWDETAILSTYLE
350
1D1
  3
CVIEWSECTIONSTYLE
350
1D2
  3
LAYEREVAL
350
1D6
  3
LAYERNOTIFY
350
1D7
  3
LIGHTINGUNITS
350
1D5
  3
MSLTSCALE
350
1D3
  0
DICTIONARY
  5
DA
102
{ACAD_REACTORS
330
D9
102
}
330
D9
100
AcDbDictionary
281
     1
  0
XRECORD
  5
1D9
102
{ACAD_REACTORS
330
1D8
102
}
330
1D8
100
AcDbXrecord
280
     1
290
     1
  0
XRECORD
  5
1DB
102
{ACAD_REACTORS
330
1DA
102
}
330
1DA
100
AcDbXrecord
280
     1
290
     1
  0
XRECORD
  5
1DD
102
{ACAD_REACTORS
330
1DC
102
}
330
1DC
100
AcDbXrecord
280
     1
290
     1
  0
XRECORD
  5
1DF
102
{ACAD_REACTORS
330
1DE
102
}
330
1DE
100
AcDbXrecord
280
     1
290
     1
  0
XRECORD
  5
1E1
102
{ACAD_REACTORS
330
1E0
102
}
330
1E0
100
AcDbXrecord
280
     1
290
     1
  0
XRECORD
  5
1E3
102
{ACAD_REACTORS
330
1E2
102
}
330
1E2
100
AcDbXrecord
280
     1
290
     1
  0
XRECORD
  5
1E5
102
{ACAD_REACTORS
330
1E4
102
}
330
1E4
100
AcDbXrecord
280
     1
290
     1
  0
DICTIONARY
  5
148
102
{ACAD_REACTORS
330
147
102
}
330
147
100
AcDbDictionary
281
     1
  3
ACDB_ANNOTATIONSCALES
350
149
  0
DICTIONARY
  5
14E
102
{ACAD_REACTORS
330
14D
102
}
330
14D
100
AcDbDictionary
281
     1
  3
ACDB_ANNOTATIONSCALES
350
14F
  0
DICTIONARY
  5
155
102
{ACAD_REACTORS
330
154
102
}
330
154
100
AcDbDictionary
281
     1
  3
ACDB_ANNOTATIONSCALES
350
156
  0
DICTIONARY
  5
15C
102
{ACAD_REACTORS
330
15B
102
}
330
15B
100
AcDbDictionary
281
     1
  3
ACDB_ANNOTATIONSCALES
350
15D
  0
DICTIONARY
  5
161
102
{ACAD_REACTORS
330
160
102
}
330
160
100
AcDbDictionary
281
     1
  3
ACDB_ANNOTATIONSCALES
350
162
  0
DICTIONARY
  5
166
102
{ACAD_REACTORS
330
165
102
}
330
165
100
AcDbDictionary
281
     1
  3
ACDB_ANNOTATIONSCALES
350
167
  0
DICTIONARY
  5
16B
102
{ACAD_REACTORS
330
16A
102
}
330
16A
100
AcDbDictionary
281
     1
  3
ACDB_ANNOTATIONSCALES
350
16C
  0
DICTIONARY
  5
171
102
{ACAD_REACTORS
330
170
102
}
330
170
100
AcDbDictionary
281
     1
  3
ACDB_ANNOTATIONSCALES
350
172
  0
DICTIONARY
  5
176
102
{ACAD_REACTORS
330
175
102
}
330
175
100
AcDbDictionary
281
     1
  3
ACDB_ANNOTATIONSCALES
350
177
  0
DICTIONARY
  5
17B
102
{ACAD_REACTORS
330
17A
102
}
330
17A
100
AcDbDictionary
281
     1
  3
ACDB_ANNOTATIONSCALES
350
17C
  0
DICTIONARY
  5
180
102
{ACAD_REACTORS
330
17F
102
}
330
17F
100
AcDbDictionary
281
     1
  3
ACDB_ANNOTATIONSCALES
350
181
  0
DICTIONARY
  5
185
102
{ACAD_REACTORS
330
184
102
}
330
184
100
AcDbDictionary
281
     1
  3
ACDB_ANNOTATIONSCALES
350
186
  0
DICTIONARY
  5
18D
102
{ACAD_REACTORS
330
18C
102
}
330
18C
100
AcDbDictionary
281
     1
  3
ACDB_ANNOTATIONSCALES
350
18E
  0
DICTIONARY
  5
192
102
{ACAD_REACTORS
330
191
102
}
330
191
100
AcDbDictionary
281
     1
  3
ACDB_ANNOTATIONSCALES
350
193
  0
DICTIONARY
  5
19A
102
{ACAD_REACTORS
330
199
102
}
330
199
100
AcDbDictionary
281
     1
  3
ACDB_ANNOTATIONSCALES
350
19B
  0
DICTIONARY
  5
19F
102
{ACAD_REACTORS
330
19E
102
}
330
19E
100
AcDbDictionary
281
     1
  3
ACDB_ANNOTATIONSCALES
350
1A0
  0
ACDBDETAILVIEWSTYLE
  5
CF
102
{ACAD_REACTORS
330
CE
102
}
330
CE
100
AcDbModelDocViewStyle
 70
     0
  3
Imperial24
290
     1
300
Imperial24
 90
        0
100
AcDbDetailViewStyle
 70
     0
 71
     0
 90
        3
 71
     1
340
12
 62
   256
 40
0.24
340
0
 62
   256
 40
0.24
300

 40
0.36
280
     3
 71
     2
340
8
 90
       25
 62
   256
 71
     3
340
12
 62
   256
 40
0.24
 90
        1
 40
0.75
 90
        1
300
%<\AcVar ViewType \f "%tc1">% %<\AcVar ViewDetailId>%\PSCALE %<\AcVar ViewScale \f "%sn">%
 71
     4
340
8
 90
       25
 62
   256
340
8
 90
       25
 62
   256
280
     0
  0
LAYOUT
  5
F
102
{ACAD_REACTORS
330
B
102
}
330
B
100
AcDbPlotSettings
  1

  2
Ancon 2
  4

  6

 40
0.0
 41
0.0
 42
0.0
 43
0.0
 44
0.0
 45
0.0
 46
0.0
 47
0.0
 48
0.0
 49
0.0
140
0.0
141
0.0
142
1.0
143
1.0
 70
   688
 72
     0
 73
     0
 74
     5
  7

 75
    16
147
1.0
 76
     0
 77
     2
 78
   300
148
0.0
149
0.0
100
AcDbLayout
  1
Layout1
 70
     1
 71
     1
 10
0.0
 20
0.0
 11
420.0
 21
297.0
 12
0.0
 22
0.0
 32
0.0
 14
1.000000000000000E+20
 24
1.000000000000000E+20
 34
1.000000000000000E+20
 15
-1.000000000000000E+20
 25
-1.000000000000000E+20
 35
-1.000000000000000E+20
146
0.0
 13
0.0
 23
0.0
 33
0.0
 16
1.0
 26
0.0
 36
0.0
 17
0.0
 27
1.0
 37
0.0
 76
     0
330
C
  0
LAYOUT
  5
A
102
{ACAD_REACTORS
330
B
102
}
330
B
100
AcDbPlotSettings
  1

  2
Ancon 2
  4

  6

 40
0.0
 41
0.0
 42
0.0
 43
0.0
 44
0.0
 45
0.0
 46
0.0
 47
0.0
 48
0.0
 49
0.0
140
0.0
141
0.0
142
1.0
143
1.0
 70
  1712
 72
     0
 73
     0
 74
     0
  7

 75
     0
147
1.0
 76
     0
 77
     2
 78
   300
148
0.0
149
0.0
100
AcDbLayout
  1
Model
 70
     1
 71
     0
 10
0.0
 20
0.0
 11
12.0
 21
9.0
 12
0.0
 22
0.0
 32
0.0
 14
0.0
 24
0.0
 34
0.0
 15
0.0
 25
0.0
 35
0.0
146
0.0
 13
0.0
 23
0.0
 33
0.0
 16
1.0
 26
0.0
 36
0.0
 17
0.0
 27
1.0
 37
0.0
 76
     0
330
2
331
1A
  0
MATERIAL
  5
8C
102
{ACAD_XDICTIONARY
360
8D
102
}
102
{ACAD_REACTORS
330
83
102
}
330
83
100
AcDbMaterial
  1
ByBlock
 72
     0
 43
0.0208333333333333
 43
0.0
 43
0.0
 43
0.0
 43
0.0
 43
0.0208333333333333
 43
0.0
 43
0.0
 43
0.0
 43
0.0
 43
1.0
 43
0.0
 43
0.0
 43
0.0
 43
0.0
 43
1.0
 77
     0
 47
0.0208333333333333
 47
0.0
 47
0.0
 47
0.0
 47
0.0
 47
0.0208333333333333
 47
0.0
 47
0.0
 47
0.0
 47
0.0
 47
1.0
 47
0.0
 47
0.0
 47
0.0
 47
0.0
 47
1.0
171
     0
 49
0.0208333333333333
 49
0.0
 49
0.0
 49
0.0
 49
0.0
 49
0.0208333333333333
 49
0.0
 49
0.0
 49
0.0
 49
0.0
 49
1.0
 49
0.0
 49
0.0
 49
0.0
 49
0.0
 49
1.0
175
     0
142
0.0208333333333333
142
0.0
142
0.0
142
0.0
142
0.0
142
0.0208333333333333
142
0.0
142
0.0
142
0.0
142
0.0
142
1.0
142
0.0
142
0.0
142
0.0
142
0.0
142
1.0
179
     0
144
0.0208333333333333
144
0.0
144
0.0
144
0.0
144
0.0
144
0.0208333333333333
144
0.0
144
0.0
144
0.0
144
0.0
144
1.0
144
0.0
144
0.0
144
0.0
144
0.0
144
1.0
147
0.0208333333333333
147
0.0
147
0.0
147
0.0
147
0.0
147
0.0208333333333333
147
0.0
147
0.0
147
0.0
147
0.0
147
1.0
147
0.0
147
0.0
147
0.0
147
0.0
147
1.0
  0
MATERIAL
  5
84
102
{ACAD_XDICTIONARY
360
85
102
}
102
{ACAD_REACTORS
330
83
102
}
330
83
100
AcDbMaterial
  1
ByLayer
 72
     0
 43
0.0208333333333333
 43
0.0
 43
0.0
 43
0.0
 43
0.0
 43
0.0208333333333333
 43
0.0
 43
0.0
 43
0.0
 43
0.0
 43
1.0
 43
0.0
 43
0.0
 43
0.0
 43
0.0
 43
1.0
 77
     0
 47
0.0208333333333333
 47
0.0
 47
0.0
 47
0.0
 47
0.0
 47
0.0208333333333333
 47
0.0
 47
0.0
 47
0.0
 47
0.0
 47
1.0
 47
0.0
 47
0.0
 47
0.0
 47
0.0
 47
1.0
171
     0
 49
0.0208333333333333
 49
0.0
 49
0.0
 49
0.0
 49
0.0
 49
0.0208333333333333
 49
0.0
 49
0.0
 49
0.0
 49
0.0
 49
1.0
 49
0.0
 49
0.0
 49
0.0
 49
0.0
 49
1.0
175
     0
142
0.0208333333333333
142
0.0
142
0.0
142
0.0
142
0.0
142
0.0208333333333333
142
0.0
142
0.0
142
0.0
142
0.0
142
1.0
142
0.0
142
0.0
142
0.0
142
0.0
142
1.0
179
     0
144
0.0208333333333333
144
0.0
144
0.0
144
0.0
144
0.0
144
0.0208333333333333
144
0.0
144
0.0
144
0.0
144
0.0
144
1.0
144
0.0
144
0.0
144
0.0
144
0.0
144
1.0
147
0.0208333333333333
147
0.0
147
0.0
147
0.0
147
0.0
147
0.0208333333333333
147
0.0
147
0.0
147
0.0
147
0.0
147
1.0
147
0.0
147
0.0
147
0.0
147
0.0
147
1.0
  0
MATERIAL
  5
94
102
{ACAD_XDICTIONARY
360
95
102
}
102
{ACAD_REACTORS
330
83
102
}
330
83
100
AcDbMaterial
  1
Global
 72
     0
 43
0.0208333333333333
 43
0.0
 43
0.0
 43
0.0
 43
0.0
 43
0.0208333333333333
 43
0.0
 43
0.0
 43
0.0
 43
0.0
 43
1.0
 43
0.0
 43
0.0
 43
0.0
 43
0.0
 43
1.0
 77
     0
 47
0.0208333333333333
 47
0.0
 47
0.0
 47
0.0
 47
0.0
 47
0.0208333333333333
 47
0.0
 47
0.0
 47
0.0
 47
0.0
 47
1.0
 47
0.0
 47
0.0
 47
0.0
 47
0.0
 47
1.0
171
     0
 49
0.0208333333333333
 49
0.0
 49
0.0
 49
0.0
 49
0.0
 49
0.0208333333333333
 49
0.0
 49
0.0
 49
0.0
 49
0.0
 49
1.0
 49
0.0
 49
0.0
 49
0.0
 49
0.0
 49
1.0
175
     0
142
0.0208333333333333
142
0.0
142
0.0
142
0.0
142
0.0
142
0.0208333333333333
142
0.0
142
0.0
142
0.0
142
0.0
142
1.0
142
0.0
142
0.0
142
0.0
142
0.0
142
1.0
179
     0
144
0.0208333333333333
144
0.0
144
0.0
144
0.0
144
0.0
144
0.0208333333333333
144
0.0
144
0.0
144
0.0
144
0.0
144
1.0
144
0.0
144
0.0
144
0.0
144
0.0
144
1.0
147
0.0208333333333333
147
0.0
147
0.0
147
0.0
147
0.0
147
0.0208333333333333
147
0.0
147
0.0
147
0.0
147
0.0
147
1.0
147
0.0
147
0.0
147
0.0
147
0.0
147
1.0
  0
MLEADERSTYLE
  5
CB
102
{ACAD_REACTORS
330
CA
102
}
330
CA
100
AcDbMLeaderStyle
179
     2
170
     2
171
     1
172
     0
 90
        2
 40
0.0
 41
0.0
173
     1
 91
-1056964608
340
15
 92
       -2
290
     1
 42
0.09
291
     1
 43
0.36
  3
Standard
 44
0.18
300

342
12
174
     1
178
     6
175
     1
176
     0
 93
-1056964608
 45
0.18
292
     0
297
     0
 46
0.18
 94
-1056964608
 47
1.0
 49
1.0
140
1.0
293
     1
141
0.0
294
     1
177
     0
142
1.0
295
     1
296
     0
143
0.125
271
     0
272
     9
273
     9
298
     1
  0
MLINESTYLE
  5
24
102
{ACAD_REACTORS
330
20
102
}
330
20
100
AcDbMlineStyle
  2
STANDARD
 70
     0
  3

 62
   256
 51
90.0
 52
90.0
 71
     2
 49
0.5
 62
   256
  6
BYLAYER
 49
-0.5
 62
   256
  6
BYLAYER
  0
ACDBPLACEHOLDER
  5
5
102
{ACAD_REACTORS
330
6
102
}
330
6
  0
SCALE
  5
B9
102
{ACAD_REACTORS
330
B8
102
}
330
B8
100
AcDbScale
 70
     0
300
1:1
140
1.0
141
1.0
290
     1
  0
SCALE
  5
BA
102
{ACAD_REACTORS
330
B8
102
}
330
B8
100
AcDbScale
 70
     0
300
1/128" = 1'-0"
140
0.0078125
141
12.0
290
     0
  0
SCALE
  5
BB
102
{ACAD_REACTORS
330
B8
102
}
330
B8
100
AcDbScale
 70
     0
300
1/64" = 1'-0"
140
0.015625
141
12.0
290
     0
  0
SCALE
  5
BC
102
{ACAD_REACTORS
330
B8
102
}
330
B8
100
AcDbScale
 70
     0
300
1/32" = 1'-0"
140
0.03125
141
12.0
290
     0
  0
SCALE
  5
BD
102
{ACAD_REACTORS
330
B8
102
}
330
B8
100
AcDbScale
 70
     0
300
1/16" = 1'-0"
140
0.0625
141
12.0
290
     0
  0
SCALE
  5
BE
102
{ACAD_REACTORS
330
B8
102
}
330
B8
100
AcDbScale
 70
     0
300
3/32" = 1'-0"
140
0.09375
141
12.0
290
     0
  0
SCALE
  5
BF
102
{ACAD_REACTORS
330
B8
102
}
330
B8
100
AcDbScale
 70
     0
300
1/8" = 1'-0"
140
0.125
141
12.0
290
     0
  0
SCALE
  5
C0
102
{ACAD_REACTORS
330
B8
102
}
330
B8
100
AcDbScale
 70
     0
300
3/16" = 1'-0"
140
0.1875
141
12.0
290
     0
  0
SCALE
  5
C1
102
{ACAD_REACTORS
330
B8
102
}
330
B8
100
AcDbScale
 70
     0
300
1/4" = 1'-0"
140
0.25
141
12.0
290
     0
  0
SCALE
  5
C2
102
{ACAD_REACTORS
330
B8
102
}
330
B8
100
AcDbScale
 70
     0
300
3/8" = 1'-0"
140
0.375
141
12.0
290
     0
  0
SCALE
  5
C3
102
{ACAD_REACTORS
330
B8
102
}
330
B8
100
AcDbScale
 70
     0
300
1/2" = 1'-0"
140
0.5
141
12.0
290
     0
  0
SCALE
  5
C4
102
{ACAD_REACTORS
330
B8
102
}
330
B8
100
AcDbScale
 70
     0
300
3/4" = 1'-0"
140
0.75
141
12.0
290
     0
  0
SCALE
  5
C5
102
{ACAD_REACTORS
330
B8
102
}
330
B8
100
AcDbScale
 70
     0
300
1" = 1'-0"
140
1.0
141
12.0
290
     0
  0
SCALE
  5
C6
102
{ACAD_REACTORS
330
B8
102
}
330
B8
100
AcDbScale
 70
     0
300
1-1/2" = 1'-0"
140
1.5
141
12.0
290
     0
  0
SCALE
  5
C7
102
{ACAD_REACTORS
330
B8
102
}
330
B8
100
AcDbScale
 70
     0
300
3" = 1'-0"
140
3.0
141
12.0
290
     0
  0
SCALE
  5
C8
102
{ACAD_REACTORS
330
B8
102
}
330
B8
100
AcDbScale
 70
     0
300
6" = 1'-0"
140
6.0
141
12.0
290
     0
  0
SCALE
  5
C9
102
{ACAD_REACTORS
330
B8
102
}
330
B8
100
AcDbScale
 70
     0
300
1'-0" = 1'-0"
140
12.0
141
12.0
290
     0
  0
ACDBSECTIONVIEWSTYLE
  5
CD
102
{ACAD_REACTORS
330
CC
102
}
330
CC
100
AcDbModelDocViewStyle
 70
     0
  3
Imperial24
290
     1
300
Imperial24
 90
        0
100
AcDbSectionViewStyle
 70
     0
 71
     0
 90
       78
 71
     1
340
12
 62
   256
 40
0.24
340
0
340
0
 62
   256
 40
0.24
300
I, O, Q, S, X, Z
 40
0.48
 90
        3
 40
0.18
 90
        1
 71
     2
340
8
 90
       25
 62
   256
340
8
 90
       50
 62
   256
 40
0.24
 40
0.0
 40
0.24
 71
     3
340
12
 62
   256
 40
0.24
 90
        1
 40
0.75
 90
        1
300
%<\AcVar ViewType \f "%tc1">% %<\AcVar ViewSectionStartId>%-%<\AcVar ViewSectionEndId>%\PSCALE %<\AcVar ViewScale \f "%sn">%
 71
     4
 62
   256
 62
   257
300
ANSI31
 40
1.0
 90
        0
290
     0
290
     0
 90
        6
 40
0.0
 40
1.570796326794896
 40
0.2617993877991494
 40
1.308996938995747
 40
-0.2617993877991494
 40
1.832595714594046
  0
TABLESTYLE
  5
B7
102
{ACAD_XDICTIONARY
360
1E6
102
}
102
{ACAD_REACTORS
330
B6
102
}
330
B6
100
AcDbTableStyle
280
     0
  3
Standard
 70
     0
 71
     0
 40
0.06
 41
0.06
280
     0
281
     0
  7
STANDARD
140
0.18
170
     2
 62
     0
 63
     7
283
     0
 90
      512
 91
        0
  1

274
    -2
284
     1
 64
     0
275
    -2
285
     1
 65
     0
276
    -2
286
     1
 66
     0
277
    -2
287
     1
 67
     0
278
    -2
288
     1
 68
     0
279
    -2
289
     1
 69
     0
  7
STANDARD
140
0.25
170
     5
 62
     0
 63
     7
283
     0
 90
      512
 91
        0
  1

274
    -2
284
     1
 64
     0
275
    -2
285
     1
 65
     0
276
    -2
286
     1
 66
     0
277
    -2
287
     1
 67
     0
278
    -2
288
     1
 68
     0
279
    -2
289
     1
 69
     0
  7
STANDARD
140
0.18
170
     5
 62
     0
 63
     7
283
     0
 90
      512
 91
        0
  1

274
    -2
284
     1
 64
     0
275
    -2
285
     1
 65
     0
276
    -2
286
     1
 66
     0
277
    -2
287
     1
 67
     0
278
    -2
288
     1
 68
     0
279
    -2
289
     1
 69
     0
  0
VISUALSTYLE
  5
A2
102
{ACAD_REACTORS
330
9C
102
}
330
9C
100
AcDbVisualStyle
  2
2dWireframe
 70
     4
177
     3
291
     0
 70
    58
 90
        0
176
     1
 90
        2
176
     1
 90
        0
176
     1
 90
        0
176
     1
 40
0.6
176
     1
 40
30.0
176
     1
 62
     7
420
 16777215
176
     1
 90
        1
176
     1
 90
        4
176
     1
 62
     7
176
     1
 62
   257
176
     1
 90
        1
176
     1
 90
        1
176
     1
 40
1.0
176
     1
 90
        0
176
     1
 62
   257
176
     1
 40
1.0
176
     1
 90
        1
176
     1
 90
        6
176
     1
 90
        2
176
     1
 62
     7
176
     1
 90
        5
176
     1
 90
        0
176
     1
 90
        0
176
     1
290
     0
176
     1
 90
        1
176
     1
 40
0.0
176
     1
 90
        0
176
     1
290
     1
176
     1
290
     1
176
     1
290
     0
176
     1
290
     0
176
     1
290
     0
176
     1
290
     0
176
     1
290
     0
176
     1
290
     0
176
     1
290
     0
176
     1
 90
       50
176
     1
 40
0.0
176
     1
 40
1.0
176
     1
 90
        0
176
     1
 62
    18
420
        0
176
     1
 90
       50
176
     1
 90
        3
176
     1
 62
     5
420
      255
176
     1
290
     0
176
     1
 90
       50
176
     1
 90
       50
176
     1
 90
       50
176
     1
290
     0
176
     1
 90
       50
176
     1
 62
   256
176
     0
 40
1.0
176
     0
 90
        2
176
     1
  1
strokes_ogs.tif
176
     1
290
     0
176
     1
 40
1.0
176
     1
 40
1.0
176
     1
  0
VISUALSTYLE
  5
A1
102
{ACAD_REACTORS
330
9C
102
}
330
9C
100
AcDbVisualStyle
  2
Basic
 70
     7
177
     3
291
     1
 70
    58
 90
        1
176
     1
 90
        0
176
     1
 90
        1
176
     1
 90
        0
176
     1
 40
0.6
176
     1
 40
30.0
176
     1
 62
     7
420
 16777215
176
     1
 90
        0
176
     1
 90
        4
176
     1
 62
     7
176
     1
 62
   257
176
     1
 90
        1
176
     1
 90
        1
176
     1
 40
1.0
176
     1
 90
        8
176
     1
 62
     7
176
     1
 40
1.0
176
     1
 90
        1
176
     1
 90
        6
176
     1
 90
        2
176
     1
 62
     7
176
     1
 90
        5
176
     1
 90
        0
176
     1
 90
        0
176
     1
290
     0
176
     1
 90
        1
176
     1
 40
0.0
176
     1
 90
        0
176
     1
290
     0
176
     1
290
     1
176
     1
290
     1
176
     1
290
     0
176
     1
290
     0
176
     1
290
     0
176
     1
290
     0
176
     1
290
     0
176
     1
290
     0
176
     1
 90
       50
176
     1
 40
0.0
176
     1
 40
1.0
176
     1
 90
        0
176
     1
 62
    18
420
        0
176
     1
 90
       50
176
     1
 90
        3
176
     1
 62
     5
420
      255
176
     1
290
     0
176
     1
 90
       50
176
     1
 90
       50
176
     1
 90
       50
176
     1
290
     0
176
     1
 90
       50
176
     1
 62
   256
176
     0
 40
1.0
176
     0
 90
        2
176
     1
  1
strokes_ogs.tif
176
     1
290
     0
176
     1
 40
1.0
176
     1
 40
1.0
176
     1
  0
VISUALSTYLE
  5
A8
102
{ACAD_REACTORS
330
9C
102
}
330
9C
100
AcDbVisualStyle
  2
Brighten
 70
    12
177
     3
291
     1
 70
    58
 90
        2
176
     1
 90
        2
176
     1
 90
        0
176
     1
 90
        0
176
     1
 40
0.6
176
     1
 40
30.0
176
     1
 62
     7
420
 16777215
176
     1
 90
        1
176
     1
 90
        4
176
     1
 62
     7
176
     1
 62
   257
176
     1
 90
        1
176
     1
 90
        1
176
     1
 40
1.0
176
     1
 90
        8
176
     1
 62
     7
176
     1
 40
1.0
176
     1
 90
        1
176
     1
 90
        6
176
     1
 90
        2
176
     1
 62
     7
176
     1
 90
        5
176
     1
 90
        0
176
     1
 90
        0
176
     1
290
     0
176
     1
 90
        1
176
     1
 40
50.0
176
     1
 90
        0
176
     1
290
     0
176
     1
290
     1
176
     1
290
     1
176
     1
290
     0
176
     1
290
     0
176
     1
290
     0
176
     1
290
     0
176
     1
290
     0
176
     1
290
     0
176
     1
 90
       50
176
     1
 40
0.0
176
     1
 40
1.0
176
     1
 90
        0
176
     1
 62
    18
420
        0
176
     1
 90
       50
176
     1
 90
        3
176
     1
 62
     5
420
      255
176
     1
290
     0
176
     1
 90
       50
176
     1
 90
       50
176
     1
 90
       50
176
     1
290
     0
176
     1
 90
       50
176
     1
 62
   256
176
     0
 40
1.0
176
     0
 90
        2
176
     1
  1
strokes_ogs.tif
176
     1
290
     0
176
     1
 40
1.0
176
     1
 40
1.0
176
     1
  0
VISUALSTYLE
  5
AC
102
{ACAD_REACTORS
330
9C
102
}
330
9C
100
AcDbVisualStyle
  2
ColorChange
 70
    16
177
     3
291
     1
 70
    58
 90
        2
176
     1
 90
        2
176
     1
 90
        3
176
     1
 90
        0
176
     1
 40
0.6
176
     1
 40
30.0
176
     1
 62
     8
420
  8421504
176
     1
 90
        1
176
     1
 90
        4
176
     1
 62
     7
176
     1
 62
   257
176
     1
 90
        1
176
     1
 90
        1
176
     1
 40
1.0
176
     1
 90
        8
176
     1
 62
     8
420
  8421504
176
     1
 40
1.0
176
     1
 90
        1
176
     1
 90
        6
176
     1
 90
        2
176
     1
 62
     7
176
     1
 90
        5
176
     1
 90
        0
176
     1
 90
        0
176
     1
290
     0
176
     1
 90
        1
176
     1
 40
0.0
176
     1
 90
        0
176
     1
290
     0
176
     1
290
     1
176
     1
290
     1
176
     1
290
     0
176
     1
290
     0
176
     1
290
     0
176
     1
290
     0
176
     1
290
     0
176
     1
290
     0
176
     1
 90
       50
176
     1
 40
0.0
176
     1
 40
1.0
176
     1
 90
        0
176
     1
 62
    18
420
        0
176
     1
 90
       50
176
     1
 90
        3
176
     1
 62
     5
420
      255
176
     1
290
     0
176
     1
 90
       50
176
     1
 90
       50
176
     1
 90
       50
176
     1
290
     0
176
     1
 90
       50
176
     1
 62
   256
176
     0
 40
1.0
176
     0
 90
        2
176
     1
  1
strokes_ogs.tif
176
     1
290
     0
176
     1
 40
1.0
176
     1
 40
1.0
176
     1
  0
VISUALSTYLE
  5
A5
102
{ACAD_REACTORS
330
9C
102
}
330
9C
100
AcDbVisualStyle
  2
Conceptual
 70
     9
177
     3
291
     0
 70
    58
 90
        3
176
     1
 90
        2
176
     1
 90
        0
176
     1
 90
        0
176
     1
 40
0.6
176
     1
 40
30.0
176
     1
 62
     7
420
 16777215
176
     1
 90
        2
176
     1
 90
        2
176
     1
 62
     7
176
     1
 62
   257
176
     1
 90
        1
176
     1
 90
        1
176
     1
 40
179.0
176
     1
 90
        8
176
     1
 62
     7
176
     1
 40
1.0
176
     1
 90
        1
176
     1
 90
        6
176
     1
 90
        2
176
     1
 62
     7
176
     1
 90
        3
176
     1
 90
        0
176
     1
 90
        0
176
     1
290
     0
176
     1
 90
        1
176
     1
 40
0.0
176
     1
 90
        0
176
     1
290
     0
176
     1
290
     1
176
     1
290
     1
176
     1
290
     0
176
     1
290
     0
176
     1
290
     0
176
     1
290
     0
176
     1
290
     0
176
     1
290
     0
176
     1
 90
       50
176
     1
 40
0.0
176
     1
 40
1.0
176
     1
 90
        0
176
     1
 62
    18
420
        0
176
     1
 90
       50
176
     1
 90
        3
176
     1
 62
     5
420
      255
176
     1
290
     0
176
     1
 90
       50
176
     1
 90
       50
176
     1
 90
       50
176
     1
290
     0
176
     1
 90
       50
176
     1
 62
   256
176
     0
 40
1.0
176
     0
 90
        2
176
     1
  1
strokes_ogs.tif
176
     1
290
     0
176
     1
 40
1.0
176
     1
 40
1.0
176
     1
  0
VISUALSTYLE
  5
A7
102
{ACAD_REACTORS
330
9C
102
}
330
9C
100
AcDbVisualStyle
  2
Dim
 70
    11
177
     3
291
     1
 70
    58
 90
        2
176
     1
 90
        2
176
     1
 90
        0
176
     1
 90
        0
176
     1
 40
0.6
176
     1
 40
30.0
176
     1
 62
     7
420
 16777215
176
     1
 90
        1
176
     1
 90
        4
176
     1
 62
     7
176
     1
 62
   257
176
     1
 90
        1
176
     1
 90
        1
176
     1
 40
1.0
176
     1
 90
        8
176
     1
 62
     7
176
     1
 40
1.0
176
     1
 90
        1
176
     1
 90
        6
176
     1
 90
        2
176
     1
 62
     7
176
     1
 90
        5
176
     1
 90
        0
176
     1
 90
        0
176
     1
290
     0
176
     1
 90
        1
176
     1
 40
-50.0
176
     1
 90
        0
176
     1
290
     0
176
     1
290
     1
176
     1
290
     1
176
     1
290
     0
176
     1
290
     0
176
     1
290
     0
176
     1
290
     0
176
     1
290
     0
176
     1
290
     0
176
     1
 90
       50
176
     1
 40
0.0
176
     1
 40
1.0
176
     1
 90
        0
176
     1
 62
    18
420
        0
176
     1
 90
       50
176
     1
 90
        3
176
     1
 62
     5
420
      255
176
     1
290
     0
176
     1
 90
       50
176
     1
 90
       50
176
     1
 90
       50
176
     1
290
     0
176
     1
 90
       50
176
     1
 62
   256
176
     0
 40
1.0
176
     0
 90
        2
176
     1
  1
strokes_ogs.tif
176
     1
290
     0
176
     1
 40
1.0
176
     1
 40
1.0
176
     1
  0
VISUALSTYLE
  5
B4
102
{ACAD_REACTORS
330
9C
102
}
330
9C
100
AcDbVisualStyle
  2
EdgeColorOff
 70
    22
177
     3
291
     1
 70
    58
 90
        2
176
     0
 90
        2
176
     0
 90
        0
176
     0
 90
        0
176
     0
 40
0.6
176
     0
 40
30.0
176
     0
 62
     7
420
 16777215
176
     0
 90
        1
176
     0
 90
        4
176
     0
 62
     7
176
     0
 62
   257
176
     0
 90
        1
176
     0
 90
        1
176
     0
 40
1.0
176
     0
 90
        8
176
     2
 62
     7
176
     0
 40
1.0
176
     0
 90
        1
176
     0
 90
        6
176
     0
 90
        2
176
     0
 62
     7
176
     0
 90
        5
176
     0
 90
        0
176
     0
 90
        0
176
     0
290
     0
176
     0
 90
        1
176
     0
 40
0.0
176
     0
 90
        0
176
     0
290
     0
176
     0
290
     1
176
     0
290
     1
176
     0
290
     0
176
     0
290
     0
176
     0
290
     0
176
     0
290
     0
176
     0
290
     0
176
     0
290
     0
176
     0
 90
       50
176
     0
 40
0.0
176
     0
 40
1.0
176
     0
 90
        0
176
     0
 62
    18
420
        0
176
     0
 90
       50
176
     0
 90
        3
176
     0
 62
     5
420
      255
176
     0
290
     0
176
     0
 90
       50
176
     0
 90
       50
176
     0
 90
       50
176
     0
290
     0
176
     0
 90
       50
176
     0
 62
   256
176
     0
 40
1.0
176
     0
 90
        2
176
     0
  1
strokes_ogs.tif
176
     0
290
     0
176
     0
 40
1.0
176
     0
 40
1.0
176
     0
  0
VISUALSTYLE
  5
AB
102
{ACAD_REACTORS
330
9C
102
}
330
9C
100
AcDbVisualStyle
  2
Facepattern
 70
    15
177
     3
291
     1
 70
    58
 90
        2
176
     1
 90
        2
176
     1
 90
        0
176
     1
 90
        0
176
     1
 40
0.6
176
     1
 40
30.0
176
     1
 62
     7
420
 16777215
176
     1
 90
        1
176
     1
 90
        4
176
     1
 62
     7
176
     1
 62
   257
176
     1
 90
        1
176
     1
 90
        1
176
     1
 40
1.0
176
     1
 90
        8
176
     1
 62
     7
176
     1
 40
1.0
176
     1
 90
        1
176
     1
 90
        6
176
     1
 90
        2
176
     1
 62
     7
176
     1
 90
        5
176
     1
 90
        0
176
     1
 90
        0
176
     1
290
     0
176
     1
 90
        1
176
     1
 40
0.0
176
     1
 90
        0
176
     1
290
     0
176
     1
290
     1
176
     1
290
     1
176
     1
290
     0
176
     1
290
     0
176
     1
290
     0
176
     1
290
     0
176
     1
290
     0
176
     1
290
     0
176
     1
 90
       50
176
     1
 40
0.0
176
     1
 40
1.0
176
     1
 90
        0
176
     1
 62
    18
420
        0
176
     1
 90
       50
176
     1
 90
        3
176
     1
 62
     5
420
      255
176
     1
290
     0
176
     1
 90
       50
176
     1
 90
       50
176
     1
 90
       50
176
     1
290
     0
176
     1
 90
       50
176
     1
 62
   256
176
     0
 40
1.0
176
     0
 90
        2
176
     1
  1
strokes_ogs.tif
176
     1
290
     0
176
     1
 40
1.0
176
     1
 40
1.0
176
     1
  0
VISUALSTYLE
  5
9D
102
{ACAD_REACTORS
330
9C
102
}
330
9C
100
AcDbVisualStyle
  2
Flat
 70
     0
177
     3
291
     1
 70
    58
 90
        2
176
     1
 90
        1
176
     1
 90
        1
176
     1
 90
        2
176
     1
 40
0.6
176
     1
 40
30.0
176
     1
 62
     7
420
 16777215
176
     1
 90
        0
176
     1
 90
        0
176
     1
 62
     7
176
     1
 62
   257
176
     1
 90
        1
176
     1
 90
        1
176
     1
 40
1.0
176
     1
 90
        8
176
     1
 62
     7
176
     1
 40
1.0
176
     1
 90
        1
176
     1
 90
        6
176
     1
 90
        2
176
     1
 62
     7
176
     1
 90
        5
176
     1
 90
        0
176
     1
 90
        0
176
     1
290
     0
176
     1
 90
       13
176
     1
 40
0.0
176
     1
 90
        0
176
     1
290
     0
176
     1
290
     1
176
     1
290
     1
176
     1
290
     0
176
     1
290
     0
176
     1
290
     0
176
     1
290
     0
176
     1
290
     0
176
     1
290
     0
176
     1
 90
       50
176
     1
 40
0.0
176
     1
 40
1.0
176
     1
 90
        0
176
     1
 62
    18
420
        0
176
     1
 90
       50
176
     1
 90
        3
176
     1
 62
     5
420
      255
176
     1
290
     0
176
     1
 90
       50
176
     1
 90
       50
176
     1
 90
       50
176
     1
290
     0
176
     1
 90
       50
176
     1
 62
   256
176
     0
 40
1.0
176
     0
 90
        2
176
     1
  1
strokes_ogs.tif
176
     1
290
     0
176
     1
 40
1.0
176
     1
 40
1.0
176
     1
  0
VISUALSTYLE
  5
9E
102
{ACAD_REACTORS
330
9C
102
}
330
9C
100
AcDbVisualStyle
  2
FlatWithEdges
 70
     1
177
     3
291
     1
 70
    58
 90
        2
176
     1
 90
        1
176
     1
 90
        1
176
     1
 90
        2
176
     1
 40
0.6
176
     1
 40
30.0
176
     1
 62
     7
420
 16777215
176
     1
 90
        1
176
     1
 90
        0
176
     1
 62
     7
176
     1
 62
   257
176
     1
 90
        1
176
     1
 90
        1
176
     1
 40
1.0
176
     1
 90
        0
176
     1
 62
   257
176
     1
 40
1.0
176
     1
 90
        1
176
     1
 90
        6
176
     1
 90
        2
176
     1
 62
     7
176
     1
 90
        5
176
     1
 90
        0
176
     1
 90
        0
176
     1
290
     0
176
     1
 90
       13
176
     1
 40
0.0
176
     1
 90
        0
176
     1
290
     0
176
     1
290
     1
176
     1
290
     1
176
     1
290
     0
176
     1
290
     0
176
     1
290
     0
176
     1
290
     0
176
     1
290
     0
176
     1
290
     0
176
     1
 90
       50
176
     1
 40
0.0
176
     1
 40
1.0
176
     1
 90
        0
176
     1
 62
    18
420
        0
176
     1
 90
       50
176
     1
 90
        3
176
     1
 62
     5
420
      255
176
     1
290
     0
176
     1
 90
       50
176
     1
 90
       50
176
     1
 90
       50
176
     1
290
     0
176
     1
 90
       50
176
     1
 62
   256
176
     0
 40
1.0
176
     0
 90
        2
176
     1
  1
strokes_ogs.tif
176
     1
290
     0
176
     1
 40
1.0
176
     1
 40
1.0
176
     1
  0
VISUALSTYLE
  5
9F
102
{ACAD_REACTORS
330
9C
102
}
330
9C
100
AcDbVisualStyle
  2
Gouraud
 70
     2
177
     3
291
     1
 70
    58
 90
        2
176
     1
 90
        2
176
     1
 90
        1
176
     1
 90
        2
176
     1
 40
0.6
176
     1
 40
30.0
176
     1
 62
     7
420
 16777215
176
     1
 90
        0
176
     1
 90
        0
176
     1
 62
     7
176
     1
 62
   257
176
     1
 90
        1
176
     1
 90
        1
176
     1
 40
1.0
176
     1
 90
        0
176
     1
 62
     7
176
     1
 40
1.0
176
     1
 90
        1
176
     1
 90
        6
176
     1
 90
        2
176
     1
 62
     7
176
     1
 90
        5
176
     1
 90
        0
176
     1
 90
        0
176
     1
290
     0
176
     1
 90
       13
176
     1
 40
0.0
176
     1
 90
        0
176
     1
290
     0
176
     1
290
     1
176
     1
290
     1
176
     1
290
     0
176
     1
290
     0
176
     1
290
     0
176
     1
290
     0
176
     1
290
     0
176
     1
290
     0
176
     1
 90
       50
176
     1
 40
0.0
176
     1
 40
1.0
176
     1
 90
        0
176
     1
 62
    18
420
        0
176
     1
 90
       50
176
     1
 90
        3
176
     1
 62
     5
420
      255
176
     1
290
     0
176
     1
 90
       50
176
     1
 90
       50
176
     1
 90
       50
176
     1
290
     0
176
     1
 90
       50
176
     1
 62
   256
176
     0
 40
1.0
176
     0
 90
        2
176
     1
  1
strokes_ogs.tif
176
     1
290
     0
176
     1
 40
1.0
176
     1
 40
1.0
176
     1
  0
VISUALSTYLE
  5
A0
102
{ACAD_REACTORS
330
9C
102
}
330
9C
100
AcDbVisualStyle
  2
GouraudWithEdges
 70
     3
177
     3
291
     1
 70
    58
 90
        2
176
     1
 90
        2
176
     1
 90
        1
176
     1
 90
        2
176
     1
 40
0.6
176
     1
 40
30.0
176
     1
 62
     7
420
 16777215
176
     1
 90
        1
176
     1
 90
        0
176
     1
 62
     7
176
     1
 62
   257
176
     1
 90
        1
176
     1
 90
        1
176
     1
 40
1.0
176
     1
 90
        0
176
     1
 62
   257
176
     1
 40
1.0
176
     1
 90
        1
176
     1
 90
        6
176
     1
 90
        2
176
     1
 62
     7
176
     1
 90
        5
176
     1
 90
        0
176
     1
 90
        0
176
     1
290
     0
176
     1
 90
       13
176
     1
 40
0.0
176
     1
 90
        0
176
     1
290
     0
176
     1
290
     1
176
     1
290
     1
176
     1
290
     0
176
     1
290
     0
176
     1
290
     0
176
     1
290
     0
176
     1
290
     0
176
     1
290
     0
176
     1
 90
       50
176
     1
 40
0.0
176
     1
 40
1.0
176
     1
 90
        0
176
     1
 62
    18
420
        0
176
     1
 90
       50
176
     1
 90
        3
176
     1
 62
     5
420
      255
176
     1
290
     0
176
     1
 90
       50
176
     1
 90
       50
176
     1
 90
       50
176
     1
290
     0
176
     1
 90
       50
176
     1
 62
   256
176
     0
 40
1.0
176
     0
 90
        2
176
     1
  1
strokes_ogs.tif
176
     1
290
     0
176
     1
 40
1.0
176
     1
 40
1.0
176
     1
  0
VISUALSTYLE
  5
A4
102
{ACAD_REACTORS
330
9C
102
}
330
9C
100
AcDbVisualStyle
  2
Hidden
 70
     6
177
     3
291
     0
 70
    58
 90
        1
176
     1
 90
        2
176
     1
 90
        2
176
     1
 90
        0
176
     1
 40
0.6
176
     1
 40
30.0
176
     1
 62
     7
420
 16777215
176
     1
 90
        2
176
     1
 90
        2
176
     1
 62
     7
176
     1
 62
   257
176
     1
 90
        2
176
     1
 90
        1
176
     1
 40
40.0
176
     1
 90
        0
176
     1
 62
   257
176
     1
 40
1.0
176
     1
 90
        1
176
     1
 90
        6
176
     1
 90
        2
176
     1
 62
     7
176
     1
 90
        3
176
     1
 90
        0
176
     1
 90
        0
176
     1
290
     0
176
     1
 90
        1
176
     1
 40
0.0
176
     1
 90
        0
176
     1
290
     0
176
     1
290
     1
176
     1
290
     1
176
     1
290
     0
176
     1
290
     0
176
     1
290
     0
176
     1
290
     0
176
     1
290
     0
176
     1
290
     0
176
     1
 90
       50
176
     1
 40
0.0
176
     1
 40
1.0
176
     1
 90
        0
176
     1
 62
    18
420
        0
176
     1
 90
       50
176
     1
 90
        3
176
     1
 62
     5
420
      255
176
     1
290
     0
176
     1
 90
       50
176
     1
 90
       50
176
     1
 90
       50
176
     1
290
     0
176
     1
 90
       50
176
     1
 62
   256
176
     0
 40
1.0
176
     0
 90
        2
176
     1
  1
strokes_ogs.tif
176
     1
290
     0
176
     1
 40
1.0
176
     1
 40
1.0
176
     1
  0
VISUALSTYLE
  5
B2
102
{ACAD_REACTORS
330
9C
102
}
330
9C
100
AcDbVisualStyle
  2
JitterOff
 70
    20
177
     3
291
     1
 70
    58
 90
        2
176
     0
 90
        2
176
     0
 90
        0
176
     0
 90
        0
176
     0
 40
0.6
176
     0
 40
30.0
176
     0
 62
     7
420
 16777215
176
     0
 90
        1
176
     0
 90
        4
176
     0
 62
     7
176
     0
 62
   257
176
     0
 90
        1
176
     0
 90
        1
176
     0
 40
1.0
176
     0
 90
       10
176
     2
 62
     7
176
     0
 40
1.0
176
     0
 90
        1
176
     0
 90
        6
176
     0
 90
        2
176
     0
 62
     7
176
     0
 90
        5
176
     0
 90
        0
176
     0
 90
        0
176
     0
290
     0
176
     0
 90
        1
176
     0
 40
0.0
176
     0
 90
        0
176
     0
290
     0
176
     0
290
     1
176
     0
290
     1
176
     0
290
     0
176
     0
290
     0
176
     0
290
     0
176
     0
290
     0
176
     0
290
     0
176
     0
290
     0
176
     0
 90
       50
176
     0
 40
0.0
176
     0
 40
1.0
176
     0
 90
        0
176
     0
 62
    18
420
        0
176
     0
 90
       50
176
     0
 90
        3
176
     0
 62
     5
420
      255
176
     0
290
     0
176
     0
 90
       50
176
     0
 90
       50
176
     0
 90
       50
176
     0
290
     0
176
     0
 90
       50
176
     0
 62
   256
176
     0
 40
1.0
176
     0
 90
        2
176
     0
  1
strokes_ogs.tif
176
     0
290
     0
176
     0
 40
1.0
176
     0
 40
1.0
176
     0
  0
VISUALSTYLE
  5
AA
102
{ACAD_REACTORS
330
9C
102
}
330
9C
100
AcDbVisualStyle
  2
Linepattern
 70
    14
177
     3
291
     1
 70
    58
 90
        2
176
     1
 90
        2
176
     1
 90
        0
176
     1
 90
        0
176
     1
 40
0.6
176
     1
 40
30.0
176
     1
 62
     7
420
 16777215
176
     1
 90
        1
176
     1
 90
        4
176
     1
 62
     7
176
     1
 62
   257
176
     1
 90
        7
176
     1
 90
        7
176
     1
 40
1.0
176
     1
 90
        8
176
     1
 62
     7
176
     1
 40
1.0
176
     1
 90
        1
176
     1
 90
        6
176
     1
 90
        2
176
     1
 62
     7
176
     1
 90
        5
176
     1
 90
        0
176
     1
 90
        0
176
     1
290
     0
176
     1
 90
        1
176
     1
 40
0.0
176
     1
 90
        0
176
     1
290
     0
176
     1
290
     1
176
     1
290
     1
176
     1
290
     0
176
     1
290
     0
176
     1
290
     0
176
     1
290
     0
176
     1
290
     0
176
     1
290
     0
176
     1
 90
       50
176
     1
 40
0.0
176
     1
 40
1.0
176
     1
 90
        0
176
     1
 62
    18
420
        0
176
     1
 90
       50
176
     1
 90
        3
176
     1
 62
     5
420
      255
176
     1
290
     0
176
     1
 90
       50
176
     1
 90
       50
176
     1
 90
       50
176
     1
290
     0
176
     1
 90
       50
176
     1
 62
   256
176
     0
 40
1.0
176
     0
 90
        2
176
     1
  1
strokes_ogs.tif
176
     1
290
     0
176
     1
 40
1.0
176
     1
 40
1.0
176
     1
  0
VISUALSTYLE
  5
B3
102
{ACAD_REACTORS
330
9C
102
}
330
9C
100
AcDbVisualStyle
  2
OverhangOff
 70
    21
177
     3
291
     1
 70
    58
 90
        2
176
     0
 90
        2
176
     0
 90
        0
176
     0
 90
        0
176
     0
 40
0.6
176
     0
 40
30.0
176
     0
 62
     7
420
 16777215
176
     0
 90
        1
176
     0
 90
        4
176
     0
 62
     7
176
     0
 62
   257
176
     0
 90
        1
176
     0
 90
        1
176
     0
 40
1.0
176
     0
 90
        9
176
     2
 62
     7
176
     0
 40
1.0
176
     0
 90
        1
176
     0
 90
        6
176
     0
 90
        2
176
     0
 62
     7
176
     0
 90
        5
176
     0
 90
        0
176
     0
 90
        0
176
     0
290
     0
176
     0
 90
        1
176
     0
 40
0.0
176
     0
 90
        0
176
     0
290
     0
176
     0
290
     1
176
     0
290
     1
176
     0
290
     0
176
     0
290
     0
176
     0
290
     0
176
     0
290
     0
176
     0
290
     0
176
     0
290
     0
176
     0
 90
       50
176
     0
 40
0.0
176
     0
 40
1.0
176
     0
 90
        0
176
     0
 62
    18
420
        0
176
     0
 90
       50
176
     0
 90
        3
176
     0
 62
     5
420
      255
176
     0
290
     0
176
     0
 90
       50
176
     0
 90
       50
176
     0
 90
       50
176
     0
290
     0
176
     0
 90
       50
176
     0
 62
   256
176
     0
 40
1.0
176
     0
 90
        2
176
     0
  1
strokes_ogs.tif
176
     0
290
     0
176
     0
 40
1.0
176
     0
 40
1.0
176
     0
  0
VISUALSTYLE
  5
A6
102
{ACAD_REACTORS
330
9C
102
}
330
9C
100
AcDbVisualStyle
  2
Realistic
 70
     8
177
     3
291
     0
 70
    58
 90
        2
176
     1
 90
        3
176
     1
 90
        0
176
     1
 90
        2
176
     1
 40
0.6
176
     1
 40
30.0
176
     1
 62
     7
420
 16777215
176
     1
 90
        0
176
     1
 90
        0
176
     1
 62
     7
176
     1
 62
   257
176
     1
 90
        1
176
     1
 90
        1
176
     1
 40
1.0
176
     1
 90
        8
176
     1
 62
   257
176
     1
 40
1.0
176
     1
 90
        1
176
     1
 90
        6
176
     1
 90
        2
176
     1
 62
     7
176
     1
 90
        3
176
     1
 90
        0
176
     1
 90
        0
176
     1
290
     0
176
     1
 90
       13
176
     1
 40
0.0
176
     1
 90
        0
176
     1
290
     0
176
     1
290
     1
176
     1
290
     1
176
     1
290
     0
176
     1
290
     0
176
     1
290
     0
176
     1
290
     0
176
     1
290
     0
176
     1
290
     0
176
     1
 90
       50
176
     1
 40
0.0
176
     1
 40
1.0
176
     1
 90
        0
176
     1
 62
    18
420
        0
176
     1
 90
       50
176
     1
 90
        3
176
     1
 62
     5
420
      255
176
     1
290
     0
176
     1
 90
       50
176
     1
 90
       50
176
     1
 90
       50
176
     1
290
     0
176
     1
 90
       50
176
     1
 62
   256
176
     0
 40
1.0
176
     0
 90
        2
176
     1
  1
strokes_ogs.tif
176
     1
290
     0
176
     1
 40
1.0
176
     1
 40
1.0
176
     1
  0
VISUALSTYLE
  5
B1
102
{ACAD_REACTORS
330
9C
102
}
330
9C
100
AcDbVisualStyle
  2
Shaded
 70
    27
177
     3
291
     0
 70
    58
 90
        2
176
     1
 90
        2
176
     1
 90
        1
176
     1
 90
        2
176
     1
 40
0.6
176
     1
 40
30.0
176
     1
 62
     7
420
 16777215
176
     1
 90
        0
176
     1
 90
        4
176
     1
 62
     7
176
     1
 62
   257
176
     1
 90
        1
176
     1
 90
        1
176
     1
 40
1.0
176
     1
 90
        8
176
     1
 62
   257
176
     1
 40
1.0
176
     1
 90
        1
176
     1
 90
        6
176
     1
 90
        2
176
     1
 62
     8
420
  7895160
176
     1
 90
        3
176
     1
 90
        0
176
     1
 90
        0
176
     1
290
     0
176
     1
 90
        5
176
     1
 40
0.0
176
     1
 90
        0
176
     1
290
     0
176
     1
290
     1
176
     1
290
     1
176
     1
290
     0
176
     1
290
     0
176
     1
290
     0
176
     1
290
     0
176
     1
290
     0
176
     1
290
     0
176
     1
 90
       50
176
     1
 40
0.0
176
     1
 40
1.0
176
     1
 90
        0
176
     1
 62
    18
420
        0
176
     1
 90
       50
176
     1
 90
        3
176
     1
 62
     5
420
      255
176
     1
290
     0
176
     1
 90
       50
176
     1
 90
       50
176
     1
 90
       50
176
     1
290
     0
176
     1
 90
       50
176
     1
 62
   256
176
     0
 40
1.0
176
     0
 90
        2
176
     1
  1
strokes_ogs.tif
176
     1
290
     0
176
     1
 40
1.0
176
     1
 40
1.0
176
     1
  0
VISUALSTYLE
  5
B0
102
{ACAD_REACTORS
330
9C
102
}
330
9C
100
AcDbVisualStyle
  2
Shaded with edges
 70
    26
177
     3
291
     0
 70
    58
 90
        2
176
     1
 90
        2
176
     1
 90
        1
176
     1
 90
        2
176
     1
 40
0.6
176
     1
 40
30.0
176
     1
 62
     7
420
 16777215
176
     1
 90
        1
176
     1
 90
        2
176
     1
 62
     7
176
     1
 62
   257
176
     1
 90
        2
176
     1
 90
        1
176
     1
 40
1.0
176
     1
 90
        8
176
     1
 62
   257
176
     1
 40
1.0
176
     1
 90
        1
176
     1
 90
        6
176
     1
 90
        2
176
     1
 62
     7
176
     1
 90
        3
176
     1
 90
        0
176
     1
 90
        0
176
     1
290
     0
176
     1
 90
        5
176
     1
 40
0.0
176
     1
 90
        0
176
     1
290
     0
176
     1
290
     1
176
     1
290
     1
176
     1
290
     0
176
     1
290
     0
176
     1
290
     0
176
     1
290
     0
176
     1
290
     0
176
     1
290
     0
176
     1
 90
       50
176
     1
 40
0.0
176
     1
 40
1.0
176
     1
 90
        0
176
     1
 62
    18
420
        0
176
     1
 90
       50
176
     1
 90
        3
176
     1
 62
     5
420
      255
176
     1
290
     0
176
     1
 90
       50
176
     1
 90
       50
176
     1
 90
       50
176
     1
290
     0
176
     1
 90
       50
176
     1
 62
   256
176
     0
 40
1.0
176
     0
 90
        2
176
     1
  1
strokes_ogs.tif
176
     1
290
     0
176
     1
 40
1.0
176
     1
 40
1.0
176
     1
  0
VISUALSTYLE
  5
AD
102
{ACAD_REACTORS
330
9C
102
}
330
9C
100
AcDbVisualStyle
  2
Shades of Gray
 70
    23
177
     3
291
     0
 70
    58
 90
        2
176
     1
 90
        2
176
     1
 90
        3
176
     1
 90
        0
176
     1
 40
0.6
176
     1
 40
30.0
176
     1
 62
     7
420
 16777215
176
     1
 90
        2
176
     1
 90
        2
176
     1
 62
     7
176
     1
 62
     7
176
     1
 90
        1
176
     1
 90
        1
176
     1
 40
40.0
176
     1
 90
        8
176
     1
 62
     7
176
     1
 40
1.0
176
     1
 90
        1
176
     1
 90
        6
176
     1
 90
        2
176
     1
 62
     7
176
     1
 90
        3
176
     1
 90
        0
176
     1
 90
        0
176
     1
290
     0
176
     1
 90
        1
176
     1
 40
0.0
176
     1
 90
        0
176
     1
290
     0
176
     1
290
     1
176
     1
290
     1
176
     1
290
     0
176
     1
290
     0
176
     1
290
     0
176
     1
290
     0
176
     1
290
     0
176
     1
290
     0
176
     1
 90
       50
176
     1
 40
0.0
176
     1
 40
1.0
176
     1
 90
        0
176
     1
 62
    18
420
        0
176
     1
 90
       50
176
     1
 90
        3
176
     1
 62
     5
420
      255
176
     1
290
     0
176
     1
 90
       50
176
     1
 90
       50
176
     1
 90
       50
176
     1
290
     0
176
     1
 90
       50
176
     1
 62
   256
176
     0
 40
1.0
176
     0
 90
        2
176
     1
  1
strokes_ogs.tif
176
     1
290
     0
176
     1
 40
1.0
176
     1
 40
1.0
176
     1
  0
VISUALSTYLE
  5
AE
102
{ACAD_REACTORS
330
9C
102
}
330
9C
100
AcDbVisualStyle
  2
Sketchy
 70
    24
177
     3
291
     0
 70
    58
 90
        1
176
     1
 90
        2
176
     1
 90
        2
176
     1
 90
        0
176
     1
 40
0.6
176
     1
 40
30.0
176
     1
 62
     7
420
 16777215
176
     1
 90
        2
176
     1
 90
        2
176
     1
 62
     7
176
     1
 62
     7
176
     1
 90
        1
176
     1
 90
        1
176
     1
 40
40.0
176
     1
 90
       11
176
     1
 62
     7
176
     1
 40
1.0
176
     1
 90
        1
176
     1
 90
        6
176
     1
 90
        2
176
     1
 62
     7
176
     1
 90
        6
176
     1
 90
        0
176
     1
 90
        0
176
     1
290
     0
176
     1
 90
        1
176
     1
 40
0.0
176
     1
 90
        0
176
     1
290
     0
176
     1
290
     1
176
     1
290
     1
176
     1
290
     0
176
     1
290
     0
176
     1
290
     0
176
     1
290
     0
176
     1
290
     0
176
     1
290
     0
176
     1
 90
       50
176
     1
 40
0.0
176
     1
 40
1.0
176
     1
 90
        0
176
     1
 62
    18
420
        0
176
     1
 90
       50
176
     1
 90
        3
176
     1
 62
     5
420
      255
176
     1
290
     0
176
     1
 90
       50
176
     1
 90
       50
176
     1
 90
       50
176
     1
290
     0
176
     1
 90
       50
176
     1
 62
   256
176
     0
 40
1.0
176
     0
 90
        2
176
     1
  1
strokes_ogs.tif
176
     1
290
     0
176
     1
 40
1.0
176
     1
 40
1.0
176
     1
  0
VISUALSTYLE
  5
A9
102
{ACAD_REACTORS
330
9C
102
}
330
9C
100
AcDbVisualStyle
  2
Thicken
 70
    13
177
     3
291
     1
 70
    58
 90
        2
176
     1
 90
        2
176
     1
 90
        0
176
     1
 90
        0
176
     1
 40
0.6
176
     1
 40
30.0
176
     1
 62
     7
420
 16777215
176
     1
 90
        1
176
     1
 90
        4
176
     1
 62
     7
176
     1
 62
   257
176
     1
 90
        1
176
     1
 90
        1
176
     1
 40
1.0
176
     1
 90
       12
176
     1
 62
     7
176
     1
 40
1.0
176
     1
 90
        1
176
     1
 90
        6
176
     1
 90
        2
176
     1
 62
     7
176
     1
 90
        5
176
     1
 90
        0
176
     1
 90
        0
176
     1
290
     0
176
     1
 90
        1
176
     1
 40
0.0
176
     1
 90
        0
176
     1
290
     0
176
     1
290
     1
176
     1
290
     1
176
     1
290
     0
176
     1
290
     0
176
     1
290
     0
176
     1
290
     0
176
     1
290
     0
176
     1
290
     0
176
     1
 90
       50
176
     1
 40
0.0
176
     1
 40
1.0
176
     1
 90
        0
176
     1
 62
    18
420
        0
176
     1
 90
       50
176
     1
 90
        3
176
     1
 62
     5
420
      255
176
     1
290
     0
176
     1
 90
       50
176
     1
 90
       50
176
     1
 90
       50
176
     1
290
     0
176
     1
 90
       50
176
     1
 62
   256
176
     0
 40
1.0
176
     0
 90
        2
176
     1
  1
strokes_ogs.tif
176
     1
290
     0
176
     1
 40
1.0
176
     1
 40
1.0
176
     1
  0
VISUALSTYLE
  5
A3
102
{ACAD_REACTORS
330
9C
102
}
330
9C
100
AcDbVisualStyle
  2
Wireframe
 70
     5
177
     3
291
     0
 70
    58
 90
        0
176
     1
 90
        2
176
     1
 90
        0
176
     1
 90
        0
176
     1
 40
0.6
176
     1
 40
30.0
176
     1
 62
     7
420
 16777215
176
     1
 90
        1
176
     1
 90
        4
176
     1
 62
     7
176
     1
 62
   257
176
     1
 90
        1
176
     1
 90
        1
176
     1
 40
1.0
176
     1
 90
        0
176
     1
 62
   257
176
     1
 40
1.0
176
     1
 90
        1
176
     1
 90
        6
176
     1
 90
        2
176
     1
 62
     7
176
     1
 90
        3
176
     1
 90
        0
176
     1
 90
        0
176
     1
290
     0
176
     1
 90
        1
176
     1
 40
0.0
176
     1
 90
        0
176
     1
290
     0
176
     1
290
     1
176
     1
290
     1
176
     1
290
     0
176
     1
290
     0
176
     1
290
     0
176
     1
290
     0
176
     1
290
     0
176
     1
290
     0
176
     1
 90
       50
176
     1
 40
0.0
176
     1
 40
1.0
176
     1
 90
        0
176
     1
 62
    18
420
        0
176
     1
 90
       50
176
     1
 90
        3
176
     1
 62
     5
420
      255
176
     1
290
     0
176
     1
 90
       50
176
     1
 90
       50
176
     1
 90
       50
176
     1
290
     0
176
     1
 90
       50
176
     1
 62
   256
176
     0
 40
1.0
176
     0
 90
        2
176
     1
  1
strokes_ogs.tif
176
     1
290
     0
176
     1
 40
1.0
176
     1
 40
1.0
176
     1
  0
VISUALSTYLE
  5
AF
102
{ACAD_REACTORS
330
9C
102
}
330
9C
100
AcDbVisualStyle
  2
X-Ray
 70
    25
177
     3
291
     0
 70
    58
 90
        2
176
     1
 90
        2
176
     1
 90
        1
176
     1
 90
        1
176
     1
 40
0.5
176
     1
 40
30.0
176
     1
 62
     7
420
 16777215
176
     1
 90
        1
176
     1
 90
        0
176
     1
 62
     7
176
     1
 62
   257
176
     1
 90
        1
176
     1
 90
        1
176
     1
 40
1.0
176
     1
 90
        8
176
     1
 62
     7
176
     1
 40
1.0
176
     1
 90
        1
176
     1
 90
        6
176
     1
 90
        2
176
     1
 62
     7
176
     1
 90
        3
176
     1
 90
        0
176
     1
 90
        0
176
     1
290
     0
176
     1
 90
       13
176
     1
 40
0.0
176
     1
 90
        0
176
     1
290
     0
176
     1
290
     1
176
     1
290
     1
176
     1
290
     0
176
     1
290
     0
176
     1
290
     0
176
     1
290
     0
176
     1
290
     0
176
     1
290
     0
176
     1
 90
       50
176
     1
 40
0.0
176
     1
 40
1.0
176
     1
 90
        0
176
     1
 62
    18
420
        0
176
     1
 90
       50
176
     1
 90
        3
176
     1
 62
     5
420
      255
176
     1
290
     0
176
     1
 90
       50
176
     1
 90
       50
176
     1
 90
       50
176
     1
290
     0
176
     1
 90
       50
176
     1
 62
   256
176
     0
 40
1.0
176
     0
 90
        2
176
     1
  1
strokes_ogs.tif
176
     1
290
     0
176
     1
 40
1.0
176
     1
 40
1.0
176
     1
  0
DICTIONARYVAR
  5
1D4
102
{ACAD_REACTORS
330
1CE
102
}
330
1CE
100
DictionaryVariables
280
     0
  1
1:1
  0
DICTIONARYVAR
  5
1D0
102
{ACAD_REACTORS
330
1CE
102
}
330
1CE
100
DictionaryVariables
280
     0
  1
STANDARD
  0
DICTIONARYVAR
  5
1CF
102
{ACAD_REACTORS
330
1CE
102
}
330
1CE
100
DictionaryVariables
280
     0
  1
STANDARD
  0
DICTIONARYVAR
  5
1D1
102
{ACAD_REACTORS
330
1CE
102
}
330
1CE
100
DictionaryVariables
280
     0
  1
Imperial24
  0
DICTIONARYVAR
  5
1D2
102
{ACAD_REACTORS
330
1CE
102
}
330
1CE
100
DictionaryVariables
280
     0
  1
Imperial24
  0
DICTIONARYVAR
  5
1D6
102
{ACAD_REACTORS
330
1CE
102
}
330
1CE
100
DictionaryVariables
280
     0
  1
1
  0
DICTIONARYVAR
  5
1D7
102
{ACAD_REACTORS
330
1CE
102
}
330
1CE
100
DictionaryVariables
280
     0
  1
15
  0
DICTIONARYVAR
  5
1D5
102
{ACAD_REACTORS
330
1CE
102
}
330
1CE
100
DictionaryVariables
280
     0
  1
0
  0
DICTIONARYVAR
  5
1D3
102
{ACAD_REACTORS
330
1CE
102
}
330
1CE
100
DictionaryVariables
280
     0
  1
0
  0
DICTIONARY
  5
149
102
{ACAD_REACTORS
330
148
102
}
330
148
100
AcDbDictionary
281
     1
  3
*A1
350
14A
  0
DICTIONARY
  5
14F
102
{ACAD_REACTORS
330
14E
102
}
330
14E
100
AcDbDictionary
281
     1
  3
*A1
350
150
  0
DICTIONARY
  5
156
102
{ACAD_REACTORS
330
155
102
}
330
155
100
AcDbDictionary
281
     1
  3
*A1
350
157
  0
DICTIONARY
  5
15D
102
{ACAD_REACTORS
330
15C
102
}
330
15C
100
AcDbDictionary
281
     1
  3
*A1
350
15E
  0
DICTIONARY
  5
162
102
{ACAD_REACTORS
330
161
102
}
330
161
100
AcDbDictionary
281
     1
  3
*A1
350
163
  0
DICTIONARY
  5
167
102
{ACAD_REACTORS
330
166
102
}
330
166
100
AcDbDictionary
281
     1
  3
*A1
350
168
  0
DICTIONARY
  5
16C
102
{ACAD_REACTORS
330
16B
102
}
330
16B
100
AcDbDictionary
281
     1
  3
*A1
350
16D
  0
DICTIONARY
  5
172
102
{ACAD_REACTORS
330
171
102
}
330
171
100
AcDbDictionary
281
     1
  3
*A1
350
173
  0
DICTIONARY
  5
177
102
{ACAD_REACTORS
330
176
102
}
330
176
100
AcDbDictionary
281
     1
  3
*A1
350
178
  0
DICTIONARY
  5
17C
102
{ACAD_REACTORS
330
17B
102
}
330
17B
100
AcDbDictionary
281
     1
  3
*A1
350
17D
  0
DICTIONARY
  5
181
102
{ACAD_REACTORS
330
180
102
}
330
180
100
AcDbDictionary
281
     1
  3
*A1
350
182
  0
DICTIONARY
  5
186
102
{ACAD_REACTORS
330
185
102
}
330
185
100
AcDbDictionary
281
     1
  3
*A1
350
187
  0
DICTIONARY
  5
18E
102
{ACAD_REACTORS
330
18D
102
}
330
18D
100
AcDbDictionary
281
     1
  3
*A1
350
18F
  0
DICTIONARY
  5
193
102
{ACAD_REACTORS
330
192
102
}
330
192
100
AcDbDictionary
281
     1
  3
*A1
350
194
  0
DICTIONARY
  5
19B
102
{ACAD_REACTORS
330
19A
102
}
330
19A
100
AcDbDictionary
281
     1
  3
*A1
350
19C
  0
DICTIONARY
  5
1A0
102
{ACAD_REACTORS
330
19F
102
}
330
19F
100
AcDbDictionary
281
     1
  3
*A1
350
1A1
  0
DICTIONARY
  5
8D
330
8C
100
AcDbDictionary
280
     1
281
     1
  3
BUMPTILE
360
8F
  3
DIFFUSETILE
360
8E
  3
OPACITYTILE
360
92
  3
REFLECTIONTILE
360
91
  3
REFRACTIONTILE
360
93
  3
SPECULARTILE
360
90
  0
DICTIONARY
  5
85
330
84
100
AcDbDictionary
280
     1
281
     1
  3
BUMPTILE
360
87
  3
DIFFUSETILE
360
86
  3
OPACITYTILE
360
8A
  3
REFLECTIONTILE
360
89
  3
REFRACTIONTILE
360
8B
  3
SPECULARTILE
360
88
  0
DICTIONARY
  5
95
330
94
100
AcDbDictionary
280
     1
281
     1
  3
BUMPTILE
360
97
  3
DIFFUSETILE
360
96
  3
OPACITYTILE
360
9A
  3
REFLECTIONTILE
360
99
  3
REFRACTIONTILE
360
9B
  3
SPECULARTILE
360
98
  0
DICTIONARY
  5
1E6
330
B7
100
AcDbDictionary
280
     1
281
     1
  3
ACAD_ROUNDTRIP_2008_TABLESTYLE_CELLSTYLEMAP
360
1E7
  0
ACDB_TEXTOBJECTCONTEXTDATA_CLASS
  5
14A
102
{ACAD_REACTORS
330
149
102
}
330
149
100
AcDbObjectContextData
 70
     4
290
     1
100
AcDbAnnotScaleObjectContextData
340
B9
 70
     4
 50
0.0
 10
705.9662971279029
 20
35.18630690052118
 11
732.1685481510952
 21
37.68630690052118
  0
ACDB_TEXTOBJECTCONTEXTDATA_CLASS
  5
150
102
{ACAD_REACTORS
330
14F
102
}
330
14F
100
AcDbObjectContextData
 70
     4
290
     1
100
AcDbAnnotScaleObjectContextData
340
B9
 70
     4
 50
0.0
 10
708.6721530648972
 20
-34.87544412545119
 11
736.0391380580758
 21
-32.37373880485092
  0
ACDB_TEXTOBJECTCONTEXTDATA_CLASS
  5
157
102
{ACAD_REACTORS
330
156
102
}
330
156
100
AcDbObjectContextData
 70
     4
290
     1
100
AcDbAnnotScaleObjectContextData
340
B9
 70
     4
 50
0.0
 10
706.6925748990407
 20
-14.79146154655981
 11
790.5193143260531
 21
-12.28975622595953
  0
ACDB_TEXTOBJECTCONTEXTDATA_CLASS
  5
15E
102
{ACAD_REACTORS
330
15D
102
}
330
15D
100
AcDbObjectContextData
 70
     4
290
     1
100
AcDbAnnotScaleObjectContextData
340
B9
 70
     4
 50
0.0
 10
708.2134885302133
 20
-24.84051896048887
 11
799.6152620636376
 21
-22.3388136398886
  0
ACDB_TEXTOBJECTCONTEXTDATA_CLASS
  5
163
102
{ACAD_REACTORS
330
162
102
}
330
162
100
AcDbObjectContextData
 70
     4
290
     1
100
AcDbAnnotScaleObjectContextData
340
B9
 70
     4
 50
0.0
 10
706.8358402616102
 20
-4.890313836890037
 11
789.697368228868
 21
-2.388608516289764
  0
ACDB_TEXTOBJECTCONTEXTDATA_CLASS
  5
168
102
{ACAD_REACTORS
330
167
102
}
330
167
100
AcDbObjectContextData
 70
     4
290
     1
100
AcDbAnnotScaleObjectContextData
340
B9
 70
     4
 50
0.0
 10
707.92975902744
 20
5.214398488900577
 11
795.061409777781
 21
7.71610380950085
  0
ACDB_TEXTOBJECTCONTEXTDATA_CLASS
  5
16D
102
{ACAD_REACTORS
330
16C
102
}
330
16C
100
AcDbObjectContextData
 70
     4
290
     1
100
AcDbAnnotScaleObjectContextData
340
B9
 70
     4
 50
0.0
 10
863.3172849895681
 20
-101.2824921324971
 11
869.1443654807002
 21
-98.73985911749031
  0
ACDB_TEXTOBJECTCONTEXTDATA_CLASS
  5
173
102
{ACAD_REACTORS
330
172
102
}
330
172
100
AcDbObjectContextData
 70
     4
290
     1
100
AcDbAnnotScaleObjectContextData
340
B9
 70
     4
 50
0.0
 10
794.989591756558
 20
-80.12050962365668
 11
806.433998304989
 21
-77.62050962365669
  0
ACDB_TEXTOBJECTCONTEXTDATA_CLASS
  5
178
102
{ACAD_REACTORS
330
177
102
}
330
177
100
AcDbObjectContextData
 70
     4
290
     1
100
AcDbAnnotScaleObjectContextData
340
B9
 70
     4
 50
0.0
 10
798.4707638435925
 20
-101.2807868118968
 11
809.1443654807003
 21
-98.73985911749031
  0
ACDB_TEXTOBJECTCONTEXTDATA_CLASS
  5
17D
102
{ACAD_REACTORS
330
17C
102
}
330
17C
100
AcDbObjectContextData
 70
     4
290
     1
100
AcDbAnnotScaleObjectContextData
340
B9
 70
     4
 50
0.0
 10
781.9848168588772
 20
-69.22459155663799
 11
806.433998304989
 21
-66.72288623603771
  0
ACDB_TEXTOBJECTCONTEXTDATA_CLASS
  5
182
102
{ACAD_REACTORS
330
181
102
}
330
181
100
AcDbObjectContextData
 70
     4
290
     1
100
AcDbAnnotScaleObjectContextData
340
B9
 70
     4
 50
0.0
 10
734.1280216965255
 20
-69.22288623603771
 11
750.4274759939335
 21
-66.72288623603771
  0
ACDB_TEXTOBJECTCONTEXTDATA_CLASS
  5
187
102
{ACAD_REACTORS
330
186
102
}
330
186
100
AcDbObjectContextData
 70
     4
290
     1
100
AcDbAnnotScaleObjectContextData
340
B9
 70
     4
 50
0.0
 10
735.3619643892951
 20
-101.0897909046663
 11
749.1443654807003
 21
-98.73985911749031
  0
ACDB_TEXTOBJECTCONTEXTDATA_CLASS
  5
18F
102
{ACAD_REACTORS
330
18E
102
}
330
18E
100
AcDbObjectContextData
 70
     4
290
     1
100
AcDbAnnotScaleObjectContextData
340
B9
 70
     4
 50
0.0
 10
850.1283354670578
 20
-79.82782269151687
 11
869.1443654807002
 21
-78.01847753462737
  0
ACDB_TEXTOBJECTCONTEXTDATA_CLASS
  5
194
102
{ACAD_REACTORS
330
193
102
}
330
193
100
AcDbObjectContextData
 70
     4
290
     1
100
AcDbAnnotScaleObjectContextData
340
B9
 70
     4
 50
0.0
 10
840.8070530659664
 20
-69.21805573890612
 11
869.1443654807002
 21
-66.71805573890612
  0
ACDB_TEXTOBJECTCONTEXTDATA_CLASS
  5
19C
102
{ACAD_REACTORS
330
19B
102
}
330
19B
100
AcDbObjectContextData
 70
     4
290
     1
100
AcDbAnnotScaleObjectContextData
340
B9
 70
     4
 50
0.0
 10
573.3843211078583
 20
35.1846015799209
 11
624.0306376153617
 21
37.68630690052118
  0
ACDB_TEXTOBJECTCONTEXTDATA_CLASS
  5
1A1
102
{ACAD_REACTORS
330
1A0
102
}
330
1A0
100
AcDbObjectContextData
 70
     4
290
     1
100
AcDbAnnotScaleObjectContextData
340
B9
 70
     4
 50
0.0
 10
573.1188431849047
 20
5.250147115424773
 11
630.3647504154642
 21
7.751852436025046
  0
XRECORD
  5
8F
102
{ACAD_REACTORS
330
8D
102
}
330
8D
100
AcDbXrecord
280
     1
270
     1
271
     1
  0
XRECORD
  5
8E
102
{ACAD_REACTORS
330
8D
102
}
330
8D
100
AcDbXrecord
280
     1
270
     1
271
     1
  0
XRECORD
  5
92
102
{ACAD_REACTORS
330
8D
102
}
330
8D
100
AcDbXrecord
280
     1
270
     1
271
     1
  0
XRECORD
  5
91
102
{ACAD_REACTORS
330
8D
102
}
330
8D
100
AcDbXrecord
280
     1
270
     1
271
     1
  0
XRECORD
  5
93
102
{ACAD_REACTORS
330
8D
102
}
330
8D
100
AcDbXrecord
280
     1
270
     1
271
     1
  0
XRECORD
  5
90
102
{ACAD_REACTORS
330
8D
102
}
330
8D
100
AcDbXrecord
280
     1
270
     1
271
     1
  0
XRECORD
  5
87
102
{ACAD_REACTORS
330
85
102
}
330
85
100
AcDbXrecord
280
     1
270
     1
271
     1
  0
XRECORD
  5
86
102
{ACAD_REACTORS
330
85
102
}
330
85
100
AcDbXrecord
280
     1
270
     1
271
     1
  0
XRECORD
  5
8A
102
{ACAD_REACTORS
330
85
102
}
330
85
100
AcDbXrecord
280
     1
270
     1
271
     1
  0
XRECORD
  5
89
102
{ACAD_REACTORS
330
85
102
}
330
85
100
AcDbXrecord
280
     1
270
     1
271
     1
  0
XRECORD
  5
8B
102
{ACAD_REACTORS
330
85
102
}
330
85
100
AcDbXrecord
280
     1
270
     1
271
     1
  0
XRECORD
  5
88
102
{ACAD_REACTORS
330
85
102
}
330
85
100
AcDbXrecord
280
     1
270
     1
271
     1
  0
XRECORD
  5
97
102
{ACAD_REACTORS
330
95
102
}
330
95
100
AcDbXrecord
280
     1
270
     1
271
     1
  0
XRECORD
  5
96
102
{ACAD_REACTORS
330
95
102
}
330
95
100
AcDbXrecord
280
     1
270
     1
271
     1
  0
XRECORD
  5
9A
102
{ACAD_REACTORS
330
95
102
}
330
95
100
AcDbXrecord
280
     1
270
     1
271
     1
  0
XRECORD
  5
99
102
{ACAD_REACTORS
330
95
102
}
330
95
100
AcDbXrecord
280
     1
270
     1
271
     1
  0
XRECORD
  5
9B
102
{ACAD_REACTORS
330
95
102
}
330
95
100
AcDbXrecord
280
     1
270
     1
271
     1
  0
XRECORD
  5
98
102
{ACAD_REACTORS
330
95
102
}
330
95
100
AcDbXrecord
280
     1
270
     1
271
     1
  0
CELLSTYLEMAP
  5
1E7
102
{ACAD_REACTORS
330
1E6
102
}
330
1E6
100
AcDbCellStyleMap
 90
        3
300
CELLSTYLE
  1
TABLEFORMAT_BEGIN
 90
        5
170
     1
 91
        0
 92
    32768
 62
   257
 93
        1
300
CONTENTFORMAT
  1
CONTENTFORMAT_BEGIN
 90
        0
 91
        0
 92
      512
 93
        0
300

 40
0.0
140
1.0
 94
        5
 62
     0
340
12
144
0.25
309
CONTENTFORMAT_END
171
     0
 94
        0
309
TABLEFORMAT_END
  1
CELLSTYLE_BEGIN
 90
        1
 91
        1
300
_TITLE
309
CELLSTYLE_END
300
CELLSTYLE
  1
TABLEFORMAT_BEGIN
 90
        5
170
     1
 91
        0
 92
        0
 62
   257
 93
        1
300
CONTENTFORMAT
  1
CONTENTFORMAT_BEGIN
 90
        0
 91
        0
 92
      512
 93
        0
300

 40
0.0
140
1.0
 94
        5
 62
     0
340
12
144
0.18
309
CONTENTFORMAT_END
171
     0
 94
        0
309
TABLEFORMAT_END
  1
CELLSTYLE_BEGIN
 90
        2
 91
        1
300
_HEADER
309
CELLSTYLE_END
300
CELLSTYLE
  1
TABLEFORMAT_BEGIN
 90
        5
170
     1
 91
        0
 92
        0
 62
   257
 93
        1
300
CONTENTFORMAT
  1
CONTENTFORMAT_BEGIN
 90
        0
 91
        0
 92
      512
 93
        0
300

 40
0.0
140
1.0
 94
        2
 62
     0
340
12
144
0.18
309
CONTENTFORMAT_END
171
     0
 94
        0
309
TABLEFORMAT_END
  1
CELLSTYLE_BEGIN
 90
        3
 91
        2
300
_DATA
309
CELLSTYLE_END
  0
ENDSEC
  0
EOF
